osu file format v14

[General]
AudioFilename: audio.mp3
AudioLeadIn: 0
PreviewTime: 84437
Countdown: 0
SampleSet: Soft
StackLeniency: 0.7
Mode: 2
LetterboxInBreaks: 0
WidescreenStoryboard: 1

[Editor]
DistanceSpacing: 2.1
BeatDivisor: 8
GridSize: 8
TimelineZoom: 1.6

[Metadata]
Title:Re:Call
TitleUnicode:Re:Call
Artist:Shimotsuki Haruka
ArtistUnicode:霜月はるか
Creator:-Luminate
Version:Platter
Source:できない私が、くり返す。
Tags:recall Dekinai Watashi ga, Kurikaesu. opening short ver visual novel eroge vn japanese video game Akabei Soft3 I will start over again and again for you
BeatmapID:2600528
BeatmapSetID:1162820

[Difficulty]
HPDrainRate:4
CircleSize:3.5
OverallDifficulty:8
ApproachRate:8
SliderMultiplier:1.7
SliderTickRate:2

[Events]
//Background and Video events
0,0,"abg.jpg",0,0
//Break Periods
2,81472,83748
//Storyboard Layer 0 (Background)
//Storyboard Layer 1 (Fail)
//Storyboard Layer 2 (Pass)
//Storyboard Layer 3 (Foreground)
//Storyboard Layer 4 (Overlay)
//Storyboard Sound Samples

[TimingPoints]
2563,645.161290322581,4,2,0,10,1,0
2563,-50,4,2,2,30,0,0
30950,-50,4,2,2,50,0,0
31111,-50,4,2,2,20,0,0
41272,-50,4,2,2,45,0,0
41433,-50,4,2,4,40,0,0
61917,-50,4,2,5,50,0,0
80143,-50,4,2,50,60,0,0
80304,-50,4,2,51,45,0,0
80466,-50,4,2,52,80,0,0
80627,-50,4,2,56,60,0,0
80788,-50,4,2,53,60,0,0
80950,-50,4,2,54,60,0,0
81111,-50,4,2,55,60,0,0
81272,-50,4,2,2,30,0,0
84498,-50,4,2,2,40,0,0
84982,-50,4,2,4,40,0,0
85121,645.161290322581,4,2,1,65,1,1
85121,-50,4,2,1,65,0,1
89637,-50,4,2,1,75,0,1
90282,-50,4,2,1,65,0,1
94799,-50,4,2,1,75,0,1
95444,-50,4,2,1,65,0,1
105282,-50,4,2,1,75,0,1
105927,-50,4,2,1,65,0,1
118024,-50,4,2,1,65,0,1
118346,-50,4,2,1,65,0,1
120605,-50,4,2,0,60,0,1
121250,-50,4,2,1,75,0,1
123508,-50,4,2,1,75,0,1
123831,-50,4,2,1,75,0,1
124959,-50,4,2,1,40,0,0
126432,645.161290322581,4,2,2,40,1,0
126593,-50,4,2,2,25,0,0
147076,-100,4,2,2,10,0,0

[Colours]
Combo1 : 251,239,17
Combo2 : 222,29,106
Combo3 : 235,118,48
Combo4 : 239,241,141

[HitObjects]
256,192,8853,12,0,9982,0:0:0:0:
400,296,10304,6,0,P|448:216|384:168,1,170,2|0,0:0|0:0,0:0:0:0:
320,160,10788,1,0,0:0:0:0:
440,112,11111,1,0,0:0:0:0:
440,112,11272,1,0,0:0:0:0:
280,200,12240,5,0,0:0:0:0:
384,224,12562,1,0,0:0:0:0:
96,328,12885,6,0,P|48:248|120:200,1,170,2|0,0:0|0:0,0:0:0:0:
176,200,13369,1,0,0:0:0:0:
64,88,13692,1,0,0:0:0:0:
64,88,13853,1,0,0:0:0:0:
224,208,14821,1,0,0:0:0:0:
104,200,15143,2,0,L|96:96,1,85,0|0,0:0|0:0,0:0:0:0:
216,104,15627,5,0,0:0:0:0:
216,104,15788,1,0,0:0:0:0:
96,312,16434,1,0,0:0:0:0:
168,312,16595,1,2,0:0:0:0:
232,272,16756,2,0,P|272:176|96:48,1,340,0|0,0:0|0:0,0:0:0:0:
280,328,17724,1,0,0:0:0:0:
208,328,17885,5,2,0:0:0:0:
128,328,18046,2,0,P|32:256|152:112,1,340,0|0,0:0|0:0,0:0:0:0:
272,248,19014,1,0,0:0:0:0:
192,248,19175,1,0,0:0:0:0:
192,248,19337,2,0,B|184:64|378:59|378:59|432:176|360:288,1,510,2|0,0:0|0:0,0:0:0:0:
48,336,20627,6,0,L|208:240,1,170,10|0,0:0|0:0,0:0:0:0:
192,176,21111,1,0,0:0:0:0:
56,72,21433,1,0,0:0:0:0:
56,72,21594,1,0,0:0:0:0:
296,64,21917,5,8,0:0:0:0:
64,232,22563,1,2,0:0:0:0:
64,232,22885,1,0,0:0:0:0:
296,336,23207,2,0,L|432:224,1,170,10|0,0:0|0:0,0:0:0:0:
432,176,23692,1,0,0:0:0:0:
304,112,24014,1,0,0:0:0:0:
368,72,24175,1,0,0:0:0:0:
64,64,24498,5,8,0:0:0:0:
296,136,25143,1,2,0:0:0:0:
176,288,25466,1,0,0:0:0:0:
176,288,25627,1,0,0:0:0:0:
312,288,25950,1,0,0:0:0:0:
384,288,26111,1,2,0:0:0:0:
208,328,26756,1,0,0:0:0:0:
272,328,26917,1,2,0:0:0:0:
440,312,27079,6,0,P|496:208|320:80,1,340,8|0,0:0|0:0,0:0:0:0:
357,72,28046,2,0,L|461:72,1,85,0|2,0:0|0:0,0:0:0:0:
264,304,28369,2,0,P|192:120|280:96,1,340,8|0,0:0|0:0,0:0:0:0:
268,94,29336,2,0,L|152:96,1,85,0|2,0:0|0:0,0:0:0:0:
360,344,29659,2,0,P|464:224|312:120,1,340,8|0,0:0|0:0,0:0:0:0:
96,112,30949,5,4,0:0:0:0:
256,192,31111,12,0,40950,0:0:0:0:
208,328,41272,6,0,P|168:248|224:200,1,170,4|0,0:0|0:0,0:0:0:0:
288,200,41756,1,10,0:1:0:0:
424,192,42079,2,0,L|424:104,1,85,0|2,0:0|0:0,0:0:0:0:
288,88,42563,1,8,0:0:0:0:
344,72,42724,1,8,0:1:0:0:
208,200,43046,1,0,0:0:0:0:
208,200,43208,1,10,0:1:0:0:
344,224,43530,1,0,0:0:0:0:
64,336,43853,6,0,P|24:264|80:208,1,170,2|0,0:0|0:0,0:0:0:0:
144,208,44337,1,10,0:1:0:0:
272,152,44659,1,0,0:0:0:0:
208,152,44820,1,2,0:0:0:0:
56,136,45143,2,0,L|48:24,1,85,8|8,0:0|0:1,0:0:0:0:
208,224,45627,1,8,0:0:0:0:
208,224,45788,1,8,0:1:0:0:
104,272,46111,1,0,0:0:0:0:
264,272,46272,6,0,P|336:232|344:136,1,170,10|0,0:1|0:0,0:0:0:0:
272,144,46756,2,0,P|224:72|288:32,1,170,8|8,0:0|0:1,0:0:0:0:
432,104,47401,1,8,0:0:0:0:
352,104,47563,2,0,L|152:104,1,170,10|8,0:1|0:1,0:0:0:0:
288,200,48208,1,8,0:0:0:0:
288,200,48369,1,10,0:1:0:0:
424,280,48692,1,0,0:0:0:0:
256,144,48853,6,0,P|208:216|264:280,1,170,10|8,0:1|0:1,0:0:0:0:
376,328,49498,1,8,0:0:0:0:
312,328,49659,1,10,0:1:0:0:
416,216,49982,1,0,0:0:0:0:
416,216,50143,1,8,0:1:0:0:
272,224,50466,1,8,0:1:0:0:
416,296,50789,1,8,0:0:0:0:
480,256,50950,2,0,P|456:144|384:104,1,170,10|0,0:1|0:0,0:0:0:0:
144,304,51595,6,0,P|144:200|216:160,1,170,6|0,0:0|0:0,0:0:0:0:
264,160,52079,1,10,0:1:0:0:
144,56,52401,1,0,0:0:0:0:
144,56,52563,1,2,0:0:0:0:
288,56,52885,1,8,0:0:0:0:
352,56,53046,1,10,0:1:0:0:
224,144,53369,1,0,0:0:0:0:
224,144,53530,1,10,0:1:0:0:
352,192,53853,1,0,0:0:0:0:
96,344,54175,6,0,P|48:296|112:216,1,170,2|0,0:0|0:0,0:0:0:0:
160,216,54659,1,10,0:1:0:0:
296,216,54982,1,0,0:0:0:0:
296,216,55143,1,2,0:0:0:0:
144,136,55466,1,8,0:0:0:0:
208,136,55627,1,8,0:1:0:0:
344,136,55950,1,8,0:0:0:0:
416,128,56111,2,0,L|264:32,1,170,10|0,0:1|0:0,0:0:0:0:
448,304,56595,6,0,P|496:240|432:176,1,170,10|0,0:1|0:0,0:0:0:0:
368,176,57079,2,0,P|272:80|280:32,1,170,10|8,0:0|0:1,0:0:0:0:
432,32,57724,1,10,0:0:0:0:
296,224,57885,6,0,L|104:224,1,170,8|8,0:1|0:1,0:0:0:0:
224,216,58530,2,0,L|224:120,1,85,10|8,0:0|0:1,0:0:0:0:
64,136,59014,1,10,0:0:0:0:
216,320,59176,2,0,L|400:320,1,170,8|8,0:1|0:1,0:0:0:0:
272,232,59821,1,10,0:0:0:0:
272,232,59982,1,8,0:1:0:0:
130,234,60304,1,2,0:0:0:0:
288,320,60466,6,0,P|334:239|272:200,1,170,8|8,0:1|0:1,0:0:0:0:
168,192,61111,2,0,L|176:120,1,42.5,2|2,0:3|0:3,0:0:0:0:
208,128,61272,1,2,0:0:0:0:
328,128,61595,1,8,1:1:0:0:
328,128,61756,1,8,1:1:0:0:
89,330,61918,6,0,P|40:288|121:210,1,170,6|0,0:0|0:0,0:0:0:0:
160,208,62401,1,8,0:0:0:0:
240,200,62563,2,0,L|56:160,1,170,2|0,0:0|0:0,0:0:0:0:
384,296,63208,5,10,0:0:0:0:
384,296,63369,1,0,0:0:0:0:
280,248,63692,1,0,0:0:0:0:
360,232,63853,1,10,0:1:0:0:
440,216,64014,2,0,P|480:160|424:88,1,170,0|0,0:0|0:0,0:0:0:0:
240,72,64498,6,0,P|160:104|144:200,1,170,8|0,0:0|0:0,0:0:0:0:
232,312,64982,2,0,P|280:240|208:184,1,170,2|0,0:0|0:0,0:0:0:0:
138,178,65466,1,8,0:0:0:0:
138,178,65627,1,8,0:0:0:0:
280,328,65950,5,8,0:0:0:0:
192,328,66111,2,0,P|144:248|216:208,1,170,8|8,0:0|0:1,0:0:0:0:
328,208,66756,2,0,L|440:208,1,85,8|8,0:0|0:0,0:0:0:0:
216,256,67079,6,0,P|128:88|248:40,1,340,10|0,0:0|0:0,0:0:0:0:
376,312,68047,2,0,L|400:208,2,85,8|8|10,0:0|0:0|0:0,0:0:0:0:
192,320,68853,1,0,0:0:0:0:
272,320,69014,2,0,L|448:320,1,170,8|2,0:1|0:0,0:0:0:0:
112,256,69659,6,0,P|96:152|272:16,1,340,8|0,0:0|0:0,0:0:0:0:
344,48,70466,1,2,0:0:0:0:
344,48,70627,1,8,0:0:0:0:
176,304,70788,2,0,P|48:240|32:120,1,255,10|0,0:0|0:0,0:0:0:0:
152,112,71595,1,8,0:1:0:0:
24,80,71917,1,2,0:0:0:0:
488,192,72240,6,0,P|472:96|320:40,1,255,14|2,0:0|0:0,0:0:0:0:
200,288,73047,1,2,0:0:0:0:
288,272,73208,2,0,P|336:208|272:144,1,170,8|0,0:0|0:0,0:0:0:0:
112,160,73853,2,0,P|64:88|144:40,1,170,2|8,0:0|0:1,0:0:0:0:
192,200,74337,2,0,L|40:320,1,170,10|0,0:0|0:0,0:0:0:0:
224,352,74821,6,0,P|288:264|120:160,1,340,10|0,0:0|0:0,0:0:0:0:
272,144,75788,1,8,0:0:0:0:
344,144,75950,2,0,P|384:48|320:16,1,170,8|0,0:0|0:0,0:0:0:0:
96,24,76595,1,8,0:0:0:0:
24,24,76756,2,0,P|24:96|128:128,1,170,10|0,0:1|0:0,0:0:0:0:
392,232,77401,5,8,0:0:0:0:
464,232,77563,1,8,0:0:0:0:
320,200,78046,1,10,0:0:0:0:
480,192,78369,1,8,0:0:0:0:
408,176,78530,1,8,0:0:0:0:
336,160,78692,5,2,0:0:0:0:
480,88,79014,1,8,0:0:0:0:
248,224,79337,1,8,0:1:0:0:
176,192,79498,1,8,0:1:0:0:
176,104,79660,1,8,0:3:0:0:
248,80,79821,1,8,0:0:0:0:
432,112,79982,5,4,0:3:0:0:
472,192,80143,1,2,0:0:0:0:
432,272,80304,1,2,0:0:0:0:
384,192,80465,1,2,0:0:0:0:
432,112,80627,1,2,0:0:0:0:
472,192,80789,1,2,0:0:0:0:
432,272,80950,1,2,0:0:0:0:
352,304,81111,1,2,0:0:0:0:
168,304,81272,5,8,0:0:0:0:
64,312,84498,6,0,P|32:208|88:160,1,170,2|8,0:0|0:3,0:0:0:0:
480,272,85121,6,0,P|504:160|368:80,1,255,12|8,0:1|0:0,0:0:0:0:
336,224,85767,2,0,L|336:136,1,85,0|0,1:2|0:0,0:0:0:0:
408,136,86089,1,8,0:0:0:0:
256,128,86250,2,0,P|216:40|288:8,1,170,10|0,0:0|1:0,0:0:0:0:
352,224,86734,2,0,L|360:120,1,85,8|8,0:0|0:0,0:0:0:0:
280,112,87057,2,0,L|480:112,1,170,0|2,1:0|0:0,0:0:0:0:
64,320,87702,6,0,P|16:248|88:200,1,170,12|0,0:1|0:0,0:0:0:0:
144,176,88186,1,8,0:0:0:0:
64,160,88347,1,2,1:2:0:0:
216,248,88670,1,2,0:0:0:0:
440,248,88831,2,0,P|488:192|408:128,1,170,2|0,1:2|1:0,0:0:0:0:
352,128,89315,1,8,0:0:0:0:
120,128,89638,2,0,L|112:16,1,85,10|0,1:1|0:0,0:0:0:0:
272,40,89960,2,0,L|376:40,1,85,10|8,0:0|0:0,0:0:0:0:
120,272,90282,5,12,0:1:0:0:
256,216,90605,1,2,0:0:0:0:
184,200,90767,2,0,L|176:104,1,85,8|2,0:0|1:0,0:0:0:0:
320,112,91089,1,8,0:0:0:0:
392,64,91250,1,2,0:0:0:0:
320,32,91412,1,0,1:0:0:0:
80,208,91573,5,10,0:1:0:0:
208,208,91896,1,8,0:0:0:0:
272,192,92057,2,0,L|272:96,1,85,10|0,0:0|1:0,0:0:0:0:
96,120,92380,1,8,0:0:0:0:
96,56,92541,1,2,0:0:0:0:
168,24,92702,1,10,0:0:0:0:
416,24,92863,5,10,0:1:0:0:
304,120,93186,1,8,0:0:0:0:
368,224,93347,2,0,L|376:120,1,85,10|0,0:0|1:0,0:0:0:0:
296,144,93670,2,0,L|454:66,1,170,2|0,0:0|1:0,0:0:0:0:
216,72,94154,6,0,L|128:0,2,85,10|0|8,0:1|1:0|0:0,0:0:0:0:
448,232,94799,1,0,1:0:0:0:
488,160,94960,1,0,1:0:0:0:
480,80,95121,1,8,0:3:0:0:
408,48,95283,1,4,0:3:0:0:
176,288,95444,6,0,P|96:208|208:128,1,255,12|8,0:1|0:0,0:0:0:0:
248,120,96089,1,0,1:0:0:0:
88,56,96412,1,8,0:0:0:0:
230,242,96573,2,0,P|276:175|220:119,1,170,2|0,1:0|1:0,0:0:0:0:
144,264,97057,2,0,L|136:136,1,85,8|8,0:0|0:0,0:0:0:0:
223,119,97379,2,0,L|47:39,1,170,0|10,1:0|0:0,0:0:0:0:
456,344,98024,6,0,P|488:256|368:168,1,255,10|10,0:1|0:0,0:0:0:0:
456,160,98670,2,0,L|464:40,1,85,0|10,1:2|0:0,0:0:0:0:
376,72,98992,1,2,0:2:0:0:
144,224,99153,2,0,P|96:144|160:104,1,170,10|0,0:0|1:0,0:0:0:0:
216,96,99637,1,8,0:0:0:0:
56,32,99960,1,0,1:0:0:0:
56,112,100121,1,2,0:0:0:0:
128,152,100282,1,8,0:0:0:0:
360,144,100444,6,0,L|440:88,2,85,8|12|0,0:0|0:1|0:0,0:0:0:0:
272,144,100928,1,0,0:0:0:0:
365,256,101089,2,0,P|413:184|349:144,1,170,10|2,0:0|0:0,0:0:0:0:
272,144,101573,1,10,0:0:0:0:
448,336,101734,6,0,L|456:216,1,85,2|8,0:0|0:1,0:0:0:0:
376,216,102057,1,0,1:0:0:0:
456,184,102218,1,8,0:0:0:0:
296,128,102379,2,0,L|208:128,1,85,2|0,0:0|1:0,0:0:0:0:
136,168,102702,1,2,0:0:0:0:
208,224,102863,1,2,0:0:0:0:
136,264,103024,1,10,0:0:0:0:
360,288,103186,5,10,0:1:0:0:
240,288,103508,1,2,0:0:0:0:
320,248,103670,2,0,L|320:152,1,85,2|0,0:0|1:0,0:0:0:0:
160,96,103992,2,0,L|272:96,1,85,2|8,0:0|0:0,0:0:0:0:
424,96,104315,1,2,1:0:0:0:
496,176,104476,2,0,P|456:264|336:272,1,170,8|8,0:1|0:0,0:0:0:0:
88,184,105121,1,0,1:0:0:0:
8,176,105282,2,0,P|32:96|144:64,1,170,10|0,0:3|0:0,0:0:0:0:
408,256,105766,6,0,P|480:192|368:88,1,255,14|8,0:1|0:0,0:0:0:0:
320,80,106411,1,0,1:0:0:0:
248,136,106573,1,2,0:0:0:0:
320,192,106734,1,8,0:0:0:0:
152,344,106895,6,0,P|104:296|176:216,1,170,2|0,1:0|1:0,0:0:0:0:
224,216,107379,1,8,0:0:0:0:
96,176,107702,2,0,L|88:72,1,85,2|0,1:0|0:0,0:0:0:0:
176,64,108024,2,0,L|64:64,1,85,10|8,0:0|0:0,0:0:0:0:
328,320,108347,6,0,P|376:272|304:192,1,170,14|0,0:1|0:0,0:0:0:0:
240,192,108831,1,8,0:0:0:0:
160,144,108992,2,0,L|330:144,1,170,0|10,1:0|0:0,0:0:0:0:
160,336,109476,2,0,L|152:232,1,85,2|8,1:0|0:1,0:0:0:0:
248,256,109799,2,0,L|256:152,1,85,2|8,1:0|0:0,0:0:0:0:
120,128,110282,2,0,L|216:96,1,85,2|0,1:2|0:0,0:0:0:0:
360,200,110605,2,0,L|368:88,1,85,10|8,0:0|0:0,0:0:0:0:
136,240,110928,5,12,0:1:0:0:
280,232,111250,1,8,0:0:0:0:
208,216,111411,2,0,L|200:72,1,85,2|0,0:0|1:0,0:0:0:0:
368,104,111734,1,0,0:0:0:0:
296,88,111895,1,2,0:0:0:0:
224,72,112057,1,2,0:0:0:0:
456,320,112218,5,10,0:1:0:0:
344,280,112541,1,0,0:0:0:0:
424,248,112702,2,0,L|432:136,1,85,10|0,0:0|1:0,0:0:0:0:
264,168,113024,1,0,0:0:0:0:
256,96,113186,1,2,0:0:0:0:
328,56,113347,1,8,0:0:0:0:
104,264,113508,6,0,L|16:264,1,85,10|0,0:1|0:0,0:0:0:0:
176,160,113831,2,0,L|184:64,1,85,10|0,0:0|0:0,0:0:0:0:
104,16,114153,2,0,L|96:104,1,85,2|0,1:0|0:0,0:0:0:0:
256,224,114476,1,8,0:0:0:0:
336,176,114637,6,0,L|128:176,1,170,2|2,1:0|1:0,0:0:0:0:
248,224,115121,1,10,0:0:0:0:
488,320,115444,1,0,1:0:0:0:
488,232,115605,1,0,1:0:0:0:
400,192,115766,1,8,0:3:0:0:
488,144,115928,1,4,0:3:0:0:
240,312,116089,6,0,P|192:240|272:184,1,170,14|0,0:0|0:0,0:0:0:0:
312,128,116573,2,0,L|136:216,1,170,10|0,0:0|0:0,0:0:0:0:
392,192,117057,2,0,P|440:272|376:328,1,170,6|0,1:0|0:0,0:0:0:0:
320,336,117541,2,0,L|528:240,1,170,10|8,0:0|0:0,0:0:0:0:
216,104,118024,2,0,L|112:104,1,85,10|0,1:0|0:0,0:0:0:0:
296,216,118347,2,0,L|392:216,1,85,10|0,0:0|0:0,0:0:0:0:
120,344,118670,6,0,P|80:256|176:240,1,170,14|0,1:0|0:0,0:0:0:0:
288,224,119153,2,0,P|376:184|384:96,1,170,10|8,0:0|0:0,0:0:0:0:
144,312,119637,2,0,P|16:144|192:40,1,425,14|8,0:1|0:0,0:0:0:0:
384,312,120605,5,4,1:0:0:0:
456,264,120713,1,0,1:0:0:0:
480,176,120820,1,8,0:3:0:0:
456,96,120928,1,8,0:3:0:0:
376,56,121035,1,4,0:3:0:0:
72,56,121250,6,0,P|24:120|80:192,1,170,14|0,0:1|0:0,0:0:0:0:
160,296,121734,2,0,P|192:232|112:184,1,170,10|0,0:0|0:0,0:0:0:0:
408,344,122218,2,0,P|464:288|384:248,1,170,14|0,0:1|0:0,0:0:0:0:
320,208,122702,2,0,L|472:80,1,170,10|8,0:0|0:0,0:0:0:0:
216,120,123186,2,0,L|208:16,1,85,14|0,0:1|0:0,0:0:0:0:
376,256,123508,2,0,L|384:136,1,85,10|0,0:0|0:0,0:0:0:0:
152,336,123831,6,0,P|68:336|160:336,1,170,14|8,0:1|0:0,0:0:0:0:
392,336,124315,2,0,P|472:304|392:336,1,170,12|8,1:0|0:0,0:0:0:0:
312,336,124799,1,0,1:0:0:0:
80,336,124960,1,2,1:0:0:0:
400,72,126432,5,4,0:0:0:0:
256,192,126593,12,4,136754,0:0:0:0:
392,208,137077,5,0,0:0:0:0:
392,208,137238,1,0,0:0:0:0:
240,208,137561,1,0,0:0:0:0:
240,208,137722,1,0,0:0:0:0:
40,208,138044,5,10,0:0:0:0:
168,280,138367,1,0,0:0:0:0:
168,280,138528,1,0,0:0:0:0:
320,280,138851,1,0,0:0:0:0:
320,280,139012,1,0,0:0:0:0:
112,320,139335,5,10,0:0:0:0:
256,192,139657,1,0,0:0:0:0:
256,192,139819,1,0,0:0:0:0:
104,200,140141,1,0,0:0:0:0:
104,200,140302,1,0,0:0:0:0:
328,288,140625,5,10,0:0:0:0:
200,136,140948,1,0,0:0:0:0:
200,136,141109,1,0,0:0:0:0:
48,217,141431,1,0,0:0:0:0:
48,217,141593,1,0,0:0:0:0:
248,256,141915,5,10,0:0:0:0:
400,288,142238,1,0,0:0:0:0:
400,288,142399,1,0,0:0:0:0:
248,336,142722,1,0,0:0:0:0:
248,336,142883,1,0,0:0:0:0:
472,256,143206,5,10,0:0:0:0:
352,128,143528,1,0,0:0:0:0:
352,128,143690,1,0,0:0:0:0:
192,169,144012,1,0,0:0:0:0:
192,169,144173,1,0,0:0:0:0:
392,256,144496,5,10,0:0:0:0:
232,256,144819,1,0,0:0:0:0:
232,256,144980,1,0,0:0:0:0:
392,328,145302,1,0,0:0:0:0:
392,328,145464,1,0,0:0:0:0:
160,328,145786,5,10,0:0:0:0:
304,264,146109,1,0,0:0:0:0:
304,264,146270,1,0,0:0:0:0:
456,232,146593,1,0,0:0:0:0:
456,232,146754,1,0,0:0:0:0:
232,136,147077,5,10,0:0:0:0:
232,136,148367,5,8,0:0:0:0:
232,136,149657,5,8,0:0:0:0:
232,136,150948,5,8,0:0:0:0:
