osu file format v14

[General]
AudioFilename: audio.mp3
AudioLeadIn: 0
PreviewTime: 84437
Countdown: 0
SampleSet: Soft
StackLeniency: 0.7
Mode: 2
LetterboxInBreaks: 0
WidescreenStoryboard: 1

[Editor]
DistanceSpacing: 2.1
BeatDivisor: 8
GridSize: 8
TimelineZoom: 1.6

[Metadata]
Title:Re:Call
TitleUnicode:Re:Call
Artist:Shimotsuki Haruka
ArtistUnicode:霜月はるか
Creator:-Luminate
Version:Overdose
Source:できない私が、くり返す。
Tags:recall Dekinai Watashi ga, Kurikaesu. opening short ver visual novel eroge vn japanese video game Akabei Soft3 I will start over again and again for you
BeatmapID:2426215
BeatmapSetID:1162820

[Difficulty]
HPDrainRate:6
CircleSize:4.5
OverallDifficulty:9.2
ApproachRate:9.2
SliderMultiplier:2.1
SliderTickRate:4

[Events]
//Background and Video events
0,0,"abg.jpg",0,0
//Break Periods
//Storyboard Layer 0 (Background)
//Storyboard Layer 1 (Fail)
//Storyboard Layer 2 (Pass)
//Storyboard Layer 3 (Foreground)
//Storyboard Layer 4 (Overlay)
//Storyboard Sound Samples

[TimingPoints]
2563,645.161290322581,4,2,0,10,1,0
2563,-50,4,2,2,30,0,0
30950,-50,4,2,2,50,0,0
31111,-50,4,2,2,20,0,0
41272,-50,4,2,2,45,0,0
41433,-50,4,2,4,40,0,0
61917,-50,4,2,5,50,0,0
80143,-50,4,2,50,60,0,0
80304,-50,4,2,51,45,0,0
80466,-50,4,2,52,80,0,0
80627,-50,4,2,56,60,0,0
80788,-50,4,2,53,60,0,0
80950,-50,4,2,54,60,0,0
81111,-50,4,2,55,60,0,0
81272,-50,4,2,2,30,0,0
84498,-50,4,2,2,40,0,0
84982,-50,4,2,4,40,0,0
85121,645.161290322581,4,2,1,65,1,1
85121,-50,4,2,1,65,0,1
89637,-50,4,2,1,75,0,1
90282,-50,4,2,1,65,0,1
94799,-50,4,2,1,75,0,1
95444,-50,4,2,1,65,0,1
105282,-50,4,2,1,75,0,1
105927,-50,4,2,1,65,0,1
118024,-50,4,2,1,65,0,1
118346,-50,4,2,1,65,0,1
120605,-50,4,2,0,60,0,1
121250,-50,4,2,1,75,0,1
123508,-50,4,2,1,75,0,1
123831,-50,4,2,1,75,0,1
124959,-50,4,2,1,40,0,0
126432,645.161290322581,4,2,2,40,1,0
126593,-50,4,2,2,25,0,0
147076,-100,4,2,2,10,0,0

[Colours]
Combo1 : 251,239,17
Combo2 : 222,29,106
Combo3 : 235,118,48
Combo4 : 239,241,141

[HitObjects]
256,192,8853,12,0,9982,0:0:0:0:
400,296,10304,6,0,P|464:216|384:168,1,210,2|0,0:0|0:0,0:0:0:0:
264,248,10788,2,0,P|200:200|280:120,1,210
384,112,11272,2,0,L|416:8,2,105,0|0|2,0:0|0:0|0:0,0:0:0:0:
136,240,12240,5,0,0:0:0:0:
344,280,12562,1,0,0:0:0:0:
56,344,12885,6,0,P|56:240|160:208,1,210,2|0,0:0|0:0,0:0:0:0:
248,208,13369,2,0,L|56:80,1,210
176,128,13853,2,0,L|224:8,2,105,0|0|2,0:0|0:0|0:0,0:0:0:0:
352,336,14821,2,0,P|376:216|296:184,1,210
184,176,15304,6,0,L|168:8,2,105,0|2|0,0:0|0:0|0:0,0:0:0:0:
312,224,15788,2,0,P|424:192|464:104,1,210
256,320,16434,1,0,0:0:0:0:
376,328,16595,2,0,P|282:60|28:179,1,630,2|0,0:0|0:0,0:0:0:0:
136,256,17724,1,0,0:0:0:0:
32,360,17885,6,0,P|181:325|311:-4,1,525,2|0,0:0|0:0,0:0:0:0:
96,240,19014,2,0,L|88:96,1,105
264,360,19337,2,0,P|96:328|328:32,1,735,2|0,0:0|0:0,0:0:0:0:
72,336,20627,6,0,P|24:248|88:160,1,210,10|0,0:0|0:0,0:0:0:0:
208,168,21111,2,0,P|336:96|360:24,1,210
357,43,21594,1,0,0:0:0:0:
120,40,21917,5,8,0:0:0:0:
352,320,22562,2,0,L|336:88,1,210,2|0,0:0|0:0,0:0:0:0:
72,288,23207,2,0,P|8:240|88:160,1,210,10|0,0:0|0:0,0:0:0:0:
192,160,23691,2,0,P|256:112|176:32,1,210
80,32,24175,1,0,0:0:0:0:
344,48,24498,5,8,0:0:0:0:
128,320,25143,2,0,P|64:272|144:192,1,210,2|0,0:0|0:0,0:0:0:0:
248,192,25627,1,0,0:0:0:0:
376,216,25788,2,0,L|376:104,1,105,10|0,0:0|0:0,0:0:0:0:
232,32,26111,2,0,P|72:96|24:344,1,420,2|0,0:0|0:0,0:0:0:0:
144,320,26917,1,2,0:0:0:0:
296,320,27078,6,0,P|416:248|256:96,1,420,8|0,0:0|0:0,0:0:0:0:
136,352,28046,2,0,L|128:224,1,105,0|2,0:0|0:0,0:0:0:0:
312,336,28369,2,0,P|288:160|56:48,1,420,8|0,0:0|0:0,0:0:0:0:
304,48,29336,2,0,L|416:48,1,105,0|2,0:0|0:0,0:0:0:0:
240,336,29659,2,0,P|80:280|16:32,1,420,8|0,0:0|0:0,0:0:0:0:
352,56,30949,5,4,0:0:0:0:
256,192,31111,12,0,40950,0:0:0:0:
208,328,41272,6,0,P|144:248|224:200,1,210,4|0,0:0|0:0,0:0:0:0:
328,192,41756,2,0,P|392:144|312:64,1,210,10|0,0:1|0:0,0:0:0:0:
208,136,42240,2,0,L|200:16,1,105,2|0,0:0|0:0,0:0:0:0:
328,24,42563,1,8,0:0:0:0:
200,336,42724,2,0,L|440:288,1,210,8|0,0:1|0:0,0:0:0:0:
256,272,43208,2,0,L|40:208,1,210,10|0,0:1|0:0,0:0:0:0:
288,344,43853,6,0,P|352:264|272:216,1,210,2|0,0:0|0:0,0:0:0:0:
184,208,44337,2,0,L|152:96,2,105,2|8|0,0:0|0:1|0:0,0:0:0:0:
56,232,44820,1,2,0:0:0:0:
176,288,44982,2,0,L|272:360,2,105,8|8|8,0:0|0:0|0:1,0:0:0:0:
40,352,45627,1,8,0:0:0:0:
168,344,45789,2,0,P|144:248|8:208,1,210,8|0,0:1|0:0,0:0:0:0:
160,144,46272,6,0,L|392:144,1,210,10|0,0:1|0:0,0:0:0:0:
216,360,46756,2,0,L|32:208,2,210,8|8|8,0:0|0:1|0:0,0:0:0:0:
344,352,47563,2,0,P|392:248|320:232,1,210,10|8,0:1|0:1,0:0:0:0:
176,224,48208,1,8,0:0:0:0:
280,216,48369,2,0,P|340:144|266:86,1,210,10|0,0:1|0:0,0:0:0:0:
136,72,48853,6,0,L|384:72,1,210,10|8,0:1|0:1,0:0:0:0:
232,184,49498,1,8,0:0:0:0:
336,304,49660,2,0,P|414:261|428:147,1,210,10|0,0:1|0:0,0:0:0:0:
304,344,50143,2,0,L|72:344,1,210,8|8,0:1|0:1,0:0:0:0:
208,280,50789,1,8,0:0:0:0:
56,232,50950,2,0,P|88:88|264:32,1,315,10|0,0:1|0:0,0:0:0:0:
456,272,51595,6,0,P|456:168|352:112,1,210,6|0,0:0|0:0,0:0:0:0:
232,248,52079,2,0,P|256:136|400:144,1,210,10|0,0:1|0:0,0:0:0:0:
208,152,52563,2,0,L|200:16,1,105,2|0,0:0|0:0,0:0:0:0:
320,40,52885,1,8,0:0:0:0:
192,288,53047,2,0,P|128:200|216:160,1,210,10|0,0:1|0:0,0:0:0:0:
336,328,53530,2,0,P|400:272|304:192,1,210,10|0,0:1|0:0,0:0:0:0:
72,320,54175,6,0,P|8:272|88:192,1,210,2|0,0:0|0:0,0:0:0:0:
192,184,54659,2,0,P|256:136|176:56,1,210,10|0,0:1|0:0,0:0:0:0:
80,48,55143,2,0,L|184:48,1,105,2|0,0:0|0:0,0:0:0:0:
296,48,55466,1,8,0:0:0:0:
400,120,55627,2,0,L|184:16,1,210,8|8,0:1|0:0,0:0:0:0:
312,208,56111,2,0,L|504:96,1,210,10|0,0:1|0:0,0:0:0:0:
336,344,56595,6,0,P|272:288|376:232,1,210,10|0,0:1|0:0,0:0:0:0:
482,208,57079,2,0,P|439:115|341:89,1,210,10|8,0:0|0:1,0:0:0:0:
464,56,57724,1,10,0:0:0:0:
296,231,57885,6,0,L|72:232,1,210,8|8,0:1|0:1,0:0:0:0:
224,216,58530,2,0,L|224:96,1,105,10|8,0:0|0:1,0:0:0:0:
80,104,59014,1,10,0:0:0:0:
224,304,59176,2,0,P|352:240|360:144,1,210,8|8,0:1|0:1,0:0:0:0:
240,160,59821,1,10,0:0:0:0:
368,160,59982,2,0,P|432:96|344:48,1,210,8|2,0:1|0:0,0:0:0:0:
136,344,60466,6,0,P|72:256|152:224,1,210,8|8,0:1|0:1,0:0:0:0:
248,208,61111,2,0,L|248:128,1,52.5,2|2,0:3|0:3,0:0:0:0:
176,144,61272,2,0,L|40:144,1,105,2|0,0:0|0:0,0:0:0:0:
200,224,61595,1,8,1:1:0:0:
72,264,61756,1,8,1:1:0:0:
408,336,61918,6,0,P|464:296|360:200,1,210,6|0,0:0|0:0,0:0:0:0:
304,192,62401,1,8,0:0:0:0:
200,184,62563,2,0,P|136:120|224:48,1,210,2|0,0:0|0:0,0:0:0:0:
304,48,63047,1,8,0:0:0:0:
448,48,63208,5,10,0:0:0:0:
336,48,63369,2,0,L|112:104,1,210
256,128,63853,1,10,0:1:0:0:
368,168,64014,2,0,P|440:216|360:280,1,210
224,328,64498,5,8,0:0:0:0:
112,272,64660,2,0,P|136:160|256:152,1,210,8|0,0:0|0:0,0:0:0:0:
88,224,65143,2,0,P|24:168|120:104,1,210,10|8,0:0|0:0,0:0:0:0:
216,96,65627,1,8,0:0:0:0:
88,256,65950,5,8,0:0:0:0:
216,256,66111,2,0,L|440:256,1,210,8|8,0:0|0:1,0:0:0:0:
288,336,66756,2,0,L|160:336,1,105,8|8,0:0|0:0,0:0:0:0:
336,280,67079,5,10,0:0:0:0:
440,248,67240,2,0,P|432:176|208:72,1,315,8|0,0:0|0:0,0:0:0:0:
400,328,68047,2,0,L|400:176,1,105,8|8,0:0|0:0,0:0:0:0:
256,208,68369,2,0,P|160:88|288:40,1,315,10|0,0:0|0:0,0:0:0:0:
424,192,69014,2,0,P|472:80|400:56,1,210,8|2,0:1|0:0,0:0:0:0:
120,280,69660,5,8,0:0:0:0:
232,296,69821,2,0,P|352:288|384:32,1,420,8|2,0:0|0:0,0:0:0:0:
264,136,70627,1,8,0:0:0:0:
136,232,70789,2,0,P|48:112|168:48,1,315,10|0,0:0|0:0,0:0:0:0:
264,352,71595,1,8,0:1:0:0:
32,312,71918,2,0,L|176:312,1,105,2|0,0:0|0:0,0:0:0:0:
352,304,72240,5,14,0:0:0:0:
464,264,72401,2,0,P|448:168|328:120,1,210,0|2,0:0|0:0,0:0:0:0:
120,240,73047,1,2,0:0:0:0:
8,208,73208,1,8,0:0:0:0:
120,192,73369,6,0,P|224:112|80:32,1,315,8|2,0:0|0:0,0:0:0:0:
368,48,74176,1,8,0:1:0:0:
472,328,74337,2,0,P|504:224|440:104,1,210,10|0,0:0|0:0,0:0:0:0:
288,272,74821,5,10,0:0:0:0:
168,240,74982,2,0,P|208:88|376:56,1,315,8|0,0:0|0:0,0:0:0:0:
464,48,75788,1,8,0:0:0:0:
336,320,75950,2,0,P|208:272|160:104,1,315,8|0,0:0|0:0,0:0:0:0:
272,112,76595,1,8,0:0:0:0:
152,224,76756,2,0,P|96:120|176:96,1,210,10|0,0:1|0:0,0:0:0:0:
376,320,77401,5,8,0:0:0:0:
456,240,77563,1,0,0:0:0:0:
376,160,77724,1,0,0:0:0:0:
256,136,77885,1,0,0:0:0:0:
368,344,78047,1,10,0:0:0:0:
232,312,78208,1,0,0:0:0:0:
136,216,78369,1,8,0:0:0:0:
232,112,78530,1,8,0:0:0:0:
368,224,78692,6,0,L|376:88,1,105,2|0,0:0|0:0,0:0:0:0:
240,288,79014,2,0,L|232:144,1,105,8|0,0:0|0:0,0:0:0:0:
376,168,79337,1,8,0:1:0:0:
472,128,79498,1,8,0:1:0:0:
472,32,79660,1,8,0:3:0:0:
376,16,79821,1,8,0:0:0:0:
144,16,79982,5,4,0:3:0:0:
51,61,80143,1,2,0:0:0:0:
11,156,80304,1,2,0:0:0:0:
41,254,80465,1,2,0:0:0:0:
127,310,80627,1,2,0:0:0:0:
32,344,80789,1,2,0:0:0:0:
184,328,80950,1,2,0:0:0:0:
328,304,81111,1,2,0:0:0:0:
176,296,81272,6,0,B|-8:216|200:72|200:72|128:16|-40:16|8:240|280:120|280:120|264:160|280:224,1,840,8|8,0:0|0:0,0:0:0:0:
274,198,83853,5,8,0:0:0:0:
274,198,84498,2,0,L|48:200,1,210,2|8,0:0|0:3,0:0:0:0:
160,64,84982,1,8,0:0:0:0:
472,272,85121,6,0,P|496:160|328:72,1,315,12|8,0:1|0:0,0:0:0:0:
224,256,85767,2,0,L|224:120,1,105,0|0,1:2|0:0,0:0:0:0:
352,152,86089,1,8,0:0:0:0:
72,336,86250,2,0,P|16:232|96:208,1,210,10|0,0:0|1:0,0:0:0:0:
176,203,86734,2,0,L|64:203,1,105,8|8,0:0|0:0,0:0:0:0:
288,320,87057,2,0,L|440:320,1,105,0|0,1:0|0:0,0:0:0:0:
144,352,87380,2,0,L|32:352,1,105,2|8,0:0|0:0,0:0:0:0:
104,320,87621,1,8,0:0:0:0:
288,280,87702,5,12,0:1:0:0:
424,280,87863,2,0,P|488:216|400:144,1,210,8|8,0:0|0:0,0:0:0:0:
296,128,88347,2,0,L|292:267,1,105,2|0,1:2|0:0,0:0:0:0:
424,240,88670,1,2,0:0:0:0:
184,360,88831,2,0,P|120:304|192:224,1,210,2|0,1:2|1:0,0:0:0:0:
328,224,89315,2,0,L|336:96,1,105,8|8,0:0|0:0,0:0:0:0:
112,96,89638,2,0,L|256:96,1,105,10|0,1:1|0:0,0:0:0:0:
56,344,89960,2,0,L|48:216,1,105,10|8,0:0|0:0,0:0:0:0:
128,240,90202,1,8,0:0:0:0:
344,328,90283,6,0,L|472:328,1,105,12|0,0:1|0:0,0:0:0:0:
192,272,90605,1,2,0:0:0:0:
320,264,90767,2,0,L|328:144,1,105,8|2,0:0|1:0,0:0:0:0:
176,152,91089,1,8,0:0:0:0:
304,104,91250,1,2,0:0:0:0:
176,64,91412,1,0,1:0:0:0:
440,56,91573,6,0,L|304:56,1,105,10|0,0:1|1:0,0:0:0:0:
200,56,91896,1,8,0:0:0:0:
328,280,92057,2,0,L|336:160,1,105,10|0,0:0|1:0,0:0:0:0:
200,152,92380,1,8,0:0:0:0:
344,104,92541,1,2,0:0:0:0:
200,80,92702,2,0,L|128:80,1,52.5,10|8,0:0|0:0,0:0:0:0:
344,40,92863,6,0,L|488:40,1,105,10|0,0:1|0:0,0:0:0:0:
200,128,93186,1,8,0:0:0:0:
312,304,93347,2,0,L|320:152,1,105,10|0,0:0|1:0,0:0:0:0:
184,184,93670,2,0,L|64:184,1,105,2|0,0:0|0:0,0:0:0:0:
312,304,93992,1,0,1:0:0:0:
200,304,94154,6,0,L|72:304,2,105,10|0|8,0:1|1:0|0:0,0:0:0:0:
64,280,94638,1,8,0:0:0:0:
280,224,94799,1,0,1:0:0:0:
400,168,94960,1,0,1:0:0:0:
280,128,95121,1,8,0:3:0:0:
496,72,95283,1,4,0:3:0:0:
40,272,95444,6,0,P|16:160|184:72,1,315,12|8,0:1|0:0,0:0:0:0:
288,256,96089,2,0,L|288:120,1,105,0|0,1:0|0:0,0:0:0:0:
160,144,96412,1,8,0:0:0:0:
392,344,96573,2,0,L|168:344,1,210,2|0,1:0|1:0,0:0:0:0:
304,264,97057,2,0,L|416:264,1,105,8|8,0:0|0:0,0:0:0:0:
128,96,97379,2,0,L|264:96,1,105,0|0,1:0|0:0,0:0:0:0:
456,320,97702,2,0,L|464:192,1,105,10|8,0:0|0:0,0:0:0:0:
392,216,97944,1,8,0:0:0:0:
216,224,98024,5,10,0:1:0:0:
88,216,98186,2,0,P|24:144|112:88,1,210,8|10,0:0|0:0,0:0:0:0:
224,336,98670,2,0,L|352:336,1,105,0|10,1:2|0:0,0:0:0:0:
216,208,98992,1,2,0:2:0:0:
504,144,99153,2,0,L|248:144,1,210,10|0,0:0|1:0,0:0:0:0:
144,144,99637,2,0,L|136:24,1,105,8|8,0:0|0:0,0:0:0:0:
288,40,99960,1,0,1:0:0:0:
48,224,100121,1,2,0:0:0:0:
280,256,100282,1,8,0:0:0:0:
408,256,100444,2,8,L|488:256,1,52.5
248,216,100605,5,12,0:1:0:0:
136,168,100766,1,0,0:0:0:0:
248,112,100928,1,0,0:0:0:0:
472,328,101089,1,10,0:0:0:0:
352,328,101250,1,0,1:0:0:0:
128,288,101411,1,2,0:0:0:0:
352,240,101573,1,10,0:0:0:0:
96,192,101734,6,0,L|88:64,1,105,2|8,0:0|0:1,0:0:0:0:
216,56,102057,1,0,1:0:0:0:
88,24,102218,1,8,0:0:0:0:
336,152,102379,2,0,L|344:272,1,105,2|0,0:0|1:0,0:0:0:0:
120,296,102702,1,2,0:0:0:0:
344,336,102863,1,2,0:0:0:0:
472,344,103024,2,8,L|384:344,1,52.5,10|8,0:0|0:0,0:0:0:0:
224,344,103186,6,0,L|112:344,1,105,10|0,0:1|0:0,0:0:0:0:
248,272,103508,1,2,0:0:0:0:
24,192,103670,2,0,L|160:192,1,105,2|0,0:0|1:0,0:0:0:0:
352,192,103992,2,0,L|472:193,1,105,2|8,0:0|0:0,0:0:0:0:
184,144,104315,1,2,1:0:0:0:
312,240,104476,2,0,L|184:240,1,105,8|0,0:1|1:0,0:0:0:0:
64,240,104799,1,8,0:0:0:0:
296,296,104960,1,2,0:0:0:0:
168,328,105121,1,0,1:0:0:0:
432,320,105282,2,0,P|504:216|392:168,1,262.5,10|0,0:3|0:0,0:0:0:0:
120,256,105766,6,0,P|32:192|160:88,1,315,14|8,0:1|0:0,0:0:0:0:
280,72,106411,1,0,1:0:0:0:
144,144,106573,1,2,0:0:0:0:
280,208,106734,1,8,0:0:0:0:
40,336,106895,2,0,L|32:184,1,105,2|8,1:0|0:1,0:0:0:0:
168,224,107218,2,0,L|320:224,1,105,0|8,1:0|0:0,0:0:0:0:
144,144,107541,1,8,0:0:0:0:
360,120,107702,2,0,L|512:120,1,105,2|0,1:0|0:0,0:0:0:0:
176,64,108024,2,0,L|40:64,1,105,10|8,0:0|0:0,0:0:0:0:
128,96,108266,1,8,0:0:0:0:
352,312,108347,6,0,P|416:256|320:176,1,210,14|0,0:1|0:0,0:0:0:0:
224,168,108831,1,8,0:0:0:0:
480,152,108992,2,0,L|488:16,1,105,0|0,1:0|0:0,0:0:0:0:
224,48,109315,1,10,0:0:0:0:
352,248,109476,2,0,L|464:248,1,105,2|8,1:0|0:1,0:0:0:0:
104,320,109799,1,2,1:0:0:0:
240,240,109960,1,8,0:0:0:0:
104,184,110121,1,8,0:0:0:0:
360,328,110282,2,0,L|512:328,1,105,2|0,1:2|0:0,0:0:0:0:
208,280,110605,2,0,L|88:280,1,105,10|8,0:0|0:0,0:0:0:0:
160,240,110847,1,8,0:0:0:0:
368,208,110928,6,0,P|424:120|352:56,1,210,12|8,0:1|0:0,0:0:0:0:
232,248,111411,2,0,L|112:248,1,105,2|0,0:0|1:0,0:0:0:0:
16,200,111734,1,0,0:0:0:0:
160,152,111895,1,2,0:0:0:0:
16,104,112057,1,2,0:0:0:0:
304,328,112218,5,10,0:1:0:0:
184,320,112379,2,0,L|176:184,1,105,0|0,1:0|0:0,0:0:0:0:
304,176,112702,1,10,0:0:0:0:
48,128,112863,2,0,L|176:128,1,105,0|0,1:0|0:0,0:0:0:0:
288,176,113186,1,2,0:0:0:0:
152,232,113347,2,8,L|64:232,1,52.5
376,352,113508,6,0,L|488:352,1,105,10|0,0:1|0:0,0:0:0:0:
352,240,113831,2,0,L|247:240,1,105,10|0,0:0|0:0,0:0:0:0:
0,112,114153,2,0,L|128:112,1,105,2|0,1:0|0:0,0:0:0:0:
352,112,114476,1,8,0:0:0:0:
208,192,114637,2,0,L|320:192,1,105,2|8,1:0|0:1,0:0:0:0:
48,344,114960,1,2,1:0:0:0:
312,336,115121,2,0,L|320:192,1,105,10|0,0:0|0:0,0:0:0:0:
192,224,115444,1,0,1:0:0:0:
416,176,115605,1,0,1:0:0:0:
192,144,115766,1,8,0:3:0:0:
64,120,115928,1,4,0:3:0:0:
368,224,116089,6,0,P|432:152|336:96,1,210,14|0,0:0|0:0,0:0:0:0:
256,232,116573,2,0,L|488:232,1,210,10|0,0:0|0:0,0:0:0:0:
120,360,117057,2,0,P|56:288|152:232,1,210,6|0,1:0|0:0,0:0:0:0:
248,160,117541,2,0,L|16:160,1,210,10|8,0:0|0:0,0:0:0:0:
384,224,118024,2,0,L|392:352,1,105,10|0,1:0|0:0,0:0:0:0:
112,336,118347,2,0,L|104:208,1,105,10|0,0:0|0:0,0:0:0:0:
392,344,118670,6,0,P|456:256|368:208,1,210,14|0,1:0|0:0,0:0:0:0:
256,176,119153,2,0,P|312:72|400:64,1,210,10|8,0:0|0:0,0:0:0:0:
88,288,119637,2,0,P|-8:168|192:56,1,420,14|0,0:1|0:0,0:0:0:0:
48,80,120444,1,8,0:0:0:0:
272,320,120605,5,4,1:0:0:0:
352,272,120713,1,0,1:0:0:0:
272,224,120820,1,8,0:3:0:0:
456,224,120928,1,8,0:3:0:0:
496,160,121035,1,4,0:3:0:0:
456,104,121143,1,4,0:3:0:0:
160,80,121250,6,0,P|96:160|179:214,1,210,14|0,0:1|0:0,0:0:0:0:
288,240,121734,2,0,L|40:240,1,210,10|0,0:0|0:0,0:0:0:0:
400,344,122218,2,0,P|464:264|368:224,1,210,14|0,0:1|0:0,0:0:0:0:
280,176,122702,2,0,L|512:176,1,210,10|8,0:0|0:0,0:0:0:0:
184,104,123186,2,0,L|40:104,1,105,14|0,0:1|0:0,0:0:0:0:
376,48,123508,2,0,L|496:48,1,105,10|0,0:0|0:0,0:0:0:0:
176,320,123831,5,14,0:1:0:0:
312,280,123992,1,8,0:0:0:0:
176,240,124153,1,8,0:0:0:0:
440,208,124315,1,12,1:0:0:0:
312,144,124476,1,8,0:0:0:0:
440,104,124637,1,8,0:0:0:0:
176,80,124799,1,0,1:0:0:0:
440,40,124960,1,2,1:0:0:0:
432,48,126432,5,4,0:0:0:0:
256,192,126593,12,4,136754,0:0:0:0:
392,208,137077,5,0,0:0:0:0:
392,208,137238,1,0,0:0:0:0:
240,208,137561,2,0,L|144:128,2,105
392,208,138044,5,10,0:0:0:0:
240,288,138367,1,0,0:0:0:0:
240,288,138528,1,0,0:0:0:0:
392,288,138851,2,0,L|480:216,2,105
240,288,139335,5,10,0:0:0:0:
96,280,139657,1,0,0:0:0:0:
96,280,139819,1,0,0:0:0:0:
240,288,140141,1,0,0:0:0:0:
240,208,140302,2,0,L|240:88,1,105
392,104,140625,5,10,0:0:0:0:
240,103,140948,1,0,0:0:0:0:
240,103,141109,1,0,0:0:0:0:
392,208,141431,2,0,L|304:120,2,105
240,224,141915,5,10,0:0:0:0:
392,288,142238,1,0,0:0:0:0:
392,288,142399,1,0,0:0:0:0:
240,320,142722,1,0,0:0:0:0:
240,224,142883,2,0,L|240:120,1,105
80,120,143206,5,10,0:0:0:0:
240,119,143528,1,0,0:0:0:0:
240,119,143690,1,0,0:0:0:0:
80,240,144012,2,0,L|176:168,2,105
232,288,144496,5,10,0:0:0:0:
80,312,144819,1,0,0:0:0:0:
80,312,144980,1,0,0:0:0:0:
232,312,145302,2,0,L|328:224,2,105
80,312,145786,5,10,0:0:0:0:
232,312,146109,1,0,0:0:0:0:
232,312,146270,1,0,0:0:0:0:
400,296,146593,2,0,L|480:216,2,105
232,312,147077,6,0,P|104:184|256:40,1,420,10|8,0:0|0:0,0:0:0:0:
256,40,149657,5,8,0:0:0:0:
256,40,150948,5,8,0:0:0:0:
