osu file format v14

[General]
AudioFilename: audio.mp3
AudioLeadIn: 0
PreviewTime: 84437
Countdown: 0
SampleSet: Soft
StackLeniency: 0.7
Mode: 2
LetterboxInBreaks: 0
WidescreenStoryboard: 1

[Editor]
DistanceSpacing: 2.1
BeatDivisor: 4
GridSize: 8
TimelineZoom: 1.6

[Metadata]
Title:Re:Call
TitleUnicode:Re:Call
Artist:Shimotsuki Haruka
ArtistUnicode:霜月はるか
Creator:-Luminate
Version:Cup
Source:できない私が、くり返す。
Tags:recall Dekinai Watashi ga, Kurikaesu. opening short ver visual novel eroge vn japanese video game Akabei Soft3 I will start over again and again for you
BeatmapID:2602742
BeatmapSetID:1162820

[Difficulty]
HPDrainRate:3
CircleSize:2.5
OverallDifficulty:6
ApproachRate:6
SliderMultiplier:1.7
SliderTickRate:2

[Events]
//Background and Video events
0,0,"abg.jpg",0,0
//Break Periods
2,31149,40222
2,81472,83448
//Storyboard Layer 0 (Background)
//Storyboard Layer 1 (Fail)
//Storyboard Layer 2 (Pass)
//Storyboard Layer 3 (Foreground)
//Storyboard Layer 4 (Overlay)
//Storyboard Sound Samples

[TimingPoints]
2563,645.161290322581,4,2,0,10,1,0
2563,-50,4,2,2,30,0,0
30950,-50,4,2,2,50,0,0
31111,-50,4,2,2,20,0,0
41272,-50,4,2,2,45,0,0
41433,-50,4,2,4,40,0,0
61917,-50,4,2,5,50,0,0
80143,-50,4,2,50,60,0,0
80304,-50,4,2,51,45,0,0
80466,-50,4,2,52,80,0,0
80627,-50,4,2,56,60,0,0
80788,-50,4,2,53,60,0,0
80950,-50,4,2,54,60,0,0
81111,-50,4,2,55,60,0,0
81272,-50,4,2,2,30,0,0
84498,-50,4,2,2,40,0,0
84982,-50,4,2,4,40,0,0
85121,645.161290322581,4,2,1,65,1,1
85121,-50,4,2,1,65,0,1
89637,-50,4,2,1,75,0,1
90282,-50,4,2,1,65,0,1
94799,-50,4,2,1,75,0,1
95444,-50,4,2,1,65,0,1
105282,-50,4,2,1,75,0,1
105927,-50,4,2,1,65,0,1
118024,-50,4,2,1,65,0,1
118346,-50,4,2,1,65,0,1
120605,-50,4,2,0,60,0,1
121250,-50,4,2,1,75,0,1
123508,-50,4,2,1,75,0,1
123831,-50,4,2,1,75,0,1
124959,-50,4,2,1,40,0,0
126432,645.161290322581,4,2,2,40,1,0
126593,-50,4,2,2,25,0,0
147076,-100,4,2,2,10,0,0

[Colours]
Combo1 : 251,239,17
Combo2 : 222,29,106
Combo3 : 235,118,48
Combo4 : 239,241,141

[HitObjects]
256,192,8853,12,0,9982,0:0:0:0:
344,304,10304,5,2,0:0:0:0:
240,200,10627,1,0,0:0:0:0:
240,200,10788,1,0,0:0:0:0:
344,120,11111,1,0,0:0:0:0:
344,120,11272,1,0,0:0:0:0:
240,96,12240,5,0,0:0:0:0:
344,120,12562,1,0,0:0:0:0:
176,312,12885,5,2,0:0:0:0:
272,264,13208,1,0,0:0:0:0:
272,264,13369,1,0,0:0:0:0:
376,224,13692,1,0,0:0:0:0:
376,224,13853,1,0,0:0:0:0:
224,240,14821,5,0,0:0:0:0:
128,184,15143,1,0,0:0:0:0:
128,184,15304,1,2,0:0:0:0:
224,136,15627,1,2,0:0:0:0:
224,136,15788,1,0,0:0:0:0:
416,312,16434,5,0,0:0:0:0:
416,312,16595,1,2,0:0:0:0:
352,304,16756,2,0,P|288:184|448:72,1,340
320,312,17724,1,0,0:0:0:0:
320,312,17885,5,2,0:0:0:0:
392,312,18046,2,0,P|376:136|176:96,1,340
96,72,19014,1,0,0:0:0:0:
96,72,19175,1,0,0:0:0:0:
168,72,19337,2,0,P|256:240|104:304,1,340,2|0,0:0|0:0,0:0:0:0:
368,336,20627,5,10,0:0:0:0:
232,272,20950,1,0,0:0:0:0:
168,264,21111,2,0,P|123:198|173:137,1,170
232,136,21595,1,0,0:0:0:0:
408,104,21917,5,8,0:0:0:0:
312,160,22563,1,2,0:0:0:0:
408,224,22885,1,0,0:0:0:0:
256,320,23207,6,0,P|160:264|160:184,1,170,10|0,0:0|0:0,0:0:0:0:
152,176,23692,1,0,0:0:0:0:
248,136,24014,1,0,0:0:0:0:
248,136,24175,1,0,0:0:0:0:
88,96,24498,5,8,0:0:0:0:
88,184,25143,1,2,0:0:0:0:
208,256,25466,1,0,0:0:0:0:
208,256,25627,1,0,0:0:0:0:
80,288,25950,5,0,0:0:0:0:
128,288,26111,1,2,0:0:0:0:
256,336,26756,1,0,0:0:0:0:
256,336,26917,1,2,0:0:0:0:
328,328,27079,6,0,P|392:224|208:96,1,340,8|0,0:0|0:0,0:0:0:0:
144,88,28046,2,0,L|147:192,1,85,0|2,0:0|0:0,0:0:0:0:
216,288,28369,2,0,P|336:208|328:16,1,340,8|0,0:0|0:0,0:0:0:0:
224,48,29336,2,0,L|224:144,1,85,0|2,0:0|0:0,0:0:0:0:
320,336,29659,2,0,P|294:185|112:104,1,340,8|0,0:0|0:0,0:0:0:0:
368,64,30949,5,4,0:0:0:0:
224,368,41272,6,0,P|192:248|248:200,1,170,4|0,0:0|0:0,0:0:0:0:
288,232,41756,1,10,0:1:0:0:
392,216,42079,2,0,L|392:128,1,85,0|2,0:0|0:0,0:0:0:0:
240,104,42724,1,8,0:1:0:0:
104,152,43208,1,10,0:1:0:0:
224,240,43530,1,0,0:0:0:0:
72,352,43853,6,0,P|88:280|208:232,1,170,2|0,0:0|0:0,0:0:0:0:
224,232,44337,1,2,0:0:0:0:
336,232,44659,1,0,0:0:0:0:
336,232,44820,1,2,0:0:0:0:
200,144,45304,1,8,0:1:0:0:
328,120,45788,1,8,0:1:0:0:
208,312,46111,1,0,0:0:0:0:
152,296,46272,5,8,0:1:0:0:
272,264,46595,1,0,0:0:0:0:
322,266,46756,2,0,P|357:162|277:98,1,170,8|8,0:0|0:1,0:0:0:0:
200,120,47401,1,8,0:0:0:0:
144,120,47563,2,0,P|112:216|152:272,1,170,10|8,0:1|0:1,0:0:0:0:
304,272,48369,1,10,0:1:0:0:
192,296,48692,1,0,0:0:0:0:
128,296,48853,6,0,P|56:240|48:160,1,170,10|8,0:1|0:1,0:0:0:0:
168,160,49659,1,10,0:1:0:0:
320,176,49982,1,0,0:0:0:0:
320,176,50143,1,8,0:1:0:0:
216,208,50466,1,8,0:1:0:0:
384,336,50950,2,0,P|416:232|344:192,1,170,10|0,0:1|0:0,0:0:0:0:
224,192,51595,6,0,P|184:104|256:64,1,170,6|0,0:0|0:0,0:0:0:0:
296,64,52079,1,10,0:1:0:0:
144,88,52401,1,0,0:0:0:0:
144,88,52563,1,2,0:0:0:0:
320,80,53046,1,10,0:1:0:0:
192,136,53530,1,10,0:1:0:0:
288,184,53853,1,0,0:0:0:0:
136,368,54175,6,0,P|88:320|152:240,1,170,2|0,0:0|0:0,0:0:0:0:
200,240,54659,1,10,0:1:0:0:
312,240,54982,1,0,0:0:0:0:
312,240,55143,1,2,0:0:0:0:
440,208,55627,1,8,0:1:0:0:
280,184,56111,2,0,P|240:120|288:48,1,170,10|0,0:1|0:0,0:0:0:0:
368,272,56595,6,0,P|416:208|352:144,1,170,10|0,0:1|0:0,0:0:0:0:
280,144,57079,2,0,L|128:8,1,170,10|8,0:0|0:1,0:0:0:0:
280,40,57724,1,10,0:0:0:0:
336,64,57885,2,0,P|352:136|240:168,1,170,8|8,0:1|0:1,0:0:0:0:
384,219,58692,1,8,0:1:0:0:
224,216,59014,1,10,0:0:0:0:
224,352,59176,6,0,L|392:224,1,170,8|8,0:1|0:1,0:0:0:0:
248,264,59982,1,8,0:1:0:0:
128,264,60304,1,2,0:0:0:0:
72,264,60466,2,0,P|24:184|96:136,1,170,8|8,0:1|0:1,0:0:0:0:
256,136,61272,1,2,0:0:0:0:
368,280,61595,1,8,1:1:0:0:
368,280,61756,1,8,1:1:0:0:
288,280,61918,6,0,P|240:232|320:160,1,170,6|0,0:0|0:0,0:0:0:0:
384,208,62401,1,0,0:0:0:0:
384,208,62563,1,2,0:0:0:0:
288,248,62885,1,0,0:0:0:0:
168,216,63208,2,0,P|128:152|208:72,1,170,10|0,0:0|0:0,0:0:0:0:
240,80,63692,1,0,0:0:0:0:
296,152,63853,2,0,P|344:96|264:24,1,170,10|0,0:1|0:0,0:0:0:0:
184,32,64498,5,8,0:0:0:0:
184,32,64659,1,8,0:0:0:0:
336,304,64982,2,0,P|416:216|320:144,1,255,2|8,0:0|0:0,0:0:0:0:
272,144,65627,1,8,0:0:0:0:
144,144,65950,5,8,0:0:0:0:
144,144,66111,2,0,L|304:-8,1,170,8|8,0:0|0:1,0:0:0:0:
352,160,66756,2,0,L|352:64,1,85,8|8,0:0|0:0,0:0:0:0:
272,296,67079,6,0,P|288:128|464:80,1,340,10|0,0:0|0:0,0:0:0:0:
344,240,68047,2,0,L|368:136,2,85,8|8|10,0:0|0:0|0:0,0:0:0:0:
112,288,69014,2,0,L|104:96,1,170,8|2,0:1|0:0,0:0:0:0:
272,304,69659,6,0,P|360:200|184:64,1,340,8|0,0:0|0:0,0:0:0:0:
200,48,70466,1,2,0:0:0:0:
200,48,70627,1,0,0:0:0:0:
272,320,70788,2,0,P|400:256|416:136,1,255,10|0,0:0|0:0,0:0:0:0:
328,120,71595,1,8,0:1:0:0:
424,88,71917,1,2,0:0:0:0:
272,280,72240,6,0,P|200:184|352:128,1,255,14|2,0:0|0:0,0:0:0:0:
392,336,73047,1,2,0:0:0:0:
328,336,73208,2,0,P|200:272|160:64,1,340,8|2,0:0|0:0,0:0:0:0:
336,56,74337,1,2,0:0:0:0:
112,360,74821,6,0,P|8:280|176:176,1,340,10|0,0:0|0:0,0:0:0:0:
272,144,75788,1,8,0:0:0:0:
272,144,75950,1,8,0:0:0:0:
424,144,76595,1,8,0:0:0:0:
424,144,76756,2,0,P|456:224|408:296,1,170,10|0,0:1|0:0,0:0:0:0:
240,344,77401,6,0,P|144:264|304:128,1,340,8|10,0:0|0:0,0:0:0:0:
360,112,78369,1,8,0:0:0:0:
448,80,78692,1,2,0:0:0:0:
360,48,79014,1,8,0:0:0:0:
256,224,79337,1,8,0:1:0:0:
208,176,79498,1,8,0:1:0:0:
256,128,79660,1,8,0:3:0:0:
424,40,79982,5,4,0:3:0:0:
464,80,80143,1,2,0:0:0:0:
488,136,80304,1,2,0:0:0:0:
472,200,80465,1,2,0:0:0:0:
424,248,80627,1,2,0:0:0:0:
304,256,80950,1,2,0:0:0:0:
360,272,81111,1,2,0:0:0:0:
440,288,81272,5,8,0:0:0:0:
80,336,84498,6,0,P|48:224|104:176,1,170,2|8,0:0|0:3,0:0:0:0:
232,256,85121,6,0,L|400:96,1,170,12|8,0:1|0:0,0:0:0:0:
232,112,85766,1,0,1:2:0:0:
336,304,86089,1,8,0:0:0:0:
400,288,86250,2,0,P|448:216|392:160,1,170,10|0,0:0|1:0,0:0:0:0:
248,96,87057,1,0,1:2:0:0:
352,64,87379,1,8,0:3:0:0:
192,320,87702,6,0,P|144:248|216:200,1,170,12|8,0:1|0:0,0:0:0:0:
328,200,88347,1,2,1:2:0:0:
192,208,88670,1,2,0:0:0:0:
136,200,88831,2,0,P|56:152|40:48,1,170,2|0,1:2|1:0,0:0:0:0:
200,232,89638,2,0,L|200:32,1,170,10|10,1:1|0:0,0:0:0:0:
384,288,90282,5,12,0:1:0:0:
464,200,90605,1,2,0:0:0:0:
464,200,90766,1,2,0:0:0:0:
328,184,91089,1,2,0:0:0:0:
296,136,91250,1,2,0:0:0:0:
320,88,91412,1,0,1:0:0:0:
392,88,91573,5,10,0:1:0:0:
256,280,91896,1,8,0:0:0:0:
256,280,92057,1,2,0:0:0:0:
376,200,92379,1,0,0:0:0:0:
400,136,92541,1,2,0:0:0:0:
376,88,92702,1,10,0:0:0:0:
312,80,92863,5,10,0:1:0:0:
168,296,93186,1,8,0:0:0:0:
112,288,93347,2,0,P|72:232|144:152,1,170,10|2,0:0|0:0,0:0:0:0:
312,248,93992,2,0,P|384:136|272:72,1,255,0|8,1:2|0:2,1:0:0:0:
464,224,94799,1,0,1:0:0:0:
496,184,94960,1,0,1:0:0:0:
464,144,95121,1,8,0:3:0:0:
312,288,95444,6,0,L|144:128,1,170,12|8,0:1|0:0,0:0:0:0:
304,136,96089,1,0,1:0:0:0:
176,144,96412,1,8,0:0:0:0:
120,200,96573,2,0,P|88:88|136:40,1,170,2|0,1:0|1:0,0:0:0:0:
240,64,97379,1,0,1:0:0:0:
120,32,97702,1,10,0:0:0:0:
288,328,98024,6,0,P|328:248|240:176,1,170,10|8,0:1|0:0,0:0:0:0:
144,184,98670,2,0,L|136:64,1,85,0|10,1:2|0:0,0:0:0:0:
200,88,98992,1,2,0:2:0:0:
264,187,99153,2,0,P|256:80|80:16,1,255,10|8,0:0|0:0,0:0:0:0:
288,328,100121,1,2,0:0:0:0:
224,328,100282,1,8,0:0:0:0:
160,328,100444,6,0,P|112:248|176:200,1,170,14|8,0:0|0:0,0:0:0:0:
304,208,101089,2,0,P|354:147|307:83,1,170,2|0,0:0|0:0,0:0:0:0:
232,80,101573,1,10,0:0:0:0:
168,152,101734,6,0,P|136:47|192:23,1,170,2|0,0:0|1:0,0:0:0:0:
320,328,102379,2,0,P|400:288|424:160,1,170,2|2,0:0|0:0,0:0:0:0:
440,176,102863,1,2,0:0:0:0:
432,120,103024,1,10,0:0:0:0:
392,88,103186,5,10,0:1:0:0:
256,232,103508,1,2,0:0:0:0:
200,216,103670,2,0,L|192:32,1,170,2|2,0:0|0:0,0:0:0:0:
360,184,104315,2,0,P|344:304|216:352,1,255,10|0,0:0|0:0,0:0:0:0:
144,288,105121,1,0,1:0:0:0:
208,288,105282,1,8,0:3:0:0:
432,208,105766,6,0,P|464:144|384:40,1,170,14|8,0:1|0:0,0:0:0:0:
320,56,106411,1,0,1:0:0:0:
424,40,106734,1,8,0:0:0:0:
472,296,106895,2,0,L|352:160,1,170,2|0,1:0|1:0,0:0:0:0:
208,192,107702,2,0,L|392:40,1,170,2|10,1:0|0:0,0:0:0:0:
168,344,108347,6,0,P|118:282|164:218,1,170,14|8,0:1|0:0,0:0:0:0:
296,208,108992,2,0,P|336:160|248:80,1,170,0|10,1:0|0:0,0:0:0:0:
224,80,109476,1,0,1:0:0:0:
336,40,109799,1,0,1:0:0:0:
336,40,109960,1,8,0:0:0:0:
208,184,110282,2,0,P|160:144|240:64,1,170,2|10,1:2|0:0,0:0:0:0:
368,208,110928,5,12,0:1:0:0:
256,264,111250,1,0,0:0:0:0:
256,264,111411,1,2,0:0:0:0:
120,208,111734,1,2,0:0:0:0:
96,160,111895,1,2,0:0:0:0:
120,112,112057,1,2,0:0:0:0:
184,112,112218,5,10,0:1:0:0:
296,288,112541,1,0,0:0:0:0:
296,288,112702,1,2,0:0:0:0:
416,224,113024,1,2,0:0:0:0:
448,176,113186,1,2,0:0:0:0:
416,120,113347,1,8,0:0:0:0:
328,160,113508,6,0,L|168:0,2,170,10|10|2,0:1|0:0|1:0,0:0:0:0:
208,232,114476,1,8,0:0:0:0:
208,232,114637,1,0,1:0:0:0:
320,280,114960,5,0,1:0:0:0:
320,280,115121,1,10,0:0:0:0:
448,248,115444,1,0,1:0:0:0:
496,208,115605,1,0,1:0:0:0:
448,168,115766,1,8,0:3:0:0:
288,192,116089,6,0,L|72:-8,2,255,14|10|6,0:0|0:0|1:0,0:0:0:0:
168,248,117541,1,10,0:0:0:0:
376,336,118024,2,0,P|416:264|352:200,1,170,10|10,1:0|0:0,0:0:0:0:
232,240,118670,6,0,P|160:144|264:72,1,255,14|10,1:0|0:0,0:0:0:0:
480,296,119637,2,0,P|480:144|272:24,1,340,14|0,0:1|0:0,0:0:0:0:
208,48,120605,2,0,L|64:192,1,170,4|8,1:0|0:3,0:0:0:0:
248,320,121250,6,0,L|456:128,2,255,14|10|14,0:1|0:0|0:1,0:0:0:0:
408,328,122702,1,2,0:0:0:0:
232,232,123186,2,0,P|184:168|256:112,1,170,14|10,0:1|0:0,0:0:0:0:
400,168,123831,6,0,P|442:104|370:24,1,170,14|8,0:1|0:0,0:0:0:0:
320,32,124315,2,0,P|281:128|325:169,1,170,12|8,1:0|0:0,0:0:0:0:
400,168,124799,1,0,1:0:0:0:
400,168,124960,1,2,1:0:0:0:
256,192,126432,5,4,0:0:0:0:
256,192,126754,12,4,136754,0:0:0:0:
160,208,137077,5,0,0:0:0:0:
160,208,137238,1,0,0:0:0:0:
264,208,137561,1,2,0:0:0:0:
112,112,138044,1,8,0:2:0:0:
216,112,138367,1,0,0:0:0:0:
216,112,138528,1,0,0:0:0:0:
312,144,138851,1,2,0:0:0:0:
120,280,139335,5,8,0:0:0:0:
216,312,139657,1,0,0:0:0:0:
216,312,139818,1,0,0:0:0:0:
120,336,140141,1,2,0:0:0:0:
320,304,140625,1,8,0:0:0:0:
216,240,140948,1,0,0:0:0:0:
216,240,141109,1,0,0:0:0:0:
320,176,141431,1,2,0:0:0:0:
496,128,141915,5,8,0:0:0:0:
392,96,142238,1,0,0:0:0:0:
392,96,142399,1,0,0:0:0:0:
288,72,142722,1,2,0:0:0:0:
464,240,143206,1,8,0:0:0:0:
352,192,143528,1,0,0:0:0:0:
352,192,143690,1,0,0:0:0:0:
464,144,144012,1,2,0:0:0:0:
280,280,144496,5,8,0:0:0:0:
160,232,144819,1,0,0:0:0:0:
160,232,144980,1,0,0:0:0:0:
280,200,145302,1,2,0:0:0:0:
88,160,145786,1,8,0:0:0:0:
192,120,146109,1,0,0:0:0:0:
192,120,146270,1,0,0:0:0:0:
312,280,146593,6,0,P|384:232|304:112,1,255,2|10,0:0|0:0,0:0:0:0:
313,112,148367,5,8,0:0:0:0:
313,112,149657,5,8,0:0:0:0:
313,112,150948,5,8,0:0:0:0:
