osu file format v14

[General]
AudioFilename: audio.mp3
AudioLeadIn: 0
PreviewTime: 45526
Countdown: 0
SampleSet: Soft
StackLeniency: 0.7
Mode: 0
LetterboxInBreaks: 0
WidescreenStoryboard: 1

[Editor]
Bookmarks: 273943,281002
DistanceSpacing: 1
BeatDivisor: 4
GridSize: 32
TimelineZoom: 1

[Metadata]
Title:Perfect Sky
TitleUnicode:Perfect Sky
Artist:Shimotsuki Haruka
ArtistUnicode:霜月はるか
Creator:Kazato Asa
Version:Normal
Source:この大空に、翼をひろげて
Tags:Shizuku- Kono Oozora ni, Tsubasa o Hirogete Konosora If My Heart Had Wings IMHHW PULLTOP WillPlus pv op ed opening ending vn visual novel galgame Kenichi Okuma おおくま けんいち 大熊謙一 TWOFIVE Shimotsukin jpop pop eroge video game japanese
BeatmapID:2560214
BeatmapSetID:1230415

[Difficulty]
HPDrainRate:4
CircleSize:3.5
OverallDifficulty:5
ApproachRate:5.5
SliderMultiplier:1.12
SliderTickRate:1

[Events]
//Background and Video events
0,0,"HUT_07_002B.jpg",0,0
//Break Periods
2,98996,111348
2,171790,173554
//Storyboard Layer 0 (Background)
//Storyboard Layer 1 (Fail)
//Storyboard Layer 2 (Pass)
//Storyboard Layer 3 (Foreground)
//Storyboard Layer 4 (Overlay)
//Storyboard Sound Samples

[TimingPoints]
1299,441.176470588235,3,2,1,40,1,0
4828,-100,3,2,1,50,0,0
5269,-100,3,2,1,60,0,0
5931,-100,3,2,3,60,0,0
6593,-100,3,2,1,60,0,0
7034,-100,3,2,3,60,0,0
7916,-100,3,2,1,60,0,0
8357,441.176470588235,4,2,1,60,1,0
9018,-100,4,2,3,60,0,0
9459,-100,4,2,2,60,0,0
11445,-100,4,2,1,60,0,0
12548,-100,4,2,3,60,0,0
15415,-111.111111111111,4,2,1,50,0,0
16298,-111.111111111111,4,2,3,50,0,0
16739,-111.111111111111,4,2,1,50,0,0
16959,-111.111111111111,4,2,3,50,0,0
17621,-111.111111111111,4,2,1,50,0,0
18282,-111.111111111111,4,2,3,50,0,0
18945,-111.111111111111,4,2,1,50,0,0
19165,-111.111111111111,4,2,3,50,0,0
21151,-111.111111111111,4,2,1,50,0,0
21371,-111.111111111111,4,2,2,50,0,0
22033,-111.111111111111,4,2,3,50,0,0
22915,-111.111111111111,4,2,1,50,0,0
23356,-111.111111111111,4,2,3,50,0,0
23797,-111.111111111111,4,2,1,50,0,0
24018,-111.111111111111,4,2,3,50,0,0
24680,-111.111111111111,4,2,1,50,0,0
25341,-111.111111111111,4,2,3,50,0,0
26004,-111.111111111111,4,2,1,50,0,0
26224,-111.111111111111,4,2,3,50,0,0
27768,-111.111111111111,4,2,1,50,0,0
27988,-111.111111111111,4,2,3,50,0,0
28209,-111.111111111111,4,2,2,50,0,0
29092,-111.111111111111,4,2,1,50,0,0
30195,-100,4,2,3,50,0,0
30636,-100,4,2,2,50,0,0
30856,-100,4,2,1,50,0,0
31959,-100,4,2,3,50,0,0
32400,-100,4,2,2,50,0,0
33062,-100,4,2,3,50,0,0
35047,-100,4,2,2,50,0,0
36151,-100,4,2,1,50,0,0
37254,-100,4,2,3,50,0,0
37915,-100,4,2,1,50,0,0
38576,-100,4,2,3,50,0,0
38798,-100,4,2,1,50,0,0
39018,-100,4,2,3,50,0,0
39459,-100,4,2,2,50,0,0
39680,-100,4,2,1,50,0,0
40783,-100,4,2,3,50,0,0
41224,-100,4,2,2,50,0,0
41665,-100,4,2,3,50,0,0
41886,-100,4,2,1,50,0,0
42548,-100,4,2,3,50,0,0
43209,-100,4,2,1,50,0,0
45856,441.176470588235,4,2,1,70,1,1
46517,-100,4,2,3,70,0,1
46958,-100,4,2,2,70,0,1
47179,-100,4,2,1,70,0,1
48282,-100,4,2,2,70,0,1
49385,-100,4,2,1,70,0,1
50047,-100,4,2,3,70,0,1
51591,-100,4,2,1,70,0,1
53576,-100,4,2,3,70,0,1
54017,-100,4,2,2,70,0,1
56444,-100,4,2,1,70,0,1
57105,-100,4,2,3,70,0,1
57546,-100,4,2,2,70,0,1
57767,-100,4,2,1,70,0,1
58428,-100,4,2,3,70,0,1
58649,-100,4,2,1,70,0,1
59753,-100,4,2,3,70,0,1
59973,-100,4,2,1,70,0,1
60635,-100,4,2,3,70,0,1
61076,-100,4,2,2,70,0,1
61297,-100,4,2,1,70,0,1
61517,-100,4,2,2,70,0,1
63503,-100,4,2,1,70,0,1
64164,-100,4,2,3,70,0,1
65708,-100,4,2,1,70,0,1
67252,-100,4,2,3,70,0,1
67473,-100,4,2,1,70,0,1
67694,-100,4,2,3,70,0,1
68135,-100,4,2,2,70,0,1
70561,-100,4,2,1,70,0,1
71002,-100,4,2,2,70,0,1
71223,-100,4,2,3,70,0,1
71664,-100,4,2,2,70,0,1
71885,-100,4,2,3,70,0,1
72767,-100,4,2,2,70,0,1
73650,-100,4,2,1,70,0,1
74091,-100,4,2,1,65,0,1
74753,-100,4,2,3,65,0,1
75194,-100,4,2,2,65,0,1
75414,-100,4,2,1,65,0,1
75634,-100,4,2,2,65,0,1
75855,-100,4,2,1,65,0,1
76517,-100,4,2,3,65,0,1
76958,-100,4,2,2,65,0,1
77399,-100,4,2,3,65,0,1
77620,-100,4,2,1,65,0,1
77840,-100,4,2,3,65,0,1
78061,-100,4,2,1,65,0,1
78282,-100,4,2,3,65,0,1
78944,-100,4,2,1,65,0,1
80047,-100,4,2,2,65,0,1
80487,-100,4,2,3,65,0,1
80708,-100,4,2,1,65,0,1
81370,-100,4,2,3,65,0,1
81591,-100,4,2,1,65,0,1
81811,-100,4,2,3,65,0,1
82473,-100,4,2,1,65,0,1
83576,-100,4,2,2,65,0,1
84017,-100,4,2,3,65,0,1
84679,-100,4,2,1,60,0,0
85341,-100,4,2,2,60,0,0
87326,-100,4,2,1,60,0,0
88538,-100,4,2,3,60,0,0
90635,-100,4,2,2,60,0,0
91738,-100,4,2,1,60,0,0
92399,-100,4,2,3,60,0,0
92620,-100,4,2,1,60,0,0
93282,-100,4,2,2,60,0,0
94385,-100,4,2,1,60,0,0
95929,-100,4,2,3,60,0,0
96370,-100,4,2,2,60,0,0
96591,-100,4,2,1,60,0,0
97032,-100,4,2,3,60,0,0
98796,-100,4,2,1,50,0,0
112914,-100,4,2,1,60,0,0
113576,-100,4,2,3,60,0,0
114017,-100,4,2,2,60,0,0
114238,-100,4,2,1,60,0,0
114458,-100,4,2,2,60,0,0
114679,-100,4,2,1,60,0,0
115341,-100,4,2,3,60,0,0
115782,-100,4,2,2,60,0,0
116444,-100,4,2,3,60,0,0
118870,-100,4,2,2,60,0,0
119532,-100,4,2,1,60,0,0
120635,-100,4,2,3,60,0,0
121297,-100,4,2,1,60,0,0
121958,-100,4,2,3,60,0,0
122179,-100,4,2,1,60,0,0
122400,-100,4,2,3,60,0,0
122841,-100,4,2,2,60,0,0
123061,-100,4,2,1,60,0,0
124164,-100,4,2,3,60,0,0
124605,-100,4,2,2,60,0,0
125046,-100,4,2,3,60,0,0
125267,-100,4,2,1,60,0,0
125929,-100,4,2,3,60,0,0
126591,-100,4,2,1,60,0,0
128989,441.176470588235,4,2,1,60,1,0
129238,441.176470588235,4,2,1,70,1,1
129899,-100,4,2,3,70,0,1
130340,-100,4,2,2,70,0,1
130561,-100,4,2,1,70,0,1
131664,-100,4,2,2,70,0,1
132767,-100,4,2,1,70,0,1
133429,-100,4,2,3,70,0,1
134973,-100,4,2,1,70,0,1
136958,-100,4,2,3,70,0,1
137399,-100,4,2,2,70,0,1
139826,-100,4,2,1,70,0,1
140488,-100,4,2,3,70,0,1
140928,-100,4,2,2,70,0,1
141149,-100,4,2,1,70,0,1
141811,-100,4,2,3,70,0,1
142031,-100,4,2,1,70,0,1
143135,-100,4,2,3,70,0,1
143355,-100,4,2,1,70,0,1
144017,-100,4,2,3,70,0,1
144458,-100,4,2,2,70,0,1
144679,-100,4,2,1,70,0,1
145782,-100,4,2,2,70,0,1
146885,-100,4,2,1,70,0,1
147546,-100,4,2,3,70,0,1
149090,-100,4,2,1,70,0,1
150634,-100,4,2,3,70,0,1
150855,-100,4,2,1,70,0,1
151076,-100,4,2,3,70,0,1
151517,-100,4,2,2,70,0,1
153943,-100,4,2,1,70,0,1
154384,-100,4,2,2,70,0,1
154605,-100,4,2,3,70,0,1
155046,-100,4,2,2,70,0,1
155267,-100,4,2,3,70,0,1
156149,-100,4,2,2,70,0,1
157032,-100,4,2,1,70,0,1
157473,-100,4,2,1,65,0,1
158135,-100,4,2,3,65,0,1
158576,-100,4,2,2,65,0,1
158796,-100,4,2,1,65,0,1
159016,-100,4,2,2,65,0,1
159237,-100,4,2,1,65,0,1
159899,-100,4,2,3,65,0,1
160340,-100,4,2,2,65,0,1
160781,-100,4,2,3,65,0,1
161002,-100,4,2,1,65,0,1
161222,-100,4,2,3,65,0,1
161443,-100,4,2,1,65,0,1
161664,-100,4,2,3,65,0,1
162326,-100,4,2,1,65,0,1
163429,-100,4,2,2,65,0,1
163869,-100,4,2,3,65,0,1
164090,-100,4,2,1,65,0,1
164752,-100,4,2,3,65,0,1
164973,-100,4,2,1,65,0,1
165193,-100,4,2,3,65,0,1
165855,-100,4,2,1,65,0,1
166958,-100,4,2,2,65,0,1
167399,-100,4,2,3,65,0,1
168061,-100,4,2,1,60,0,0
175782,-100,4,2,3,60,0,0
176223,-100,4,2,2,60,0,0
176443,-100,4,2,1,60,0,0
176664,-100,4,2,3,60,0,0
177105,-100,4,2,2,60,0,0
177767,-100,4,2,1,60,0,0
178429,-100,4,2,2,60,0,0
178649,-100,4,2,1,60,0,0
179311,-100,4,2,3,60,0,0
179752,-100,4,2,2,60,0,0
179973,-100,4,2,1,60,0,0
180193,-100,4,2,3,60,0,0
180634,-100,4,2,2,60,0,0
181296,-100,4,2,1,60,0,0
182840,-100,4,2,3,60,0,0
183502,-100,4,2,1,60,0,0
183723,-100,4,2,3,60,0,0
184164,-100,4,2,2,60,0,0
184826,-100,4,2,1,60,0,0
185487,-100,4,2,2,60,0,0
185708,-100,4,2,1,60,0,0
186370,-100,4,2,3,60,0,0
186811,-100,4,2,2,60,0,0
187032,-100,4,2,1,60,0,0
187252,-100,4,2,3,60,0,0
187693,-100,4,2,2,60,0,0
188355,-100,4,2,1,60,0,0
189899,-100,4,2,3,60,0,0
190340,-100,4,2,2,60,0,0
190561,-100,4,2,1,60,0,0
190782,-100,4,2,3,60,0,0
191223,-100,4,2,2,60,0,0
192326,-100,4,2,3,60,0,0
192767,-100,4,2,1,60,0,0
193429,-100,4,2,3,60,0,0
193870,-100,4,2,2,60,0,0
194090,-100,4,2,1,60,0,0
194311,-100,4,2,3,60,0,0
194752,-100,4,2,2,60,0,0
196076,-100,4,2,1,60,0,0
196737,-100,4,2,2,60,0,0
198502,-100,4,2,3,60,0,0
199164,-100,4,2,2,60,0,0
199385,-100,4,2,3,60,0,0
199826,-100,4,2,2,60,0,0
200929,-100,4,2,3,60,0,0
203796,-100,4,2,2,60,0,0
205561,-100,4,2,3,60,0,0
206885,-100,4,2,2,60,0,0
207767,-100,4,2,3,60,0,0
210855,-100,4,2,2,60,0,0
211296,-100,4,2,3,60,0,0
213281,-100,4,2,2,60,0,0
213502,-100,4,2,3,60,0,0
223649,-100,4,2,1,60,0,0
223869,-100,4,2,2,60,0,0
224090,-100,4,2,5,60,0,0
224311,-100,4,2,4,60,0,0
224532,-100,4,2,3,70,0,1
225635,-100,4,2,2,70,0,1
225855,-100,4,2,1,70,0,1
226958,-100,4,2,2,70,0,1
228061,-100,4,2,1,70,0,1
228723,-100,4,2,3,70,0,1
230267,-100,4,2,1,70,0,1
232252,-100,4,2,3,70,0,1
232693,-100,4,2,2,70,0,1
235120,-100,4,2,1,70,0,1
235782,-100,4,2,3,70,0,1
236223,-100,4,2,2,70,0,1
236443,-100,4,2,1,70,0,1
236664,-100,4,2,2,70,0,1
237105,-100,4,2,3,70,0,1
237767,-100,4,2,1,70,0,1
238429,-100,4,2,3,70,0,1
238649,-100,4,2,1,70,0,1
239311,-100,4,2,3,70,0,1
239752,-100,4,2,2,70,0,1
239973,-100,4,2,1,70,0,1
241076,-100,4,2,2,70,0,1
242179,-100,4,2,1,70,0,1
242840,-100,4,2,3,70,0,1
244385,-100,4,2,1,70,0,1
245928,-100,4,2,3,70,0,1
246149,-100,4,2,1,70,0,1
246370,-100,4,2,3,70,0,1
246811,-100,4,2,2,70,0,1
249237,-100,4,2,1,70,0,1
249678,-100,4,2,2,70,0,1
249899,-100,4,2,3,70,0,1
250340,-100,4,2,2,70,0,1
250561,-100,4,2,3,70,0,1
251443,-100,4,2,2,70,0,1
252326,-100,4,2,3,70,0,1
252546,-100,4,2,2,70,0,1
252767,-100,4,2,1,65,0,1
253429,-100,4,2,3,65,0,1
253870,-100,4,2,2,65,0,1
254090,-100,4,2,1,65,0,1
254310,-100,4,2,2,65,0,1
254532,-100,4,2,1,65,0,1
255193,-100,4,2,3,65,0,1
255635,-100,4,2,2,65,0,1
256075,-100,4,2,3,65,0,1
256296,-100,4,2,1,65,0,1
256516,-100,4,2,3,65,0,1
256737,-100,4,2,1,65,0,1
256958,-100,4,2,3,65,0,1
257620,-100,4,2,1,65,0,1
258723,-100,4,2,2,65,0,1
259163,-100,4,2,3,65,0,1
259384,-100,4,2,1,65,0,1
260046,-100,4,2,3,65,0,1
260267,-100,4,2,1,65,0,1
260487,-100,4,2,3,65,0,1
261149,-100,4,2,1,65,0,1
262252,-100,4,2,2,65,0,1
262693,-100,4,2,3,65,0,1
263355,-100,4,2,1,60,0,0
264017,-100,4,2,2,60,0,0
264679,-100,4,2,1,60,0,0
265782,-100,4,2,2,60,0,0
266002,-100,4,2,1,60,0,0
267546,-100,4,2,3,60,0,0
267987,-100,4,2,2,60,0,0
268208,-100,4,2,1,60,0,0
268649,-100,4,2,2,60,0,0
270193,-100,4,2,3,60,0,0
271516,-100,4,2,2,60,0,0
271737,-100,4,2,3,60,0,0
271958,-100,4,2,2,60,0,0
272399,-100,4,2,3,60,0,0
272620,-100,4,2,2,60,0,0
273061,-100,4,2,3,60,0,0
273943,-100,4,2,1,60,0,0
281002,-100,4,2,1,5,0,0

[Colours]
Combo1 : 149,219,125
Combo2 : 218,184,112

[HitObjects]
98,369,637,6,0,L|152:357,2,56.0224,2|2|2,2:0|2:0|2:0,2:0:0:0:
44,384,1299,6,0,P|2:313|19:232,1,168.194133333333,2|2,2:0|2:0,2:0:0:0:
94,151,2401,1,2,2:0:0:0:
94,151,2622,2,0,L|203:175,1,112.0448,2|0,2:0|2:0,2:0:0:0:
256,192,3284,5,2,2:0:0:0:
256,192,4607,5,10,2:0:0:0:
256,192,4828,2,0,P|283:186|310:180,1,56.1493333333333,10|10,2:0|2:0,2:0:0:0:
364,197,5269,6,0,P|396:152|394:97,1,112.0448,6|10,3:2|2:0,2:0:0:0:
362,51,5931,1,2,2:0:0:0:
255,15,6372,1,2,2:0:0:0:
255,15,6593,2,0,L|145:37,1,112.0448,10|2,2:0|3:2,2:0:0:0:
93,14,7254,1,2,2:0:0:0:
24,103,7696,1,2,2:0:0:0:
24,103,7916,2,0,L|35:157,1,56.1493333333333,10|8,3:2|2:0,2:0:0:0:
8,207,8357,6,0,P|62:200|109:228,1,112.0448,14|10,3:2|2:0,2:0:0:0:
145,270,9018,2,0,P|200:255|254:242,1,112.0448,2|2,2:0|2:0,2:0:0:0:
308,227,9680,1,8,2:0:0:0:
266,121,10121,2,0,P|266:66|294:19,1,112.0448,0|8,3:0|2:0,2:0:0:0:
349,6,10783,1,2,2:0:0:0:
349,6,11004,2,0,L|404:15,1,56.1493333333333,0|2,3:0|2:0,2:0:0:0:
459,24,11445,1,10,2:0:0:0:
503,126,11886,6,0,B|492:179|492:179|494:186|494:186|481:235,1,112.0448,6|10,3:2|2:0,2:0:0:0:
508,284,12548,2,0,P|458:284|410:319,1,112.0448,2|0,2:0|3:0,2:0:0:0:
375,364,13209,1,8,2:0:0:0:
267,353,13651,1,0,3:0:0:0:
267,353,13871,2,0,B|254:303|254:303|256:296|256:296|245:243,1,112.0448,0|8,3:0|2:0,2:0:0:0:
293,215,14533,2,0,P|319:166|310:112,1,112.0448,0|8,3:0|2:0,2:0:0:0:
225,39,15415,6,0,L|126:56,1,100.840316923828,6|2,3:2|3:2,2:0:0:0:
15,38,16298,2,0,P|0:86|14:134,1,100.840316923828,2|2,3:2|3:2,2:0:0:0:
56,171,16959,2,0,L|39:270,1,100.840316923828,2|2,2:0|2:0,2:0:0:0:
26,324,17621,1,2,3:2:0:0:
124,374,18062,2,0,L|132:324,2,50.4201584619141,2|2|2,3:2|2:0|3:2,2:0:0:0:
237,360,18945,5,2,3:2:0:0:
237,360,19165,2,0,L|245:310,1,50.5343984619141,2|0,2:0|3:0,2:0:0:0:
188,215,19827,2,0,L|138:223,2,50.4201584619141,2|2|0,3:2|2:0|3:0,2:0:0:0:
267,137,20709,2,0,L|316:145,1,50.5343984619141,2|2,3:2|2:0,2:0:0:0:
358,182,21151,1,2,3:2:0:0:
358,182,21371,2,0,P|399:156|450:156,1,100.840316923828,2|2,2:0|2:0,2:0:0:0:
498,183,22033,1,2,3:2:0:0:
482,292,22474,5,2,3:2:0:0:
388,351,22915,1,2,3:2:0:0:
280,322,23356,2,0,L|261:222,1,100.840316923828,2|2,3:2|3:2,2:0:0:0:
252,168,24018,2,0,P|273:123|269:73,1,100.840316923828,2|2,2:0|2:0,2:0:0:0:
225,39,24680,1,2,3:2:0:0:
114,49,25121,2,0,L|106:-1,2,50.4201584619141,2|2|2,3:2|2:0|3:2,2:0:0:0:
49,140,26004,5,2,3:2:0:0:
49,140,26224,2,0,L|57:190,1,50.5343984619141,2|0,2:0|3:0,2:0:0:0:
68,300,26886,2,0,L|18:308,2,50.4201584619141,2|2|0,3:2|2:0|3:0,2:0:0:0:
166,350,27768,2,0,L|216:342,1,50.5343984619141,2|10,3:2|2:0,2:0:0:0:
263,370,28209,1,10,3:2:0:0:
263,370,28430,2,0,P|286:326|278:277,1,100.840316923828,8|8,2:0|2:0,2:0:0:0:
243,235,29092,1,2,3:2:0:0:
218,126,29533,5,6,3:2:0:0:
280,35,29974,1,10,2:0:0:0:
280,35,30195,2,0,P|331:56|386:53,1,112.0448,2|2,2:0|2:0,2:0:0:0:
430,18,30856,1,10,2:0:0:0:
494,109,31298,1,2,3:2:0:0:
448,212,31739,1,10,2:0:0:0:
447,212,31959,2,0,P|391:204|336:195,1,112.0448,2|2,2:0|2:0,2:0:0:0:
293,188,32621,1,10,2:0:0:0:
239,89,33062,6,0,P|211:94|183:99,1,56.1493333333333,2|2,3:2|2:0,2:0:0:0:
141,70,33504,1,10,2:0:0:0:
141,70,33724,2,0,P|86:67|42:100,1,112.0448,2|2,2:0|2:0,2:0:0:0:
5,205,34606,2,0,P|18:259|27:314,1,112.0448,2|2,2:0|2:0,2:0:0:0:
14,357,35268,2,0,P|68:348|116:375,1,112.0448,8|0,2:0|3:0,2:0:0:0:
228,383,36151,1,10,2:0:0:0:
256,274,36592,5,6,3:2:0:0:
199,177,37033,1,10,2:0:0:0:
199,176,37254,2,0,P|206:121|215:66,1,112.0448,2|2,2:0|2:0,2:0:0:0:
223,10,37915,1,10,2:0:0:0:
326,51,38356,2,0,L|380:39,1,56.1493333333333,2|2,3:2|2:0,2:0:0:0:
431,15,38798,1,10,2:0:0:0:
431,15,39018,2,0,P|464:59|470:114,1,112.0448,2|2,2:0|2:0,2:0:0:0:
444,164,39680,1,10,2:0:0:0:
503,258,40121,6,0,P|447:267|392:277,1,112.0448,6|10,3:2|2:0,2:0:0:0:
337,289,40783,1,2,2:0:0:0:
255,365,41224,1,2,2:0:0:0:
255,365,41445,2,0,L|199:354,1,56.1493333333333,8|2,2:0|2:0,2:0:0:0:
149,380,41886,6,0,B|95:358|126:335|62:312,1,112.0448,2|8,3:2|2:0,2:0:0:0:
8,299,42548,1,2,3:2:0:0:
8,299,42768,1,8,2:0:0:0:
26,188,43209,2,0,B|67:175|67:175|85:154|85:154|124:141,1,112.0448,10|0,2:0|3:0,2:0:0:0:
181,127,43871,1,8,2:0:0:0:
181,127,44092,1,8,2:0:0:0:
267,198,44533,2,0,L|255:252,1,56.1493333333333,0|0,3:0|3:0,2:0:0:0:
241,309,44974,1,8,2:0:0:0:
241,309,45195,1,8,2:0:0:0:
329,377,45636,5,2,2:0:0:0:
329,377,45856,2,0,B|386:362|361:333|421:317,1,112.0448,6|8,3:2|2:0,2:0:0:0:
475,330,46517,1,2,2:0:0:0:
505,222,46958,1,2,2:0:0:0:
505,222,47179,2,0,L|492:167,1,56.1493333333333,10|0,2:0|2:0,2:0:0:0:
503,112,47620,2,0,B|463:104|463:104|450:88|450:88|400:77,1,112.0448,0|8,3:0|2:0,2:0:0:0:
345,67,48282,1,2,2:0:0:0:
345,67,48503,2,0,L|332:12,2,56.0224,0|2|8,3:0|2:0|2:0,2:0:0:0:
241,110,49385,5,2,3:2:0:0:
168,32,49826,1,10,2:0:0:0:
168,32,50047,2,0,B|107:29|69:75,1,112.0448,2|2,2:0|2:0,2:0:0:0:
4,165,50929,2,0,P|12:220|20:275,1,112.0448,2|0,2:0|2:0,2:0:0:0:
32,330,51591,1,10,2:0:0:0:
135,373,52032,1,2,3:2:0:0:
232,318,52473,1,10,2:0:0:0:
256,208,52914,5,6,3:2:0:0:
223,106,53355,1,10,2:0:0:0:
223,106,53576,2,0,P|271:79|326:85,1,112.0448,2|2,2:0|2:0,2:0:0:0:
368,121,54238,1,8,2:0:0:0:
476,94,54679,2,0,P|466:149|458:204,1,112.0448,0|8,3:0|2:0,2:0:0:0:
473,263,55341,1,2,2:0:0:0:
473,263,55561,2,0,B|415:263|377:312,1,112.0448,0|8,3:0|2:0,2:0:0:0:
289,383,56444,5,2,3:2:0:0:
242,286,56885,1,8,2:0:0:0:
242,286,57105,2,0,P|253:231|263:176,1,112.0448,2|2,2:0|2:0,2:0:0:0:
276,121,57767,1,10,2:0:0:0:
212,35,58208,1,0,3:0:0:0:
212,36,58430,2,0,L|157:45,1,56.0224,10|10,0:0|2:0,2:0:0:0:
47,68,59091,2,0,P|51:95|57:122,1,56,2|10,3:2|2:0,2:0:0:0:
26,169,59532,1,10,0:0:0:0:
28,225,59753,1,10,0:0:0:0:
74,257,59973,6,0,B|128:275|106:302|161:324,1,112.0448,6|8,3:2|2:0,2:0:0:0:
213,342,60635,1,2,2:0:0:0:
259,242,61076,1,2,2:0:0:0:
259,242,61297,2,0,P|253:214|248:187,1,56.1493333333333,10|2,2:0|2:0,2:0:0:0:
281,142,61738,2,0,P|335:153|390:165,1,112.0448,0|8,3:0|2:0,2:0:0:0:
448,185,62400,1,2,2:0:0:0:
448,185,62620,2,0,P|475:137|470:82,1,112.0448,0|8,3:0|2:0,2:0:0:0:
384,9,63503,6,0,P|329:20|274:32,1,112.0448,2|10,3:2|2:0,2:0:0:0:
219,44,64164,1,2,2:0:0:0:
184,150,64605,1,2,2:0:0:0:
248,241,65047,2,0,P|302:227|356:215,1,112.0448,2|0,2:0|2:0,2:0:0:0:
411,202,65708,1,10,2:0:0:0:
468,298,66150,1,2,3:2:0:0:
393,383,66591,1,10,2:0:0:0:
283,361,67032,6,0,L|271:306,1,56.1493333333333,6|2,3:2|2:0,2:0:0:0:
233,264,67473,1,10,2:0:0:0:
233,264,67694,2,0,B|181:279|199:304|137:320,1,112.0448,2|2,2:0|2:0,2:0:0:0:
100,361,68355,1,8,2:0:0:0:
15,284,68797,2,0,P|0:232|20:180,1,112.0448,0|8,3:0|2:0,2:0:0:0:
59,141,69458,1,2,2:0:0:0:
59,141,69679,2,0,L|45:87,2,56.0224,0|2|8,3:0|2:0|2:0,2:0:0:0:
159,91,70561,6,0,B|221:106|197:129|257:143,1,112.0448,2|10,3:2|2:0,2:0:0:0:
303,173,71223,2,0,B|365:158|341:135|401:121,1,112.0448,2|2,2:0|2:0,2:0:0:0:
446,90,71885,1,10,2:0:0:0:
507,183,72326,2,0,P|496:240|487:294,1,112.0448,0|10,3:0|2:0,2:0:0:0:
475,351,72988,1,2,2:0:0:0:
475,351,73208,2,0,P|446:345|419:341,1,56.1493333333333,2|8,3:2|2:0,2:0:0:0:
364,331,73650,1,10,2:0:0:0:
253,306,74091,6,0,P|238:253|255:200,1,112.0448,6|10,3:2|2:0,2:0:0:0:
297,164,74753,1,2,2:0:0:0:
273,54,75194,1,2,2:0:0:0:
273,54,75414,2,0,L|217:46,1,56.1493333333333,10|2,2:0|2:0,2:0:0:0:
170,13,75855,2,0,P|115:12|68:41,1,112.0448,2|10,3:2|2:0,2:0:0:0:
37,87,76517,1,2,2:0:0:0:
4,194,76958,1,2,2:0:0:0:
4,194,77179,2,0,L|12:249,1,56.1493333333333,8|2,2:0|2:0,2:0:0:0:
52,289,77620,6,0,L|43:344,2,56.0224,6|2|10,3:2|2:0|2:0,2:0:0:0:
106,276,78282,2,0,P|160:284|210:260,1,112.0448,2|2,2:0|2:0,2:0:0:0:
254,226,78944,1,10,2:0:0:0:
284,118,79385,2,0,B|323:103|323:103|333:89|333:89|382:70,1,112.0448,0|8,3:0|2:0,2:0:0:0:
438,79,80047,1,2,2:0:0:0:
438,79,80267,2,0,L|446:23,2,56.0224,2|2|10,3:2|2:0|2:0,2:0:0:0:
496,174,81150,6,0,L|487:229,1,56.1493333333333,6|2,3:2|2:0,2:0:0:0:
504,287,81591,1,10,2:0:0:0:
504,287,81811,2,0,B|475:342|413:342,1,112.0448,2|2,2:0|2:0,2:0:0:0:
363,316,82473,1,10,2:0:0:0:
265,261,82914,2,0,P|256:205|246:150,1,112.0448,0|8,3:0|2:0,2:0:0:0:
276,103,83576,1,10,2:0:0:0:
276,103,83797,2,0,L|333:115,2,56.0224,0|10|10,3:0|2:0|2:0,2:0:0:0:
193,26,84679,6,0,P|143:48|87:44,1,112.0448,6|8,3:2|2:0,2:0:0:0:
33,30,85341,2,0,P|42:85|52:140,1,112.0448,2|2,2:0|2:0,2:0:0:0:
72,192,86003,1,8,2:0:0:0:
16,289,86444,2,0,P|63:316|118:314,1,112.0448,0|8,3:0|2:0,2:0:0:0:
165,283,87105,1,2,2:0:0:0:
165,283,87326,1,2,3:2:0:0:
210,180,87767,1,10,2:0:0:0:
167,76,88208,6,0,P|125:85|85:94,2,84.0970666666666,6|2|2,3:2|2:0|2:0,2:0:0:0:
192,33,89091,2,0,B|241:46|241:46|249:56|249:56|295:68,1,112.0448,2|8,3:2|2:0,2:0:0:0:
399,27,89973,2,0,P|426:74|423:129,1,112.0448,0|8,3:0|2:0,2:0:0:0:
461,178,90635,1,2,2:0:0:0:
461,178,90855,2,0,P|453:233|445:288,1,112.0448,0|8,3:0|2:0,2:0:0:0:
335,313,91738,6,0,P|326:271|316:231,2,84.0970666666666,6|2|2,3:2|2:0|2:0,2:0:0:0:
293,350,92620,2,0,B|234:335|190:380,1,112.0448,2|8,3:2|2:0,2:0:0:0:
147,344,93282,1,2,2:0:0:0:
147,344,93503,2,0,L|92:356,2,56.0224,0|2|8,3:0|2:0|2:0,2:0:0:0:
102,241,94385,2,0,P|110:185|118:130,1,112.0448,2|10,3:2|2:0,2:0:0:0:
50,41,95267,6,0,P|97:13|152:19,1,112.0448,6|10,3:2|2:0,2:0:0:0:
195,55,95929,1,2,2:0:0:0:
306,29,96370,1,2,2:0:0:0:
306,29,96591,2,0,P|295:83|286:139,1,112.0448,14|10,2:0|3:2,2:0:0:0:
274,193,97253,1,2,2:0:0:0:
353,279,97694,1,2,2:0:0:0:
353,279,97914,2,0,B|409:264|409:264|414:268|414:268|459:253,2,112.0448,8|0|6,2:0|3:0|3:2,2:0:0:0:
353,279,112473,5,2,3:2:0:0:
273,357,112914,2,0,B|219:349|219:349|214:342|214:342|165:334,1,112.0448,6|10,3:2|2:0,2:0:0:0:
119,367,113576,1,2,2:0:0:0:
23,320,114017,1,2,2:0:0:0:
23,320,114238,2,0,P|25:292|28:264,1,56.1493333333333,10|2,2:0|2:0,2:0:0:0:
2,214,114679,1,2,3:2:0:0:
104,165,115120,1,10,2:0:0:0:
104,165,115341,2,0,B|167:175|143:205|200:217,1,112.0448,2|2,2:0|2:0,2:0:0:0:
253,200,116003,1,10,2:0:0:0:
350,254,116444,6,0,L|404:239,1,56.1493333333333,2|2,3:2|2:0,2:0:0:0:
455,260,116885,1,10,2:0:0:0:
455,260,117105,2,0,P|482:212|473:157,1,112.0448,2|2,2:0|2:0,2:0:0:0:
505,52,117988,1,2,2:0:0:0:
505,52,118208,2,0,P|449:43|394:34,1,112.0448,0|8,3:0|2:0,2:0:0:0:
344,8,118870,1,2,2:0:0:0:
344,8,119091,1,0,3:0:0:0:
256,77,119532,1,10,2:0:0:0:
161,17,119973,5,6,3:2:0:0:
58,56,120414,1,10,2:0:0:0:
58,56,120635,2,0,P|32:105|38:159,1,112.0448,2|2,2:0|2:0,2:0:0:0:
61,210,121297,1,10,2:0:0:0:
107,311,121738,6,0,L|52:323,2,56.0224,2|2|10,3:2|2:0|2:0,2:0:0:0:
159,331,122400,2,0,B|210:295|198:233,1,112.0448,2|2,2:0|2:0,2:0:0:0:
171,184,123061,1,10,2:0:0:0:
183,72,123503,6,0,B|226:58|226:58|237:44|237:44|283:29,1,112.0448,6|10,3:2|2:0,2:0:0:0:
333,4,124164,2,0,B|376:18|376:18|387:32|387:32|433:46,1,112.0448,2|2,2:0|2:0,2:0:0:0:
501,142,125047,1,2,2:0:0:0:
501,142,125267,6,0,P|501:197|469:241,1,112,2|8,3:2|2:0,2:0:0:0:
424,273,125929,1,2,3:2:0:0:
424,273,126150,1,8,2:0:0:0:
341,197,126591,2,0,P|350:141|359:86,1,112.0448,10|0,2:0|3:0,2:0:0:0:
368,31,127253,1,8,2:0:0:0:
368,31,127473,1,8,2:0:0:0:
255,20,127914,2,0,P|209:49|154:45,1,112.0448,0|8,3:0|2:0,2:0:0:0:
103,22,128576,1,8,2:0:0:0:
24,90,128989,5,2,2:0:0:0:
24,90,129238,2,0,P|34:145|41:200,1,112.0448,6|8,3:2|2:0,2:0:0:0:
52,255,129899,1,2,2:0:0:0:
29,364,130340,1,2,2:0:0:0:
29,363,130561,2,0,P|54:351|81:351,1,56.1493333333333,10|0,2:0|2:0,2:0:0:0:
133,372,131002,2,0,P|187:358|242:346,1,112.0448,0|8,3:0|2:0,2:0:0:0:
290,375,131664,2,0,P|309:323|298:269,1,112.0448,2|2,2:0|2:0,2:0:0:0:
252,237,132326,1,8,2:0:0:0:
203,136,132767,5,2,3:2:0:0:
252,35,133208,1,10,2:0:0:0:
252,35,133429,2,0,B|305:24|305:24|311:28|311:28|359:14,1,112.0448,2|2,2:0|2:0,2:0:0:0:
470,30,134311,2,0,P|461:85|453:140,1,112.0448,2|0,2:0|2:0,2:0:0:0:
482,188,134973,1,10,2:0:0:0:
477,299,135414,1,2,3:2:0:0:
387,366,135855,1,10,2:0:0:0:
281,328,136296,6,0,B|270:277|270:277|272:271|272:271|259:218,1,112.0448,6|10,3:2|2:0,2:0:0:0:
278,166,136958,2,0,B|221:151|245:121|184:109,1,112.0448,2|2,2:0|2:0,2:0:0:0:
130,122,137620,1,8,2:0:0:0:
25,81,138061,2,0,P|0:129|5:184,1,112.0448,0|8,3:0|2:0,2:0:0:0:
37,237,138723,1,2,2:0:0:0:
37,237,138943,2,0,L|25:291,2,56.0224,0|2|8,3:0|2:0|2:0,2:0:0:0:
145,207,139826,6,0,B|160:229|160:229|243:245,1,112.0448,2|8,3:2|2:0,2:0:0:0:
285,282,140488,1,2,2:0:0:0:
289,286,140708,2,0,B|296:275|296:275|338:267,1,56.1493333333333,0|2,3:0|2:0,2:0:0:0:
393,257,141149,1,10,2:0:0:0:
494,316,141590,1,0,3:0:0:0:
494,316,141811,2,0,L|507:261,1,56.1493333333333,10|10,2:0|2:0,2:0:0:0:
451,163,142473,2,0,P|439:137|436:109,1,56,2|0,3:2|3:0,2:0:0:0:
467,63,142914,1,8,0:0:0:0:
449,9,143135,1,10,2:0:0:0:
393,3,143355,6,0,B|347:9|347:9|337:16|337:16|284:24,1,112.0448,6|8,3:2|2:0,2:0:0:0:
231,47,144017,1,2,2:0:0:0:
147,120,144458,1,2,2:0:0:0:
147,120,144679,2,0,L|91:109,1,56.1493333333333,10|0,2:0|2:0,2:0:0:0:
38,93,145120,2,0,P|14:142|24:196,1,112.0448,0|8,3:0|2:0,2:0:0:0:
65,242,145782,1,2,2:0:0:0:
65,242,146002,2,0,L|52:299,2,56.0224,0|2|8,3:0|2:0|2:0,2:0:0:0:
172,208,146885,6,0,B|196:201|196:201|252:226|252:226|277:220,1,112.0448,2|10,3:2|2:0,2:0:0:0:
327,244,147546,1,2,2:0:0:0:
372,141,147988,1,2,2:0:0:0:
344,32,148429,2,0,B|368:25|368:25|424:50|424:50|449:44,1,112.0448,2|0,2:0|2:0,2:0:0:0:
501,26,149090,1,10,2:0:0:0:
487,137,149532,1,2,3:2:0:0:
473,248,149973,1,10,2:0:0:0:
508,354,150414,6,0,B|496:362|496:362|454:355,1,56.1493333333333,6|2,3:2|2:0,2:0:0:0:
403,378,150855,1,10,2:0:0:0:
403,378,151076,2,0,P|365:348|303:348,1,112.0448,2|2,2:0|0:0,2:0:0:0:
254,375,151738,1,8,2:0:0:0:
208,272,152179,2,0,P|217:216|227:161,1,112.0448,0|8,3:0|2:0,2:0:0:0:
236,110,152840,1,2,2:0:0:0:
236,110,153061,2,0,L|290:98,2,56.0224,0|2|8,2:0|2:0|2:0,2:0:0:0:
152,35,153943,6,0,P|101:27|48:51,1,112.0448,2|10,3:2|2:0,2:0:0:0:
13,96,154605,2,0,P|22:151|32:206,1,112.0448,2|2,2:0|2:0,2:0:0:0:
43,261,155267,1,10,2:0:0:0:
13,369,155708,2,0,B|34:351|34:351|117:364,1,112.0448,0|10,3:0|2:0,2:0:0:0:
156,324,156370,1,2,2:0:0:0:
160,328,156590,2,0,B|178:333|178:333|214:324,1,56.1493333333333,2|10,3:2|2:0,2:0:0:0:
269,314,157032,1,10,2:0:0:0:
373,353,157473,6,0,P|394:302|383:248,1,112.0448,6|10,3:2|2:0,2:0:0:0:
340,212,158135,1,2,2:0:0:0:
273,128,158576,1,2,2:0:0:0:
273,128,158796,2,0,L|281:72,1,56.1493333333333,10|2,2:0|2:0,2:0:0:0:
286,16,159237,2,0,B|302:13|302:13|374:37|374:37|393:33,1,112.0448,2|10,3:2|2:0,2:0:0:0:
440,2,159899,1,2,2:0:0:0:
500,102,160340,1,2,2:0:0:0:
500,102,160561,2,0,L|489:157,1,56.1493333333333,8|2,2:0|2:0,2:0:0:0:
449,197,161002,6,0,L|460:252,2,56.0224,6|2|10,3:2|2:0|2:0,2:0:0:0:
395,181,161664,2,0,B|379:178|379:178|307:202|307:202|288:198,1,112.0448,2|2,2:0|2:0,2:0:0:0:
233,181,162326,1,10,2:0:0:0:
173,85,162767,2,0,P|117:83|71:113,1,112.0448,0|8,3:0|2:0,2:0:0:0:
21,101,163429,1,2,2:0:0:0:
21,101,163649,2,0,L|7:46,2,56.0224,2|2|10,3:2|2:0|2:0,2:0:0:0:
3,211,164532,6,0,L|16:265,1,56.1493333333333,6|2,3:2|2:0,2:0:0:0:
4,322,164973,1,10,2:0:0:0:
4,322,165193,2,0,B|23:340|23:340|107:324,1,112.0448,2|2,2:0|2:0,2:0:0:0:
155,353,165855,1,10,2:0:0:0:
253,299,166296,2,0,P|259:243|267:188,1,112.0448,0|8,3:0|2:0,2:0:0:0:
239,146,166958,1,2,2:0:0:0:
239,146,167179,2,0,L|183:159,2,56.0224,0|10|10,3:0|2:0|2:0,2:0:0:0:
286,44,168061,5,6,3:2:0:0:
256,192,168282,12,6,171590,3:2:0:0:
192,32,174679,5,10,2:0:0:0:
123,120,175120,2,0,P|135:174|146:229,1,112.0448,6|8,3:2|2:0,2:0:0:0:
125,281,175782,2,0,P|180:280|226:310,1,112.0448,2|2,2:0|2:0,2:0:0:0:
266,356,176443,1,10,2:0:0:0:
266,355,176664,2,0,P|319:338|374:329,1,112.0448,2|2,2:0|2:0,2:0:0:0:
426,349,177326,1,8,2:0:0:0:
498,263,177767,2,0,P|507:208|487:157,1,112.0448,2|10,3:2|2:0,2:0:0:0:
504,103,178429,1,2,2:0:0:0:
504,103,178649,5,6,3:2:0:0:
432,16,179090,1,8,2:0:0:0:
432,16,179311,2,0,B|381:29|381:29|378:37|378:37|328:49,1,112.0448,2|2,2:0|2:0,2:0:0:0:
277,24,179973,1,10,2:0:0:0:
276,24,180193,2,0,P|252:73|257:128,1,112.0448,2|2,2:0|2:0,2:0:0:0:
291,173,180855,1,8,2:0:0:0:
303,284,181296,1,2,3:2:0:0:
222,361,181737,1,10,2:0:0:0:
109,374,182179,6,0,P|74:332|70:277,1,112.0448,6|8,3:2|2:0,2:0:0:0:
93,228,182840,1,2,2:0:0:0:
93,228,183061,1,0,3:0:0:0:
42,133,183502,1,10,2:0:0:0:
42,133,183723,2,0,B|98:119|98:119|102:113|102:113|148:101,1,112.0448,2|2,2:0|2:0,2:0:0:0:
188,62,184385,1,8,2:0:0:0:
295,94,184826,2,0,P|286:149|279:204,1,112.0448,2|10,3:2|2:0,2:0:0:0:
252,255,185487,1,2,2:0:0:0:
252,255,185708,6,0,P|307:254|352:286,1,112.0448,6|8,3:2|2:0,2:0:0:0:
387,329,186370,2,0,L|410:219,1,112.0448,2|2,2:0|2:0,2:0:0:0:
456,186,187032,1,10,2:0:0:0:
456,186,187252,2,0,B|473:174|473:174|459:82,1,112.0448,2|2,2:0|2:0,2:0:0:0:
446,29,187914,1,8,2:0:0:0:
335,11,188355,2,0,L|343:66,1,56.1493333333333,2|6,3:2|2:3,2:0:0:0:
352,121,188796,1,10,2:0:0:0:
271,199,189237,6,0,B|223:190|223:190|218:194|218:194|161:184,1,112.0448,6|8,3:2|2:0,2:0:0:0:
107,168,189899,2,0,P|78:214|82:269,1,112.0448,2|2,2:0|2:0,2:0:0:0:
60,323,190561,1,10,2:0:0:0:
60,323,190782,2,0,L|170:342,1,112.0448,2|2,2:0|2:0,2:0:0:0:
225,353,191443,1,8,2:0:0:0:
287,259,191885,1,0,3:0:0:0:
229,163,192326,2,0,L|240:108,1,56.1493333333333,10|2,2:0|2:0,2:0:0:0:
225,54,192767,6,0,B|246:66|246:66|333:51,1,112.0448,6|8,3:2|2:0,2:0:0:0:
374,13,193429,2,0,P|429:13|474:48,1,112.0448,2|2,2:0|2:0,2:0:0:0:
496,96,194090,1,10,2:0:0:0:
496,96,194311,2,0,P|485:150|474:206,1,112.0448,2|10,2:0|2:0,2:0:0:0:
460,260,194973,1,8,2:0:0:0:
431,368,195414,2,0,B|369:358|382:387|321:377,1,112.0448,8|8,2:0|2:0,2:0:0:0:
274,346,196076,1,10,2:0:0:0:
274,346,196296,6,0,P|227:375|172:372,2,112.0448,6|10|2,3:2|2:0|3:2,2:0:0:0:
307,238,197620,1,10,2:0:0:0:
338,130,198061,1,2,3:2:0:0:
286,36,198502,1,10,2:0:0:0:
286,36,198723,2,0,B|276:46|269:60|269:60|187:75,1,112.0448,2|2,2:0|2:0,2:0:0:0:
140,44,199385,2,0,B|135:35|135:35|89:28,1,56.1493333333333,10|2,2:0|2:0,2:0:0:0:
35,42,199826,6,0,P|9:90|18:145,1,112.0448,6|10,3:2|2:0,2:0:0:0:
75,247,200708,1,2,3:2:0:0:
75,247,200929,2,0,L|18:262,2,56.0224,2|10|2,2:0|2:0|2:0,2:0:0:0:
117,210,201590,2,0,P|163:239|218:233,1,112.0448,0|8,3:0|2:0,2:0:0:0:
257,193,202252,1,2,0:0:0:0:
284,84,202693,1,2,0:0:0:0:
380,24,203135,1,2,2:0:0:0:
380,24,203355,6,0,P|435:24|480:55,1,112.0448,6|10,3:2|2:0,2:0:0:0:
458,107,204017,1,2,2:0:0:0:
458,107,204237,2,0,P|430:111|402:117,2,56.0224,0|2|10,3:0|2:0|2:0,2:0:0:0:
503,209,205120,2,0,P|447:218|392:229,1,112.0448,2|10,3:2|2:0,2:0:0:0:
294,188,206002,1,2,3:2:0:0:
294,188,206223,2,0,P|298:160|304:132,2,56.0224,2|10|2,2:0|2:0|2:0,2:0:0:0:
242,209,206885,6,0,P|186:199|131:188,1,112.0448,6|10,3:2|2:0,2:0:0:0:
29,235,207767,2,0,P|21:261|22:289,1,56.1493333333333,2|2,3:2|2:0,2:0:0:0:
43,341,208208,1,10,2:0:0:0:
43,341,208429,2,0,P|98:331|153:320,1,112.0448,2|2,2:0|3:2,2:0:0:0:
256,277,209311,2,0,B|306:288|306:288|312:298|312:298|359:309,1,112.0448,2|2,3:2|3:2,2:0:0:0:
402,345,209973,2,0,P|429:345|456:338,1,56.1493333333333,10|10,2:0|2:0,2:0:0:0:
495,296,210414,6,0,P|484:240|474:185,1,112.0448,6|10,3:2|2:0,2:0:0:0:
452,76,211296,2,0,P|479:82|506:89,2,56.0224,2|2|10,3:2|2:0|2:0,2:0:0:0:
409,38,211958,1,2,2:0:0:0:
409,38,212179,2,0,B|387:58|387:58|306:42,1,112.0448,2|10,3:2|2:0,2:0:0:0:
251,29,212840,2,0,P|223:76|228:131,1,112.0448,2|2,2:0|2:0,2:0:0:0:
266,180,213502,1,10,2:0:0:0:
266,180,213723,1,2,2:0:0:0:
342,268,214164,5,2,2:0:0:0:
342,268,214385,2,0,L|330:325,1,56.1493333333333,10|2,2:0|2:0,2:0:0:0:
335,378,214826,1,2,3:2:0:0:
335,378,215046,2,0,P|289:349|234:353,1,112.0448,2|2,2:0|2:0,2:0:0:0:
182,327,215708,2,0,P|135:356|80:352,1,112.0448,2|10,3:2|2:0,2:0:0:0:
36,326,216370,1,2,2:0:0:0:
36,326,216590,1,2,3:2:0:0:
10,216,217032,2,0,L|65:205,1,56.1493333333333,10|2,2:0|2:0,2:0:0:0:
113,177,217473,6,0,B|122:198|122:198|209:213,1,112.0448,6|10,3:2|2:0,2:0:0:0:
264,193,218135,1,2,2:0:0:0:
264,193,218355,2,0,L|254:137,2,56.0224,2|2|10,3:2|2:0|2:0,2:0:0:0:
357,254,219237,2,0,L|347:310,2,56.0224,2|2|10,3:2|2:0|2:0,2:0:0:0:
415,246,219899,1,2,2:0:0:0:
415,246,220120,2,0,P|425:191|437:136,1,112.0448,2|10,3:2|2:0,2:0:0:0:
446,80,220782,5,2,2:0:0:0:
361,15,221223,1,2,2:0:0:0:
361,15,221443,2,0,B|354:27|354:27|313:36,1,56.1493333333333,10|2,2:0|2:0,2:0:0:0:
261,60,221885,2,0,P|214:33|159:38,1,112.0448,2|10,3:2|2:0,2:0:0:0:
113,67,222546,1,2,2:0:0:0:
113,67,222767,2,0,L|55:54,2,56.0224,2|2|10,3:2|2:0|2:0,2:0:0:0:
91,176,223649,2,0,L|33:163,2,56.0224,2|10|10,3:2|2:0|2:0,2:0:0:0:
134,219,224311,5,10,2:0:0:0:
134,219,224532,2,0,B|181:205|181:205|186:198|186:198|237:182,1,112.0448,6|8,3:2|2:0,2:0:0:0:
285,211,225193,1,2,2:0:0:0:
336,113,225635,1,2,2:0:0:0:
336,113,225855,2,0,L|389:97,1,56.1493333333333,10|0,2:0|2:0,2:0:0:0:
443,81,226296,2,0,P|466:130|457:185,1,112.0448,0|8,3:0|2:0,2:0:0:0:
432,236,226958,1,2,2:0:0:0:
432,236,227179,2,0,L|447:290,2,56.0224,0|2|8,3:0|2:0|2:0,2:0:0:0:
321,216,228061,6,0,L|213:246,1,112.0448,2|10,3:2|2:0,2:0:0:0:
159,263,228723,1,2,2:0:0:0:
51,294,229164,1,2,2:0:0:0:
5,191,229605,2,0,P|14:135|22:80,1,112.0448,2|0,2:0|2:0,2:0:0:0:
30,24,230267,1,10,2:0:0:0:
134,65,230708,1,2,3:2:0:0:
232,11,231149,1,10,2:0:0:0:
267,117,231590,6,0,P|321:105|376:96,1,112.0448,6|10,3:2|2:0,2:0:0:0:
428,74,232252,2,0,P|455:121|446:175,1,112.0448,2|2,2:0|2:0,2:0:0:0:
417,223,232914,1,8,2:0:0:0:
463,325,233355,6,0,P|410:337|359:316,1,112.0448,0|8,3:0|2:0,2:0:0:0:
307,319,234017,1,2,2:0:0:0:
307,319,234237,2,0,L|318:373,2,56.0224,0|2|8,3:0|2:0|2:0,2:0:0:0:
209,264,235120,2,0,P|218:208|228:153,1,112.0448,2|8,3:2|2:0,2:0:0:0:
239,98,235782,2,0,P|192:67|137:64,1,112.0448,2|2,2:0|2:0,2:0:0:0:
87,54,236443,1,10,2:0:0:0:
87,54,236664,6,0,L|76:0,2,56.0224,2|0|10,2:0|3:0|2:0,2:0:0:0:
98,108,237326,1,8,2:0:0:0:
2,166,237767,2,0,P|5:193|10:221,1,56,2|10,3:2|2:0,2:0:0:0:
6,277,238208,1,8,0:0:0:0:
38,322,238429,1,10,2:0:0:0:
92,335,238649,6,0,B|155:323|127:299|192:288,1,112,6|8,3:2|2:0,2:0:0:0:
245,303,239311,1,2,2:0:0:0:
260,196,239752,1,2,2:0:0:0:
260,196,239973,2,0,L|249:141,1,56.1493333333333,10|0,2:0|2:0,2:0:0:0:
235,86,240414,2,0,B|261:98|261:98|343:78,1,112.0448,0|8,3:0|2:0,2:0:0:0:
399,67,241076,1,2,2:0:0:0:
399,67,241296,2,0,L|407:11,2,56.0224,0|2|8,3:0|2:0|2:0,2:0:0:0:
491,131,242179,6,0,L|474:241,1,112.0448,2|10,3:2|2:0,2:0:0:0:
508,286,242840,1,2,2:0:0:0:
426,362,243282,1,2,2:0:0:0:
316,338,243723,2,0,L|299:227,1,112.0448,2|0,2:0|2:0,2:0:0:0:
315,173,244385,1,10,2:0:0:0:
282,65,244826,1,2,3:2:0:0:
178,22,245267,1,10,2:0:0:0:
71,54,245708,6,0,L|62:109,1,56.1493333333333,6|2,3:2|2:0,2:0:0:0:
20,146,246149,1,10,2:0:0:0:
20,146,246370,2,0,L|37:256,1,112.0448,2|2,2:0|2:0,2:0:0:0:
50,311,247032,1,8,2:0:0:0:
160,326,247473,2,0,P|206:295|261:296,1,112.0448,0|8,3:0|2:0,2:0:0:0:
315,328,248135,1,2,2:0:0:0:
315,328,248355,2,0,L|304:382,2,56.0224,0|2|8,3:0|2:0|2:0,2:0:0:0:
422,295,249237,6,0,L|444:186,1,112.0448,2|10,3:2|2:0,2:0:0:0:
472,136,249899,2,0,B|418:122|418:122|414:115|414:115|367:100,1,112.0448,2|2,2:0|2:0,2:0:0:0:
326,63,250561,1,10,2:0:0:0:
214,75,251002,6,0,P|194:127|203:181,1,112.0448,0|10,3:0|2:0,2:0:0:0:
241,222,251664,1,2,2:0:0:0:
241,222,251885,2,0,L|229:277,1,56.1493333333333,2|10,3:2|2:0,2:0:0:0:
214,330,252326,2,0,P|187:329|159:334,1,56.1493333333333,10|10,2:0|2:0,2:0:0:0:
112,365,252767,6,0,L|88:255,1,112.0448,6|10,3:2|2:0,2:0:0:0:
40,225,253429,1,2,2:0:0:0:
59,117,253870,1,2,2:0:0:0:
59,117,254090,2,0,L|115:105,1,56.1493333333333,10|2,2:0|2:0,2:0:0:0:
142,57,254532,2,0,P|196:48|245:74,1,112.0448,2|10,3:2|2:0,2:0:0:0:
272,123,255193,1,2,2:0:0:0:
237,229,255635,1,2,2:0:0:0:
237,229,255855,2,0,L|247:284,1,56.1493333333333,8|2,2:0|2:0,2:0:0:0:
292,317,256296,6,0,L|281:372,2,56.0224,6|2|10,3:2|2:0|2:0,2:0:0:0:
347,307,256958,2,0,B|408:289|377:267|439:247,1,112.0448,2|2,2:0|2:0,2:0:0:0:
492,263,257620,1,10,2:0:0:0:
505,151,258061,2,0,B|468:135|468:135|457:117|457:117|410:97,1,112.0448,0|8,3:0|2:0,2:0:0:0:
360,114,258723,1,2,2:0:0:0:
360,114,258943,2,0,L|343:168,2,56.0224,2|2|10,3:2|2:0|2:0,2:0:0:0:
263,56,259826,6,0,L|246:2,2,56.0224,6|2|10,3:2|2:0|2:0,2:0:0:0:
239,106,260487,2,0,P|193:77|138:82,1,112.0448,2|2,2:0|2:0,2:0:0:0:
90,112,261149,1,10,2:0:0:0:
3,182,261590,2,0,L|25:291,1,112.0448,0|8,3:0|2:0,2:0:0:0:
66,330,262252,1,2,2:0:0:0:
66,330,262473,2,0,L|54:384,2,56.0224,0|10|10,3:0|2:0|2:0,2:0:0:0:
174,300,263355,6,0,B|187:242|187:242|184:236|184:236|193:191,1,112.0448,6|10,3:2|2:0,2:0:0:0:
172,139,264017,2,0,P|226:144|273:114,1,112.0448,2|2,2:0|2:0,2:0:0:0:
300,65,264679,1,10,2:0:0:0:
408,38,265120,2,0,P|436:84|432:139,1,112.0448,0|10,3:0|2:0,2:0:0:0:
397,184,265782,1,2,2:0:0:0:
397,184,266002,2,0,L|420:293,1,112.0448,2|10,3:2|2:0,2:0:0:0:
344,376,266885,6,0,B|310:330|242:347,1,112.0448,2|8,3:2|2:0,2:0:0:0:
192,371,267546,2,0,L|212:260,1,112.0448,2|2,2:0|2:0,2:0:0:0:
222,205,268208,1,10,2:0:0:0:
296,121,268649,2,0,P|350:130|401:108,2,112.0448,2|8|0,3:2|2:0|3:0,2:0:0:0:
221,37,269973,2,0,L|165:46,1,56.1493333333333,8|2,2:0|2:0,2:0:0:0:
111,31,270414,6,0,B|103:81|103:81|98:85|98:85|88:138,1,112.0448,6|8,3:2|2:0,2:0:0:0:
47,178,271076,2,0,B|55:228|55:228|60:232|60:232|70:285,1,112.0448,2|0,0:0|3:0,2:0:0:0:
86,339,271737,1,10,0:0:0:0:
198,314,272179,1,0,3:0:0:0:
198,314,272399,2,0,L|213:260,1,56,2|8,0:0|0:0,0:0:0:0:
256,156,273061,2,0,L|256:44,2,112.0448,2|10|6,3:2|2:0|3:2,2:0:0:0:
256,192,274164,12,0,281002,2:0:0:0:
