osu file format v14

[General]
AudioFilename: audio.mp3
AudioLeadIn: 0
PreviewTime: 45526
Countdown: 0
SampleSet: Soft
StackLeniency: 0.8
Mode: 0
LetterboxInBreaks: 0
WidescreenStoryboard: 1

[Editor]
Bookmarks: 196296,273943,281002
DistanceSpacing: 1
BeatDivisor: 8
GridSize: 32
TimelineZoom: 1.6

[Metadata]
Title:Perfect Sky
TitleUnicode:Perfect Sky
Artist:Shimotsuki Haruka
ArtistUnicode:霜月はるか
Creator:Kazato Asa
Version:Insane
Source:この大空に、翼をひろげて
Tags:Shizuku- Kono Oozora ni, Tsubasa o Hirogete Konosora If My Heart Had Wings IMHHW PULLTOP WillPlus pv op ed opening ending vn visual novel galgame Kenichi Okuma おおくま けんいち 大熊謙一 TWOFIVE Shimotsukin jpop pop eroge video game japanese
BeatmapID:2558099
BeatmapSetID:1230415

[Difficulty]
HPDrainRate:5
CircleSize:4
OverallDifficulty:7.5
ApproachRate:8
SliderMultiplier:1.68
SliderTickRate:1

[Events]
//Background and Video events
0,0,"HUT_07_002B.jpg",0,0
//Break Periods
//Storyboard Layer 0 (Background)
//Storyboard Layer 1 (Fail)
//Storyboard Layer 2 (Pass)
//Storyboard Layer 3 (Foreground)
//Storyboard Layer 4 (Overlay)
//Storyboard Sound Samples

[TimingPoints]
1299,441.176470588235,3,2,1,40,1,0
1299,-125,3,2,1,40,0,0
3284,-166.666666666667,3,2,1,40,0,0
4828,-100,3,2,1,50,0,0
5269,-100,3,2,1,60,0,0
5599,-100,3,2,1,5,0,0
5710,-100,3,2,1,60,0,0
5931,-100,3,2,3,60,0,0
6151,-100,3,2,2,60,0,0
6372,-100,3,2,3,60,0,0
6593,-100,3,2,1,60,0,0
6813,-100,3,2,2,60,0,0
7034,-100,3,2,3,60,0,0
7916,-100,3,2,1,60,0,0
8357,441.176470588235,4,2,1,60,1,0
8357,-76.9230769230769,4,2,1,60,0,0
8687,-76.9230769230769,4,2,1,5,0,0
8798,-76.9230769230769,4,2,1,60,0,0
9018,-100,4,2,3,60,0,0
9459,-100,4,2,2,60,0,0
11445,-100,4,2,1,60,0,0
11665,-100,4,2,2,60,0,0
11886,-76.9230769230769,4,2,1,60,0,0
12548,-76.9230769230769,4,2,3,60,0,0
12768,-100,4,2,3,60,0,0
15415,-125,4,2,1,50,0,0
15635,-125,4,2,2,50,0,0
15856,-125,4,2,1,50,0,0
16076,-125,4,2,2,50,0,0
16298,-125,4,2,3,50,0,0
16518,-125,4,2,2,50,0,0
16738,-125,4,2,1,50,0,0
16959,-125,4,2,3,50,0,0
17070,-125,4,2,2,50,0,0
17400,-125,4,2,3,50,0,0
17621,-125,4,2,1,50,0,0
17841,-125,4,2,2,50,0,0
18062,-125,4,2,1,50,0,0
18283,-125,4,2,3,50,0,0
18614,-125,4,2,2,50,0,0
18724,-125,4,2,3,50,0,0
18945,-125,4,2,1,50,0,0
19165,-125,4,2,3,50,0,0
19716,-125,4,2,2,50,0,0
19826,-125,4,2,3,50,0,0
20599,-125,4,2,2,50,0,0
20709,-125,4,2,3,50,0,0
21151,-125,4,2,1,50,0,0
21371,-125,4,2,2,50,0,0
21591,-125,4,2,1,50,0,0
21812,-125,4,2,2,50,0,0
22033,-125,4,2,3,50,0,0
22143,-125,4,2,2,50,0,0
22474,-125,4,2,3,50,0,0
22584,-125,4,2,2,50,0,0
22915,-125,4,2,1,50,0,0
23135,-125,4,2,2,50,0,0
23356,-125,4,2,3,50,0,0
23577,-125,4,2,2,50,0,0
23797,-125,4,2,1,50,0,0
24018,-125,4,2,3,50,0,0
24129,-125,4,2,2,50,0,0
24459,-125,4,2,3,50,0,0
24680,-125,4,2,1,50,0,0
24900,-125,4,2,2,50,0,0
25121,-125,4,2,1,50,0,0
25342,-125,4,2,3,50,0,0
25672,-125,4,2,2,50,0,0
25782,-125,4,2,3,50,0,0
26004,-125,4,2,1,50,0,0
26224,-125,4,2,3,50,0,0
27658,-125,4,2,1,50,0,0
27989,-125,4,2,3,50,0,0
28209,-125,4,2,2,50,0,0
29092,-125,4,2,1,50,0,0
29533,-100,4,2,1,50,0,0
30195,-100,4,2,3,50,0,0
30636,-100,4,2,2,50,0,0
30856,-100,4,2,1,50,0,0
31076,-100,4,2,2,50,0,0
31298,-100,4,2,1,50,0,0
31959,-100,4,2,3,50,0,0
32401,-100,4,2,2,50,0,0
32842,-100,4,2,3,50,0,0
32952,-100,4,2,2,50,0,0
33062,-100,4,2,3,50,0,0
34717,-100,4,2,2,50,0,0
36151,-100,4,2,1,50,0,0
36261,-100,4,2,2,50,0,0
36592,-100,4,2,1,50,0,0
37254,-100,4,2,3,50,0,0
37915,-100,4,2,1,50,0,0
38136,-100,4,2,3,50,0,0
38246,-100,4,2,2,50,0,0
38356,-100,4,2,1,50,0,0
38576,-100,4,2,3,50,0,0
38798,-100,4,2,1,50,0,0
39018,-100,4,2,3,50,0,0
39459,-100,4,2,2,50,0,0
39680,-100,4,2,1,50,0,0
39901,-100,4,2,3,50,0,0
40121,-90.9090909090909,4,2,1,50,0,0
40783,-90.9090909090909,4,2,3,50,0,0
41224,-90.9090909090909,4,2,2,50,0,0
41665,-90.9090909090909,4,2,3,50,0,0
41886,-90.9090909090909,4,2,1,50,0,0
42106,-90.9090909090909,4,2,2,50,0,0
42548,-90.9090909090909,4,2,3,50,0,0
42989,-90.9090909090909,4,2,2,50,0,0
43209,-76.9230769230769,4,2,1,50,0,0
45856,441.176470588235,4,2,1,70,1,1
45856,-76.9230769230769,4,2,1,70,0,1
46186,-76.9230769230769,4,2,1,5,0,1
46297,-76.9230769230769,4,2,1,70,0,1
46517,-90.9090909090909,4,2,3,70,0,1
46958,-90.9090909090909,4,2,2,70,0,1
47179,-90.9090909090909,4,2,1,70,0,1
47399,-90.9090909090909,4,2,2,70,0,1
49385,-76.9230769230769,4,2,1,70,0,1
49715,-76.9230769230769,4,2,1,5,0,1
49826,-76.9230769230769,4,2,1,70,0,1
50047,-90.9090909090909,4,2,3,70,0,1
51370,-90.9090909090909,4,2,2,70,0,1
51591,-90.9090909090909,4,2,1,70,0,1
51811,-90.9090909090909,4,2,2,70,0,1
52032,-90.9090909090909,4,2,1,70,0,1
52252,-90.9090909090909,4,2,2,70,0,1
52473,-90.9090909090909,4,2,1,70,0,1
52803,-90.9090909090909,4,2,1,5,0,1
52914,-76.9230769230769,4,2,1,70,0,1
53576,-90.9090909090909,4,2,3,70,0,1
54017,-90.9090909090909,4,2,2,70,0,1
54679,-76.9230769230769,4,2,2,70,0,1
55561,-90.9090909090909,4,2,2,70,0,1
56444,-76.9230769230769,4,2,1,70,0,1
56774,-76.9230769230769,4,2,2,70,0,1
57105,-90.9090909090909,4,2,3,70,0,1
57546,-90.9090909090909,4,2,2,70,0,1
57767,-90.9090909090909,4,2,1,70,0,1
57988,-90.9090909090909,4,2,2,70,0,1
58429,-90.9090909090909,4,2,3,70,0,1
58650,-90.9090909090909,4,2,1,70,0,1
58870,-90.9090909090909,4,2,3,70,0,1
59091,-76.9230769230769,4,2,1,70,0,1
59311,-76.9230769230769,4,2,3,70,0,1
59532,-76.9230769230769,4,2,1,70,0,1
59753,-76.9230769230769,4,2,3,70,0,1
59863,-76.9230769230769,4,2,1,70,0,1
60303,-76.9230769230769,4,2,1,5,0,1
60414,-76.9230769230769,4,2,1,70,0,1
60635,-90.9090909090909,4,2,3,70,0,1
61076,-90.9090909090909,4,2,2,70,0,1
61297,-90.9090909090909,4,2,1,70,0,1
61517,-90.9090909090909,4,2,2,70,0,1
63503,-76.9230769230769,4,2,1,70,0,1
63833,-76.9230769230769,4,2,1,5,0,1
63944,-76.9230769230769,4,2,1,70,0,1
64164,-90.9090909090909,4,2,3,70,0,1
65488,-90.9090909090909,4,2,2,70,0,1
65708,-90.9090909090909,4,2,1,70,0,1
65928,-90.9090909090909,4,2,2,70,0,1
66150,-90.9090909090909,4,2,1,70,0,1
66370,-90.9090909090909,4,2,2,70,0,1
66591,-76.9230769230769,4,2,1,70,0,1
66921,-76.9230769230769,4,2,1,5,0,1
67032,-90.9090909090909,4,2,1,70,0,1
67252,-90.9090909090909,4,2,3,70,0,1
67473,-90.9090909090909,4,2,1,70,0,1
67694,-90.9090909090909,4,2,3,70,0,1
68135,-90.9090909090909,4,2,2,70,0,1
70561,-90.9090909090909,4,2,1,70,0,1
71002,-90.9090909090909,4,2,2,70,0,1
71223,-90.9090909090909,4,2,3,70,0,1
71664,-90.9090909090909,4,2,2,70,0,1
71885,-90.9090909090909,4,2,3,70,0,1
72105,-90.9090909090909,4,2,2,70,0,1
73650,-90.9090909090909,4,2,1,70,0,1
73870,-90.9090909090909,4,2,2,70,0,1
74091,-76.9230769230769,4,2,1,65,0,1
74421,-76.9230769230769,4,2,1,5,0,1
74532,-76.9230769230769,4,2,1,65,0,1
74753,-90.9090909090909,4,2,3,65,0,1
74863,-90.9090909090909,4,2,2,65,0,1
75414,-90.9090909090909,4,2,1,65,0,1
75634,-90.9090909090909,4,2,2,65,0,1
75855,-76.9230769230769,4,2,1,65,0,1
76185,-76.9230769230769,4,2,1,5,0,1
76297,-76.9230769230769,4,2,1,65,0,1
76517,-90.9090909090909,4,2,3,65,0,1
76627,-90.9090909090909,4,2,2,65,0,1
77400,-90.9090909090909,4,2,3,65,0,1
77510,-90.9090909090909,4,2,2,65,0,1
77620,-90.9090909090909,4,2,1,65,0,1
77840,-90.9090909090909,4,2,3,65,0,1
78061,-90.9090909090909,4,2,1,65,0,1
78282,-90.9090909090909,4,2,3,65,0,1
78944,-90.9090909090909,4,2,1,65,0,1
79164,-90.9090909090909,4,2,2,65,0,1
80488,-90.9090909090909,4,2,3,65,0,1
80708,-90.9090909090909,4,2,1,65,0,1
80929,-90.9090909090909,4,2,3,65,0,1
81150,-90.9090909090909,4,2,1,65,0,1
81370,-90.9090909090909,4,2,3,65,0,1
81591,-90.9090909090909,4,2,1,65,0,1
81811,-90.9090909090909,4,2,3,65,0,1
82473,-90.9090909090909,4,2,1,65,0,1
82693,-90.9090909090909,4,2,2,65,0,1
84017,-90.9090909090909,4,2,3,65,0,1
84348,-90.9090909090909,4,2,2,65,0,1
84679,-100,4,2,1,60,0,0
85341,-100,4,2,2,60,0,0
87326,-100,4,2,1,60,0,0
87546,-100,4,2,2,60,0,0
87767,-76.9230769230769,4,2,1,60,0,0
88097,-76.9230769230769,4,2,1,5,0,0
88208,-76.9230769230769,4,2,1,60,0,0
88538,-76.9230769230769,4,2,3,60,0,0
89091,-90.9090909090909,4,2,3,60,0,0
89753,-90.9090909090909,4,2,2,60,0,0
91185,-90.9090909090909,4,2,2,5,0,0
91297,-90.9090909090909,4,2,2,60,0,0
91517,-90.9090909090909,4,2,3,60,0,0
91738,-76.9230769230769,4,2,1,60,0,0
92400,-76.9230769230769,4,2,3,60,0,0
92620,-90.9090909090909,4,2,1,60,0,0
93282,-90.9090909090909,4,2,2,60,0,0
94385,-90.9090909090909,4,2,1,60,0,0
94605,-90.9090909090909,4,2,2,60,0,0
94826,-90.9090909090909,4,2,1,60,0,0
95267,-76.9230769230769,4,2,1,60,0,0
95597,-76.9230769230769,4,2,1,5,0,0
95708,-76.9230769230769,4,2,1,60,0,0
95929,-90.9090909090909,4,2,3,60,0,0
96149,-90.9090909090909,4,2,2,60,0,0
96591,-66.6666666666667,4,2,1,60,0,0
96921,-66.6666666666667,4,2,2,60,0,0
97032,-66.6666666666667,4,2,3,60,0,0
97142,-66.6666666666667,4,2,2,60,0,0
97253,-66.6666666666667,4,2,3,60,0,0
97694,-90.9090909090909,4,2,3,60,0,0
98466,-90.9090909090909,4,2,2,60,0,0
98797,-125,4,2,1,50,0,0
99017,-125,4,2,2,50,0,0
99238,-125,4,2,1,50,0,0
99458,-125,4,2,2,50,0,0
99679,-125,4,2,3,50,0,0
99900,-125,4,2,2,50,0,0
100120,-125,4,2,1,50,0,0
100341,-125,4,2,3,50,0,0
100451,-125,4,2,2,50,0,0
100782,-125,4,2,3,50,0,0
101003,-125,4,2,1,50,0,0
101223,-125,4,2,2,50,0,0
101444,-125,4,2,1,50,0,0
101664,-125,4,2,3,50,0,0
101995,-125,4,2,2,50,0,0
102105,-125,4,2,3,50,0,0
102326,-125,4,2,1,50,0,0
102547,-125,4,2,3,50,0,0
103098,-125,4,2,2,50,0,0
103208,-125,4,2,3,50,0,0
103980,-125,4,2,2,50,0,0
104091,-125,4,2,3,50,0,0
104532,-125,4,2,1,50,0,0
104753,-125,4,2,2,50,0,0
104973,-125,4,2,1,50,0,0
105194,-125,4,2,2,50,0,0
105414,-125,4,2,3,50,0,0
105525,-125,4,2,2,50,0,0
105745,-125,4,2,3,50,0,0
105965,-125,4,2,2,50,0,0
106297,-125,4,2,1,50,0,0
106517,-125,4,2,2,50,0,0
106738,-125,4,2,3,50,0,0
107179,-125,4,2,1,50,0,0
107400,-125,4,2,3,50,0,0
107510,-125,4,2,2,50,0,0
107841,-125,4,2,3,50,0,0
108061,-125,4,2,1,50,0,0
108281,-125,4,2,2,50,0,0
108503,-125,4,2,1,50,0,0
108723,-125,4,2,3,50,0,0
109054,-125,4,2,2,50,0,0
109164,-125,4,2,3,50,0,0
109385,-125,4,2,1,50,0,0
109605,-125,4,2,3,50,0,0
111150,-125,4,2,1,50,0,0
111370,-125,4,2,3,50,0,0
111591,-125,4,2,2,50,0,0
112473,-125,4,2,1,50,0,0
112914,-100,4,2,1,50,0,0
113576,-100,4,2,3,50,0,0
114017,-100,4,2,2,50,0,0
114238,-100,4,2,1,50,0,0
114458,-100,4,2,2,50,0,0
114679,-100,4,2,1,50,0,0
115341,-100,4,2,3,50,0,0
115782,-100,4,2,2,50,0,0
116223,-100,4,2,3,50,0,0
118098,-100,4,2,2,50,0,0
119532,-100,4,2,1,50,0,0
119642,-100,4,2,2,50,0,0
119973,-100,4,2,1,50,0,0
120635,-100,4,2,3,50,0,0
121297,-100,4,2,1,50,0,0
121517,-100,4,2,3,50,0,0
121628,-100,4,2,2,50,0,0
121738,-100,4,2,1,50,0,0
121958,-100,4,2,3,50,0,0
122179,-100,4,2,1,50,0,0
122400,-100,4,2,3,50,0,0
122841,-100,4,2,2,50,0,0
123061,-100,4,2,1,50,0,0
123281,-100,4,2,3,50,0,0
123503,-90.9090909090909,4,2,1,50,0,0
124164,-90.9090909090909,4,2,3,50,0,0
124605,-90.9090909090909,4,2,2,50,0,0
125047,-90.9090909090909,4,2,3,50,0,0
125267,-90.9090909090909,4,2,1,50,0,0
125488,-90.9090909090909,4,2,2,50,0,0
125928,-90.9090909090909,4,2,3,50,0,0
126370,-90.9090909090909,4,2,2,50,0,0
126591,-76.9230769230769,4,2,1,50,0,0
126811,-76.9230769230769,4,2,2,50,0,0
128989,441.176470588235,4,2,1,60,1,0
129238,441.176470588235,4,2,1,70,1,1
129238,-76.9230769230769,4,2,1,70,0,1
129568,-76.9230769230769,4,2,1,5,0,1
129679,-76.9230769230769,4,2,1,70,0,1
129899,-90.9090909090909,4,2,3,70,0,1
130340,-90.9090909090909,4,2,2,70,0,1
130561,-90.9090909090909,4,2,1,70,0,1
130781,-90.9090909090909,4,2,2,70,0,1
132767,-76.9230769230769,4,2,1,70,0,1
133097,-76.9230769230769,4,2,1,5,0,1
133208,-76.9230769230769,4,2,1,70,0,1
133429,-90.9090909090909,4,2,3,70,0,1
134532,-90.9090909090909,4,2,1,70,0,1
134752,-90.9090909090909,4,2,2,70,0,1
134973,-90.9090909090909,4,2,1,70,0,1
135193,-90.9090909090909,4,2,2,70,0,1
135414,-90.9090909090909,4,2,1,70,0,1
135634,-90.9090909090909,4,2,2,70,0,1
135855,-90.9090909090909,4,2,1,70,0,1
136185,-90.9090909090909,4,2,2,70,0,1
136296,-76.9230769230769,4,2,1,70,0,1
136958,-76.9230769230769,4,2,3,70,0,1
137179,-90.9090909090909,4,2,3,70,0,1
137399,-90.9090909090909,4,2,2,70,0,1
139826,-76.9230769230769,4,2,1,70,0,1
140156,-76.9230769230769,4,2,2,70,0,1
140488,-90.9090909090909,4,2,3,70,0,1
140929,-90.9090909090909,4,2,2,70,0,1
141149,-90.9090909090909,4,2,1,70,0,1
141370,-90.9090909090909,4,2,2,70,0,1
141811,-90.9090909090909,4,2,3,70,0,1
142032,-90.9090909090909,4,2,1,70,0,1
142252,-90.9090909090909,4,2,3,70,0,1
142473,-76.9230769230769,4,2,1,70,0,1
142693,-76.9230769230769,4,2,3,70,0,1
142914,-76.9230769230769,4,2,1,70,0,1
143135,-76.9230769230769,4,2,3,70,0,1
143245,-76.9230769230769,4,2,1,70,0,1
143685,-76.9230769230769,4,2,1,5,0,1
143796,-76.9230769230769,4,2,1,70,0,1
144017,-90.9090909090909,4,2,3,70,0,1
144458,-90.9090909090909,4,2,2,70,0,1
144679,-90.9090909090909,4,2,1,70,0,1
144899,-90.9090909090909,4,2,2,70,0,1
146885,-76.9230769230769,4,2,1,70,0,1
147215,-76.9230769230769,4,2,1,5,0,1
147326,-76.9230769230769,4,2,1,70,0,1
147546,-90.9090909090909,4,2,3,70,0,1
148870,-90.9090909090909,4,2,2,70,0,1
149090,-90.9090909090909,4,2,1,70,0,1
149310,-90.9090909090909,4,2,2,70,0,1
149532,-90.9090909090909,4,2,1,70,0,1
149752,-90.9090909090909,4,2,2,70,0,1
149973,-76.9230769230769,4,2,1,70,0,1
150303,-76.9230769230769,4,2,1,5,0,1
150414,-90.9090909090909,4,2,1,70,0,1
150634,-90.9090909090909,4,2,3,70,0,1
150855,-90.9090909090909,4,2,1,70,0,1
151076,-90.9090909090909,4,2,3,70,0,1
151517,-90.9090909090909,4,2,2,70,0,1
153943,-90.9090909090909,4,2,1,70,0,1
154384,-90.9090909090909,4,2,2,70,0,1
154605,-90.9090909090909,4,2,3,70,0,1
155046,-90.9090909090909,4,2,2,70,0,1
155267,-90.9090909090909,4,2,3,70,0,1
155487,-90.9090909090909,4,2,2,70,0,1
157032,-90.9090909090909,4,2,1,70,0,1
157252,-90.9090909090909,4,2,2,70,0,1
157473,-76.9230769230769,4,2,1,65,0,1
157803,-76.9230769230769,4,2,1,5,0,1
157914,-76.9230769230769,4,2,1,65,0,1
158135,-90.9090909090909,4,2,3,65,0,1
158245,-90.9090909090909,4,2,2,65,0,1
158796,-90.9090909090909,4,2,1,65,0,1
159016,-90.9090909090909,4,2,2,65,0,1
159237,-76.9230769230769,4,2,1,65,0,1
159567,-76.9230769230769,4,2,1,5,0,1
159679,-76.9230769230769,4,2,1,65,0,1
159899,-90.9090909090909,4,2,3,65,0,1
160009,-90.9090909090909,4,2,2,65,0,1
160782,-90.9090909090909,4,2,3,65,0,1
160892,-90.9090909090909,4,2,2,65,0,1
161002,-90.9090909090909,4,2,1,65,0,1
161222,-90.9090909090909,4,2,3,65,0,1
161443,-90.9090909090909,4,2,1,65,0,1
161664,-90.9090909090909,4,2,3,65,0,1
162326,-90.9090909090909,4,2,1,65,0,1
162546,-90.9090909090909,4,2,2,65,0,1
163870,-90.9090909090909,4,2,3,65,0,1
164090,-90.9090909090909,4,2,1,65,0,1
164311,-90.9090909090909,4,2,3,65,0,1
164532,-90.9090909090909,4,2,1,65,0,1
164752,-90.9090909090909,4,2,3,65,0,1
164973,-90.9090909090909,4,2,1,65,0,1
165193,-90.9090909090909,4,2,3,65,0,1
165855,-90.9090909090909,4,2,1,65,0,1
166075,-90.9090909090909,4,2,2,65,0,1
167399,-90.9090909090909,4,2,3,65,0,1
167730,-90.9090909090909,4,2,2,65,0,1
168061,-100,4,2,1,60,0,0
168723,-100,4,2,3,60,0,0
169164,-100,4,2,2,60,0,0
169385,-100,4,2,1,60,0,0
169605,-100,4,2,3,60,0,0
170046,-100,4,2,2,60,0,0
170708,-100,4,2,1,60,0,0
170928,-100,4,2,2,60,0,0
171149,-100,4,2,1,60,0,0
171369,-100,4,2,2,60,0,0
171590,-100,4,2,1,60,0,0
172252,-100,4,2,3,60,0,0
172693,-100,4,2,2,60,0,0
172914,-100,4,2,1,60,0,0
173135,-100,4,2,3,60,0,0
173576,-100,4,2,2,60,0,0
174237,-100,4,2,3,60,0,0
174458,-100,4,2,2,60,0,0
174679,-100,4,2,1,60,0,0
174899,-100,4,2,2,60,0,0
175120,-100,4,2,1,60,0,0
175782,-100,4,2,3,60,0,0
176222,-100,4,2,2,60,0,0
176443,-100,4,2,1,60,0,0
176664,-100,4,2,3,60,0,0
177105,-100,4,2,2,60,0,0
177767,-100,4,2,1,60,0,0
178429,-100,4,2,2,60,0,0
178649,-100,4,2,1,60,0,0
179311,-100,4,2,3,60,0,0
179421,-100,4,2,2,60,0,0
179973,-100,4,2,1,60,0,0
180193,-100,4,2,3,60,0,0
180634,-100,4,2,2,60,0,0
181296,-100,4,2,1,60,0,0
181516,-100,4,2,2,60,0,0
181737,-100,4,2,1,60,0,0
182067,-100,4,2,2,60,0,0
182179,-100,4,2,1,60,0,0
182840,-100,4,2,3,60,0,0
182951,-100,4,2,2,60,0,0
183502,-100,4,2,1,60,0,0
183723,-100,4,2,3,60,0,0
184164,-100,4,2,2,60,0,0
184826,-100,4,2,1,60,0,0
185046,-100,4,2,2,60,0,0
185267,-100,4,2,1,60,0,0
185377,-100,4,2,2,60,0,0
185708,-100,4,2,1,60,0,0
186370,-100,4,2,3,60,0,0
186811,-100,4,2,2,60,0,0
187032,-100,4,2,1,60,0,0
187252,-100,4,2,3,60,0,0
187693,-100,4,2,2,60,0,0
188355,-100,4,2,1,60,0,0
189017,-100,4,2,2,60,0,0
189237,-100,4,2,1,60,0,0
189899,-100,4,2,3,60,0,0
190340,-100,4,2,2,60,0,0
190561,-100,4,2,1,60,0,0
190782,-100,4,2,3,60,0,0
191223,-100,4,2,2,60,0,0
192326,-100,4,2,3,60,0,0
192767,-90.9090909090909,4,2,1,60,0,0
193429,-90.9090909090909,4,2,3,60,0,0
193870,-90.9090909090909,4,2,2,60,0,0
194090,-90.9090909090909,4,2,1,60,0,0
194311,-90.9090909090909,4,2,3,60,0,0
194421,-90.9090909090909,4,2,2,60,0,0
196076,-90.9090909090909,4,2,1,60,0,0
196737,-90.9090909090909,4,2,2,60,0,0
198502,-90.9090909090909,4,2,3,60,0,0
198943,-90.9090909090909,4,2,2,60,0,0
199385,-90.9090909090909,4,2,3,60,0,0
200046,-90.9090909090909,4,2,2,60,0,0
200929,-90.9090909090909,4,2,3,60,0,0
201811,-90.9090909090909,4,2,2,60,0,0
202252,-90.9090909090909,4,2,3,60,0,0
202582,-90.9090909090909,4,2,3,5,0,0
202693,-90.9090909090909,4,2,3,60,0,0
202913,-90.9090909090909,4,2,2,60,0,0
203135,-90.9090909090909,4,2,3,60,0,0
203355,-71.4285714285714,4,2,3,60,0,0
203685,-71.4285714285714,4,2,3,5,0,0
203796,-71.4285714285714,4,2,2,60,0,0
204017,-90.9090909090909,4,2,2,60,0,0
205340,-90.9090909090909,4,2,3,60,0,0
205892,-90.9090909090909,4,2,2,60,0,0
206002,-90.9090909090909,4,2,3,60,0,0
207105,-90.9090909090909,4,2,2,60,0,0
207767,-90.9090909090909,4,2,3,60,0,0
208098,-90.9090909090909,4,2,2,60,0,0
208208,-90.9090909090909,4,2,3,60,0,0
208760,-90.9090909090909,4,2,2,60,0,0
208870,-90.9090909090909,4,2,3,60,0,0
209090,-90.9090909090909,4,2,2,60,0,0
209311,-90.9090909090909,4,2,3,60,0,0
209421,-90.9090909090909,4,2,2,60,0,0
209752,-90.9090909090909,4,2,3,60,0,0
209862,-90.9090909090909,4,2,2,60,0,0
209973,-90.9090909090909,4,2,3,60,0,0
210083,-90.9090909090909,4,2,2,60,0,0
210193,-90.9090909090909,4,2,3,60,0,0
210304,-90.9090909090909,4,2,1,60,0,0
210414,-76.9230769230769,4,2,3,60,0,0
210744,-76.9230769230769,4,2,3,5,0,0
210855,-90.9090909090909,4,2,2,60,0,0
211296,-90.9090909090909,4,2,3,60,0,0
213281,-90.9090909090909,4,2,2,60,0,0
213502,-90.9090909090909,4,2,3,60,0,0
213943,-90.9090909090909,4,2,2,60,0,0
214164,-90.9090909090909,4,2,3,60,0,0
215266,-90.9090909090909,4,2,2,60,0,0
215487,-90.9090909090909,4,2,3,60,0,0
216810,-90.9090909090909,4,2,2,60,0,0
217032,-90.9090909090909,4,2,3,60,0,0
217473,-76.9230769230769,4,2,3,60,0,0
217803,-76.9230769230769,4,2,3,5,0,0
217914,-76.9230769230769,4,2,3,60,0,0
218245,-76.9230769230769,4,2,2,60,0,0
218355,-90.9090909090909,4,2,3,60,0,0
220450,-90.9090909090909,4,2,2,60,0,0
220561,-90.9090909090909,4,2,3,60,0,0
221112,-90.9090909090909,4,2,3,5,0,0
221223,-90.9090909090909,4,2,3,60,0,0
221774,-90.9090909090909,4,2,2,60,0,0
221885,-90.9090909090909,4,2,3,60,0,0
222105,-90.9090909090909,4,2,2,60,0,0
222326,-90.9090909090909,4,2,3,60,0,0
222657,-90.9090909090909,4,2,2,60,0,0
222767,-90.9090909090909,4,2,3,60,0,0
223429,-90.9090909090909,4,2,4,60,0,0
223649,-90.9090909090909,4,2,1,60,0,0
223760,-90.9090909090909,4,2,4,60,0,0
223870,-90.9090909090909,4,2,2,60,0,0
223980,-90.9090909090909,4,2,4,60,0,0
224090,-90.9090909090909,4,2,5,60,0,0
224200,-90.9090909090909,4,2,2,60,0,0
224311,-90.9090909090909,4,2,4,60,0,0
224532,-76.9230769230769,4,2,3,70,0,1
224862,-76.9230769230769,4,2,3,5,0,1
224973,-76.9230769230769,4,2,3,70,0,1
225193,-90.9090909090909,4,2,3,70,0,1
225635,-90.9090909090909,4,2,2,70,0,1
225855,-90.9090909090909,4,2,1,70,0,1
226517,-90.9090909090909,4,2,2,70,0,1
228061,-76.9230769230769,4,2,1,70,0,1
228391,-76.9230769230769,4,2,1,5,0,1
228502,-76.9230769230769,4,2,1,70,0,1
228723,-90.9090909090909,4,2,3,70,0,1
230046,-90.9090909090909,4,2,2,70,0,1
230267,-90.9090909090909,4,2,1,70,0,1
230487,-90.9090909090909,4,2,2,70,0,1
230708,-90.9090909090909,4,2,1,70,0,1
230928,-90.9090909090909,4,2,2,70,0,1
231149,-90.9090909090909,4,2,1,70,0,1
231479,-90.9090909090909,4,2,1,5,0,1
231590,-76.9230769230769,4,2,1,70,0,1
232252,-76.9230769230769,4,2,3,70,0,1
232473,-90.9090909090909,4,2,3,70,0,1
232693,-90.9090909090909,4,2,2,70,0,1
235120,-76.9230769230769,4,2,1,70,0,1
235450,-76.9230769230769,4,2,2,70,0,1
235782,-90.9090909090909,4,2,3,70,0,1
236223,-90.9090909090909,4,2,2,70,0,1
236443,-90.9090909090909,4,2,1,70,0,1
236664,-90.9090909090909,4,2,2,70,0,1
237105,-90.9090909090909,4,2,3,70,0,1
237767,-76.9230769230769,4,2,1,70,0,1
237987,-76.9230769230769,4,2,3,70,0,1
238208,-76.9230769230769,4,2,1,70,0,1
238429,-76.9230769230769,4,2,3,70,0,1
238539,-76.9230769230769,4,2,1,70,0,1
238979,-76.9230769230769,4,2,1,5,0,1
239090,-76.9230769230769,4,2,1,70,0,1
239311,-90.9090909090909,4,2,3,70,0,1
239752,-90.9090909090909,4,2,2,70,0,1
239973,-90.9090909090909,4,2,1,70,0,1
240193,-90.9090909090909,4,2,2,70,0,1
242179,-76.9230769230769,4,2,1,70,0,1
242509,-76.9230769230769,4,2,1,5,0,1
242620,-76.9230769230769,4,2,1,70,0,1
242840,-90.9090909090909,4,2,3,70,0,1
244164,-90.9090909090909,4,2,2,70,0,1
244385,-90.9090909090909,4,2,1,70,0,1
244605,-90.9090909090909,4,2,2,70,0,1
244826,-90.9090909090909,4,2,1,70,0,1
245046,-90.9090909090909,4,2,2,70,0,1
245267,-76.9230769230769,4,2,1,70,0,1
245597,-76.9230769230769,4,2,1,5,0,1
245708,-90.9090909090909,4,2,1,70,0,1
245928,-90.9090909090909,4,2,3,70,0,1
246149,-90.9090909090909,4,2,1,70,0,1
246370,-90.9090909090909,4,2,3,70,0,1
246811,-90.9090909090909,4,2,2,70,0,1
249237,-90.9090909090909,4,2,1,70,0,1
249678,-90.9090909090909,4,2,2,70,0,1
249899,-90.9090909090909,4,2,3,70,0,1
250340,-90.9090909090909,4,2,2,70,0,1
250561,-90.9090909090909,4,2,3,70,0,1
251223,-90.9090909090909,4,2,2,70,0,1
252326,-90.9090909090909,4,2,3,70,0,1
252546,-90.9090909090909,4,2,2,70,0,1
252767,-76.9230769230769,4,2,1,65,0,1
253097,-76.9230769230769,4,2,1,5,0,1
253208,-76.9230769230769,4,2,1,65,0,1
253429,-90.9090909090909,4,2,3,65,0,1
253539,-90.9090909090909,4,2,2,65,0,1
254090,-90.9090909090909,4,2,1,65,0,1
254310,-90.9090909090909,4,2,2,65,0,1
254532,-76.9230769230769,4,2,1,65,0,1
254862,-76.9230769230769,4,2,1,5,0,1
254973,-76.9230769230769,4,2,1,65,0,1
255193,-90.9090909090909,4,2,3,65,0,1
255303,-90.9090909090909,4,2,2,65,0,1
256076,-90.9090909090909,4,2,3,65,0,1
256296,-90.9090909090909,4,2,1,65,0,1
256516,-90.9090909090909,4,2,3,65,0,1
256737,-90.9090909090909,4,2,1,65,0,1
256958,-90.9090909090909,4,2,3,65,0,1
257620,-90.9090909090909,4,2,1,65,0,1
257840,-90.9090909090909,4,2,2,65,0,1
259164,-90.9090909090909,4,2,3,65,0,1
259385,-90.9090909090909,4,2,1,65,0,1
259605,-90.9090909090909,4,2,3,65,0,1
259826,-90.9090909090909,4,2,1,65,0,1
260046,-90.9090909090909,4,2,3,65,0,1
260267,-90.9090909090909,4,2,1,65,0,1
260487,-90.9090909090909,4,2,3,65,0,1
261149,-90.9090909090909,4,2,1,65,0,1
261369,-90.9090909090909,4,2,2,65,0,1
262693,-90.9090909090909,4,2,3,65,0,1
263024,-90.9090909090909,4,2,2,65,0,1
263355,-100,4,2,1,60,0,0
264017,-100,4,2,2,60,0,0
264679,-100,4,2,1,60,0,0
264899,-100,4,2,2,60,0,0
265561,-100,4,2,1,60,0,0
265782,-100,4,2,2,60,0,0
266002,-100,4,2,1,60,0,0
266222,-100,4,2,2,60,0,0
266443,-100,4,2,1,60,0,0
266663,-100,4,2,2,60,0,0
266885,-100,4,2,1,60,0,0
267546,-100,4,2,3,60,0,0
267987,-100,4,2,2,60,0,0
268208,-100,4,2,1,60,0,0
268428,-100,4,2,2,60,0,0
270193,-100,4,2,3,60,0,0
270414,-90.9090909090909,4,2,3,60,0,0
271076,-100,4,2,3,60,0,0
271517,-100,4,2,2,60,0,0
271737,-100,4,2,3,60,0,0
271847,-100,4,2,2,60,0,0
272399,-100,4,2,3,60,0,0
272620,-100,4,2,2,60,0,0
273061,-100,4,2,3,60,0,0
273171,-100,4,2,2,60,0,0
273502,-100,4,2,3,60,0,0
273612,-100,4,2,2,60,0,0
273943,-159.090909090909,4,2,1,60,0,0
281001,-159.090909090909,4,2,1,5,0,0

[Colours]
Combo1 : 149,219,125
Combo2 : 218,184,112

[HitObjects]
400,368,637,5,2,2:0:0:0:
424,344,857,1,2,2:0:0:0:
432,304,1078,1,2,2:0:0:0:
360,248,1299,6,0,P|327:255|294:263,2,67.25376,2|0|0,2:0|2:0|2:0,2:0:0:0:
434,191,1960,2,0,P|379:153|314:162,1,134.50752,2|2,2:0|2:0,2:0:0:0:
148,110,2622,2,0,B|129:15|129:15|155:41,1,134.50752,2|0,2:0|2:0,2:0:0:0:
233,228,3284,6,0,B|80:258|140:148|0:176,1,252.201592309571,2|0,2:0|2:0,2:0:0:0:
0,175,4607,5,10,2:0:0:0:
131,377,4828,2,0,P|139:335|147:294,1,84.0671999999999,10|10,2:0|2:0,2:0:0:0:
124,261,5159,1,10,2:0:0:0:
124,261,5269,2,0,P|172:222|233:227,1,126.2912,6|0,3:2|2:0,2:0:0:0:
256,240,5710,1,10,2:0:0:0:
408,328,5931,6,0,P|366:337|326:346,1,84.0671999999999,2|2,2:0|3:2,2:0:0:0:
368,152,6372,1,2,2:0:0:0:
504,248,6593,6,0,P|462:238|422:229,1,84.0671999999999,10|2,2:0|2:0,2:0:0:0:
422,229,6923,1,2,2:0:0:0:
422,229,7034,1,2,3:2:0:0:
347,67,7254,2,0,P|388:67|425:87,1,84.0671999999999,2|8,2:0|2:0,2:0:0:0:
256,240,7696,2,0,L|249:198,1,42.224,2|0,2:0|2:0,2:0:0:0:
184,72,7916,5,10,3:2:0:0:
155,40,8026,1,8,2:0:0:0:
115,28,8137,1,8,2:0:0:0:
75,37,8247,1,8,2:0:0:0:
46,66,8357,6,0,B|33:125|33:125|55:166|55:166|45:221,1,164.178552501831,14|0,3:2|2:0,2:0:0:0:
39,255,8798,1,10,2:0:0:0:
224,384,9018,6,0,P|162:330|81:340,1,168.1344,2|2,2:0|2:0,2:0:0:0:
160,160,9680,2,0,P|165:201|171:243,1,84.0671999999999,8|2,2:0|2:0,2:0:0:0:
171,243,10011,1,2,2:0:0:0:
171,243,10121,1,0,3:0:0:0:
334,197,10342,2,0,B|297:173|297:173|259:186,1,84.0671999999999,2|8,2:0|2:0,2:0:0:0:
356,302,10783,1,2,2:0:0:0:
480,184,11004,6,0,P|473:225|467:267,1,84.0671999999999,0|2,3:0|2:0,2:0:0:0:
259,186,11445,2,0,P|252:144|246:102,1,84.0671999999999,10|2,2:0|2:0,2:0:0:0:
377,177,11776,5,2,2:0:0:0:
373,191,11886,2,0,B|256:169|291:264|170:242,1,218.574710002442,6|10,3:2|2:0,2:0:0:0:
16,112,12548,1,2,2:0:0:0:
16,112,12658,1,2,2:0:0:0:
16,112,12768,2,0,P|53:93|94:95,1,84.0671999999999,0|0,3:0|3:0,2:0:0:0:
128,120,13099,1,0,3:0:0:0:
128,120,13209,2,0,L|168:111,1,42.224,8|0,2:0|2:0,2:0:0:0:
324,0,13430,5,0,3:0:0:0:
324,0,13540,1,8,2:0:0:0:
324,0,13651,1,0,3:0:0:0:
377,177,13871,1,0,3:0:0:0:
168,110,14092,1,8,2:0:0:0:
136,328,14312,5,8,2:0:0:0:
136,328,14423,1,8,2:0:0:0:
136,328,14533,1,0,3:0:0:0:
136,328,14643,2,0,L|176:318,1,42.224,8|0,2:0|2:0,2:0:0:0:
312,301,14864,1,8,2:0:0:0:
329,311,14974,5,8,2:0:0:0:
365,291,15084,1,8,2:0:0:0:
389,257,15195,1,8,2:0:0:0:
393,215,15305,1,8,2:0:0:0:
377,177,15415,6,0,P|344:183|311:191,1,67.25376,6|2,3:2|2:0,2:0:0:0:
174,112,15856,2,0,P|141:105|108:97,1,67.25376,2|2,3:2|2:0,2:0:0:0:
109,98,16187,1,2,2:0:0:0:
109,98,16298,1,2,3:2:0:0:
256,40,16518,2,0,L|268:106,1,67.25376,2|2,2:0|3:2,2:0:0:0:
208,208,16959,5,2,2:0:0:0:
208,208,17070,1,2,2:0:0:0:
208,208,17180,2,0,L|220:274,1,67.25376,2|2,3:2|2:0,2:0:0:0:
128,352,17621,2,0,L|115:285,1,67.25376,2|2,3:2|2:0,2:0:0:0:
288,384,18062,5,2,3:2:0:0:
346,302,18283,1,2,2:0:0:0:
439,331,18504,2,0,L|471:322,2,33.62688,2|2|2,3:2|2:0|2:0,2:0:0:0:
346,302,18945,5,2,3:2:0:0:
415,243,19165,2,0,P|427:212|424:178,1,67.25376,2|0,2:0|3:0,2:0:0:0:
480,96,19606,2,0,L|512:103,2,33.62688,2|2|2,2:0|2:0|3:2,2:0:0:0:
416,32,20048,2,0,L|350:46,1,67.25376,2|0,2:0|3:0,2:0:0:0:
256,0,20489,5,2,2:0:0:0:
256,0,20599,1,2,2:0:0:0:
256,0,20709,1,2,3:2:0:0:
200,80,20930,1,2,2:0:0:0:
216,176,21151,1,2,3:2:0:0:
312,216,21371,2,0,P|344:206|376:198,2,67.25376,2|2|2,2:0|3:2|2:0,2:0:0:0:
256,344,22033,5,2,3:2:0:0:
240,329,22143,1,2,2:0:0:0:
222,321,22254,1,2,2:0:0:0:
202,320,22364,1,2,2:0:0:0:
182,323,22474,2,0,P|178:339|174:356,2,33.62688,2|2|2,3:2|2:0|2:0,2:0:0:0:
104,256,22915,6,0,P|97:289|89:322,1,67.25376,2|2,3:2|2:0,2:0:0:0:
89,321,23246,1,2,2:0:0:0:
89,321,23356,1,2,3:2:0:0:
16,200,23577,2,0,P|22:167|30:134,1,67.25376,2|2,2:0|3:2,2:0:0:0:
112,28,24018,5,2,2:0:0:0:
112,28,24129,1,2,2:0:0:0:
111,28,24239,2,0,P|79:40|46:37,1,67.25376,2|2,3:2|2:0,2:0:0:0:
160,176,24680,2,0,P|166:143|174:110,1,67.25376,2|2,3:2|2:0,2:0:0:0:
312,32,25121,5,2,3:2:0:0:
338,109,25342,1,2,2:0:0:0:
283,169,25562,2,0,P|266:165|250:161,2,33.62688,2|2|2,3:2|2:0|2:0,2:0:0:0:
344,256,26004,5,2,3:2:0:0:
344,256,26224,2,0,P|376:249|409:241,1,67.25376,2|0,2:0|3:0,2:0:0:0:
469,163,26665,2,0,P|485:166|501:170,2,33.62688,2|2|2,2:0|2:0|3:2,2:0:0:0:
392,64,27106,2,0,P|385:96|377:129,1,67.25376,2|0,2:0|3:0,2:0:0:0:
344,256,27548,5,2,2:0:0:0:
344,256,27658,1,2,2:0:0:0:
344,256,27768,1,2,3:2:0:0:
248,232,27989,1,10,2:0:0:0:
192,320,28209,1,10,3:2:0:0:
96,272,28430,5,8,2:0:0:0:
74,278,28540,1,8,2:0:0:0:
52,283,28651,1,0,3:0:0:0:
30,288,28761,2,0,L|37:255,1,33.7792,8|8,2:0|2:0,2:0:0:0:
8,160,28981,5,0,3:0:0:0:
33,138,29092,1,2,3:2:0:0:
65,129,29202,1,8,2:0:0:0:
98,134,29312,1,8,2:0:0:0:
248,232,29533,6,0,P|261:149|277:66,1,168.1344,6|10,3:2|2:0,2:0:0:0:
177,11,30195,2,0,P|165:51|178:91,1,84.0671999999999,2|0,2:0|3:0,2:0:0:0:
178,91,30636,1,2,2:0:0:0:
305,165,30856,2,0,P|346:156|387:147,1,84.0671999999999,10|2,2:0|2:0,2:0:0:0:
477,96,31187,5,2,2:0:0:0:
473,110,31298,2,0,P|410:57|330:72,1,168.1344,2|10,3:2|2:0,2:0:0:0:
248,232,31959,2,0,P|206:223|165:216,1,84.0671999999999,2|0,2:0|3:0,2:0:0:0:
165,216,32401,1,2,2:0:0:0:
24,320,32621,5,10,2:0:0:0:
47,349,32731,1,2,2:0:0:0:
80,365,32842,1,2,2:0:0:0:
118,366,32952,1,2,2:0:0:0:
152,350,33062,6,0,P|192:340|233:330,1,84.0671999999999,2|2,3:2|2:0,2:0:0:0:
357,179,33504,1,10,2:0:0:0:
388,289,33724,2,0,P|329:231|247:231,1,168.1344,2|2,2:0|2:0,2:0:0:0:
136,104,34386,2,0,P|144:63|152:22,1,84.0671999999999,8|2,2:0|2:0,2:0:0:0:
232,150,34717,5,2,2:0:0:0:
224,140,34827,2,0,B|139:131|159:204|70:188,1,168.1344,0|8,3:0|2:0,2:0:0:0:
155,271,35489,1,2,2:0:0:0:
86,379,35709,2,0,P|65:342|69:301,1,84.0671999999999,0|2,3:0|2:0,2:0:0:0:
262,170,36151,5,10,2:0:0:0:
254,200,36261,1,2,2:0:0:0:
247,231,36371,1,2,2:0:0:0:
240,261,36481,1,2,2:0:0:0:
233,292,36592,6,0,P|295:239|375:254,1,168.1344,6|10,3:2|2:0,2:0:0:0:
464,352,37254,2,0,P|423:362|382:372,1,84.0671999999999,2|0,2:0|3:0,2:0:0:0:
254,200,37695,5,2,2:0:0:0:
375,254,37915,1,10,2:0:0:0:
443,130,38136,1,2,2:0:0:0:
443,130,38246,1,2,2:0:0:0:
443,130,38356,2,0,P|401:135|360:144,1,84.0671999999999,2|2,3:2|2:0,2:0:0:0:
202,280,38798,5,10,2:0:0:0:
112,245,39018,2,0,P|172:191|254:200,1,168.1344,2|2,2:0|2:0,2:0:0:0:
289,384,39680,1,10,2:0:0:0:
289,384,39790,1,2,2:0:0:0:
289,384,39901,1,2,2:0:0:0:
400,249,40121,6,0,B|304:230|330:304|227:288,1,184.947845639649,6|10,3:2|2:0,2:0:0:0:
46,182,40783,2,0,B|16:58|16:58|60:94,1,184.947845639649,2|2,2:0|2:0,2:0:0:0:
60,94,41334,1,2,2:0:0:0:
60,94,41445,1,8,2:0:0:0:
0,261,41665,5,2,2:0:0:0:
0,261,41776,1,0,2:0:0:0:
0,261,41886,2,0,L|45:271,1,46.4464014099122,2|0,3:2|2:0,2:0:0:0:
176,152,42106,2,0,L|130:162,1,46.4464014099122,10|0,2:0|2:0,2:0:0:0:
208,320,42327,1,8,2:0:0:0:
368,264,42548,5,2,3:2:0:0:
368,264,42658,1,0,3:0:0:0:
368,264,42768,2,0,L|376:216,1,46.4464014099122,8|0,2:0|2:0,2:0:0:0:
497,315,42989,5,2,3:2:0:0:
497,315,43099,1,8,2:0:0:0:
497,315,43209,2,0,B|417:303|435:373|345:357,1,164.178552501831,10|8,2:0|2:0,2:0:0:0:
320,352,43651,1,0,3:0:0:0:
272,216,43871,6,0,L|285:163,1,54.8911975006105,8|0,2:0|2:0,2:0:0:0:
224,72,44092,2,0,P|170:83|117:97,1,109.287355001221,8|8,2:0|2:0,2:0:0:0:
117,97,44423,1,8,2:0:0:0:
117,97,44533,2,0,L|126:43,1,54.8911975006105,0|0,3:0|3:0,2:0:0:0:
19,182,44754,1,0,3:0:0:0:
38,217,44864,1,0,3:0:0:0:
72,240,44974,1,8,2:0:0:0:
112,245,45084,1,8,2:0:0:0:
150,231,45195,1,8,2:0:0:0:
328,16,45636,5,2,2:0:0:0:
334,23,45746,1,2,2:0:0:0:
341,29,45856,2,0,P|325:109|310:189,1,164.178552501831,6|0,3:2|2:0,2:0:0:0:
301,233,46297,1,8,2:0:0:0:
488,376,46517,6,0,P|418:319|332:339,1,184.947845639649,2|2,2:0|2:0,2:0:0:0:
150,231,47179,2,0,B|168:258|168:258|226:268,1,92.4739228198241,10|2,2:0|2:0,2:0:0:0:
406,109,47620,5,0,3:0:0:0:
221,177,47841,1,2,2:0:0:0:
296,0,48061,2,0,P|320:38|318:84,1,92.4739228198241,8|2,2:0|2:0,2:0:0:0:
318,84,48392,1,2,2:0:0:0:
318,84,48503,2,0,L|273:96,2,46.2369614099122,0|2|2,3:0|2:0|2:0,2:0:0:0:
482,171,48944,2,0,B|509:134|509:134|496:89,1,92.4739228198241,8|2,2:0|2:0,2:0:0:0:
375,224,49385,6,0,B|298:210|310:291|225:268,1,164.178552501831,2|0,3:2|2:0,2:0:0:0:
226,268,49826,1,10,2:0:0:0:
19,182,50047,2,0,P|64:171|109:162,1,92.4739228198241,2|0,2:0|3:0,2:0:0:0:
263,356,50488,2,0,P|217:362|176:344,1,92.4739228198241,2|8,2:0|2:0,2:0:0:0:
212,92,50929,6,0,B|231:158|231:158|210:204|210:204|221:237|225:267,1,184.947845639649,2|2,2:0|2:0,2:0:0:0:
384,244,51591,2,0,P|349:214|303:211,1,92.4739228198241,10|2,2:0|2:0,2:0:0:0:
229,271,51922,1,2,2:0:0:0:
229,271,52032,2,0,P|183:261|138:253,1,92.4739228198241,2|2,3:2|2:0,2:0:0:0:
8,104,52473,2,0,P|62:63|130:66,1,138.920324229736,10|0,2:0|2:0,2:0:0:0:
200,8,52914,6,0,B|165:154|165:154|186:124|219:115,1,218.574710002442,6|10,3:2|2:0,2:0:0:0:
403,186,53576,2,0,B|373:202|360:226|360:226|236:203,1,184.947845639649,2|2,2:0|2:0,2:0:0:0:
132,384,54238,2,0,P|159:347|155:302,1,92.4739228198241,8|2,2:0|2:0,2:0:0:0:
70,246,54569,5,2,2:0:0:0:
70,246,54679,2,0,B|194:222|149:317|273:291,1,218.574710002442,0|8,3:0|2:0,2:0:0:0:
368,119,55341,1,2,2:0:0:0:
475,258,55561,2,0,P|429:250|383:243,1,92.4739228198241,0|2,3:0|2:0,2:0:0:0:
383,243,55892,1,2,2:0:0:0:
383,243,56003,1,8,2:0:0:0:
512,141,56223,1,2,2:0:0:0:
317,7,56444,6,0,B|262:21|262:21|234:69|252:125,1,164.178552501831,2|2,3:2|2:0,2:0:0:0:
269,151,56885,1,8,2:0:0:0:
216,320,57105,6,0,B|121:305|145:380|44:367,1,184.947845639649,2|2,2:0|2:0,2:0:0:0:
0,192,57767,1,10,2:0:0:0:
164,236,57988,2,0,L|207:220,1,46.4464014099122,2|0,2:0|2:0,2:0:0:0:
383,243,58208,5,0,3:0:0:0:
389,210,58319,1,8,2:0:0:0:
395,177,58429,1,10,2:0:0:0:
251,124,58650,1,10,2:0:0:0:
448,32,58870,5,2,2:0:0:0:
454,65,58980,1,8,2:0:0:0:
460,98,59091,2,0,L|406:87,1,54.8911975006105,2|8,3:2|2:0,2:0:0:0:
329,253,59311,2,0,L|382:242,1,54.8911975006105,10|0,2:0|2:0,2:0:0:0:
301,57,59532,5,10,2:0:0:0:
255,40,59642,1,10,2:0:0:0:
208,51,59753,1,10,2:0:0:0:
173,85,59863,1,10,2:0:0:0:
162,133,59973,6,0,B|149:155|144:177|144:177|31:206,1,164.178552501831,6|0,3:2|2:0,2:0:0:0:
31,206,60414,1,8,2:0:0:0:
160,384,60635,2,0,P|227:325|316:337,1,184.947845639649,2|2,2:0|2:0,2:0:0:0:
448,192,61297,2,0,P|402:201|357:212,1,92.4739228198241,10|2,2:0|2:0,2:0:0:0:
98,50,61738,6,0,B|159:34|201:72|201:72|208:108|250:123,1,184.947845639649,0|8,3:0|2:0,2:0:0:0:
403,21,62400,1,2,2:0:0:0:
403,21,62510,1,2,2:0:0:0:
403,21,62620,2,0,P|391:65|379:110,1,92.4739228198241,0|2,3:0|2:0,2:0:0:0:
472,291,63061,2,0,P|496:252|493:207,1,92.4739228198241,8|2,2:0|2:0,2:0:0:0:
250,123,63503,6,0,B|232:137|222:160|222:160|109:191,1,164.178552501831,2|0,3:2|2:0,2:0:0:0:
109,191,63944,1,10,2:0:0:0:
32,64,64164,2,0,P|77:63|115:88,1,92.4739228198241,2|0,2:0|3:0,2:0:0:0:
132,300,64605,2,0,L|42:278,1,92.4739228198241,2|8,2:0|2:0,2:0:0:0:
250,123,65047,6,0,B|285:180|349:172|349:172|363:139|392:122,1,184.947845639649,2|2,2:0|2:0,2:0:0:0:
512,288,65708,2,0,P|466:278|421:269,1,92.4739228198241,10|2,2:0|2:0,2:0:0:0:
370,342,66039,1,2,2:0:0:0:
363,334,66150,2,0,P|340:294|342:249,1,92.4739228198241,2|2,3:2|2:0,2:0:0:0:
181,38,66591,6,0,B|209:19|209:19|254:31|276:82|248:123,1,164.178552501831,10|0,2:0|2:0,2:0:0:0:
278,197,67032,6,0,P|237:175|192:182,1,92.4739228198241,6|2,3:2|2:0,2:0:0:0:
11,157,67473,1,10,2:0:0:0:
60,335,67694,6,0,B|123:315|123:315|153:279|153:279|221:258,1,184.947845639649,2|2,2:0|2:0,2:0:0:0:
301,57,68355,1,8,2:0:0:0:
454,109,68576,5,2,2:0:0:0:
454,109,68686,1,2,2:0:0:0:
454,109,68797,2,0,B|423:86|423:86|386:95|386:95|368:149|304:156,1,184.947845639649,0|8,3:0|2:0,2:0:0:0:
128,48,69458,2,0,P|172:34|216:23,1,92.4739228198241,2|0,2:0|3:0,2:0:0:0:
77,200,69900,5,2,2:0:0:0:
77,200,70010,1,2,2:0:0:0:
77,200,70120,1,8,2:0:0:0:
28,12,70341,1,2,2:0:0:0:
0,252,70561,6,0,B|47:235|86:264|86:264|105:316|152:324,1,184.947845639649,2|10,3:2|2:0,2:0:0:0:
244,187,71223,2,0,B|261:204|294:210|294:210|169:241,1,184.947845639649,2|2,2:0|2:0,2:0:0:0:
320,320,71885,1,10,2:0:0:0:
392,147,72105,5,2,2:0:0:0:
392,147,72216,1,2,2:0:0:0:
392,146,72326,2,0,P|403:190|414:235,1,92.4739228198241,0|2,3:0|2:0,2:0:0:0:
508,79,72767,1,10,2:0:0:0:
325,34,72988,5,2,2:0:0:0:
325,34,73098,1,2,2:0:0:0:
325,34,73208,1,2,3:2:0:0:
294,210,73429,1,10,2:0:0:0:
170,87,73650,5,10,2:0:0:0:
392,146,73870,1,10,2:0:0:0:
256,384,74091,6,0,P|191:338|190:259,1,164.178552501831,6|0,3:2|2:0,2:0:0:0:
249,199,74532,1,10,2:0:0:0:
249,199,74753,2,0,L|293:209,2,46.2369614099122,2|2|0,2:0|2:0|3:2,2:0:0:0:
216,24,75194,1,2,2:0:0:0:
64,144,75414,2,0,P|109:134|154:125,1,92.4739228198241,10|2,2:0|2:0,2:0:0:0:
391,323,75855,6,0,P|328:274|249:287,1,164.178552501831,2|0,3:2|2:0,2:0:0:0:
192,344,76297,1,10,2:0:0:0:
192,344,76517,2,0,L|146:337,2,46.2369614099122,2|2|0,2:0|2:0|3:2,2:0:0:0:
294,209,76958,1,2,2:0:0:0:
154,124,77179,1,8,2:0:0:0:
328,11,77400,5,2,2:0:0:0:
328,11,77510,1,2,2:0:0:0:
328,10,77620,2,0,P|295:41|250:40,1,92.4739228198241,6|2,3:2|2:0,2:0:0:0:
154,125,78061,1,10,2:0:0:0:
250,40,78282,6,0,B|348:29|320:103|416:102,1,184.947845639649,2|2,2:0|2:0,2:0:0:0:
512,245,78944,2,0,P|466:254|421:263,1,92.4739228198241,10|2,2:0|2:0,2:0:0:0:
264,200,79385,5,0,3:0:0:0:
415,102,79605,1,2,2:0:0:0:
352,320,79826,2,0,P|306:328|261:338,1,92.4739228198241,8|2,2:0|2:0,2:0:0:0:
261,338,80157,1,2,2:0:0:0:
261,338,80267,1,2,3:2:0:0:
104,186,80488,5,2,2:0:0:0:
151,384,80708,1,10,2:0:0:0:
99,165,80929,1,2,2:0:0:0:
0,325,81150,6,0,P|44:311|88:298,1,92.4739228198241,6|2,3:2|2:0,2:0:0:0:
126,90,81591,1,10,2:0:0:0:
273,132,81811,6,0,B|180:121|204:198|103:185,1,184.947845639649,2|2,2:0|2:0,2:0:0:0:
255,340,82473,2,0,P|264:294|274:249,1,92.4739228198241,10|2,2:0|2:0,2:0:0:0:
259,221,82804,1,8,2:0:0:0:
259,221,82914,2,0,L|304:211,2,46.2369614099122,0|0|2,3:0|2:0|2:0,2:0:0:0:
476,269,83355,1,8,2:0:0:0:
421,99,83576,5,10,2:0:0:0:
421,99,83686,1,8,2:0:0:0:
421,99,83797,2,0,L|411:144,1,46.4464014099122,0|8,3:0|2:0,2:0:0:0:
361,311,84017,5,10,2:0:0:0:
321,298,84128,1,8,2:0:0:0:
282,309,84238,1,10,2:0:0:0:
255,340,84348,1,10,2:0:0:0:
228,371,84458,1,10,2:0:0:0:
189,382,84569,1,10,2:0:0:0:
150,370,84679,6,0,P|137:287|123:204,1,168.1344,6|8,3:2|2:0,2:0:0:0:
188,45,85341,1,2,2:0:0:0:
188,45,85451,1,2,2:0:0:0:
188,45,85561,2,0,P|146:37|105:28,1,84.0671999999999,0|2,3:0|2:0,2:0:0:0:
230,164,86003,1,8,2:0:0:0:
320,80,86223,6,0,B|361:102|361:102|377:222,1,168.1344,2|2,2:0|2:0,2:0:0:0:
481,152,86885,1,8,2:0:0:0:
412,299,87105,1,2,2:0:0:0:
408,305,87216,1,2,2:0:0:0:
405,311,87326,2,0,P|363:311|324:296,1,84.0671999999999,2|2,3:2|2:0,2:0:0:0:
120,194,87767,6,0,B|143:308|143:308|125:290|101:287,1,163.799992501831,10|0,2:0|2:0,2:0:0:0:
90,367,88208,6,0,P|136:339|189:345,1,109.199995001221,6|0,3:2|2:0,2:0:0:0:
216,328,88539,2,0,L|226:381,1,54.5999975006105,2|8,0:0|0:0,0:0:0:0:
317,166,88870,1,2,2:0:0:0:
448,241,89091,2,0,B|382:232|382:232|343:259|343:259|272:248,1,184.947845639649,2|8,3:2|2:0,2:0:0:0:
97,86,89753,5,2,2:0:0:0:
97,86,89863,1,2,2:0:0:0:
97,86,89973,2,0,P|141:75|186:65,1,92.4739228198241,0|2,3:0|2:0,2:0:0:0:
273,248,90414,2,0,P|228:237|183:227,1,92.4739228198241,8|2,2:0|2:0,2:0:0:0:
319,26,90855,2,0,B|341:37|354:58|354:58|442:37,1,138.920324229736,0|0,3:0|2:0,2:0:0:0:
442,37,91297,1,8,2:0:0:0:
512,240,91517,5,2,2:0:0:0:
512,240,91628,1,2,2:0:0:0:
512,240,91738,2,0,P|459:229|411:254,1,109.199995001221,4|0,3:2|2:0,2:0:0:0:
416,264,92069,2,0,L|401:316,1,54.5999975006105,2|8,0:0|0:0,0:0:0:0:
360,168,92400,1,2,2:0:0:0:
320,384,92620,6,0,P|251:327|163:346,1,184.947845639649,2|8,3:2|2:0,2:0:0:0:
70,182,93282,1,2,2:0:0:0:
7,264,93503,6,0,P|52:274|97:284,1,92.4739228198241,0|2,3:0|2:0,2:0:0:0:
162,65,93944,2,0,P|116:75|71:85,1,92.4739228198241,8|2,2:0|2:0,2:0:0:0:
254,304,94385,2,0,B|275:266|275:266|257:220,1,92.4739228198241,2|2,3:2|2:0,2:0:0:0:
266,126,94716,1,0,3:0:0:0:
271,111,94826,1,10,2:0:0:0:
314,95,94936,1,2,2:0:0:0:
358,104,95047,1,2,2:0:0:0:
393,133,95157,1,2,2:0:0:0:
408,177,95267,6,0,B|323:163|348:233|257:220,1,164.178552501831,6|0,3:2|2:0,2:0:0:0:
257,220,95708,1,10,2:0:0:0:
51,175,95929,2,0,P|60:129|70:84,1,92.4739228198241,2|2,2:0|3:2,2:0:0:0:
163,239,96370,1,2,2:0:0:0:
8,294,96591,6,0,P|72:229|163:239,1,189.436807209778,14|10,2:0|2:0,2:0:0:0:
219,315,97032,1,10,3:2:0:0:
254,304,97142,1,2,2:0:0:0:
289,293,97253,1,2,2:0:0:0:
355,119,97473,1,0,3:0:0:0:
507,229,97694,6,0,L|461:222,1,46.4464014099122,2|0,2:0|2:0,2:0:0:0:
397,265,97914,1,8,2:0:0:0:
397,265,98025,2,0,P|387:243|383:221,1,46.2000014099122,2|0,2:0|0:0,2:0:0:0:
416,128,98245,1,2,0:0:0:0:
390,110,98355,5,0,3:0:0:0:
355,119,98466,1,10,2:0:0:0:
322,127,98576,1,10,2:0:0:0:
288,136,98686,1,10,2:0:0:0:
254,145,98797,6,0,P|247:112|239:79,1,67.25376,6|2,3:2|2:0,2:0:0:0:
79,23,99238,2,0,P|86:55|93:88,1,67.25376,2|2,3:2|2:0,2:0:0:0:
103,125,99569,1,2,2:0:0:0:
103,125,99679,1,2,3:2:0:0:
65,223,99900,2,0,P|38:206|4:205,1,67.25376,2|2,2:0|3:2,2:0:0:0:
96,320,100341,2,0,P|112:315|128:310,2,33.62688,2|2|2,2:0|2:0|3:2,2:0:0:0:
224,384,100782,5,2,2:0:0:0:
224,384,101003,2,0,P|231:351|239:318,1,67.25376,2|2,3:2|2:0,2:0:0:0:
192,224,101444,1,2,3:2:0:0:
245,148,101664,1,2,2:0:0:0:
320,192,101885,2,0,P|336:188|352:184,2,33.62688,2|2|2,3:2|2:0|2:0,2:0:0:0:
416,256,102326,5,2,3:2:0:0:
416,256,102436,1,0,0:0:0:0:
416,256,102547,1,2,2:0:0:0:
479,132,102767,2,0,P|446:124|413:116,1,67.25376,0|2,3:0|2:0,2:0:0:0:
413,116,103098,1,2,2:0:0:0:
413,116,103208,1,2,3:2:0:0:
352,32,103429,2,0,P|319:39|286:47,1,67.25376,2|0,2:0|3:0,2:0:0:0:
208,160,103870,5,2,2:0:0:0:
208,160,103980,1,2,2:0:0:0:
208,160,104091,2,0,P|175:152|142:144,1,67.25376,2|2,3:2|2:0,2:0:0:0:
56,125,104532,1,2,3:2:0:0:
76,269,104753,2,0,P|89:239|85:206,2,67.25376,2|2|2,2:0|3:2|2:0,2:0:0:0:
158,364,105414,5,2,3:2:0:0:
183,343,105525,1,2,2:0:0:0:
216,334,105635,1,2,2:0:0:0:
249,339,105745,2,0,L|257:354,1,16.8896,2|2,2:0|2:0,2:0:0:0:
285,361,105855,6,0,L|317:353,2,33.62688,2|2|2,3:2|2:0|2:0,2:0:0:0:
372,254,106297,2,0,L|437:268,1,67.25376,2|2,3:2|2:0,2:0:0:0:
437,268,106628,1,2,2:0:0:0:
437,268,106738,2,0,P|477:216|461:153,1,134.50752,2|2,3:2|3:2,2:0:0:0:
352,96,107400,6,0,P|355:112|359:128,2,33.62688,2|2|2,2:0|2:0|3:2,2:0:0:0:
385,6,107841,1,2,2:0:0:0:
269,45,108061,2,0,P|236:37|203:29,1,67.25376,2|2,3:2|2:0,2:0:0:0:
24,88,108503,5,2,3:2:0:0:
91,138,108723,1,2,2:0:0:0:
67,218,108944,2,0,L|34:226,2,33.62688,2|2|2,3:2|2:0|2:0,2:0:0:0:
120,280,109385,2,0,L|153:272,2,33.62688,2|0|2,3:2|2:0|2:0,2:0:0:0:
256,208,109826,5,0,3:0:0:0:
233,331,110047,1,2,2:0:0:0:
233,331,110157,1,2,2:0:0:0:
233,331,110267,1,2,3:2:0:0:
371,300,110488,2,0,P|344:282|311:282,1,67.25376,2|0,2:0|3:0,2:0:0:0:
200,96,110929,5,2,2:0:0:0:
200,96,111039,1,2,2:0:0:0:
200,96,111150,1,2,3:2:0:0:
256,208,111370,1,10,2:0:0:0:
376,152,111591,1,10,3:2:0:0:
399,301,111811,5,8,2:0:0:0:
369,294,111922,1,8,2:0:0:0:
339,288,112032,1,0,3:0:0:0:
310,282,112142,2,0,L|315:315,1,33.7792,8|8,2:0|2:0,2:0:0:0:
248,376,112363,1,0,2:0:0:0:
222,348,112473,1,2,3:2:0:0:
185,339,112583,1,8,2:0:0:0:
149,350,112694,1,8,2:0:0:0:
40,192,112914,6,0,B|30:211|10:226|10:226|129:201,1,168.1344,6|10,3:2|2:0,2:0:0:0:
218,88,113576,2,0,P|236:50|231:9,1,84.0671999999999,2|0,2:0|3:0,2:0:0:0:
129,117,114017,1,2,2:0:0:0:
256,168,114238,2,0,P|296:156|337:145,1,84.0671999999999,10|2,2:0|2:0,2:0:0:0:
416,192,114569,5,2,2:0:0:0:
421,207,114679,2,0,P|476:148|460:69,1,168.1344,2|10,3:2|2:0,2:0:0:0:
321,249,115341,2,0,P|331:289|340:330,1,84.0671999999999,2|0,2:0|3:0,2:0:0:0:
421,207,115782,1,2,2:0:0:0:
296,144,116003,2,0,P|301:124|305:103,2,42.0336,10|2|2,2:0|2:0|2:0,2:0:0:0:
162,226,116444,6,0,P|126:204|84:202,1,84.0671999999999,2|2,3:2|2:0,2:0:0:0:
7,96,116885,1,10,2:0:0:0:
85,201,117105,2,0,B|120:208|145:185|145:185|156:131|213:113,1,168.1344,2|2,2:0|2:0,2:0:0:0:
321,249,117767,1,8,2:0:0:0:
184,368,117988,5,2,2:0:0:0:
184,368,118098,1,2,2:0:0:0:
184,368,118208,2,0,P|143:358|102:348,1,84.0671999999999,0|2,3:0|2:0,2:0:0:0:
2,221,118650,2,0,P|42:211|83:201,1,84.0671999999999,8|2,2:0|2:0,2:0:0:0:
275,149,119091,1,0,3:0:0:0:
153,79,119311,1,2,2:0:0:0:
210,240,119532,2,0,L|201:282,2,42.0336,10|2|2,2:0|2:0|2:0,2:0:0:0:
320,64,119973,6,0,B|345:77|359:97|359:97|473:75,1,168.1344,6|10,3:2|2:0,2:0:0:0:
437,247,120635,2,0,P|413:214|412:173,1,84.0671999999999,2|0,2:0|3:0,2:0:0:0:
360,384,121076,5,2,2:0:0:0:
512,312,121297,1,10,2:0:0:0:
328,232,121517,5,2,2:0:0:0:
328,232,121628,1,2,2:0:0:0:
328,232,121738,2,0,B|313:257|313:257|260:272,1,84.0671999999999,2|2,3:2|2:0,2:0:0:0:
200,144,122179,1,10,2:0:0:0:
240,288,122400,6,0,P|173:239|92:249,1,168.1344,2|2,2:0|2:0,2:0:0:0:
137,368,123061,2,0,L|146:327,2,42.0336,10|0|2,2:0|2:0|2:0,2:0:0:0:
8,248,123503,6,0,B|-14:121|-14:121|0:144|26:159,1,184.947845639649,6|10,3:2|2:0,2:0:0:0:
219,71,124164,2,0,P|152:11|64:26,1,184.947845639649,2|2,2:0|2:0,2:0:0:0:
64,26,124716,1,2,2:0:0:0:
64,26,124826,1,8,2:0:0:0:
200,161,125047,5,2,2:0:0:0:
209,167,125157,1,0,2:0:0:0:
217,172,125267,2,0,L|261:161,1,46.4464014099122,2|0,3:2|2:0,2:0:0:0:
368,40,125488,2,0,L|323:29,1,46.4464014099122,10|0,2:0|2:0,2:0:0:0:
344,216,125708,6,0,B|369:198|369:198|429:211,1,92.4739228198241,8|2,2:0|3:2,2:0:0:0:
429,211,126039,1,0,2:0:0:0:
429,211,126150,2,0,L|418:166,1,46.4464014099122,8|0,2:0|2:0,2:0:0:0:
323,29,126370,5,2,3:2:0:0:
323,29,126480,1,8,2:0:0:0:
323,29,126591,2,0,B|312:56|312:56|234:76,1,109.287355001221,10|10,2:0|2:0,2:0:0:0:
190,88,126922,1,8,2:0:0:0:
190,88,127032,1,0,3:0:0:0:
224,216,127253,6,0,L|234:162,1,54.8911975006105,8|0,2:0|2:0,2:0:0:0:
88,64,127473,2,0,L|67:171,1,109.287355001221,8|8,2:0|2:0,2:0:0:0:
67,171,127804,1,8,2:0:0:0:
67,171,127914,2,0,P|92:162|119:155,1,54.8911975006105,0|0,3:0|3:0,2:0:0:0:
286,288,128135,1,0,3:0:0:0:
250,308,128245,1,0,3:0:0:0:
210,311,128355,1,8,2:0:0:0:
172,296,128466,1,8,2:0:0:0:
145,266,128576,1,8,2:0:0:0:
255,55,128989,5,2,2:0:0:0:
255,55,129099,1,2,2:0:0:0:
255,55,129238,2,0,P|239:135|224:215,1,164.178552501831,6|0,3:2|2:0,2:0:0:0:
223,215,129679,1,8,2:0:0:0:
354,381,129899,6,0,B|474:351|474:351|443:348|416:330,1,184.947845639649,2|2,2:0|2:0,2:0:0:0:
429,190,130451,1,2,2:0:0:0:
429,190,130561,2,0,B|456:205|456:205|466:265,1,92.4739228198241,10|2,2:0|2:0,2:0:0:0:
248,384,131002,5,0,3:0:0:0:
278,188,131223,1,2,2:0:0:0:
96,240,131443,2,0,B|111:267|111:267|171:277,1,92.4739228198241,8|2,2:0|2:0,2:0:0:0:
172,278,131774,1,2,2:0:0:0:
172,278,131885,2,0,L|164:323,2,46.2369614099122,0|2|2,3:0|2:0|2:0,2:0:0:0:
98,125,132326,2,0,P|58:148|13:146,1,92.4739228198241,8|2,2:0|2:0,2:0:0:0:
232,16,132767,6,0,P|220:97|209:178,1,164.178552501831,2|0,3:2|2:0,2:0:0:0:
209,178,133208,1,10,2:0:0:0:
384,300,133429,2,0,B|406:277|406:277|465:264,1,92.4739228198241,2|0,2:0|3:0,2:0:0:0:
365,72,133870,2,0,P|357:117|350:163,1,92.4739228198241,2|8,2:0|2:0,2:0:0:0:
316,380,134311,1,2,2:0:0:0:
176,288,134532,6,0,P|215:266|260:273,1,92.4739228198241,2|2,3:2|2:0,2:0:0:0:
120,384,134973,1,10,2:0:0:0:
48,272,135193,5,2,2:0:0:0:
48,272,135304,1,2,2:0:0:0:
48,272,135414,2,0,P|57:226|67:181,1,92.4739228198241,2|2,3:2|2:0,2:0:0:0:
169,33,135855,2,0,P|194:94|158:150,1,138.920324229736,10|2,2:0|2:0,2:0:0:0:
67,181,136296,6,0,B|184:162|155:250|274:219,1,218.574710002442,6|10,3:2|2:0,2:0:0:0:
427,153,136958,1,2,2:0:0:0:
334,34,137179,2,0,P|328:79|323:125,1,92.4739228198241,0|2,3:0|2:0,2:0:0:0:
448,349,137620,1,8,2:0:0:0:
498,204,137840,1,2,2:0:0:0:
360,384,138061,6,0,B|261:354|321:306|214:280,1,184.947845639649,0|8,3:0|2:0,2:0:0:0:
128,136,138723,1,2,2:0:0:0:
32,256,138943,2,0,P|78:248|124:241,1,92.4739228198241,0|2,3:0|2:0,2:0:0:0:
124,241,139274,1,2,2:0:0:0:
124,241,139385,1,8,2:0:0:0:
224,72,139605,1,2,2:0:0:0:
368,196,139826,6,0,B|476:174|476:174|426:152,1,164.178552501831,2|2,3:2|2:0,2:0:0:0:
426,152,140267,1,8,2:0:0:0:
416,344,140488,2,0,P|343:291|254:306,1,184.947845639649,2|2,2:0|2:0,2:0:0:0:
160,384,141149,1,10,2:0:0:0:
64,280,141370,2,0,L|72:234,1,46.4464014099122,2|0,2:0|2:0,2:0:0:0:
24,136,141590,5,0,3:0:0:0:
57,130,141701,1,8,2:0:0:0:
90,124,141811,1,10,2:0:0:0:
168,184,142032,1,10,2:0:0:0:
296,32,142252,5,2,2:0:0:0:
263,26,142363,1,8,2:0:0:0:
230,20,142473,2,0,L|241:74,1,54.8911975006105,2|8,3:2|2:0,2:0:0:0:
400,112,142693,2,0,L|389:166,1,54.8911975006105,10|0,2:0|2:0,2:0:0:0:
472,280,142914,5,10,2:0:0:0:
452,324,143024,1,10,2:0:0:0:
412,351,143135,1,10,2:0:0:0:
364,354,143245,1,10,2:0:0:0:
321,331,143355,6,0,P|304:250|288:170,1,164.178552501831,6|0,3:2|2:0,2:0:0:0:
288,170,143796,1,8,2:0:0:0:
496,199,144017,6,0,B|397:184|427:264|326:248,1,184.947845639649,2|2,2:0|2:0,2:0:0:0:
192,120,144679,2,0,P|200:74|208:29,1,92.4739228198241,10|2,2:0|2:0,2:0:0:0:
160,248,145120,6,0,P|88:192|0:208,1,184.947845639649,0|8,3:0|2:0,2:0:0:0:
144,360,145782,1,2,2:0:0:0:
144,360,145892,1,2,2:0:0:0:
144,360,146002,2,0,P|184:338|230:336,1,92.4739228198241,0|2,3:0|2:0,2:0:0:0:
319,125,146443,2,0,P|359:146|405:148,1,92.4739228198241,8|2,2:0|2:0,2:0:0:0:
512,272,146885,6,0,B|453:263|453:263|421:285|421:285|356:275,1,164.178552501831,2|0,3:2|2:0,2:0:0:0:
356,275,147326,1,10,2:0:0:0:
240,168,147546,2,0,P|226:124|238:80,1,92.4739228198241,2|0,2:0|3:0,2:0:0:0:
88,16,147988,2,0,P|96:61|106:106,1,92.4739228198241,2|8,2:0|2:0,2:0:0:0:
32,264,148429,6,0,B|19:240|-3:228|-3:228|128:252,1,184.947845639649,2|2,2:0|2:0,2:0:0:0:
245,374,149090,2,0,B|283:364|283:364|288:356|288:356|330:344,1,92.4739228198241,10|2,2:0|2:0,2:0:0:0:
404,379,149421,1,2,2:0:0:0:
403,379,149532,2,0,P|427:339|427:294,1,92.4739228198241,2|2,3:2|2:0,2:0:0:0:
512,96,149973,2,0,B|495:131|495:131|372:154,1,164.178552501831,10|0,2:0|2:0,2:0:0:0:
306,200,150414,6,0,P|291:156|303:112,1,92.4739228198241,6|2,3:2|2:0,2:0:0:0:
372,154,150855,1,10,2:0:0:0:
272,32,151076,2,0,B|178:21|203:100|103:89,1,184.947845639649,2|2,2:0|2:0,2:0:0:0:
272,32,151737,1,8,2:0:0:0:
205,174,151958,1,2,2:0:0:0:
22,44,152179,6,0,P|12:89|3:134,1,92.4739228198241,0|2,3:0|2:0,2:0:0:0:
128,312,152620,2,0,P|118:266|109:221,1,92.4739228198241,8|2,2:0|2:0,2:0:0:0:
256,32,153061,5,0,3:0:0:0:
306,200,153282,1,2,2:0:0:0:
306,200,153392,1,2,2:0:0:0:
306,200,153502,1,8,2:0:0:0:
424,64,153723,1,2,2:0:0:0:
512,256,153943,6,0,B|465:239|426:268|426:268|407:320|352:312,1,184.947845639649,2|10,3:2|2:0,2:0:0:0:
288,104,154605,2,0,B|317:98|335:75|335:75|308:200,1,184.947845639649,2|2,2:0|2:0,2:0:0:0:
270,378,155267,1,10,2:0:0:0:
152,304,155487,5,2,2:0:0:0:
152,304,155598,1,2,2:0:0:0:
152,304,155708,2,0,P|191:281|236:286,1,92.4739228198241,0|2,3:0|2:0,2:0:0:0:
440,176,156149,1,10,2:0:0:0:
285,103,156370,5,2,2:0:0:0:
285,103,156480,1,2,2:0:0:0:
285,103,156590,1,2,3:2:0:0:
352,280,156811,1,10,2:0:0:0:
424,64,157032,5,10,2:0:0:0:
224,184,157252,1,10,2:0:0:0:
432,335,157473,6,0,P|482:275|467:197,1,164.178552501831,6|0,3:2|2:0,2:0:0:0:
399,162,157914,1,10,2:0:0:0:
399,162,158135,2,0,L|355:172,2,46.2369614099122,2|2|2,2:0|2:0|3:2,2:0:0:0:
512,104,158576,1,2,2:0:0:0:
320,0,158796,2,0,P|310:45|301:90,1,92.4739228198241,10|2,2:0|2:0,2:0:0:0:
328,296,159237,6,0,P|265:247|186:260,1,164.178552501831,2|0,3:2|2:0,2:0:0:0:
136,328,159679,1,10,2:0:0:0:
136,328,159899,2,0,L|145:373,2,46.2369614099122,2|2|2,2:0|2:0|3:2,2:0:0:0:
95,138,160340,1,2,2:0:0:0:
32,280,160561,1,8,2:0:0:0:
4,118,160782,5,2,2:0:0:0:
4,118,160892,1,2,2:0:0:0:
4,118,161002,2,0,P|49:127|94:137,1,92.4739228198241,6|2,3:2|2:0,2:0:0:0:
254,190,161443,1,10,2:0:0:0:
184,24,161664,6,0,B|182:57|165:85|165:85|188:136|188:136|171:166|167:196,1,184.947845639649,2|2,2:0|2:0,2:0:0:0:
204,371,162326,2,0,P|167:344|122:349,1,92.4739228198241,10|2,2:0|2:0,2:0:0:0:
272,192,162767,5,0,3:0:0:0:
360,344,162987,1,2,2:0:0:0:
488,216,163208,2,0,P|442:224|397:234,1,92.4739228198241,8|2,2:0|2:0,2:0:0:0:
397,234,163539,1,2,2:0:0:0:
397,234,163649,1,2,3:2:0:0:
344,32,163870,5,2,2:0:0:0:
288,264,164090,1,10,2:0:0:0:
419,128,164311,1,2,2:0:0:0:
216,80,164532,6,0,P|170:88|125:96,1,92.4739228198241,6|2,3:2|2:0,2:0:0:0:
280,152,164973,1,10,2:0:0:0:
96,192,165193,6,0,P|33:127|40:38,1,184.947845639649,2|2,2:0|2:0,2:0:0:0:
208,248,165855,2,0,P|199:293|191:338,1,92.4739228198241,10|10,2:0|2:0,2:0:0:0:
191,338,166186,1,8,2:0:0:0:
191,338,166296,1,0,3:0:0:0:
96,192,166517,1,2,2:0:0:0:
280,152,166737,1,8,2:0:0:0:
159,49,166958,5,2,2:0:0:0:
159,49,167068,1,8,2:0:0:0:
159,49,167179,2,0,L|149:94,1,46.4464014099122,0|8,3:0|2:0,2:0:0:0:
90,255,167399,5,10,2:0:0:0:
84,267,167510,1,8,2:0:0:0:
76,280,167620,1,10,2:0:0:0:
40,261,167730,1,10,2:0:0:0:
15,228,167840,1,10,2:0:0:0:
10,187,167951,1,10,2:0:0:0:
23,148,168061,6,0,B|106:135|85:200|181:183,1,168.1344,6|8,3:2|2:0,2:0:0:0:
241,63,168723,2,0,P|199:55|158:48,1,84.0671999999999,2|0,2:0|3:0,2:0:0:0:
181,182,169164,1,2,2:0:0:0:
384,40,169385,5,10,2:0:0:0:
416,192,169605,2,0,P|353:139|273:151,1,168.1344,2|2,2:0|2:0,2:0:0:0:
192,8,170267,2,0,B|209:32|209:32|199:85,1,84.0671999999999,8|2,2:0|2:0,2:0:0:0:
118,237,170708,2,0,P|100:200|102:159,1,84.0671999999999,2|2,3:2|2:0,2:0:0:0:
285,67,171149,2,0,P|278:108|272:150,1,84.0671999999999,10|2,2:0|2:0,2:0:0:0:
357,275,171590,6,0,P|417:220|498:230,1,168.1344,6|8,3:2|2:0,2:0:0:0:
368,384,172252,2,0,P|328:370|287:362,2,84.0672,2|0|2,2:0|3:0|2:0,2:0:0:0:
272,150,172914,5,10,2:0:0:0:
510,247,173135,2,0,B|421:235|440:304|354:292,1,168.1344,2|2,2:0|2:0,2:0:0:0:
197,244,173796,1,10,2:0:0:0:
379,176,174017,5,2,2:0:0:0:
379,176,174127,1,2,2:0:0:0:
379,176,174237,1,2,3:2:0:0:
251,72,174458,1,2,2:0:0:0:
302,279,174679,2,0,P|293:320|286:361,1,84.0671999999999,10|2,2:0|2:0,2:0:0:0:
47,215,175120,6,0,P|104:157|186:159,1,168.1344,6|8,3:2|2:0,2:0:0:0:
344,96,175782,1,2,2:0:0:0:
344,96,175892,1,2,2:0:0:0:
344,96,176002,2,0,P|350:54|358:13,1,84.0671999999999,0|2,3:0|2:0,2:0:0:0:
272,160,176443,5,10,2:0:0:0:
445,215,176664,2,0,B|429:249|429:249|301:278,1,168.1344,2|2,2:0|2:0,2:0:0:0:
208,376,177326,2,0,P|166:366|126:357,1,84.0671999999999,8|2,2:0|2:0,2:0:0:0:
0,240,177767,6,0,P|58:183|139:191,1,168.1344,2|10,3:2|2:0,2:0:0:0:
88,270,178429,1,2,2:0:0:0:
208,128,178649,6,0,P|194:210|179:293,1,168.1344,6|8,3:2|2:0,2:0:0:0:
285,361,179311,1,2,2:0:0:0:
285,361,179421,1,2,2:0:0:0:
285,360,179532,2,0,P|321:341|362:347,1,84.0671999999999,2|2,3:2|2:0,2:0:0:0:
424,136,179973,1,10,2:0:0:0:
512,240,180193,6,0,B|470:211|418:227|418:227|400:266|364:265,1,168.1344,2|2,2:0|2:0,2:0:0:0:
197,201,180855,1,8,2:0:0:0:
320,48,181076,1,2,2:0:0:0:
328,61,181186,1,2,2:0:0:0:
336,73,181296,2,0,P|327:114|320:155,1,84.0671999999999,2|2,3:2|2:0,2:0:0:0:
224,303,181737,6,0,P|182:259|196:200,1,126.2912,10|2,2:0|2:0,2:0:0:0:
216,224,182179,6,0,B|122:201|176:160|77:137,1,168.1344,6|8,3:2|2:0,2:0:0:0:
215,9,182840,1,2,2:0:0:0:
215,9,182951,1,2,2:0:0:0:
215,10,183061,2,0,P|239:43|241:84,1,84.0671999999999,0|2,3:0|2:0,2:0:0:0:
160,208,183502,1,10,2:0:0:0:
318,154,183723,6,0,B|434:128|434:128|412:142|401:164,1,168.1344,2|2,2:0|2:0,2:0:0:0:
402,164,184274,1,2,2:0:0:0:
402,164,184385,2,0,L|418:81,1,84.0671999999999,8|2,2:0|2:0,2:0:0:0:
512,240,184826,2,0,L|496:323,1,84.0671999999999,2|2,3:2|2:0,2:0:0:0:
376,384,185267,2,0,B|361:380|361:380|356:373|356:373|339:368,1,42.224,10|2,2:0|2:0,2:0:0:0:
272,296,185487,2,0,B|257:299|257:299|252:306|252:306|235:311,1,42.224,2|2,2:0|2:0,2:0:0:0:
159,375,185708,6,0,P|99:322|105:241,1,168.1344,6|8,3:2|2:0,2:0:0:0:
120,128,186370,2,0,P|79:138|38:149,1,84.0671999999999,2|0,2:0|3:0,2:0:0:0:
184,19,186811,1,2,2:0:0:0:
224,192,187032,5,10,2:0:0:0:
392,135,187252,2,0,P|330:82|250:95,1,168.1344,2|2,2:0|2:0,2:0:0:0:
376,248,187914,2,0,L|457:229,1,84.0671999999999,8|2,2:0|2:0,2:0:0:0:
457,229,188245,1,2,2:0:0:0:
457,229,188355,2,0,P|451:249|446:269,2,42.0336,2|4|6,3:2|2:3|2:3,2:0:0:0:
392,135,188796,1,10,2:0:0:0:
352,328,189017,1,2,3:2:0:0:
224,192,189237,6,0,B|131:183|163:242|65:229,1,168.1344,6|8,3:2|2:0,2:0:0:0:
203,274,189899,1,2,2:0:0:0:
90,148,190120,2,0,P|99:106|103:65,1,84.0671999999999,0|2,3:0|2:0,2:0:0:0:
13,91,190561,5,10,2:0:0:0:
192,40,190782,2,0,B|248:31|248:31|287:53|287:53|352:39,1,168.1344,2|2,2:0|2:0,2:0:0:0:
420,154,191443,2,0,P|379:156|339:143,1,84.0671999999999,8|2,2:0|2:0,2:0:0:0:
512,88,191885,1,0,3:0:0:0:
480,224,192105,1,2,2:0:0:0:
475,233,192215,1,2,2:0:0:0:
470,244,192326,2,0,P|477:285|486:326,1,84.0671999999999,10|2,2:0|2:0,2:0:0:0:
243,164,192767,6,0,B|235:139|210:123|210:123|339:143,1,184.947845639649,6|8,3:2|2:0,2:0:0:0:
376,304,193429,2,0,B|284:289|314:373|207:353,1,184.947845639649,2|2,2:0|2:0,2:0:0:0:
0,256,194090,5,10,2:0:0:0:
128,192,194311,2,0,L|117:237,1,46.4464014099122,2|2,2:0|2:0,2:0:0:0:
96,352,194532,1,0,3:0:0:0:
96,352,194642,1,10,2:0:0:0:
96,352,194752,1,10,2:0:0:0:
64,133,194973,6,0,P|100:106|146:102,1,92.4739228198241,8|10,2:0|2:0,2:0:0:0:
166,84,195304,1,8,2:0:0:0:
175,57,195414,5,8,2:0:0:0:
198,81,195524,1,8,2:0:0:0:
230,95,195635,1,8,2:0:0:0:
265,95,195745,1,8,2:0:0:0:
296,82,195855,1,8,2:0:0:0:
314,45,195965,1,8,2:0:0:0:
345,13,196076,1,10,2:0:0:0:
391,1,196186,1,10,2:0:0:0:
448,32,196296,6,0,B|472:151|472:151|450:125|421:113,1,184.947845639649,6|10,3:2|2:0,2:0:0:0:
300,220,196958,1,2,2:0:0:0:
300,220,197068,1,2,2:0:0:0:
300,220,197179,2,0,P|345:209|390:199,1,92.4739228198241,2|2,3:2|2:0,2:0:0:0:
198,81,197620,1,10,2:0:0:0:
164,311,197840,1,2,2:0:0:0:
49,202,198061,6,0,P|100:157|167:160,1,138.920324229736,2|2,3:2|2:0,2:0:0:0:
168,161,198502,1,10,2:0:0:0:
164,311,198723,2,0,B|137:298|137:298|127:236,1,92.4739228198241,2|2,2:0|3:2,2:0:0:0:
351,127,199164,1,2,2:0:0:0:
256,18,199385,1,10,2:0:0:0:
288,216,199605,6,0,P|357:158|447:164,1,184.947845639649,2|2,2:0|2:0,2:0:0:0:
320,336,200267,2,0,P|274:328|228:321,1,92.4739228198241,10|2,2:0|2:0,2:0:0:0:
228,321,200598,1,2,2:0:0:0:
228,321,200708,1,2,3:2:0:0:
40,241,200929,1,2,2:0:0:0:
108,382,201149,5,10,2:0:0:0:
168,208,201370,2,0,B|197:88|197:88|143:118,1,184.947845639649,2|2,2:0|2:0,2:0:0:0:
143,118,201921,1,2,2:0:0:0:
143,118,202032,1,8,2:0:0:0:
280,192,202252,6,0,P|347:176|415:162,1,138.920324229736,2|0,2:0|2:0,2:0:0:0:
440,175,202693,2,0,P|455:132|446:87,1,92.4739228198241,2|10,2:0|2:0,2:0:0:0:
496,280,203135,5,2,2:0:0:0:
480,296,203245,1,2,2:0:0:0:
488,320,203355,2,0,B|395:311|428:382|326:373,1,176.807674616699,6|0,3:2|2:0,2:0:0:0:
327,373,203796,1,10,2:0:0:0:
181,201,204017,6,0,B|174:179|147:166|147:166|279:191,1,184.947845639649,2|2,2:0|2:0,2:0:0:0:
376,32,204679,2,0,P|330:32|290:55,1,92.4739228198241,10|2,2:0|2:0,2:0:0:0:
181,201,205120,5,2,3:2:0:0:
127,9,205340,1,2,2:0:0:0:
0,152,205561,2,0,P|37:126|83:126,1,92.4739228198241,10|2,2:0|2:0,2:0:0:0:
84,126,205892,1,2,2:0:0:0:
84,126,206002,1,2,3:2:0:0:
208,304,206223,5,2,2:0:0:0:
63,208,206443,1,10,2:0:0:0:
160,384,206664,6,0,B|192:336|256:344|256:344|279:373|323:370,1,184.947845639649,2|2,2:0|2:0,2:0:0:0:
424,304,207326,2,0,P|431:258|440:213,1,92.4739228198241,10|2,2:0|2:0,2:0:0:0:
440,213,207657,1,2,2:0:0:0:
440,213,207767,1,2,3:2:0:0:
368,16,207987,5,2,2:0:0:0:
361,30,208098,1,2,2:0:0:0:
356,42,208208,2,0,L|404:35,1,46.4464014099122,10|0,2:0|2:0,2:0:0:0:
480,136,208429,2,0,L|432:129,1,46.4464014099122,2|0,2:0|2:0,2:0:0:0:
328,200,208649,5,2,3:2:0:0:
328,200,208760,1,10,2:0:0:0:
328,200,208870,1,2,3:2:0:0:
160,160,209090,1,10,2:0:0:0:
260,78,209311,2,0,B|269:86|269:86|260:119,1,46.4464014099122,2|10,3:2|2:0,2:0:0:0:
144,264,209532,5,2,3:2:0:0:
184,244,209642,1,10,2:0:0:0:
223,246,209752,1,2,3:2:0:0:
259,267,209862,1,2,2:0:0:0:
281,306,209973,1,10,2:0:0:0:
303,344,210083,1,10,2:0:0:0:
339,366,210193,1,10,2:0:0:0:
378,368,210304,1,10,2:0:0:0:
419,348,210414,6,0,P|430:266|441:185,1,164.178552501831,6|0,3:2|2:0,2:0:0:0:
448,167,210855,2,0,P|409:191|363:188,1,92.4739228198241,10|2,2:0|2:0,2:0:0:0:
216,72,211296,5,2,3:2:0:0:
256,232,211517,1,2,2:0:0:0:
96,272,211737,1,10,2:0:0:0:
56,112,211958,1,2,2:0:0:0:
0,264,212179,5,2,3:2:0:0:
0,264,212289,1,2,2:0:0:0:
0,264,212399,1,2,2:0:0:0:
128,176,212620,1,10,2:0:0:0:
248,328,212840,6,0,B|160:315|177:395|79:383,1,184.947845639649,2|2,2:0|2:0,2:0:0:0:
256,232,213502,1,10,2:0:0:0:
128,176,213723,2,0,P|120:130|106:86,1,92.4739228198241,2|6,2:0|3:2,2:0:0:0:
313,18,214164,5,2,2:0:0:0:
256,232,214385,1,10,2:0:0:0:
151,75,214605,2,0,L|106:86,2,46.2369614099122,2|2|2,2:0|2:0|3:2,2:0:0:0:
326,149,215046,2,0,P|365:125|410:131,1,92.4739228198241,2|10,2:0|2:0,2:0:0:0:
497,27,215487,1,2,2:0:0:0:
512,224,215708,6,0,B|409:209|439:287|342:274,1,184.947845639649,2|10,3:2|2:0,2:0:0:0:
224,375,216370,1,2,2:0:0:0:
215,366,216480,1,2,2:0:0:0:
206,358,216590,2,0,P|215:312|224:267,1,92.4739228198241,2|2,3:2|2:0,2:0:0:0:
164,91,217032,1,10,2:0:0:0:
132,229,217252,5,2,2:0:0:0:
132,229,217362,1,2,2:0:0:0:
132,230,217473,2,0,P|189:175|269:180,1,164.178552501831,6|0,3:2|2:0,2:0:0:0:
291,192,217914,1,10,2:0:0:0:
492,316,218135,5,2,2:0:0:0:
492,316,218245,1,2,2:0:0:0:
492,316,218355,2,0,B|467:352|409:346,1,92.4739228198241,2|2,3:2|2:0,2:0:0:0:
224,267,218796,1,10,2:0:0:0:
400,165,219017,1,2,2:0:0:0:
320,364,219237,5,2,3:2:0:0:
191,167,219458,1,2,2:0:0:0:
117,367,219679,1,10,2:0:0:0:
313,218,219899,5,2,2:0:0:0:
313,218,220010,1,2,2:0:0:0:
313,218,220120,2,0,P|324:149|337:81,1,138.920324229736,2|2,3:2|2:0,2:0:0:0:
320,51,220561,1,10,2:0:0:0:
191,167,220782,6,0,B|121:151|137:210|60:193,1,138.920324229736,2|0,2:0|2:0,2:0:0:0:
60,193,221223,1,2,2:0:0:0:
208,73,221443,1,10,2:0:0:0:
91,9,221664,1,2,2:0:0:0:
91,9,221774,1,2,2:0:0:0:
91,9,221885,2,0,P|82:54|75:100,1,92.4739228198241,2|2,3:2|2:0,2:0:0:0:
129,289,222326,1,10,2:0:0:0:
205,72,222546,5,2,2:0:0:0:
205,72,222657,1,2,2:0:0:0:
205,72,222767,1,2,3:2:0:0:
44,199,222987,1,2,2:0:0:0:
239,264,223208,1,10,2:0:0:0:
34,190,223429,6,0,L|4:198,2,23.1000007049561,8|8|8,2:0|2:0|2:0,2:0:0:0:
44,199,223649,1,2,3:2:0:0:
55,208,223760,2,0,L|44:253,1,46.4464014099122,10|2,2:0|2:0,2:0:0:0:
152,384,223980,5,10,2:0:0:0:
141,375,224090,2,0,L|152:330,1,46.4464014099122,10|2,2:0|2:0,2:0:0:0:
211,185,224311,5,10,2:0:0:0:
262,180,224421,1,10,2:0:0:0:
304,216,224532,2,0,B|363:204|363:204|398:220|398:220|462:208,1,164.178552501831,6|0,3:2|2:0,2:0:0:0:
462,208,224973,1,8,2:0:0:0:
429,47,225193,2,0,B|392:82|408:132,1,92.4739228198241,2|0,2:0|3:0,2:0:0:0:
512,344,225635,5,2,2:0:0:0:
512,344,225745,1,2,2:0:0:0:
512,344,225855,2,0,P|441:288|352:303,1,184.947845639649,10|0,2:0|3:0,2:0:0:0:
224,384,226517,1,2,2:0:0:0:
129,289,226737,2,0,L|150:199,1,92.4739228198241,8|2,2:0|2:0,2:0:0:0:
159,152,227068,1,2,2:0:0:0:
159,152,227179,1,0,3:0:0:0:
18,7,227399,5,2,2:0:0:0:
0,116,227620,2,0,P|38:92|84:94,1,92.4739228198241,8|2,2:0|2:0,2:0:0:0:
293,226,228061,6,0,P|344:165|335:85,1,164.178552501831,2|0,3:2|2:0,2:0:0:0:
305,58,228502,1,10,2:0:0:0:
159,152,228723,2,0,P|204:143|250:136,1,92.4739228198241,2|0,2:0|3:0,2:0:0:0:
330,331,229164,2,0,P|284:322|238:315,1,92.4739228198241,2|8,2:0|2:0,2:0:0:0:
63,383,229605,6,0,P|8:313|26:225,1,184.947845639649,2|2,2:0|2:0,2:0:0:0:
159,152,230267,1,10,2:0:0:0:
50,11,230487,1,2,2:0:0:0:
43,21,230598,1,2,2:0:0:0:
35,32,230708,2,0,P|46:76|58:121,1,92.4739228198241,2|2,3:2|2:0,2:0:0:0:
219,233,231149,2,0,P|256:176|247:109,1,138.920324229736,10|0,2:0|2:0,2:0:0:0:
188,24,231590,6,0,B|202:76|260:100|313:75|313:75|323:46|353:26,1,218.574710002442,6|10,3:2|2:0,2:0:0:0:
512,123,232252,1,2,2:0:0:0:
371,264,232473,2,0,P|359:219|347:174,1,92.4739228198241,0|2,3:0|2:0,2:0:0:0:
512,280,232914,1,8,2:0:0:0:
352,384,233135,1,2,2:0:0:0:
219,233,233355,6,0,B|94:188|94:188|115:209|121:231,1,184.947845639649,0|8,3:0|2:0,2:0:0:0:
256,128,234017,1,2,2:0:0:0:
256,128,234127,1,2,2:0:0:0:
256,128,234237,1,0,3:0:0:0:
79,73,234458,1,2,2:0:0:0:
121,231,234679,2,0,P|109:275|99:320,1,92.4739228198241,8|2,2:0|2:0,2:0:0:0:
25,167,235120,6,0,B|85:151|85:151|105:117|105:117|165:102,1,164.178552501831,2|2,3:2|2:0,2:0:0:0:
165,102,235561,1,8,2:0:0:0:
359,232,235782,6,0,B|338:278|287:287|287:287|265:244|218:233,1,184.947845639649,2|2,2:0|2:0,2:0:0:0:
219,234,236333,1,2,2:0:0:0:
219,234,236443,1,10,2:0:0:0:
256,64,236664,2,0,L|301:74,1,46.4464014099122,2|0,2:0|2:0,2:0:0:0:
416,160,236885,5,0,3:0:0:0:
429,155,236995,1,8,2:0:0:0:
445,149,237105,1,10,2:0:0:0:
405,342,237326,1,8,2:0:0:0:
218,232,237546,5,2,2:0:0:0:
224,216,237657,1,8,2:0:0:0:
229,203,237767,2,0,L|176:217,1,54.8911975006105,2|8,3:2|2:0,2:0:0:0:
40,125,237987,2,0,L|92:139,1,54.8911975006105,10|0,2:0|2:0,2:0:0:0:
195,350,238208,5,10,2:0:0:0:
157,367,238318,1,10,2:0:0:0:
116,369,238429,1,10,2:0:0:0:
79,354,238539,1,10,2:0:0:0:
50,314,238649,6,0,B|131:288|89:247|176:216,1,164.178552501831,6|0,3:2|2:0,2:0:0:0:
175,216,239090,1,8,2:0:0:0:
340,120,239311,2,0,P|338:34|255:14,1,184.947845639649,2|2,2:0|2:0,2:0:0:0:
318,219,239973,2,0,P|362:208|407:197,1,92.4739228198241,10|2,2:0|2:0,2:0:0:0:
391,384,240414,6,0,B|294:355|342:305|246:279,1,184.947845639649,0|8,3:0|2:0,2:0:0:0:
52,221,241076,1,2,2:0:0:0:
52,221,241186,1,2,2:0:0:0:
52,221,241296,1,0,3:0:0:0:
116,369,241517,1,2,2:0:0:0:
182,194,241737,2,0,B|195:149|195:149|175:107,1,92.4739228198241,8|2,2:0|2:0,2:0:0:0:
384,0,242179,6,0,P|368:80|352:160,1,164.178552501831,2|0,3:2|2:0,2:0:0:0:
347,195,242620,1,10,2:0:0:0:
416,376,242840,2,0,P|437:336|432:290,1,92.4739228198241,2|0,2:0|3:0,2:0:0:0:
240,160,243282,2,0,P|249:205|257:250,1,92.4739228198241,2|8,2:0|2:0,2:0:0:0:
152,384,243723,6,0,P|88:321|1:336,1,184.947845639649,2|2,2:0|2:0,2:0:0:0:
152,244,244385,2,0,P|163:200|150:156,1,92.4739228198241,10|2,2:0|2:0,2:0:0:0:
75,87,244715,1,2,2:0:0:0:
83,92,244826,2,0,L|172:69,1,92.4739228198241,2|2,3:2|2:0,2:0:0:0:
455,124,245267,6,0,B|430:159|430:159|313:189,1,164.178552501831,10|0,2:0|2:0,2:0:0:0:
257,250,245708,2,0,P|235:209|236:164,1,92.4739228198241,6|2,3:2|2:0,2:0:0:0:
368,80,246149,1,10,2:0:0:0:
416,280,246370,6,0,P|343:228|256:250,1,184.947845639649,2|2,2:0|2:0,2:0:0:0:
120,384,247032,1,8,2:0:0:0:
96,216,247252,1,2,2:0:0:0:
234,353,247473,6,0,P|279:341|324:330,1,92.4739228198241,0|2,3:0|2:0,2:0:0:0:
487,152,247914,1,8,2:0:0:0:
449,359,248135,5,2,2:0:0:0:
452,362,248245,1,2,2:0:0:0:
456,366,248355,1,0,3:0:0:0:
358,206,248576,1,2,2:0:0:0:
234,353,248796,2,0,B|212:370|212:370|149:352,1,92.4739228198241,8|2,2:0|2:0,2:0:0:0:
0,205,249237,6,0,P|62:141|150:155,1,184.947845639649,2|10,3:2|2:0,2:0:0:0:
320,120,249899,2,0,B|352:-4|352:-4|330:20|304:26,1,184.947845639649,2|2,2:0|2:0,2:0:0:0:
305,26,250451,1,2,2:0:0:0:
305,26,250561,2,0,B|400:8|379:81|480:59,1,184.947845639649,10|0,2:0|3:0,2:0:0:0:
456,267,251223,5,2,2:0:0:0:
312,112,251443,1,10,2:0:0:0:
353,328,251664,1,2,2:0:0:0:
426,146,251885,5,2,3:2:0:0:
248,312,252105,1,10,2:0:0:0:
168,120,252326,1,10,2:0:0:0:
370,236,252546,1,10,2:0:0:0:
446,27,252767,6,0,B|354:45|405:88|311:111,1,164.178552501831,6|0,3:2|2:0,2:0:0:0:
240,64,253208,1,10,2:0:0:0:
240,64,253429,2,0,L|250:18,2,46.2369614099122,2|2|2,2:0|2:0|3:2,2:0:0:0:
209,210,253870,1,2,2:0:0:0:
53,147,254090,2,0,P|98:137|143:127,1,92.4739228198241,10|2,2:0|2:0,2:0:0:0:
339,300,254532,6,0,B|250:275|291:228|208:209,1,164.178552501831,2|0,3:2|2:0,2:0:0:0:
144,264,254973,1,10,2:0:0:0:
144,264,255193,2,0,L|152:309,2,46.2369614099122,2|2|2,2:0|2:0|3:2,2:0:0:0:
213,56,255635,1,2,2:0:0:0:
53,147,255855,1,8,2:0:0:0:
208,209,256076,5,2,2:0:0:0:
208,209,256186,1,2,2:0:0:0:
208,209,256296,2,0,P|252:196|297:185,1,92.4739228198241,6|2,3:2|2:0,2:0:0:0:
336,80,256737,1,10,2:0:0:0:
512,208,256958,6,0,P|447:270|358:263,1,184.947845639649,2|2,2:0|2:0,2:0:0:0:
167,135,257620,2,0,B|196:149|196:149|207:208,1,92.4739228198241,10|2,2:0|2:0,2:0:0:0:
157,351,258061,5,0,3:0:0:0:
297,184,258282,1,2,2:0:0:0:
79,143,258502,2,0,P|88:188|98:233,1,92.4739228198241,8|2,2:0|2:0,2:0:0:0:
98,233,258833,1,2,2:0:0:0:
98,233,258943,1,2,3:2:0:0:
264,280,259164,5,2,2:0:0:0:
167,135,259385,1,10,2:0:0:0:
157,351,259605,1,2,2:0:0:0:
357,262,259826,6,0,P|402:251|447:241,1,92.4739228198241,6|2,3:2|2:0,2:0:0:0:
472,96,260267,1,10,2:0:0:0:
446,241,260487,2,0,B|359:216|393:164|297:137,1,184.947845639649,2|2,2:0|2:0,2:0:0:0:
176,32,261149,2,0,P|139:58|93:61,1,92.4739228198241,10|10,2:0|2:0,2:0:0:0:
93,61,261480,1,8,2:0:0:0:
93,61,261590,5,0,3:0:0:0:
202,166,261811,1,2,2:0:0:0:
26,280,262032,6,0,P|-2:244|-3:199,1,92.4739228198241,8|2,2:0|2:0,2:0:0:0:
56,144,262362,1,8,2:0:0:0:
64,152,262473,2,0,L|109:160,1,46.4464014099122,0|8,3:0|2:0,2:0:0:0:
231,259,262693,1,10,2:0:0:0:
243,254,262804,1,8,2:0:0:0:
255,247,262914,5,10,2:0:0:0:
285,218,263024,1,10,2:0:0:0:
301,180,263135,1,10,2:0:0:0:
297,138,263245,1,10,2:0:0:0:
276,102,263355,6,0,B|328:91|328:91|374:118|374:118|433:103,1,168.1344,6|10,3:2|2:0,2:0:0:0:
504,272,264017,2,0,P|446:329|364:322,1,168.1344,2|2,2:0|2:0,2:0:0:0:
285,218,264679,1,10,2:0:0:0:
229,360,264899,1,2,2:0:0:0:
291,203,265120,6,0,P|281:161|272:121,1,84.0671999999999,0|2,3:0|2:0,2:0:0:0:
340,2,265561,1,10,2:0:0:0:
456,163,265782,1,2,2:0:0:0:
456,163,265892,1,2,2:0:0:0:
456,163,266002,2,0,P|420:142|379:147,1,84.0671999999999,2|2,3:2|2:0,2:0:0:0:
216,280,266443,2,0,P|256:291|296:302,1,84.0671999999999,10|2,2:0|2:0,2:0:0:0:
200,64,266885,6,0,B|109:55|139:115|43:105,1,168.1344,2|8,3:2|2:0,2:0:0:0:
0,272,267546,2,0,P|62:219|143:229,1,168.1344,2|2,2:0|2:0,2:0:0:0:
224,368,268208,2,0,L|306:352,1,84.0671999999999,10|2,2:0|2:0,2:0:0:0:
482,222,268649,2,0,B|437:237|437:237|402:233|368:196|379:147,1,168.1344,2|8,3:2|2:0,2:0:0:0:
216,104,269311,1,2,2:0:0:0:
328,22,269532,5,0,3:0:0:0:
286,200,269752,1,2,2:0:0:0:
110,37,269973,2,0,P|79:64|38:67,1,84.0671999999999,8|2,2:0|2:0,2:0:0:0:
39,68,270304,1,2,2:0:0:0:
39,68,270414,6,0,B|127:54|110:119|215:103,1,184.947845639649,6|8,3:2|2:0,2:0:0:0:
286,200,271076,2,0,B|307:318|307:318|291:293|275:282,1,168.1344,2|2,2:0|2:0,2:0:0:0:
275,282,271627,1,2,2:0:0:0:
279,286,271737,2,0,L|326:277,1,42.224,10|2,2:0|2:0,2:0:0:0:
421,381,271958,2,0,L|379:373,1,42.224,2|0,2:0|2:0,2:0:0:0:
497,193,272179,5,0,3:0:0:0:
316,150,272399,1,2,2:0:0:0:
385,267,272620,1,10,2:0:0:0:
458,68,272840,2,0,L|416:60,1,42.224,2|2,2:0|2:0,2:0:0:0:
305,43,273061,5,2,3:2:0:0:
257,67,273171,1,2,2:0:0:0:
233,123,273282,1,2,2:0:0:0:
233,179,273392,1,2,2:0:0:0:
255,232,273502,1,10,2:0:0:0:
289,263,273612,1,2,2:0:0:0:
337,275,273723,1,2,2:0:0:0:
369,272,273833,1,2,2:0:0:0:
385,267,273943,6,0,B|421:210|345:147|252:169|191:313|275:426|358:450|477:444|628:442|702:49|470:-46|185:43|301:152|172:185|66:110|45:11|45:11|10:127|53:222|180:222|180:222|125:242|97:313|100:370|100:370|150:318|225:323,1,1689.5999484375,6|0,3:2|2:0,2:0:0:0:
