osu file format v14

[General]
AudioFilename: audio.mp3
AudioLeadIn: 0
PreviewTime: 45526
Countdown: 0
SampleSet: Soft
StackLeniency: 0.7
Mode: 0
LetterboxInBreaks: 0
WidescreenStoryboard: 1

[Editor]
Bookmarks: 189237,196296,273943,281002
DistanceSpacing: 1
BeatDivisor: 4
GridSize: 32
TimelineZoom: 1

[Metadata]
Title:Perfect Sky
TitleUnicode:Perfect Sky
Artist:Shimotsuki Haruka
ArtistUnicode:霜月はるか
Creator:Kazato Asa
Version:Hard
Source:この大空に、翼をひろげて
Tags:Shizuku- Kono Oozora ni, Tsubasa o Hirogete Konosora If My Heart Had Wings IMHHW PULLTOP WillPlus pv op ed opening ending vn visual novel galgame Kenichi Okuma おおくま けんいち 大熊謙一 TWOFIVE Shimotsukin jpop pop eroge video game japanese
BeatmapID:2559101
BeatmapSetID:1230415

[Difficulty]
HPDrainRate:4.5
CircleSize:4
OverallDifficulty:6.6
ApproachRate:7.5
SliderMultiplier:1.44
SliderTickRate:1

[Events]
//Background and Video events
0,0,"HUT_07_002B.jpg",0,0
//Break Periods
2,98997,110104
//Storyboard Layer 0 (Background)
//Storyboard Layer 1 (Fail)
//Storyboard Layer 2 (Pass)
//Storyboard Layer 3 (Foreground)
//Storyboard Layer 4 (Overlay)
//Storyboard Sound Samples

[TimingPoints]
1299,441.176470588235,3,2,1,40,1,0
1299,-111.111111111111,3,2,1,40,0,0
4828,-111.111111111111,3,2,1,50,0,0
5269,-100,3,2,1,60,0,0
5931,-100,3,2,3,60,0,0
6151,-100,3,2,2,60,0,0
6372,-100,3,2,3,60,0,0
6593,-100,3,2,1,60,0,0
6813,-100,3,2,2,60,0,0
7034,-100,3,2,3,60,0,0
7916,-100,3,2,1,60,0,0
8357,441.176470588235,4,2,1,60,1,0
9018,-100,4,2,3,60,0,0
9459,-100,4,2,2,60,0,0
11445,-100,4,2,1,60,0,0
11665,-100,4,2,2,60,0,0
11886,-100,4,2,1,60,0,0
12548,-100,4,2,3,60,0,0
15415,-111.111111111111,4,2,1,50,0,0
15635,-111.111111111111,4,2,2,50,0,0
15856,-111.111111111111,4,2,1,50,0,0
16076,-111.111111111111,4,2,2,50,0,0
16298,-111.111111111111,4,2,3,50,0,0
16518,-111.111111111111,4,2,2,50,0,0
16959,-111.111111111111,4,2,3,50,0,0
17070,-111.111111111111,4,2,2,50,0,0
17400,-111.111111111111,4,2,3,50,0,0
17621,-111.111111111111,4,2,1,50,0,0
18283,-111.111111111111,4,2,3,50,0,0
18614,-111.111111111111,4,2,2,50,0,0
18724,-111.111111111111,4,2,3,50,0,0
18945,-111.111111111111,4,2,1,50,0,0
19165,-111.111111111111,4,2,3,50,0,0
19716,-111.111111111111,4,2,2,50,0,0
19826,-111.111111111111,4,2,3,50,0,0
20599,-111.111111111111,4,2,2,50,0,0
20709,-111.111111111111,4,2,3,50,0,0
21151,-111.111111111111,4,2,1,50,0,0
21371,-111.111111111111,4,2,2,50,0,0
22033,-111.111111111111,4,2,3,50,0,0
22143,-111.111111111111,4,2,2,50,0,0
22474,-111.111111111111,4,2,3,50,0,0
22694,-111.111111111111,4,2,2,50,0,0
22915,-111.111111111111,4,2,1,50,0,0
23135,-111.111111111111,4,2,2,50,0,0
23356,-111.111111111111,4,2,3,50,0,0
23797,-111.111111111111,4,2,1,50,0,0
24018,-111.111111111111,4,2,3,50,0,0
24129,-111.111111111111,4,2,2,50,0,0
24459,-111.111111111111,4,2,3,50,0,0
24680,-111.111111111111,4,2,1,50,0,0
24900,-111.111111111111,4,2,2,50,0,0
25121,-111.111111111111,4,2,1,50,0,0
25342,-111.111111111111,4,2,3,50,0,0
25672,-111.111111111111,4,2,2,50,0,0
25782,-111.111111111111,4,2,3,50,0,0
26004,-111.111111111111,4,2,1,50,0,0
26224,-111.111111111111,4,2,3,50,0,0
27658,-111.111111111111,4,2,1,50,0,0
27989,-111.111111111111,4,2,3,50,0,0
28209,-111.111111111111,4,2,2,50,0,0
29092,-111.111111111111,4,2,1,50,0,0
29533,-100,4,2,1,60,0,0
30195,-100,4,2,3,60,0,0
30636,-100,4,2,2,60,0,0
30856,-100,4,2,1,60,0,0
31076,-100,4,2,2,60,0,0
31298,-100,4,2,1,60,0,0
31959,-100,4,2,3,60,0,0
32400,-100,4,2,2,60,0,0
32841,-100,4,2,3,60,0,0
34717,-100,4,2,2,60,0,0
35598,-100,4,2,2,5,0,0
35709,-100,4,2,2,60,0,0
36151,-100,4,2,1,60,0,0
36261,-100,4,2,2,60,0,0
36592,-100,4,2,1,60,0,0
37254,-100,4,2,3,60,0,0
37915,-100,4,2,1,60,0,0
38136,-100,4,2,3,60,0,0
38246,-100,4,2,2,60,0,0
38356,-100,4,2,1,60,0,0
38576,-100,4,2,3,60,0,0
38798,-100,4,2,1,60,0,0
39018,-100,4,2,3,60,0,0
39459,-100,4,2,2,60,0,0
39680,-100,4,2,1,60,0,0
39900,-100,4,2,3,60,0,0
40121,-100,4,2,1,60,0,0
40341,-100,4,2,2,60,0,0
40562,-100,4,2,1,60,0,0
40783,-100,4,2,3,60,0,0
41224,-100,4,2,2,60,0,0
41665,-100,4,2,3,60,0,0
41886,-100,4,2,1,60,0,0
42548,-100,4,2,3,60,0,0
42988,-100,4,2,2,60,0,0
43209,-100,4,2,1,60,0,0
43429,-100,4,2,2,60,0,0
45636,-100,4,2,1,60,0,0
45856,441.176470588235,4,2,1,70,1,1
45856,-90.9090909090909,4,2,1,70,0,1
46517,-90.9090909090909,4,2,3,70,0,1
46958,-90.9090909090909,4,2,2,70,0,1
47179,-90.9090909090909,4,2,1,70,0,1
47399,-90.9090909090909,4,2,2,70,0,1
49385,-90.9090909090909,4,2,1,70,0,1
50047,-90.9090909090909,4,2,3,70,0,1
51370,-90.9090909090909,4,2,2,70,0,1
51591,-90.9090909090909,4,2,1,70,0,1
51811,-90.9090909090909,4,2,2,70,0,1
52032,-90.9090909090909,4,2,1,70,0,1
52252,-90.9090909090909,4,2,2,70,0,1
52473,-90.9090909090909,4,2,1,70,0,1
52694,-90.9090909090909,4,2,2,70,0,1
52914,-90.9090909090909,4,2,1,70,0,1
53576,-90.9090909090909,4,2,3,70,0,1
54017,-90.9090909090909,4,2,2,70,0,1
56444,-90.9090909090909,4,2,1,70,0,1
57105,-90.9090909090909,4,2,3,70,0,1
57546,-90.9090909090909,4,2,2,70,0,1
57767,-90.9090909090909,4,2,1,70,0,1
57988,-90.9090909090909,4,2,2,70,0,1
58428,-90.9090909090909,4,2,3,70,0,1
58650,-90.9090909090909,4,2,1,70,0,1
58870,-90.9090909090909,4,2,3,70,0,1
59091,-90.9090909090909,4,2,1,70,0,1
59311,-90.9090909090909,4,2,3,70,0,1
59532,-90.9090909090909,4,2,1,70,0,1
59752,-90.9090909090909,4,2,3,70,0,1
59862,-90.9090909090909,4,2,1,70,0,1
60635,-90.9090909090909,4,2,3,70,0,1
61076,-90.9090909090909,4,2,2,70,0,1
61297,-90.9090909090909,4,2,1,70,0,1
61517,-90.9090909090909,4,2,2,70,0,1
63503,-90.9090909090909,4,2,1,70,0,1
64164,-90.9090909090909,4,2,3,70,0,1
65488,-90.9090909090909,4,2,2,70,0,1
65708,-90.9090909090909,4,2,1,70,0,1
65928,-90.9090909090909,4,2,2,70,0,1
66150,-90.9090909090909,4,2,1,70,0,1
66370,-90.9090909090909,4,2,2,70,0,1
66591,-90.9090909090909,4,2,1,70,0,1
66921,-90.9090909090909,4,2,1,5,0,1
67032,-90.9090909090909,4,2,1,70,0,1
67252,-90.9090909090909,4,2,3,70,0,1
67473,-90.9090909090909,4,2,1,70,0,1
67694,-90.9090909090909,4,2,3,70,0,1
68135,-90.9090909090909,4,2,2,70,0,1
70561,-90.9090909090909,4,2,1,70,0,1
71002,-90.9090909090909,4,2,2,70,0,1
71223,-90.9090909090909,4,2,3,70,0,1
71664,-90.9090909090909,4,2,2,70,0,1
71885,-90.9090909090909,4,2,3,70,0,1
72105,-90.9090909090909,4,2,2,70,0,1
73650,-90.9090909090909,4,2,1,70,0,1
73870,-90.9090909090909,4,2,2,70,0,1
74091,-90.9090909090909,4,2,1,65,0,1
74753,-90.9090909090909,4,2,3,65,0,1
74973,-90.9090909090909,4,2,2,65,0,1
75414,-90.9090909090909,4,2,1,65,0,1
75634,-90.9090909090909,4,2,2,65,0,1
75855,-90.9090909090909,4,2,1,65,0,1
76517,-90.9090909090909,4,2,3,65,0,1
76737,-90.9090909090909,4,2,2,65,0,1
77400,-90.9090909090909,4,2,3,65,0,1
77510,-90.9090909090909,4,2,2,65,0,1
77620,-90.9090909090909,4,2,1,65,0,1
77840,-90.9090909090909,4,2,3,65,0,1
78061,-90.9090909090909,4,2,1,65,0,1
78282,-90.9090909090909,4,2,3,65,0,1
78944,-90.9090909090909,4,2,1,65,0,1
79164,-90.9090909090909,4,2,2,65,0,1
80377,-90.9090909090909,4,2,2,5,0,1
80488,-90.9090909090909,4,2,3,65,0,1
80708,-90.9090909090909,4,2,1,65,0,1
80928,-90.9090909090909,4,2,3,65,0,1
81150,-90.9090909090909,4,2,1,65,0,1
81370,-90.9090909090909,4,2,3,65,0,1
81591,-90.9090909090909,4,2,1,65,0,1
81811,-90.9090909090909,4,2,3,65,0,1
82473,-90.9090909090909,4,2,1,65,0,1
82693,-90.9090909090909,4,2,2,65,0,1
84017,-90.9090909090909,4,2,3,65,0,1
84348,-90.9090909090909,4,2,2,65,0,1
84679,-100,4,2,1,60,0,0
85341,-100,4,2,2,60,0,0
87326,-100,4,2,1,60,0,0
87546,-100,4,2,2,60,0,0
87767,-100,4,2,1,60,0,0
87987,-100,4,2,2,60,0,0
88208,-100,4,2,1,60,0,0
88538,-100,4,2,3,60,0,0
89753,-100,4,2,2,60,0,0
91517,-100,4,2,3,60,0,0
91738,-100,4,2,1,60,0,0
92399,-100,4,2,3,60,0,0
92620,-100,4,2,1,60,0,0
93282,-100,4,2,2,60,0,0
94385,-100,4,2,1,60,0,0
94605,-100,4,2,2,60,0,0
94826,-100,4,2,1,60,0,0
95929,-100,4,2,3,60,0,0
96149,-100,4,2,2,60,0,0
96591,-100,4,2,1,60,0,0
96921,-100,4,2,2,60,0,0
97032,-100,4,2,3,60,0,0
97142,-100,4,2,2,60,0,0
97252,-100,4,2,3,60,0,0
98465,-100,4,2,2,60,0,0
98797,-100,4,2,1,50,0,0
110929,-100,4,2,3,50,0,0
111150,-100,4,2,1,50,0,0
111370,-100,4,2,3,50,0,0
111591,-100,4,2,2,50,0,0
112473,-100,4,2,1,50,0,0
112914,-100,4,2,1,60,0,0
113576,-100,4,2,3,60,0,0
114017,-100,4,2,2,60,0,0
114238,-100,4,2,1,60,0,0
114458,-100,4,2,2,60,0,0
114679,-100,4,2,1,60,0,0
115341,-100,4,2,3,60,0,0
115782,-100,4,2,2,60,0,0
116223,-100,4,2,3,60,0,0
118098,-100,4,2,2,60,0,0
119532,-100,4,2,1,60,0,0
119642,-100,4,2,2,60,0,0
119973,-100,4,2,1,60,0,0
120635,-100,4,2,3,60,0,0
121297,-100,4,2,1,60,0,0
121517,-100,4,2,3,60,0,0
121628,-100,4,2,2,60,0,0
121738,-100,4,2,1,60,0,0
121958,-100,4,2,3,60,0,0
122179,-100,4,2,1,60,0,0
122400,-100,4,2,3,60,0,0
122841,-100,4,2,2,60,0,0
123061,-100,4,2,1,60,0,0
123281,-100,4,2,3,60,0,0
123503,-100,4,2,1,60,0,0
124164,-100,4,2,3,60,0,0
124605,-100,4,2,2,60,0,0
125047,-100,4,2,3,60,0,0
125267,-100,4,2,1,60,0,0
125929,-100,4,2,3,60,0,0
126370,-100,4,2,2,60,0,0
126591,-100,4,2,1,60,0,0
126811,-100,4,2,2,60,0,0
128989,441.176470588235,4,2,1,60,1,0
129238,441.176470588235,4,2,1,70,1,1
129238,-90.9090909090909,4,2,1,70,0,1
129899,-90.9090909090909,4,2,3,70,0,1
130340,-90.9090909090909,4,2,2,70,0,1
130561,-90.9090909090909,4,2,1,70,0,1
130781,-90.9090909090909,4,2,2,70,0,1
132767,-90.9090909090909,4,2,1,70,0,1
133429,-90.9090909090909,4,2,3,70,0,1
134752,-90.9090909090909,4,2,2,70,0,1
134973,-90.9090909090909,4,2,1,70,0,1
135193,-90.9090909090909,4,2,2,70,0,1
135414,-90.9090909090909,4,2,1,70,0,1
135634,-90.9090909090909,4,2,2,70,0,1
135855,-90.9090909090909,4,2,1,70,0,1
136076,-90.9090909090909,4,2,2,70,0,1
136296,-90.9090909090909,4,2,1,70,0,1
136958,-90.9090909090909,4,2,3,70,0,1
137399,-90.9090909090909,4,2,2,70,0,1
139826,-90.9090909090909,4,2,1,70,0,1
140488,-90.9090909090909,4,2,3,70,0,1
140929,-90.9090909090909,4,2,2,70,0,1
141149,-90.9090909090909,4,2,1,70,0,1
141369,-90.9090909090909,4,2,2,70,0,1
141810,-90.9090909090909,4,2,3,70,0,1
142032,-90.9090909090909,4,2,1,70,0,1
142252,-90.9090909090909,4,2,3,70,0,1
142473,-90.9090909090909,4,2,1,70,0,1
142693,-90.9090909090909,4,2,3,70,0,1
142914,-90.9090909090909,4,2,1,70,0,1
143134,-90.9090909090909,4,2,3,70,0,1
143244,-90.9090909090909,4,2,1,70,0,1
144017,-90.9090909090909,4,2,3,70,0,1
144458,-90.9090909090909,4,2,2,70,0,1
144679,-90.9090909090909,4,2,1,70,0,1
144899,-90.9090909090909,4,2,2,70,0,1
146885,-90.9090909090909,4,2,1,70,0,1
147546,-90.9090909090909,4,2,3,70,0,1
147657,-90.9090909090909,4,2,2,70,0,1
147988,-90.9090909090909,4,2,3,70,0,1
148870,-90.9090909090909,4,2,2,70,0,1
149090,-90.9090909090909,4,2,1,70,0,1
149310,-90.9090909090909,4,2,2,70,0,1
149532,-90.9090909090909,4,2,1,70,0,1
149752,-90.9090909090909,4,2,2,70,0,1
149973,-90.9090909090909,4,2,1,70,0,1
150303,-90.9090909090909,4,2,1,5,0,1
150414,-90.9090909090909,4,2,1,70,0,1
150634,-90.9090909090909,4,2,3,70,0,1
150855,-90.9090909090909,4,2,1,70,0,1
151076,-90.9090909090909,4,2,3,70,0,1
151517,-90.9090909090909,4,2,2,70,0,1
153943,-90.9090909090909,4,2,1,70,0,1
154384,-90.9090909090909,4,2,2,70,0,1
154605,-90.9090909090909,4,2,3,70,0,1
155046,-90.9090909090909,4,2,2,70,0,1
155267,-90.9090909090909,4,2,3,70,0,1
155487,-90.9090909090909,4,2,2,70,0,1
157032,-90.9090909090909,4,2,1,70,0,1
157252,-90.9090909090909,4,2,2,70,0,1
157473,-90.9090909090909,4,2,1,65,0,1
157803,-90.9090909090909,4,2,1,5,0,1
157914,-90.9090909090909,4,2,1,65,0,1
158135,-90.9090909090909,4,2,3,65,0,1
158576,-90.9090909090909,4,2,2,65,0,1
158796,-90.9090909090909,4,2,1,65,0,1
159016,-90.9090909090909,4,2,2,65,0,1
159237,-90.9090909090909,4,2,1,65,0,1
159899,-90.9090909090909,4,2,3,65,0,1
160010,-90.9090909090909,4,2,2,65,0,1
160782,-90.9090909090909,4,2,3,65,0,1
161002,-90.9090909090909,4,2,1,65,0,1
161222,-90.9090909090909,4,2,3,65,0,1
161443,-90.9090909090909,4,2,1,65,0,1
161664,-90.9090909090909,4,2,3,65,0,1
162326,-90.9090909090909,4,2,1,65,0,1
162546,-90.9090909090909,4,2,2,65,0,1
163870,-90.9090909090909,4,2,3,65,0,1
164090,-90.9090909090909,4,2,1,65,0,1
164310,-90.9090909090909,4,2,3,65,0,1
164532,-90.9090909090909,4,2,1,65,0,1
164752,-90.9090909090909,4,2,3,65,0,1
164973,-90.9090909090909,4,2,1,65,0,1
165193,-90.9090909090909,4,2,3,65,0,1
165855,-90.9090909090909,4,2,1,65,0,1
166076,-90.9090909090909,4,2,2,65,0,1
167399,-90.9090909090909,4,2,3,65,0,1
167730,-90.9090909090909,4,2,2,65,0,1
168061,-100,4,2,1,60,0,0
168723,-100,4,2,3,60,0,0
169164,-100,4,2,2,60,0,0
169385,-100,4,2,1,60,0,0
169605,-100,4,2,3,60,0,0
170046,-100,4,2,2,60,0,0
170708,-100,4,2,1,60,0,0
170928,-100,4,2,2,60,0,0
171149,-100,4,2,1,60,0,0
171370,-100,4,2,2,60,0,0
171590,-100,4,2,1,60,0,0
172252,-100,4,2,3,60,0,0
172693,-100,4,2,2,60,0,0
172914,-100,4,2,1,60,0,0
173135,-100,4,2,3,60,0,0
173576,-100,4,2,2,60,0,0
174237,-100,4,2,3,60,0,0
174458,-100,4,2,2,60,0,0
174679,-100,4,2,1,60,0,0
174899,-100,4,2,2,60,0,0
175120,-100,4,2,1,60,0,0
175782,-100,4,2,3,60,0,0
176223,-100,4,2,2,60,0,0
176443,-100,4,2,1,60,0,0
176664,-100,4,2,3,60,0,0
177105,-100,4,2,2,60,0,0
177767,-100,4,2,1,60,0,0
178429,-100,4,2,2,60,0,0
178649,-100,4,2,1,60,0,0
179311,-100,4,2,3,60,0,0
179752,-100,4,2,2,60,0,0
179973,-100,4,2,1,60,0,0
180193,-100,4,2,3,60,0,0
180635,-100,4,2,2,60,0,0
181296,-100,4,2,1,60,0,0
181517,-100,4,2,2,60,0,0
181737,-100,4,2,1,60,0,0
181957,-100,4,2,2,60,0,0
182179,-100,4,2,1,60,0,0
182840,-100,4,2,3,60,0,0
183281,-100,4,2,2,60,0,0
183502,-100,4,2,1,60,0,0
183723,-100,4,2,3,60,0,0
184164,-100,4,2,2,60,0,0
184826,-100,4,2,1,60,0,0
185046,-100,4,2,2,60,0,0
185267,-100,4,2,1,60,0,0
185487,-100,4,2,2,60,0,0
185708,-100,4,2,1,60,0,0
186370,-100,4,2,3,60,0,0
186811,-100,4,2,2,60,0,0
187032,-100,4,2,1,60,0,0
187252,-100,4,2,3,60,0,0
187693,-100,4,2,2,60,0,0
188355,-100,4,2,1,60,0,0
189016,-100,4,2,2,60,0,0
189237,-100,4,2,1,60,0,0
189899,-100,4,2,3,60,0,0
190340,-100,4,2,2,60,0,0
190561,-100,4,2,1,60,0,0
190782,-100,4,2,3,60,0,0
191223,-100,4,2,2,60,0,0
192326,-100,4,2,3,60,0,0
192767,-100,4,2,1,60,0,0
193429,-100,4,2,3,60,0,0
193870,-100,4,2,2,60,0,0
194090,-100,4,2,1,60,0,0
194311,-100,4,2,3,60,0,0
194421,-100,4,2,2,60,0,0
196075,-100,4,2,1,60,0,0
196737,-100,4,2,2,60,0,0
198502,-100,4,2,3,60,0,0
199164,-100,4,2,2,60,0,0
199385,-100,4,2,3,60,0,0
200046,-100,4,2,2,60,0,0
200929,-100,4,2,3,60,0,0
201811,-100,4,2,2,60,0,0
202252,-100,4,2,3,60,0,0
202582,-100,4,2,3,5,0,0
202693,-100,4,2,3,60,0,0
202913,-100,4,2,2,60,0,0
203135,-100,4,2,3,60,0,0
203796,-100,4,2,2,60,0,0
205340,-100,4,2,3,60,0,0
207105,-100,4,2,2,60,0,0
207767,-100,4,2,3,60,0,0
208098,-100,4,2,2,60,0,0
208208,-100,4,2,3,60,0,0
208760,-100,4,2,2,60,0,0
208870,-100,4,2,3,60,0,0
209090,-100,4,2,2,60,0,0
209311,-100,4,2,3,60,0,0
209421,-100,4,2,2,60,0,0
209752,-100,4,2,3,60,0,0
210304,-100,4,2,1,60,0,0
210414,-100,4,2,3,60,0,0
210855,-100,4,2,2,60,0,0
211296,-100,4,2,3,60,0,0
213281,-100,4,2,2,60,0,0
213502,-100,4,2,3,60,0,0
213943,-100,4,2,2,60,0,0
214164,-100,4,2,3,60,0,0
215266,-100,4,2,2,60,0,0
215487,-100,4,2,3,60,0,0
216810,-100,4,2,2,60,0,0
217032,-100,4,2,3,60,0,0
221002,-100,4,2,2,60,0,0
221223,-100,4,2,3,60,0,0
221774,-100,4,2,2,60,0,0
221885,-100,4,2,3,60,0,0
222657,-100,4,2,2,60,0,0
222767,-100,4,2,3,60,0,0
223429,-100,4,2,4,60,0,0
223649,-100,4,2,1,60,0,0
223759,-100,4,2,4,60,0,0
224090,-100,4,2,5,60,0,0
224310,-100,4,2,4,60,0,0
224532,-90.9090909090909,4,2,3,70,0,1
225634,-90.9090909090909,4,2,2,70,0,1
225855,-90.9090909090909,4,2,1,70,0,1
226075,-90.9090909090909,4,2,2,70,0,1
228061,-90.9090909090909,4,2,1,70,0,1
228723,-90.9090909090909,4,2,3,70,0,1
230046,-90.9090909090909,4,2,2,70,0,1
230267,-90.9090909090909,4,2,1,70,0,1
230487,-90.9090909090909,4,2,2,70,0,1
230708,-90.9090909090909,4,2,1,70,0,1
230928,-90.9090909090909,4,2,2,70,0,1
231149,-90.9090909090909,4,2,1,70,0,1
231369,-90.9090909090909,4,2,2,70,0,1
231590,-90.9090909090909,4,2,1,70,0,1
232252,-90.9090909090909,4,2,3,70,0,1
232693,-90.9090909090909,4,2,2,70,0,1
235120,-90.9090909090909,4,2,1,70,0,1
235782,-90.9090909090909,4,2,3,70,0,1
236223,-90.9090909090909,4,2,2,70,0,1
236443,-90.9090909090909,4,2,1,70,0,1
236663,-90.9090909090909,4,2,2,70,0,1
237105,-90.9090909090909,4,2,3,70,0,1
237767,-90.9090909090909,4,2,1,70,0,1
237987,-90.9090909090909,4,2,3,70,0,1
238208,-90.9090909090909,4,2,1,70,0,1
238428,-90.9090909090909,4,2,3,70,0,1
238538,-90.9090909090909,4,2,1,70,0,1
239311,-90.9090909090909,4,2,3,70,0,1
239752,-90.9090909090909,4,2,2,70,0,1
239973,-90.9090909090909,4,2,1,70,0,1
240193,-90.9090909090909,4,2,2,70,0,1
242179,-90.9090909090909,4,2,1,70,0,1
242840,-90.9090909090909,4,2,3,70,0,1
244164,-90.9090909090909,4,2,2,70,0,1
244385,-90.9090909090909,4,2,1,70,0,1
244605,-90.9090909090909,4,2,2,70,0,1
244826,-90.9090909090909,4,2,1,70,0,1
245046,-90.9090909090909,4,2,2,70,0,1
245267,-90.9090909090909,4,2,1,70,0,1
245597,-90.9090909090909,4,2,1,5,0,1
245708,-90.9090909090909,4,2,1,70,0,1
245928,-90.9090909090909,4,2,3,70,0,1
246149,-90.9090909090909,4,2,1,70,0,1
246370,-90.9090909090909,4,2,3,70,0,1
246811,-90.9090909090909,4,2,2,70,0,1
249237,-90.9090909090909,4,2,1,70,0,1
249678,-90.9090909090909,4,2,2,70,0,1
249899,-90.9090909090909,4,2,3,70,0,1
250340,-90.9090909090909,4,2,2,70,0,1
250561,-90.9090909090909,4,2,3,70,0,1
250781,-90.9090909090909,4,2,2,70,0,1
252326,-90.9090909090909,4,2,3,70,0,1
252546,-90.9090909090909,4,2,2,70,0,1
252767,-90.9090909090909,4,2,1,65,0,1
253429,-90.9090909090909,4,2,3,65,0,1
253870,-90.9090909090909,4,2,2,65,0,1
254090,-90.9090909090909,4,2,1,65,0,1
254310,-90.9090909090909,4,2,2,65,0,1
254532,-90.9090909090909,4,2,1,65,0,1
255193,-90.9090909090909,4,2,3,65,0,1
255634,-90.9090909090909,4,2,2,65,0,1
256076,-90.9090909090909,4,2,3,65,0,1
256296,-90.9090909090909,4,2,1,65,0,1
256516,-90.9090909090909,4,2,3,65,0,1
256737,-90.9090909090909,4,2,1,65,0,1
256958,-90.9090909090909,4,2,3,65,0,1
257620,-90.9090909090909,4,2,1,65,0,1
257840,-90.9090909090909,4,2,2,65,0,1
259164,-90.9090909090909,4,2,3,65,0,1
259385,-90.9090909090909,4,2,1,65,0,1
259605,-90.9090909090909,4,2,3,65,0,1
259826,-90.9090909090909,4,2,1,65,0,1
260046,-90.9090909090909,4,2,3,65,0,1
260267,-90.9090909090909,4,2,1,65,0,1
260487,-90.9090909090909,4,2,3,65,0,1
261149,-90.9090909090909,4,2,1,65,0,1
261369,-90.9090909090909,4,2,2,65,0,1
262693,-90.9090909090909,4,2,3,65,0,1
263024,-90.9090909090909,4,2,2,65,0,1
263355,-100,4,2,1,60,0,0
264017,-100,4,2,2,60,0,0
264679,-100,4,2,1,60,0,0
264899,-100,4,2,2,60,0,0
265561,-100,4,2,1,60,0,0
265781,-100,4,2,2,60,0,0
266002,-100,4,2,1,60,0,0
266664,-100,4,2,2,60,0,0
266885,-100,4,2,1,60,0,0
267546,-100,4,2,3,60,0,0
267987,-100,4,2,2,60,0,0
268208,-100,4,2,1,60,0,0
268428,-100,4,2,2,60,0,0
270193,-100,4,2,3,60,0,0
271517,-100,4,2,2,60,0,0
271737,-100,4,2,3,60,0,0
271958,-100,4,2,2,60,0,0
272399,-100,4,2,3,60,0,0
272620,-100,4,2,2,60,0,0
273061,-100,4,2,3,60,0,0
273171,-100,4,2,2,60,0,0
273502,-100,4,2,3,60,0,0
273612,-100,4,2,2,60,0,0
273943,-100,4,2,1,60,0,0
281002,-100,4,2,1,5,0,0

[Colours]
Combo1 : 149,219,125
Combo2 : 218,184,112

[HitObjects]
310,353,637,5,2,2:0:0:0:
366,367,857,1,2,2:0:0:0:
414,345,1078,1,2,2:0:0:0:
440,290,1299,6,0,P|471:296|503:302,2,64.825918022461,2|0|0,2:0|2:0|2:0,2:0:0:0:
424,208,1960,2,0,P|360:220|296:232,1,129.651836044922,2|2,2:0|2:0,2:0:0:0:
225,194,2622,2,0,P|211:132|250:83,1,129.651836044922,2|0,2:0|2:0,2:0:0:0:
296,232,3284,6,0,B|179:205|191:314|69:283|69:283|114:287|144:258,1,324.276470112305,2|0,2:0|2:0,2:0:0:0:
80,203,4607,1,10,2:0:0:0:
112,120,4828,1,10,2:0:0:0:
77,30,5048,5,10,2:0:0:0:
77,30,5159,1,10,2:0:0:0:
77,30,5269,2,0,P|135:68|205:59,1,144.0576,6|10,3:2|2:0,2:0:0:0:
314,5,5931,2,0,L|297:75,1,72.192,2|2,2:0|3:2,2:0:0:0:
277,159,6372,1,2,2:0:0:0:
352,224,6593,6,0,P|385:211|421:210,1,72.192,10|2,2:0|2:0,2:0:0:0:
421,210,6923,1,2,2:0:0:0:
421,210,7034,1,2,3:2:0:0:
471,315,7254,2,0,P|435:307|400:298,1,72.192,2|8,2:0|2:0,2:0:0:0:
320,352,7696,1,2,2:0:0:0:
320,352,7806,1,8,0:0:0:0:
320,352,7916,2,0,L|284:359,3,36.096,10|8|8|8,3:2|2:0|2:0|2:0,2:0:0:0:
265,374,8357,6,0,P|224:317|231:247,1,144.0576,14|10,3:2|2:0,2:0:0:0:
282,168,9018,2,0,P|246:160|211:153,1,72.192,2|0,2:0|3:0,2:0:0:0:
161,72,9459,1,2,2:0:0:0:
161,72,9680,2,0,P|125:79|90:86,1,72.192,8|2,2:0|2:0,2:0:0:0:
59,79,10011,5,0,2:0:0:0:
59,79,10121,2,0,P|19:137|29:207,1,144.0576,0|8,3:0|2:0,2:0:0:0:
90,271,10783,1,2,2:0:0:0:
32,347,11004,2,0,P|66:355|102:363,1,72.192,0|2,3:0|2:0,2:0:0:0:
192,256,11445,2,0,P|226:247|262:239,1,72.192,10|2,2:0|2:0,2:0:0:0:
295,254,11776,5,2,2:0:0:0:
295,254,11886,2,0,P|336:197|318:130,1,144.0576,6|10,3:2|2:0,2:0:0:0:
237,80,12548,2,0,P|219:83|202:88,2,36.096,2|2|0,2:0|2:0|3:0,2:0:0:0:
314,18,12989,1,0,3:0:0:0:
314,18,13099,1,0,3:0:0:0:
314,18,13209,1,8,2:0:0:0:
401,69,13430,6,0,P|419:66|436:61,2,36.096,0|8|0,3:0|2:0|3:0,2:0:0:0:
512,128,13871,1,0,3:0:0:0:
511,128,14092,2,0,P|499:162|494:197,1,72.192,8|8,2:0|2:0,2:0:0:0:
507,234,14423,1,8,2:0:0:0:
507,234,14533,2,0,L|436:223,1,72.192,0|8,3:0|2:0,2:0:0:0:
408,244,14864,1,8,2:0:0:0:
408,243,14974,2,0,P|390:248|373:252,3,36.096,8|8|8|8,2:0|2:0|2:0|2:0,2:0:0:0:
340,258,15415,6,0,P|335:226|325:196,1,64.972798022461,6|2,3:2|2:0,2:0:0:0:
357,113,15856,2,0,P|325:105|294:97,1,64.972798022461,2|2,3:2|2:0,2:0:0:0:
294,97,16187,1,2,2:0:0:0:
294,97,16298,1,2,3:2:0:0:
227,31,16518,2,0,P|178:70|115:68,1,129.651836044922,2|2,2:0|2:0,2:0:0:0:
87,51,17070,5,2,2:0:0:0:
87,51,17180,2,0,L|23:63,1,64.972798022461,2|2,3:2|2:0,2:0:0:0:
0,154,17621,2,0,P|52:190|116:184,1,129.651836044922,2|2,3:2|3:2,2:0:0:0:
116,184,18283,1,2,2:0:0:0:
192,256,18504,2,0,L|186:287,2,32.4863990112305,2|2|2,3:2|2:0|2:0,2:0:0:0:
220,373,18945,5,2,3:2:0:0:
220,373,19165,2,0,P|251:365|282:357,1,64.972798022461,2|0,2:0|3:0,2:0:0:0:
352,272,19606,2,0,P|336:268|320:264,2,32.4863990112305,2|2|2,2:0|2:0|3:2,2:0:0:0:
428,324,20048,2,0,P|465:274|456:211,1,129.651836044922,2|2,2:0|2:0,2:0:0:0:
475,187,20599,5,2,2:0:0:0:
475,187,20709,2,0,L|411:175,1,64.972798022461,2|2,3:2|2:0,2:0:0:0:
373,98,21151,1,2,3:2:0:0:
294,152,21371,2,0,B|226:140|244:192|172:179,1,129.651836044922,2|2,2:0|2:0,2:0:0:0:
86,145,22033,2,0,L|79:113,2,32.4863990112305,2|2|2,3:2|2:0|2:0,2:0:0:0:
22,218,22474,6,0,L|34:281,1,64.972798022461,2|2,3:2|2:0,2:0:0:0:
80,384,22915,2,0,P|106:366|138:362,1,64.972798022461,2|2,3:2|2:0,2:0:0:0:
167,377,23246,1,2,2:0:0:0:
167,377,23356,2,0,B|236:356|189:325|268:302,1,129.651836044922,2|2,3:2|3:2,2:0:0:0:
350,360,24018,5,2,2:0:0:0:
350,360,24129,1,2,2:0:0:0:
350,360,24239,2,0,P|381:353|413:346,1,64.972798022461,2|2,3:2|2:0,2:0:0:0:
491,371,24680,2,0,P|497:339|504:307,1,64.972798022461,2|2,3:2|2:0,2:0:0:0:
424,240,25121,1,2,3:2:0:0:
400,160,25342,1,2,2:0:0:0:
480,120,25562,2,0,P|495:123|511:126,2,32.4863990112305,2|2|2,3:2|2:0|2:0,2:0:0:0:
415,35,26004,5,2,3:2:0:0:
415,35,26224,2,0,P|366:75|303:71,1,129.651836044922,2|2,2:0|2:0,2:0:0:0:
274,54,26776,1,2,2:0:0:0:
274,54,26886,1,2,3:2:0:0:
224,136,27106,2,0,P|230:167|236:199,1,64.972798022461,2|0,2:0|3:0,2:0:0:0:
281,285,27548,5,2,2:0:0:0:
281,285,27658,1,2,2:0:0:0:
281,285,27768,1,2,3:2:0:0:
248,368,27989,1,10,2:0:0:0:
155,384,28209,1,10,3:2:0:0:
84,336,28430,1,8,2:0:0:0:
84,336,28540,1,8,2:0:0:0:
84,336,28651,2,0,L|52:328,2,32.4863990112305,0|8|8,3:0|2:0|2:0,2:0:0:0:
136,257,29092,2,0,L|168:249,2,32.4863990112305,2|8|8,3:2|2:0|2:0,2:0:0:0:
63,207,29533,6,0,P|37:142|61:76,1,144.0576,6|10,3:2|2:0,2:0:0:0:
4,8,30195,2,0,P|74:22|144:37,1,144.0576,2|2,2:0|2:0,2:0:0:0:
240,128,30856,2,0,P|258:97|256:62,1,72.192,10|2,2:0|2:0,2:0:0:0:
256,62,31187,5,2,2:0:0:0:
255,62,31298,2,0,B|333:48|316:107|391:91,1,144.0576,2|10,3:2|2:0,2:0:0:0:
510,58,31959,2,0,P|453:98|444:167,1,144.0576,2|2,2:0|2:0,2:0:0:0:
472,256,32621,2,0,L|508:248,2,36.096,10|2|2,2:0|2:0|2:0,2:0:0:0:
491,358,33062,6,0,P|456:347|420:344,1,72.192,2|2,3:2|2:0,2:0:0:0:
360,288,33504,1,10,2:0:0:0:
280,328,33724,2,0,P|238:271|250:202,1,144.0576,2|2,2:0|2:0,2:0:0:0:
320,152,34386,1,8,2:0:0:0:
296,72,34606,5,2,2:0:0:0:
296,72,34717,1,2,2:0:0:0:
296,72,34827,2,0,P|260:65|225:58,1,72.192,0|2,3:0|2:0,2:0:0:0:
134,12,35268,2,0,P|90:43|37:42,1,108.288,8|0,2:0|2:0,2:0:0:0:
37,42,35709,2,0,P|46:76|51:112,1,72.192,0|2,3:0|2:0,2:0:0:0:
120,192,36151,2,0,P|122:174|127:156,2,36.096,10|2|2,2:0|2:0|2:0,2:0:0:0:
152,272,36592,6,0,P|93:232|23:242,1,144.0576,6|10,3:2|2:0,2:0:0:0:
104,376,37254,2,0,P|174:360|244:344,1,144.0576,2|2,2:0|2:0,2:0:0:0:
312,280,37915,1,10,2:0:0:0:
272,200,38136,5,2,2:0:0:0:
272,200,38246,1,2,2:0:0:0:
272,200,38356,2,0,P|279:164|285:129,1,72.192,2|2,3:2|2:0,2:0:0:0:
229,50,38798,1,10,2:0:0:0:
229,50,39018,2,0,P|290:84|360:72,1,144.0576,2|2,2:0|2:0,2:0:0:0:
451,35,39680,2,0,L|458:0,2,36.096,10|0|2,2:0|2:0|2:0,2:0:0:0:
496,120,40121,6,0,L|481:190,1,72.192,6|2,3:2|2:0,2:0:0:0:
424,256,40562,1,10,2:0:0:0:
496,336,40783,2,0,B|423:326|440:388|363:374,1,144.0576,2|2,2:0|2:0,2:0:0:0:
363,374,41334,1,0,2:0:0:0:
363,374,41445,1,8,2:0:0:0:
272,352,41665,5,2,2:0:0:0:
272,352,41776,1,0,2:0:0:0:
272,352,41886,2,0,P|260:280|246:210,1,144.0576,2|8,3:2|2:0,2:0:0:0:
312,152,42548,1,2,3:2:0:0:
312,152,42658,1,0,2:0:0:0:
312,151,42768,2,0,P|317:116|309:81,1,72.192,8|2,2:0|3:2,2:0:0:0:
286,60,43099,1,8,2:0:0:0:
286,60,43209,2,0,L|294:24,3,36.096,10|8|10|8,2:0|2:0|2:0|2:0,2:0:0:0:
284,17,43651,6,0,P|248:24|213:33,1,72.192,0|8,3:0|2:0,2:0:0:0:
112,128,44092,2,0,P|147:136|182:144,1,72.192,8|8,2:0|2:0,2:0:0:0:
182,144,44423,1,8,2:0:0:0:
182,144,44533,2,0,L|217:136,2,36.096,0|0|0,3:0|3:0|3:0,2:0:0:0:
122,233,44974,1,8,2:0:0:0:
122,233,45084,1,8,2:0:0:0:
122,233,45195,1,8,2:0:0:0:
12,334,45636,5,2,2:0:0:0:
12,334,45746,1,2,2:0:0:0:
12,334,45856,2,0,B|88:325|73:385|161:369,1,158.463364833985,6|8,3:2|2:0,2:0:0:0:
246,329,46517,2,0,P|258:250|270:172,1,158.463364833985,2|2,2:0|2:0,2:0:0:0:
238,90,47179,2,0,P|269:66|308:63,1,79.4112024169923,10|2,2:0|2:0,2:0:0:0:
372,0,47620,6,0,P|434:45|510:34,1,158.463364833985,0|8,3:0|2:0,2:0:0:0:
502,166,48282,1,2,2:0:0:0:
502,166,48392,1,2,2:0:0:0:
502,166,48503,2,0,P|463:158|424:149,1,79.4112024169923,0|2,3:0|2:0,2:0:0:0:
352,206,48944,2,0,P|359:244|368:283,1,79.4112024169923,8|2,2:0|2:0,2:0:0:0:
419,376,49385,6,0,P|356:330|280:344,1,158.463364833985,2|10,3:2|2:0,2:0:0:0:
201,284,50047,2,0,P|194:322|185:361,1,79.4112024169923,2|0,2:0|3:0,2:0:0:0:
66,306,50488,2,0,P|59:268|50:229,1,79.4112024169923,2|8,2:0|2:0,2:0:0:0:
0,125,50929,6,0,P|61:173|138:165,1,158.463364833985,2|2,2:0|2:0,2:0:0:0:
165,28,51591,2,0,P|126:39|88:49,1,79.4112024169923,10|2,2:0|2:0,2:0:0:0:
214,112,52032,2,0,P|252:100|290:90,1,79.4112024169923,2|2,3:2|2:0,2:0:0:0:
357,18,52473,1,10,2:0:0:0:
424,149,52694,5,2,2:0:0:0:
424,149,52804,1,2,2:0:0:0:
424,148,52914,2,0,P|372:205|296:201,1,158.463364833985,6|10,3:2|2:0,2:0:0:0:
199,151,53576,2,0,P|216:228|228:306,1,158.463364833985,2|2,2:0|2:0,2:0:0:0:
128,384,54238,2,0,P|121:344|113:306,1,79.4112024169923,8|2,2:0|2:0,2:0:0:0:
32,256,54679,6,0,P|10:182|51:117,1,158.463364833985,0|8,3:0|2:0,2:0:0:0:
35,19,55341,1,2,2:0:0:0:
35,19,55451,1,2,2:0:0:0:
35,19,55561,2,0,P|73:28|111:37,1,79.4112024169923,0|2,3:0|2:0,2:0:0:0:
155,119,56003,2,0,P|193:109|231:100,1,79.4112024169923,8|2,2:0|2:0,2:0:0:0:
269,15,56444,6,0,P|320:71|312:148,1,158.463364833985,2|8,3:2|2:0,2:0:0:0:
224,224,57105,2,0,B|306:209|283:277|370:261,1,158.463364833985,2|2,2:0|2:0,2:0:0:0:
460,311,57767,1,10,2:0:0:0:
489,209,57988,5,2,2:0:0:0:
489,209,58098,1,2,2:0:0:0:
489,209,58208,2,0,P|469:214|450:218,2,39.7056012084961,0|8|10,3:0|2:0|2:0,2:0:0:0:
512,106,58650,1,10,2:0:0:0:
424,32,58870,1,2,2:0:0:0:
424,32,58980,1,8,2:0:0:0:
424,32,59091,2,0,P|418:51|414:70,2,39.7056012084961,2|8|10,3:2|2:0|2:0,2:0:0:0:
295,85,59532,2,0,P|299:104|304:123,3,39.7056012084961,10|10|10|10,2:0|2:0|2:0|2:0,2:0:0:0:
327,141,59973,6,0,P|353:213|321:283,1,158.463364833985,6|8,3:2|2:0,2:0:0:0:
352,384,60635,2,0,P|274:367|196:353,1,158.463364833985,2|2,2:0|2:0,2:0:0:0:
145,274,61297,2,0,P|111:293|71:295,1,79.4112024169923,10|2,2:0|2:0,2:0:0:0:
0,353,61738,6,0,P|37:284|20:209,1,158.463364833985,0|8,3:0|2:0,2:0:0:0:
78,140,62400,1,2,2:0:0:0:
78,140,62510,1,2,2:0:0:0:
78,140,62620,2,0,P|68:101|59:62,1,79.4112024169923,0|2,3:0|2:0,2:0:0:0:
183,1,63061,2,0,P|173:39|164:78,1,79.4112024169923,8|2,2:0|2:0,2:0:0:0:
192,179,63503,6,0,P|250:129|326:140,1,158.463364833985,2|10,3:2|2:0,2:0:0:0:
412,86,64164,2,0,P|404:47|396:8,1,79.4112024169923,2|0,2:0|3:0,2:0:0:0:
326,140,64605,2,0,P|333:178|341:217,1,79.4112024169923,2|8,2:0|2:0,2:0:0:0:
296,312,65047,6,0,P|352:364|429:359,1,158.463364833985,2|2,2:0|2:0,2:0:0:0:
496,248,65708,2,0,P|457:257|418:265,1,79.4112024169923,10|2,2:0|2:0,2:0:0:0:
344,176,66150,2,0,P|382:166|421:158,1,79.4112024169923,2|2,3:2|2:0,2:0:0:0:
498,65,66591,2,0,P|440:72|389:43,1,119.116803625488,10|0,2:0|2:0,2:0:0:0:
356,20,67032,6,0,P|317:29|278:37,1,79.4112024169923,6|2,3:2|2:0,2:0:0:0:
155,98,67473,1,10,2:0:0:0:
192,18,67694,2,0,P|238:79|222:155,1,158.463364833985,2|2,2:0|2:0,2:0:0:0:
287,217,68355,2,0,P|277:255|269:294,1,79.4112024169923,8|2,2:0|2:0,2:0:0:0:
241,384,68797,6,0,B|151:361|201:322|109:305,1,158.463364833985,0|8,3:0|2:0,2:0:0:0:
20,344,69458,1,2,2:0:0:0:
20,344,69569,1,2,2:0:0:0:
20,344,69679,2,0,P|10:305|2:266,1,79.4112024169923,0|2,3:0|2:0,2:0:0:0:
64,149,70120,2,0,P|79:186|77:225,1,79.4112024169923,8|2,2:0|2:0,2:0:0:0:
12,70,70561,6,0,P|77:110|154:98,1,158.463364833985,2|10,3:2|2:0,2:0:0:0:
256,32,71223,2,0,P|240:109|227:187,1,158.463364833985,2|2,2:0|2:0,2:0:0:0:
162,263,71885,2,0,P|169:301|176:340,1,79.4112024169923,10|2,2:0|2:0,2:0:0:0:
176,340,72216,1,2,2:0:0:0:
176,340,72326,1,0,3:0:0:0:
280,384,72547,1,2,2:0:0:0:
357,311,72767,2,0,P|396:317|434:325,1,79.4112024169923,10|2,2:0|2:0,2:0:0:0:
499,207,73208,5,2,3:2:0:0:
406,229,73429,1,10,2:0:0:0:
319,189,73650,1,10,2:0:0:0:
283,101,73870,1,10,2:0:0:0:
301,7,74091,6,0,P|223:25|146:43,1,158.463364833985,6|10,3:2|2:0,2:0:0:0:
60,10,74753,2,0,P|45:47|50:86,1,79.4112024169923,2|2,2:0|3:2,2:0:0:0:
119,152,75194,1,2,2:0:0:0:
81,236,75414,2,0,P|42:229|2:223,1,79.4112024169923,10|2,2:0|2:0,2:0:0:0:
43,375,75855,6,0,P|103:326|181:326,1,158.463364833985,2|10,3:2|2:0,2:0:0:0:
272,376,76517,2,0,P|278:336|286:298,1,79.4112024169923,2|2,2:0|3:2,2:0:0:0:
217,240,76958,1,2,2:0:0:0:
259,158,77179,1,8,2:0:0:0:
201,75,77400,5,2,2:0:0:0:
201,75,77510,1,2,2:0:0:0:
201,75,77620,2,0,P|240:68|278:60,1,79.4112024169923,6|2,3:2|2:0,2:0:0:0:
350,1,78061,1,10,2:0:0:0:
441,30,78282,2,0,P|462:104|421:169,1,158.463364833985,2|2,2:0|2:0,2:0:0:0:
350,236,78944,2,0,P|356:275|364:313,1,79.4112024169923,10|2,2:0|2:0,2:0:0:0:
272,376,79385,6,0,P|265:336|257:298,1,79.4112024169923,0|2,3:0|2:0,2:0:0:0:
257,298,79716,1,2,2:0:0:0:
257,298,79826,1,8,2:0:0:0:
188,243,80047,2,0,P|130:253|81:223,1,119.116803625488,2|0,2:0|2:0,2:0:0:0:
81,223,80488,1,2,2:0:0:0:
121,150,80708,2,0,P|114:110|107:71,1,79.4112024169923,10|2,2:0|2:0,2:0:0:0:
198,14,81150,6,0,P|205:52|211:92,1,79.4112024169923,6|2,3:2|2:0,2:0:0:0:
288,160,81591,1,10,2:0:0:0:
199,219,81811,2,0,P|275:207|336:255,1,158.463364833985,2|2,2:0|2:0,2:0:0:0:
311,359,82473,2,0,P|349:351|389:345,1,79.4112024169923,10|2,2:0|2:0,2:0:0:0:
389,345,82804,1,8,2:0:0:0:
389,345,82914,5,0,3:0:0:0:
511,306,83135,1,2,2:0:0:0:
430,258,83355,2,0,P|437:219|443:179,1,79.4112024169923,8|10,2:0|2:0,2:0:0:0:
443,179,83686,1,8,2:0:0:0:
443,179,83797,2,0,P|462:182|482:185,2,39.7056012084961,0|8|10,3:0|2:0|2:0,2:0:0:0:
472,92,84238,2,0,P|491:95|511:98,2,39.7056012084961,10|10|10,2:0|2:0|2:0,2:0:0:0:
415,20,84679,6,0,P|361:65|291:60,1,144.0576,6|8,3:2|2:0,2:0:0:0:
192,17,85341,2,0,P|205:87|217:158,1,144.0576,2|2,2:0|2:0,2:0:0:0:
275,230,86003,2,0,P|268:265|262:300,1,72.192,8|2,2:0|2:0,2:0:0:0:
308,380,86444,6,0,P|254:346|176:352,1,144.0576,0|8,3:0|2:0,2:0:0:0:
88,381,87105,1,2,2:0:0:0:
88,381,87326,2,0,P|94:345|100:310,1,72.192,2|2,3:2|2:0,2:0:0:0:
45,180,87767,2,0,P|38:215|32:250,1,72.192,10|2,2:0|2:0,2:0:0:0:
176,350,88208,6,0,P|222:324|275:324,1,108.288,6|2,3:2|2:0,2:0:0:0:
314,345,88650,2,0,L|383:326,1,72.192,8|2,2:0|2:0,2:0:0:0:
472,360,89091,6,0,P|511:301|502:231,1,144.0576,2|8,3:2|2:0,2:0:0:0:
430,181,89753,1,2,2:0:0:0:
418,90,89973,2,0,P|453:97|488:106,2,72.0288,0|2|8,3:0|2:0|2:0,2:0:0:0:
351,19,90635,1,2,2:0:0:0:
351,19,90855,2,0,B|277:8|297:64|216:54,1,144.0576,0|8,3:0|2:0,2:0:0:0:
126,19,91517,5,2,2:0:0:0:
126,19,91628,1,2,2:0:0:0:
126,19,91738,2,0,L|103:124,1,108.288,6|2,3:2|2:0,2:0:0:0:
102,124,92179,2,0,P|67:132|32:141,1,72.192,8|2,2:0|2:0,2:0:0:0:
144,224,92620,2,0,P|213:206|283:189,1,144.0576,2|8,3:2|2:0,2:0:0:0:
345,123,93282,1,2,2:0:0:0:
431,146,93503,6,0,P|439:180|432:215,1,72.192,0|2,3:0|2:0,2:0:0:0:
498,293,93944,2,0,P|462:301|427:309,1,72.192,8|2,2:0|2:0,2:0:0:0:
373,382,94385,2,0,P|337:373|302:365,1,72.192,2|2,3:2|2:0,2:0:0:0:
302,365,94716,1,0,3:0:0:0:
302,364,94826,1,10,2:0:0:0:
238,298,95047,5,2,2:0:0:0:
238,298,95157,1,2,2:0:0:0:
237,298,95267,2,0,P|181:339|111:331,1,144.0576,6|10,3:2|2:0,2:0:0:0:
33,383,95929,2,0,P|26:347|20:312,1,72.192,2|2,2:0|3:2,2:0:0:0:
81,244,96370,1,2,2:0:0:0:
7,188,96591,6,0,P|49:156|102:151,1,108.288,14|10,2:0|2:0,2:0:0:0:
102,151,97032,2,0,L|109:115,2,36.096,10|2|2,3:2|2:0|2:0,2:0:0:0:
89,251,97473,6,0,P|124:242|159:234,1,72.192,0|2,3:0|2:0,2:0:0:0:
159,234,97804,1,0,2:0:0:0:
159,234,97914,2,0,L|150:269,2,36.096,8|0|2,2:0|2:0|2:0,2:0:0:0:
256,185,98355,2,0,L|265:150,2,36.096,0|10|10,3:0|2:0|2:0,2:0:0:0:
288,288,98797,5,6,3:2:0:0:
416,96,110929,5,2,2:0:0:0:
416,96,111039,1,2,2:0:0:0:
416,96,111150,2,0,P|380:88|345:80,1,72.192,2|10,3:2|2:0,2:0:0:0:
286,32,111591,2,0,P|269:62|266:98,1,72,10|10,3:2|2:0,2:0:0:0:
281,131,111922,1,8,0:0:0:0:
281,131,112032,2,0,P|263:134|245:138,2,36.096,0|8|8,3:0|2:0|2:0,2:0:0:0:
326,222,112473,1,2,3:2:0:0:
326,222,112583,1,8,2:0:0:0:
326,222,112694,1,8,2:0:0:0:
263,297,112914,6,0,B|188:288|208:347|130:336,1,144.0576,6|10,3:2|2:0,2:0:0:0:
64,384,113576,2,0,P|22:327|36:258,1,144.0576,2|2,2:0|2:0,2:0:0:0:
26,171,114238,2,0,P|60:179|95:188,1,72.192,10|2,2:0|2:0,2:0:0:0:
95,188,114569,1,2,2:0:0:0:
95,187,114679,2,0,P|151:145|221:153,1,144.0576,2|10,3:2|2:0,2:0:0:0:
294,101,115341,2,0,P|278:171|260:241,1,144.0576,2|2,2:0|2:0,2:0:0:0:
232,325,116003,2,0,L|196:331,2,36.096,10|2|2,2:0|2:0|2:0,2:0:0:0:
310,372,116444,5,2,3:2:0:0:
310,372,116664,2,0,L|380:384,1,72.192,2|10,2:0|2:0,2:0:0:0:
463,340,117105,2,0,P|484:273|453:210,1,144.0576,2|2,2:0|2:0,2:0:0:0:
506,139,117767,2,0,P|470:131|435:123,1,72.192,8|2,2:0|2:0,2:0:0:0:
435,123,118098,1,2,2:0:0:0:
435,123,118208,6,0,P|447:89|443:54,1,72.192,0|2,3:0|2:0,2:0:0:0:
340,6,118650,2,0,P|346:41|352:76,1,72.192,8|2,2:0|2:0,2:0:0:0:
286,144,119091,2,0,P|279:179|273:214,1,72.192,0|2,3:0|2:0,2:0:0:0:
356,272,119532,1,10,2:0:0:0:
356,272,119642,1,2,2:0:0:0:
356,272,119753,1,2,2:0:0:0:
320,352,119973,6,0,B|246:338|260:392|182:377,1,144.0576,6|10,3:2|2:0,2:0:0:0:
126,293,120635,2,0,P|78:343|8:340,1,144.0576,2|2,2:0|2:0,2:0:0:0:
31,192,121297,2,0,P|35:227|41:263,1,72.192,10|2,2:0|2:0,2:0:0:0:
41,263,121628,1,2,2:0:0:0:
41,263,121738,5,2,3:2:0:0:
116,208,121958,1,2,2:0:0:0:
125,114,122179,1,10,2:0:0:0:
73,35,122400,2,0,P|133:71|203:60,1,144.0576,2|2,2:0|2:0,2:0:0:0:
288,0,123061,2,0,L|325:9,2,36.096,10|0|2,2:0|2:0|2:0,2:0:0:0:
203,59,123503,6,0,P|215:129|227:200,1,144.0576,6|10,3:2|2:0,2:0:0:0:
160,272,124164,2,0,P|229:266|281:313,1,144.0576,2|2,2:0|2:0,2:0:0:0:
281,313,124716,1,2,2:0:0:0:
281,313,124826,1,8,2:0:0:0:
384,384,125047,5,2,2:0:0:0:
384,384,125157,1,0,2:0:0:0:
384,384,125267,2,0,P|395:312|408:242,1,144.0576,2|8,3:2|2:0,2:0:0:0:
466,162,125929,1,2,3:2:0:0:
466,162,126039,1,0,2:0:0:0:
466,162,126150,2,0,P|431:153|396:144,1,72.192,8|2,2:0|3:2,2:0:0:0:
359,170,126480,1,8,2:0:0:0:
359,170,126591,2,0,L|319:178,3,36.096,10|8|10|8,2:0|2:0|2:0|2:0,2:0:0:0:
280,159,127032,6,0,P|285:123|289:87,1,72.192,0|8,3:0|2:0,2:0:0:0:
194,10,127473,2,0,P|189:45|184:81,1,72.192,8|8,2:0|2:0,2:0:0:0:
184,81,127804,1,8,2:0:0:0:
184,81,127914,2,0,L|148:88,2,36.096,0|0|0,3:0|3:0|3:0,2:0:0:0:
63,53,128355,1,8,2:0:0:0:
63,53,128466,1,8,2:0:0:0:
63,53,128576,1,8,2:0:0:0:
0,224,128989,5,2,2:0:0:0:
0,224,129099,1,2,2:0:0:0:
0,224,129238,2,0,B|80:212|59:284|145:267,1,158.463364833985,6|8,3:2|2:0,2:0:0:0:
223,320,129899,2,0,P|265:255|248:179,1,158.463364833985,2|2,2:0|2:0,2:0:0:0:
347,225,130561,2,0,P|384:213|423:203,1,79.4112024169923,10|2,2:0|2:0,2:0:0:0:
490,262,131002,6,0,P|530:195|512:120,1,158.463364833985,0|8,3:0|2:0,2:0:0:0:
447,63,131664,1,2,2:0:0:0:
447,63,131885,2,0,P|408:72|370:84,1,79.4112024169923,0|2,3:0|2:0,2:0:0:0:
243,21,132326,2,0,P|281:9|320:0,1,79.4112024169923,8|2,2:0|2:0,2:0:0:0:
371,84,132767,6,0,P|384:160|332:215,1,158.463364833985,2|10,3:2|2:0,2:0:0:0:
354,310,133429,2,0,P|316:298|276:294,1,79.4112024169923,2|0,2:0|3:0,2:0:0:0:
218,233,133870,2,0,P|180:244|140:248,1,79.4112024169923,2|8,2:0|2:0,2:0:0:0:
60,300,134311,6,0,P|100:234|80:160,1,158.463364833985,2|2,2:0|2:0,2:0:0:0:
143,100,134973,2,0,P|181:107|220:114,1,79.4112024169923,10|2,2:0|2:0,2:0:0:0:
352,0,135414,2,0,P|313:7|274:14,1,79.4112024169923,2|2,3:2|2:0,2:0:0:0:
337,124,135855,1,10,2:0:0:0:
456,74,136076,5,2,2:0:0:0:
456,74,136186,1,2,2:0:0:0:
456,74,136296,2,0,P|440:151|427:229,1,158.463364833985,6|10,3:2|2:0,2:0:0:0:
480,320,136958,2,0,B|401:311|416:375|333:362,1,158.463364833985,2|2,2:0|2:0,2:0:0:0:
256,320,137620,2,0,P|263:281|272:242,1,79.4112024169923,8|2,2:0|2:0,2:0:0:0:
350,153,138061,6,0,P|273:161|218:108,1,158.463364833985,0|8,3:0|2:0,2:0:0:0:
166,21,138723,1,2,2:0:0:0:
166,21,138943,2,0,P|127:28|88:35,1,79.4112024169923,0|2,3:0|2:0,2:0:0:0:
13,115,139385,2,0,P|0:152|3:191,1,79.4112024169923,8|2,2:0|2:0,2:0:0:0:
3,191,139715,1,2,2:0:0:0:
3,191,139826,6,0,B|82:182|67:246|150:233,1,158.463364833985,2|8,3:2|2:0,2:0:0:0:
224,160,140488,2,0,B|224:116|278:106|278:106|349:127,1,158.463364833985,2|2,2:0|2:0,2:0:0:0:
478,166,141149,2,0,P|496:131|492:92,1,79.4112024169923,10|2,2:0|2:0,2:0:0:0:
472,64,141480,1,2,2:0:0:0:
472,64,141590,6,0,L|432:74,2,39.7056012084961,0|8|10,3:0|2:0|2:0,2:0:0:0:
368,0,142032,1,10,2:0:0:0:
349,127,142252,1,2,2:0:0:0:
349,127,142363,1,8,2:0:0:0:
349,127,142473,2,0,P|358:165|368:203,1,79.4112024169923,2|10,3:2|2:0,2:0:0:0:
462,260,142914,2,0,P|457:279|452:298,3,39.7056012084961,10|10|10|10,2:0|2:0|2:0|2:0,2:0:0:0:
466,335,143355,6,0,B|411:326|411:326|382:346|382:346|315:337,1,158.463364833985,6|8,3:2|2:0,2:0:0:0:
232,384,144017,2,0,P|187:320|197:243,1,158.463364833985,2|2,2:0|2:0,2:0:0:0:
277,183,144679,2,0,L|354:198,1,79.4112024169923,10|2,2:0|2:0,2:0:0:0:
411,107,145120,6,0,L|255:75,1,158.463364833985,0|8,3:0|2:0,2:0:0:0:
162,12,145782,1,2,2:0:0:0:
162,12,145892,1,2,2:0:0:0:
162,12,146002,1,0,3:0:0:0:
106,83,146223,1,2,2:0:0:0:
17,69,146443,2,0,P|7:108|16:146,1,79.4112024169923,8|2,2:0|2:0,2:0:0:0:
14,256,146885,6,0,B|9:242|-10:226|-10:226|108:244,1,158.463364833985,2|10,3:2|2:0,2:0:0:0:
169,168,147546,1,2,2:0:0:0:
169,168,147657,1,2,2:0:0:0:
169,168,147767,1,0,3:0:0:0:
256,192,147988,2,0,P|266:153|276:115,1,79.4112024169923,2|8,2:0|2:0,2:0:0:0:
323,44,148429,6,0,B|364:35|402:56|402:56|417:20|457:6,1,158.463364833985,2|2,2:0|2:0,2:0:0:0:
512,83,149090,2,0,P|501:121|492:159,1,79.4112024169923,10|2,2:0|2:0,2:0:0:0:
376,244,149532,2,0,P|385:205|395:167,1,79.4112024169923,2|2,3:2|2:0,2:0:0:0:
512,317,149973,6,0,P|453:316|405:350,1,119.116803625488,10|0,2:0|2:0,2:0:0:0:
405,350,150414,2,0,P|366:342|327:335,1,79.4112024169923,6|2,3:2|2:0,2:0:0:0:
251,384,150855,1,10,2:0:0:0:
229,295,151076,2,0,B|216:241|216:241|235:199|235:199|221:143,1,158.463364833985,2|2,2:0|2:0,2:0:0:0:
277,70,151738,2,0,P|238:62|199:54,1,79.4112024169923,8|2,2:0|2:0,2:0:0:0:
128,0,152179,6,0,P|52:10|19:79,1,158.463364833985,0|8,3:0|2:0,2:0:0:0:
65,164,152840,1,2,2:0:0:0:
65,164,152951,1,2,2:0:0:0:
65,164,153061,1,0,3:0:0:0:
0,242,153282,1,2,2:0:0:0:
77,296,153502,2,0,P|115:286|153:277,1,79.4112024169923,8|2,2:0|2:0,2:0:0:0:
233,326,153943,6,0,P|282:267|273:190,1,158.463364833985,2|10,3:2|2:0,2:0:0:0:
212,126,154605,2,0,B|299:102|254:61|339:39,1,158.463364833985,2|2,2:0|2:0,2:0:0:0:
426,3,155267,1,10,2:0:0:0:
498,77,155487,5,2,2:0:0:0:
498,77,155598,1,2,2:0:0:0:
498,77,155708,2,0,P|487:115|479:153,1,79.4112024169923,0|2,3:0|2:0,2:0:0:0:
398,258,156149,2,0,P|390:220|380:182,1,79.4112024169923,10|2,2:0|2:0,2:0:0:0:
412,34,156590,5,2,3:2:0:0:
336,92,156811,1,10,2:0:0:0:
242,109,157032,1,10,2:0:0:0:
150,83,157252,1,10,2:0:0:0:
89,8,157473,6,0,P|56:57|58:116,1,119.116803625488,6|0,3:2|2:0,2:0:0:0:
58,116,157914,1,10,2:0:0:0:
0,215,158135,2,0,P|76:205|135:255,1,158.463364833985,2|2,2:0|2:0,2:0:0:0:
65,373,158796,2,0,P|57:334|50:296,1,79.4112024169923,10|2,2:0|2:0,2:0:0:0:
169,162,159237,6,0,P|184:239|200:317,1,158.463364833985,2|10,3:2|2:0,2:0:0:0:
288,384,159899,1,2,2:0:0:0:
288,384,160010,1,2,2:0:0:0:
287,384,160120,2,0,P|321:364|361:361,1,79.4112024169923,2|2,3:2|2:0,2:0:0:0:
452,384,160561,1,8,2:0:0:0:
512,320,160782,1,2,2:0:0:0:
477,235,161002,6,0,P|485:196|494:157,1,79.4112024169923,6|2,3:2|2:0,2:0:0:0:
462,73,161443,1,10,2:0:0:0:
462,73,161664,2,0,B|379:84|400:26|312:35,1,158.463364833985,2|2,2:0|2:0,2:0:0:0:
217,17,162326,2,0,P|225:55|234:94,1,79.4112024169923,10|2,2:0|2:0,2:0:0:0:
313,147,162767,5,0,3:0:0:0:
339,238,162987,1,2,2:0:0:0:
295,322,163208,1,8,2:0:0:0:
217,372,163429,1,2,2:0:0:0:
217,372,163539,1,2,2:0:0:0:
217,372,163649,1,2,3:2:0:0:
122,358,163870,1,2,2:0:0:0:
159,281,164090,2,0,P|151:243|142:204,1,79.4112024169923,10|2,2:0|2:0,2:0:0:0:
81,135,164532,6,0,P|45:152|6:151,1,79.4112024169923,6|2,3:2|2:0,2:0:0:0:
25,55,164973,1,10,2:0:0:0:
25,55,165193,2,0,P|93:92|170:80,1,158.463364833985,2|2,2:0|2:0,2:0:0:0:
248,20,165855,1,10,2:0:0:0:
294,110,166076,5,10,2:0:0:0:
294,110,166186,1,8,2:0:0:0:
294,110,166296,2,0,P|285:148|277:187,1,79.4112024169923,0|2,3:0|2:0,2:0:0:0:
215,261,166737,1,8,2:0:0:0:
264,342,166958,1,2,2:0:0:0:
264,342,167068,1,8,2:0:0:0:
264,342,167179,2,0,P|259:361|255:380,2,39.7056012084961,0|8|10,3:0|2:0|2:0,2:0:0:0:
361,308,167620,2,0,P|365:288|369:269,3,39.7056012084961,10|10|10|10,2:0|2:0|2:0|2:0,2:0:0:0:
361,233,168061,6,0,P|431:238|485:193,1,144.0576,6|8,3:2|2:0,2:0:0:0:
469,106,168723,2,0,P|433:101|397:95,1,72.192,2|0,2:0|3:0,2:0:0:0:
316,123,169164,1,2,2:0:0:0:
256,64,169385,1,10,2:0:0:0:
256,64,169605,6,0,P|219:124|229:193,1,144.0576,2|2,2:0|2:0,2:0:0:0:
277,267,170267,2,0,P|272:302|266:338,1,72.192,8|2,2:0|2:0,2:0:0:0:
164,384,170708,2,0,P|168:348|174:312,1,72.192,2|2,3:2|2:0,2:0:0:0:
97,272,171149,1,10,2:0:0:0:
33,342,171370,5,2,2:0:0:0:
33,342,171480,1,2,2:0:0:0:
33,342,171590,2,0,P|7:276|28:209,1,144.0576,6|8,3:2|2:0,2:0:0:0:
0,128,172252,2,0,P|69:110|140:95,1,144.0576,2|2,2:0|2:0,2:0:0:0:
200,25,172914,1,10,2:0:0:0:
277,54,173135,6,0,B|302:122|254:122|278:195,1,144.0576,2|2,2:0|2:0,2:0:0:0:
243,276,173796,2,0,P|278:283|313:291,1,72.192,10|2,2:0|2:0,2:0:0:0:
376,362,174237,1,2,3:2:0:0:
474,345,174458,1,2,2:0:0:0:
474,345,174568,1,2,2:0:0:0:
474,345,174679,2,0,P|492:314|497:278,1,72.192,10|2,2:0|2:0,2:0:0:0:
448,192,175120,6,0,P|460:121|475:50,1,144.0576,6|8,3:2|2:0,2:0:0:0:
396,0,175782,2,0,B|316:17|361:55|278:75,1,144.0576,2|2,2:0|2:0,2:0:0:0:
206,34,176443,1,10,2:0:0:0:
206,34,176664,6,0,P|198:103|246:154,1,144.0576,2|2,2:0|2:0,2:0:0:0:
347,140,177326,2,0,P|341:175|336:211,1,72.192,8|2,2:0|2:0,2:0:0:0:
384,288,177767,2,0,B|312:305|346:343|265:364,1,144.0576,2|10,3:2|2:0,2:0:0:0:
193,325,178429,1,2,2:0:0:0:
128,384,178649,6,0,P|87:326|103:258,1,144.0576,6|8,3:2|2:0,2:0:0:0:
35,182,179311,2,0,P|104:161|173:142,1,144.0576,2|2,2:0|2:0,2:0:0:0:
237,72,179973,1,10,2:0:0:0:
322,102,180193,6,0,P|316:137|310:173,1,72.192,2|0,2:0|3:0,2:0:0:0:
240,224,180635,1,2,2:0:0:0:
272,321,180855,2,0,P|307:316|343:310,1,72.192,8|2,2:0|2:0,2:0:0:0:
343,309,181186,1,2,2:0:0:0:
343,309,181296,1,2,3:2:0:0:
420,384,181517,1,2,2:0:0:0:
501,341,181737,2,0,P|506:306|512:270,1,72.192,10|2,2:0|2:0,2:0:0:0:
480,192,182179,6,0,B|431:175|431:175|415:147|415:147|358:126,1,144.0576,6|8,3:2|2:0,2:0:0:0:
300,65,182840,1,2,2:0:0:0:
222,104,183061,2,0,P|227:139|234:174,1,72.192,0|2,3:0|2:0,2:0:0:0:
311,231,183502,1,10,2:0:0:0:
288,320,183723,6,0,B|218:311|231:361|151:353,1,144.0576,2|2,2:0|2:0,2:0:0:0:
64,320,184385,1,8,2:0:0:0:
107,240,184605,1,2,2:0:0:0:
107,240,184715,1,2,2:0:0:0:
107,240,184826,2,0,P|100:204|92:169,1,72.192,2|2,3:2|2:0,2:0:0:0:
104,79,185267,1,10,2:0:0:0:
40,0,185487,1,2,2:0:0:0:
104,79,185708,6,0,B|173:98|178:42|242:59,1,144.0576,6|8,3:2|2:0,2:0:0:0:
347,11,186370,2,0,P|332:81|318:152,1,144.0576,2|2,2:0|2:0,2:0:0:0:
241,205,187032,1,10,2:0:0:0:
241,205,187252,6,0,P|248:240|255:275,1,72.192,2|0,2:0|3:0,2:0:0:0:
328,354,187693,1,2,2:0:0:0:
402,315,187914,1,8,2:0:0:0:
467,382,188135,1,2,2:0:0:0:
467,382,188245,1,2,2:0:0:0:
467,382,188355,2,0,P|484:378|502:374,2,36.096,2|4|6,3:2|2:3|2:3,2:0:0:0:
402,315,188796,2,0,P|408:280|415:245,1,72.192,10|2,2:0|3:2,2:0:0:0:
489,193,189237,6,0,P|494:123|445:73,1,144.0576,6|8,3:2|2:0,2:0:0:0:
382,18,189899,2,0,B|323:4|318:59|245:42,1,144.0576,2|2,2:0|2:0,2:0:0:0:
153,30,190561,1,10,2:0:0:0:
153,30,190782,6,0,P|164:101|176:172,1,144.0576,2|2,2:0|2:0,2:0:0:0:
276,235,191443,2,0,P|270:270|263:305,1,72.192,8|2,2:0|2:0,2:0:0:0:
263,305,191774,1,2,2:0:0:0:
263,305,191885,2,0,P|227:303|193:314,1,72.192,0|2,3:0|2:0,2:0:0:0:
132,381,192326,1,10,2:0:0:0:
50,366,192546,1,2,2:0:0:0:
9,282,192767,6,0,P|22:211|37:140,1,144.0576,6|8,3:2|2:0,2:0:0:0:
160,45,193429,2,0,P|152:80|145:115,1,72.192,2|0,2:0|3:0,2:0:0:0:
224,224,193870,1,2,2:0:0:0:
308,202,194090,1,10,2:0:0:0:
386,276,194311,5,2,2:0:0:0:
386,276,194421,1,2,2:0:0:0:
386,276,194532,2,0,L|375:310,2,36.096,0|10|10,3:0|2:0|2:0,2:0:0:0:
479,234,194973,1,8,2:0:0:0:
512,140,195193,1,10,2:0:0:0:
512,140,195304,1,10,2:0:0:0:
512,140,195414,2,0,L|475:147,3,36.096,8|8|8|8,2:0|2:0|2:0|2:0,2:0:0:0:
440,140,195855,2,0,L|403:147,3,36.096,8|8|10|10,2:0|2:0|2:0|2:0,2:0:0:0:
371,164,196296,6,0,B|299:146|333:104|257:84,1,144.0576,6|10,3:2|2:0,2:0:0:0:
179,133,196958,1,2,2:0:0:0:
179,133,197179,2,0,P|186:168|193:203,1,72.192,2|2,3:2|2:0,2:0:0:0:
271,247,197620,1,10,2:0:0:0:
241,341,197840,5,2,2:0:0:0:
241,341,197951,1,2,2:0:0:0:
241,341,198061,2,0,P|205:342|173:358,1,72.192,2|2,3:2|2:0,2:0:0:0:
115,302,198502,1,10,2:0:0:0:
34,341,198723,2,0,P|-4:282|9:213,1,144.0576,2|2,2:0|2:0,2:0:0:0:
63,136,199385,1,10,2:0:0:0:
15,61,199605,6,0,P|77:95|148:90,1,144.0576,2|2,2:0|2:0,2:0:0:0:
234,45,200267,1,10,2:0:0:0:
273,137,200487,1,2,2:0:0:0:
273,137,200598,1,2,2:0:0:0:
273,137,200708,1,2,3:2:0:0:
239,224,200929,1,2,2:0:0:0:
164,279,201149,5,10,2:0:0:0:
192,368,201370,2,0,P|261:351|331:334,1,144.0576,2|2,2:0|2:0,2:0:0:0:
406,378,202032,1,8,2:0:0:0:
476,327,202252,2,0,P|501:281|501:227,1,108.288,2|0,2:0|2:0,2:0:0:0:
501,227,202693,2,0,P|466:218|431:210,1,72.192,2|10,2:0|2:0,2:0:0:0:
352,128,203135,5,2,2:0:0:0:
352,128,203245,1,2,2:0:0:0:
352,128,203355,2,0,B|421:104|381:67|463:43,2,144.0576,6|10|2,3:2|2:0|3:2,2:0:0:0:
275,100,204458,1,2,2:0:0:0:
217,164,204679,2,0,P|207:198|211:233,1,72.192,10|2,2:0|2:0,2:0:0:0:
281,293,205120,6,0,P|315:284|350:276,1,72.192,2|2,3:2|2:0,2:0:0:0:
256,384,205561,1,10,2:0:0:0:
256,384,205782,2,0,P|221:375|186:367,1,72.192,2|2,2:0|3:2,2:0:0:0:
79,384,206223,5,2,2:0:0:0:
45,282,206443,1,10,2:0:0:0:
130,217,206664,2,0,P|60:228|0:192,1,144.0576,2|2,2:0|2:0,2:0:0:0:
63,73,207326,2,0,P|68:108|75:143,1,72.192,10|2,2:0|2:0,2:0:0:0:
130,217,207767,5,2,3:2:0:0:
227,194,207987,1,2,2:0:0:0:
227,194,208098,1,2,2:0:0:0:
227,194,208208,1,10,2:0:0:0:
274,279,208429,1,2,2:0:0:0:
368,304,208649,5,2,3:2:0:0:
368,304,208760,1,10,2:0:0:0:
368,304,208870,2,0,L|440:282,1,72,2|10,3:2|2:0,2:0:0:0:
478,204,209311,1,2,3:2:0:0:
478,204,209421,1,10,2:0:0:0:
478,204,209532,2,0,L|514:193,2,36.096,2|10|2,3:2|2:0|3:2,2:0:0:0:
419,123,209973,1,10,2:0:0:0:
445,30,210193,5,10,2:0:0:0:
445,30,210304,1,10,2:0:0:0:
445,30,210414,2,0,B|368:21|382:68|306:59,1,144.0576,6|10,3:2|2:0,2:0:0:0:
223,32,211076,1,2,2:0:0:0:
161,107,211296,2,0,P|167:142|174:177,1,72.192,2|2,3:2|2:0,2:0:0:0:
254,230,211737,1,10,2:0:0:0:
234,315,211958,1,2,2:0:0:0:
149,349,212179,6,0,L|155:384,2,36.096,2|2|2,3:2|2:0|2:0,2:0:0:0:
234,315,212620,1,10,2:0:0:0:
254,230,212840,2,0,B|179:221|198:266|115:253,1,144.0576,2|2,2:0|2:0,2:0:0:0:
33,300,213502,1,10,2:0:0:0:
33,299,213723,2,0,P|27:263|16:228,1,72.192,2|6,2:0|3:2,2:0:0:0:
58,63,214164,5,2,2:0:0:0:
4,137,214385,2,0,P|38:147|74:153,1,72.192,10|2,2:0|2:0,2:0:0:0:
115,253,214826,5,2,3:2:0:0:
211,218,215046,2,0,P|225:185|221:149,1,72.192,2|10,2:0|2:0,2:0:0:0:
160,86,215487,1,2,2:0:0:0:
201,6,215708,6,0,B|278:-9|261:35|342:18,1,144.0576,2|10,3:2|2:0,2:0:0:0:
425,83,216370,1,2,2:0:0:0:
425,83,216480,1,2,2:0:0:0:
425,83,216590,2,0,P|417:118|410:153,1,72.192,2|2,3:2|2:0,2:0:0:0:
485,224,217032,1,10,2:0:0:0:
477,323,217252,5,2,2:0:0:0:
477,323,217362,1,2,2:0:0:0:
476,323,217473,2,0,P|421:367|352:358,1,144.0576,6|10,3:2|2:0,2:0:0:0:
288,297,218135,1,2,2:0:0:0:
204,329,218355,2,0,P|195:293|187:258,1,72.192,2|2,3:2|2:0,2:0:0:0:
259,202,218796,1,10,2:0:0:0:
283,112,219017,1,2,2:0:0:0:
198,14,219237,5,2,3:2:0:0:
130,71,219458,1,2,2:0:0:0:
40,50,219679,2,0,L|21:119,1,72.192,10|2,2:0|2:0,2:0:0:0:
9,157,220010,1,2,2:0:0:0:
9,157,220120,2,0,B|82:142|63:198|146:178,1,144.0576,2|10,3:2|2:0,2:0:0:0:
231,217,220782,6,0,P|266:209|301:201,1,72.192,2|6,2:0|3:2,2:0:0:0:
368,104,221223,1,2,2:0:0:0:
428,174,221443,1,10,2:0:0:0:
512,136,221664,1,2,2:0:0:0:
512,136,221774,1,2,2:0:0:0:
512,136,221885,2,0,P|514:206|466:257,1,144.0576,2|10,3:2|2:0,2:0:0:0:
448,352,222546,5,2,2:0:0:0:
448,352,222657,1,2,2:0:0:0:
448,352,222767,2,0,P|412:358|377:365,1,72.192,2|2,3:2|2:0,2:0:0:0:
313,300,223208,1,10,2:0:0:0:
220,350,223429,1,8,2:0:0:0:
220,350,223539,2,0,L|211:384,2,36.096,8|2|10,2:0|3:2|2:0,2:0:0:0:
168,272,223980,1,10,2:0:0:0:
168,272,224090,2,0,L|186:202,1,72.192,10|10,2:0|2:0,2:0:0:0:
166,178,224421,1,10,2:0:0:0:
166,178,224532,6,0,B|247:153|201:120|296:93,1,158.463364833985,6|8,3:2|2:0,2:0:0:0:
352,0,225193,2,0,P|403:56|479:47,1,158.463364833985,2|2,2:0|2:0,2:0:0:0:
506,169,225855,2,0,P|466:162|428:154,1,79.4112024169923,10|2,2:0|2:0,2:0:0:0:
354,217,226296,6,0,P|294:169|294:92,1,158.463364833985,0|8,3:0|2:0,2:0:0:0:
208,11,226958,1,2,2:0:0:0:
208,11,227068,1,2,2:0:0:0:
208,11,227179,1,0,3:0:0:0:
140,73,227399,1,2,2:0:0:0:
53,55,227620,2,0,P|46:94|38:132,1,79.4112024169923,8|2,2:0|2:0,2:0:0:0:
0,224,228061,6,0,B|26:210|52:217|71:235|71:235|83:262|110:273|138:264,1,158.463364833985,2|10,3:2|2:0,2:0:0:0:
224,288,228723,2,0,P|230:248|239:210,1,79.4112024169923,2|0,2:0|3:0,2:0:0:0:
186,148,229164,2,0,P|192:108|201:70,1,79.4112024169923,2|8,2:0|2:0,2:0:0:0:
256,0,229605,6,0,B|282:12|296:34|296:34|399:14,1,158.463364833985,2|2,2:0|2:0,2:0:0:0:
507,114,230267,2,0,B|491:127|491:127|433:114,1,79.4112024169923,10|2,2:0|2:0,2:0:0:0:
342,165,230708,2,0,P|351:203|358:242,1,79.4112024169923,2|2,3:2|2:0,2:0:0:0:
445,297,231149,2,0,P|453:258|460:219,1,79.4112024169923,10|2,2:0|2:0,2:0:0:0:
352,384,231590,6,0,P|289:338|213:352,1,158.463364833985,6|10,3:2|2:0,2:0:0:0:
128,384,232252,2,0,B|163:371|176:344|176:312|157:287|157:287|121:269,1,158.463364833985,2|2,2:0|2:0,2:0:0:0:
8,256,232914,2,0,L|23:333,1,79.4112024169923,8|2,2:0|2:0,2:0:0:0:
121,269,233355,6,0,L|90:113,1,158.463364833985,0|8,3:0|2:0,2:0:0:0:
158,28,234017,1,2,2:0:0:0:
158,28,234127,1,2,2:0:0:0:
158,28,234237,2,0,P|119:19|80:11,1,79.4112024169923,0|2,3:0|2:0,2:0:0:0:
13,97,234679,2,0,P|51:105|90:113,1,79.4112024169923,8|2,2:0|2:0,2:0:0:0:
160,192,235120,6,0,P|218:142|294:154,1,158.463364833985,2|8,3:2|2:0,2:0:0:0:
400,117,235782,2,0,P|381:193|364:271,1,158.463364833985,2|2,2:0|2:0,2:0:0:0:
441,383,236443,2,0,P|450:344|458:305,1,79.4112024169923,10|2,2:0|2:0,2:0:0:0:
459,306,236774,1,0,2:0:0:0:
459,306,236885,6,0,L|497:296,2,39.7056012084961,0|8|10,3:0|2:0|2:0,2:0:0:0:
364,271,237326,1,8,2:0:0:0:
288,352,237546,1,2,2:0:0:0:
288,352,237657,1,8,2:0:0:0:
288,352,237767,1,2,3:2:0:0:
196,375,237987,1,10,2:0:0:0:
106,336,238208,2,0,L|116:298,3,39.7056012084961,10|10|10|10,2:0|2:0|2:0|2:0,2:0:0:0:
102,276,238649,6,0,B|186:258|144:217|236:199,1,158.463364833985,6|8,3:2|2:0,2:0:0:0:
281,98,239311,2,0,P|340:147|416:134,1,158.463364833985,2|2,2:0|2:0,2:0:0:0:
512,110,239973,2,0,P|504:148|496:187,1,79.4112024169923,10|2,2:0|2:0,2:0:0:0:
512,288,240414,6,0,B|483:294|466:314|466:314|362:297,1,158.463364833985,0|8,3:0|2:0,2:0:0:0:
270,345,241076,1,2,2:0:0:0:
270,345,241186,1,2,2:0:0:0:
270,345,241296,2,0,P|262:306|256:267,1,79.4112024169923,0|2,3:0|2:0,2:0:0:0:
330,212,241737,1,8,2:0:0:0:
360,128,241958,1,2,2:0:0:0:
319,48,242179,6,0,B|233:36|256:93|168:78,1,158.463364833985,2|10,3:2|2:0,2:0:0:0:
48,138,242840,2,0,P|39:99|31:60,1,79.4112024169923,2|0,2:0|3:0,2:0:0:0:
135,169,243282,2,0,P|143:207|151:246,1,79.4112024169923,2|8,2:0|2:0,2:0:0:0:
58,306,243723,6,0,P|134:295|195:344,1,158.463364833985,2|2,2:0|2:0,2:0:0:0:
312,200,244385,2,0,P|273:208|234:216,1,79.4112024169923,10|2,2:0|2:0,2:0:0:0:
352,320,244826,2,0,P|390:311|429:303,1,79.4112024169923,2|2,3:2|2:0,2:0:0:0:
512,224,245267,6,0,P|527:167|506:113,1,119.116803625488,10|0,2:0|2:0,2:0:0:0:
506,113,245708,2,0,P|467:104|428:96,1,79.4112024169923,6|2,3:2|2:0,2:0:0:0:
379,17,246149,1,10,2:0:0:0:
285,43,246370,2,0,P|298:121|311:199,1,158.463364833985,2|2,2:0|2:0,2:0:0:0:
378,266,247032,1,8,2:0:0:0:
378,266,247252,1,2,2:0:0:0:
352,352,247473,6,0,B|270:337|287:384|197:371,1,158.463364833985,0|8,3:0|2:0,2:0:0:0:
147,295,248135,1,2,2:0:0:0:
147,295,248245,1,2,2:0:0:0:
147,295,248355,1,0,3:0:0:0:
59,356,248576,1,2,2:0:0:0:
12,272,248796,2,0,P|6:233|28:201,1,79.4112024169923,8|2,2:0|2:0,2:0:0:0:
1,114,249237,6,0,P|65:157|142:146,1,158.463364833985,2|10,3:2|2:0,2:0:0:0:
237,5,249899,2,0,P|227:43|221:82,1,79.4112024169923,2|0,2:0|3:0,2:0:0:0:
304,193,250340,1,2,2:0:0:0:
304,193,250561,2,0,P|313:154|319:115,1,79.4112024169923,10|2,2:0|2:0,2:0:0:0:
428,30,251002,6,0,P|483:82|478:159,1,158.463364833985,0|10,3:0|2:0,2:0:0:0:
396,217,251664,1,2,2:0:0:0:
396,217,251774,1,2,2:0:0:0:
396,217,251885,1,2,3:2:0:0:
508,254,252105,1,10,2:0:0:0:
470,367,252326,1,10,2:0:0:0:
358,329,252546,1,2,3:2:0:0:
269,249,252767,6,0,B|190:238|209:308|126:296,1,158.463364833985,6|10,3:2|2:0,2:0:0:0:
48,352,253429,2,0,P|4:288|22:213,1,158.463364833985,2|2,2:0|2:0,2:0:0:0:
0,125,254090,2,0,P|38:132|77:140,1,79.4112024169923,10|2,2:0|2:0,2:0:0:0:
234,77,254532,6,0,P|175:27|98:34,1,158.463364833985,2|10,3:2|2:0,2:0:0:0:
163,145,255193,2,0,P|240:129|318:114,1,158.463364833985,2|2,2:0|2:0,2:0:0:0:
389,33,255855,1,8,2:0:0:0:
494,70,256076,5,2,2:0:0:0:
494,70,256186,1,2,2:0:0:0:
494,70,256296,2,0,P|486:108|479:147,1,79.4112024169923,6|2,3:2|2:0,2:0:0:0:
424,232,256737,1,10,2:0:0:0:
480,320,256958,2,0,P|415:276|337:278,1,158.463364833985,2|2,2:0|2:0,2:0:0:0:
256,336,257620,2,0,P|240:299|241:260,1,79.4112024169923,10|2,2:0|2:0,2:0:0:0:
192,184,258061,6,0,P|236:121|219:45,1,158.463364833985,0|8,3:0|2:0,2:0:0:0:
136,8,258723,1,2,2:0:0:0:
136,8,258833,1,2,2:0:0:0:
136,8,258943,1,2,3:2:0:0:
56,60,259164,1,2,2:0:0:0:
91,142,259385,2,0,P|84:180|77:220,1,79.4112024169923,10|2,2:0|2:0,2:0:0:0:
31,302,259826,5,6,3:2:0:0:
145,277,260046,1,2,2:0:0:0:
221,351,260267,1,10,2:0:0:0:
334,326,260487,2,0,P|361:252|337:178,1,158.463364833985,2|2,2:0|2:0,2:0:0:0:
277,106,261149,2,0,P|315:97|353:87,1,79.4112024169923,10|10,2:0|2:0,2:0:0:0:
353,87,261480,5,8,2:0:0:0:
353,87,261590,1,0,3:0:0:0:
450,57,261811,1,2,2:0:0:0:
510,134,262032,2,0,L|495:211,1,79.4112024169923,8|2,2:0|2:0,2:0:0:0:
495,211,262362,1,8,2:0:0:0:
495,211,262473,1,0,3:0:0:0:
512,352,262693,1,10,2:0:0:0:
512,352,262804,1,8,2:0:0:0:
512,352,262914,2,0,L|472:359,3,39.7056012084961,10|10|10|10,2:0|2:0|2:0|2:0,2:0:0:0:
452,378,263355,6,0,B|385:354|414:316|342:291,1,144.0576,6|10,3:2|2:0,2:0:0:0:
256,224,264017,2,0,P|203:270|133:267,1,144.0576,2|2,2:0|2:0,2:0:0:0:
78,331,264679,1,10,2:0:0:0:
0,301,264899,1,2,2:0:0:0:
0,301,265010,1,0,2:0:0:0:
0,300,265120,2,0,P|6:264|14:229,1,72.192,0|2,3:0|2:0,2:0:0:0:
106,112,265561,2,0,P|98:147|91:182,1,72.192,10|2,2:0|2:0,2:0:0:0:
26,60,266002,6,0,P|84:21|153:30,1,144.0576,2|10,3:2|2:0,2:0:0:0:
213,99,266664,1,2,2:0:0:0:
286,55,266885,6,0,B|302:102|302:102|289:141|289:141|302:192,1,144.0576,2|8,3:2|2:0,2:0:0:0:
264,282,267546,2,0,P|311:333|381:331,1,144.0576,2|2,2:0|2:0,2:0:0:0:
492,374,268208,2,0,P|499:338|507:303,1,72.192,10|2,2:0|2:0,2:0:0:0:
484,217,268649,6,0,P|413:232|343:247,1,144.0576,2|8,3:2|2:0,2:0:0:0:
287,185,269311,1,2,2:0:0:0:
207,221,269532,2,0,P|199:256|191:291,1,72.192,0|2,3:0|2:0,2:0:0:0:
169,373,269973,1,8,2:0:0:0:
78,368,270193,5,2,2:0:0:0:
78,368,270304,1,2,2:0:0:0:
77,367,270414,2,0,P|35:312|50:244,1,144.0576,6|8,3:2|2:0,2:0:0:0:
0,174,271076,2,0,B|74:157|43:116|119:100,1,144.0576,2|2,2:0|2:0,2:0:0:0:
118,100,271627,1,2,2:0:0:0:
118,100,271737,1,10,2:0:0:0:
178,35,271958,6,0,P|215:94|197:162,1,144.0576,2|2,2:0|2:0,2:0:0:0:
153,240,272620,1,10,2:0:0:0:
197,328,272840,1,2,2:0:0:0:
197,328,272951,1,2,2:0:0:0:
197,328,273061,2,0,L|232:320,3,36.096,2|2|2|2,3:2|2:0|2:0|2:0,2:0:0:0:
276,336,273502,2,0,L|311:328,3,36.096,10|2|2|2,2:0|2:0|2:0|2:0,2:0:0:0:
355,344,273943,5,6,3:2:0:0:
256,192,274054,12,0,281002,2:0:0:0:
