osu file format v14

[General]
AudioFilename: audio.mp3
AudioLeadIn: 0
PreviewTime: 45526
Countdown: 0
SampleSet: Soft
StackLeniency: 0.6
Mode: 0
LetterboxInBreaks: 0
WidescreenStoryboard: 0

[Editor]
Bookmarks: 637,98797,189237,196296,224532,273943,281002
DistanceSpacing: 1
BeatDivisor: 8
GridSize: 8
TimelineZoom: 2

[Metadata]
Title:Perfect Sky
TitleUnicode:Perfect Sky
Artist:Shimotsuki Haruka
ArtistUnicode:霜月はるか
Creator:Kazato Asa
Version:Flight Diary
Source:この大空に、翼をひろげて
Tags:Shizuku- Kono Oozora ni, Tsubasa o Hirogete Konosora If My Heart Had Wings IMHHW PULLTOP WillPlus pv op ed opening ending vn visual novel galgame Kenichi Okuma おおくま けんいち 大熊謙一 TWOFIVE Shimotsukin jpop pop eroge video game japanese
BeatmapID:2557978
BeatmapSetID:1230415

[Difficulty]
HPDrainRate:5
CircleSize:4
OverallDifficulty:8
ApproachRate:8.5
SliderMultiplier:1.76
SliderTickRate:1

[Events]
//Background and Video events
0,0,"HUT_07_002B.jpg",0,0
//Break Periods
//Storyboard Layer 0 (Background)
//Storyboard Layer 1 (Fail)
//Storyboard Layer 2 (Pass)
//Storyboard Layer 3 (Foreground)
//Storyboard Layer 4 (Overlay)
//Storyboard Sound Samples

[TimingPoints]
1299,441.176470588235,3,2,1,40,1,0
1299,-125,3,2,1,40,0,0
4828,-71.4285714285714,3,2,1,50,0,0
5269,-71.4285714285714,3,2,1,60,0,0
5599,-71.4285714285714,3,2,1,5,0,0
5710,-71.4285714285714,3,2,1,60,0,0
5931,-71.4285714285714,3,2,3,60,0,0
6041,-71.4285714285714,3,2,2,60,0,0
6151,-83.3333333333333,3,2,2,60,0,0
6371,-83.3333333333333,3,2,3,60,0,0
6593,-71.4285714285714,3,2,1,60,0,0
6923,-71.4285714285714,3,2,2,60,0,0
7034,-83.3333333333333,3,2,3,60,0,0
7916,-83.3333333333333,3,2,1,60,0,0
8357,441.176470588235,4,2,1,60,1,0
8357,-71.4285714285714,4,2,1,60,0,0
8687,-71.4285714285714,4,2,1,5,0,0
8798,-71.4285714285714,4,2,1,60,0,0
9018,-71.4285714285714,4,2,3,60,0,0
9129,-71.4285714285714,4,2,2,60,0,0
9239,-83.3333333333333,4,2,2,60,0,0
11445,-83.3333333333333,4,2,1,60,0,0
11665,-83.3333333333333,4,2,2,60,0,0
11886,-62.5,4,2,1,60,0,0
12216,-62.5,4,2,1,5,0,0
12327,-62.5,4,2,1,60,0,0
12548,-62.5,4,2,3,60,0,0
12768,-83.3333333333333,4,2,3,60,0,0
15415,-125,4,2,1,50,0,0
15635,-125,4,2,2,50,0,0
15856,-125,4,2,1,50,0,0
16076,-125,4,2,2,50,0,0
16298,-125,4,2,3,50,0,0
16518,-125,4,2,2,50,0,0
16738,-125,4,2,1,50,0,0
16959,-125,4,2,3,50,0,0
17070,-125,4,2,2,50,0,0
17400,-125,4,2,3,50,0,0
17621,-125,4,2,1,50,0,0
17841,-125,4,2,2,50,0,0
18062,-125,4,2,1,50,0,0
18283,-125,4,2,3,50,0,0
18614,-125,4,2,2,50,0,0
18724,-125,4,2,3,50,0,0
18945,-125,4,2,1,50,0,0
19165,-125,4,2,3,50,0,0
19716,-125,4,2,2,50,0,0
19826,-125,4,2,3,50,0,0
20599,-125,4,2,2,50,0,0
20709,-125,4,2,3,50,0,0
21151,-125,4,2,1,50,0,0
21371,-125,4,2,2,50,0,0
21592,-125,4,2,1,50,0,0
21812,-125,4,2,2,50,0,0
22033,-125,4,2,3,50,0,0
22143,-125,4,2,2,50,0,0
22474,-125,4,2,3,50,0,0
22584,-125,4,2,2,50,0,0
22915,-125,4,2,1,50,0,0
23135,-125,4,2,2,50,0,0
23356,-125,4,2,3,50,0,0
23576,-125,4,2,2,50,0,0
23798,-125,4,2,1,50,0,0
24018,-125,4,2,3,50,0,0
24129,-125,4,2,2,50,0,0
24459,-125,4,2,3,50,0,0
24680,-125,4,2,1,50,0,0
24900,-125,4,2,2,50,0,0
25121,-125,4,2,1,50,0,0
25342,-125,4,2,3,50,0,0
25672,-125,4,2,2,50,0,0
25782,-125,4,2,3,50,0,0
26004,-125,4,2,1,50,0,0
26224,-125,4,2,3,50,0,0
27658,-125,4,2,1,50,0,0
27989,-125,4,2,3,50,0,0
28209,-125,4,2,2,50,0,0
29092,-125,4,2,1,50,0,0
29533,-83.3333333333333,4,2,1,60,0,0
29863,-83.3333333333333,4,2,1,5,0,0
29974,-83.3333333333333,4,2,1,60,0,0
30195,-111.111111111111,4,2,3,60,0,0
30636,-111.111111111111,4,2,2,60,0,0
30856,-111.111111111111,4,2,1,60,0,0
31076,-111.111111111111,4,2,2,60,0,0
31298,-83.3333333333333,4,2,1,60,0,0
31628,-83.3333333333333,4,2,1,5,0,0
31739,-83.3333333333333,4,2,1,60,0,0
31959,-111.111111111111,4,2,3,60,0,0
32401,-111.111111111111,4,2,2,60,0,0
32842,-111.111111111111,4,2,3,60,0,0
32952,-111.111111111111,4,2,2,60,0,0
33062,-111.111111111111,4,2,3,60,0,0
34717,-111.111111111111,4,2,2,60,0,0
35598,-111.111111111111,4,2,2,5,0,0
35709,-111.111111111111,4,2,2,60,0,0
36151,-111.111111111111,4,2,1,60,0,0
36261,-111.111111111111,4,2,2,60,0,0
36592,-83.3333333333333,4,2,1,60,0,0
36922,-83.3333333333333,4,2,1,5,0,0
37033,-83.3333333333333,4,2,1,60,0,0
37254,-111.111111111111,4,2,3,60,0,0
37915,-111.111111111111,4,2,1,60,0,0
38136,-111.111111111111,4,2,3,60,0,0
38246,-111.111111111111,4,2,2,60,0,0
38356,-111.111111111111,4,2,1,60,0,0
38577,-111.111111111111,4,2,3,60,0,0
38798,-111.111111111111,4,2,1,60,0,0
39018,-111.111111111111,4,2,3,60,0,0
39459,-111.111111111111,4,2,2,60,0,0
39680,-111.111111111111,4,2,1,60,0,0
39901,-111.111111111111,4,2,3,60,0,0
40121,-83.3333333333333,4,2,1,60,0,0
40451,-83.3333333333333,4,2,1,5,0,0
40562,-83.3333333333333,4,2,1,60,0,0
40783,-111.111111111111,4,2,3,60,0,0
41224,-111.111111111111,4,2,2,60,0,0
41665,-111.111111111111,4,2,3,60,0,0
41886,-76.9230769230769,4,2,1,60,0,0
42106,-76.9230769230769,4,2,2,60,0,0
42548,-76.9230769230769,4,2,3,60,0,0
42988,-76.9230769230769,4,2,2,60,0,0
43209,-76.9230769230769,4,2,1,60,0,0
43430,-76.9230769230769,4,2,2,60,0,0
43651,-66.6666666666667,4,2,2,60,0,0
45636,-66.6666666666667,4,2,1,60,0,0
45856,441.176470588235,4,2,1,70,1,1
45856,-55.5555555555556,4,2,1,70,0,1
46186,-55.5555555555556,4,2,1,5,0,1
46297,-66.6666666666667,4,2,1,70,0,1
46517,-90.9090909090909,4,2,3,70,0,1
46627,-90.9090909090909,4,2,2,70,0,1
46738,-66.6666666666667,4,2,2,70,0,1
47179,-66.6666666666667,4,2,1,70,0,1
47509,-66.6666666666667,4,2,1,5,0,1
47620,-76.9230769230769,4,2,1,70,0,1
47840,-76.9230769230769,4,2,2,70,0,1
49385,-55.5555555555556,4,2,1,70,0,1
49715,-55.5555555555556,4,2,1,5,0,1
49826,-55.5555555555556,4,2,1,70,0,1
50047,-76.9230769230769,4,2,3,70,0,1
50157,-76.9230769230769,4,2,2,70,0,1
50488,-76.9230769230769,4,2,3,70,0,1
51480,-76.9230769230769,4,2,3,5,0,1
51591,-90.9090909090909,4,2,1,70,0,1
51811,-90.9090909090909,4,2,2,70,0,1
52032,-90.9090909090909,4,2,1,70,0,1
52252,-90.9090909090909,4,2,2,70,0,1
52473,-90.9090909090909,4,2,1,70,0,1
52693,-90.9090909090909,4,2,2,70,0,1
52914,-66.6666666666667,4,2,1,70,0,1
53244,-66.6666666666667,4,2,1,5,0,1
53355,-66.6666666666667,4,2,1,70,0,1
53576,-66.6666666666667,4,2,3,70,0,1
53686,-66.6666666666667,4,2,2,70,0,1
53797,-90.9090909090909,4,2,2,70,0,1
56444,-90.9090909090909,4,2,1,70,0,1
56664,-90.9090909090909,4,2,2,70,0,1
57105,-90.9090909090909,4,2,3,70,0,1
57547,-90.9090909090909,4,2,2,70,0,1
57767,-90.9090909090909,4,2,1,70,0,1
57988,-90.9090909090909,4,2,2,70,0,1
58429,-90.9090909090909,4,2,3,70,0,1
58650,-90.9090909090909,4,2,1,70,0,1
58870,-90.9090909090909,4,2,3,70,0,1
59091,-90.9090909090909,4,2,1,70,0,1
59311,-90.9090909090909,4,2,3,70,0,1
59532,-90.9090909090909,4,2,1,70,0,1
59753,-90.9090909090909,4,2,3,70,0,1
59863,-90.9090909090909,4,2,1,70,0,1
59973,-55.5555555555556,4,2,1,70,0,1
60303,-55.5555555555556,4,2,1,5,0,1
60414,-66.6666666666667,4,2,1,70,0,1
60635,-90.9090909090909,4,2,3,70,0,1
60745,-90.9090909090909,4,2,2,70,0,1
60855,-66.6666666666667,4,2,2,70,0,1
61297,-66.6666666666667,4,2,1,70,0,1
61517,-66.6666666666667,4,2,2,70,0,1
61738,-76.9230769230769,4,2,2,70,0,1
63503,-55.5555555555556,4,2,1,70,0,1
63833,-55.5555555555556,4,2,1,5,0,1
63944,-55.5555555555556,4,2,1,70,0,1
64164,-55.5555555555556,4,2,3,70,0,1
64275,-55.5555555555556,4,2,2,70,0,1
64605,-76.9230769230769,4,2,3,70,0,1
65267,-76.9230769230769,4,2,1,70,0,1
65597,-76.9230769230769,4,2,1,5,0,1
65708,-90.9090909090909,4,2,1,70,0,1
65928,-90.9090909090909,4,2,2,70,0,1
66150,-90.9090909090909,4,2,1,70,0,1
66370,-90.9090909090909,4,2,2,70,0,1
66591,-55.5555555555556,4,2,1,70,0,1
66921,-55.5555555555556,4,2,1,5,0,1
67032,-66.6666666666667,4,2,1,70,0,1
67252,-66.6666666666667,4,2,3,70,0,1
67473,-66.6666666666667,4,2,1,70,0,1
67694,-66.6666666666667,4,2,3,70,0,1
67804,-66.6666666666667,4,2,2,70,0,1
67914,-90.9090909090909,4,2,2,70,0,1
68797,-66.6666666666667,4,2,2,70,0,1
69127,-66.6666666666667,4,2,2,5,0,1
69238,-66.6666666666667,4,2,2,70,0,1
69458,-90.9090909090909,4,2,2,70,0,1
70561,-66.6666666666667,4,2,1,70,0,1
70781,-66.6666666666667,4,2,2,70,0,1
71003,-90.9090909090909,4,2,2,70,0,1
71223,-90.9090909090909,4,2,3,70,0,1
71664,-90.9090909090909,4,2,2,70,0,1
71885,-66.6666666666667,4,2,3,70,0,1
72215,-66.6666666666667,4,2,3,5,0,1
72326,-90.9090909090909,4,2,3,70,0,1
72546,-90.9090909090909,4,2,2,70,0,1
73650,-90.9090909090909,4,2,1,70,0,1
73870,-90.9090909090909,4,2,2,70,0,1
74091,-62.5,4,2,1,65,0,1
74421,-62.5,4,2,1,5,0,1
74532,-62.5,4,2,1,65,0,1
74753,-90.9090909090909,4,2,3,65,0,1
74863,-90.9090909090909,4,2,2,65,0,1
75414,-90.9090909090909,4,2,1,65,0,1
75634,-90.9090909090909,4,2,2,65,0,1
75855,-62.5,4,2,1,65,0,1
76185,-62.5,4,2,1,5,0,1
76297,-62.5,4,2,1,65,0,1
76517,-90.9090909090909,4,2,3,65,0,1
76627,-90.9090909090909,4,2,2,65,0,1
77400,-90.9090909090909,4,2,3,65,0,1
77510,-90.9090909090909,4,2,2,65,0,1
77620,-90.9090909090909,4,2,1,65,0,1
77840,-90.9090909090909,4,2,3,65,0,1
78061,-90.9090909090909,4,2,1,65,0,1
78282,-90.9090909090909,4,2,3,65,0,1
78944,-90.9090909090909,4,2,1,65,0,1
79164,-90.9090909090909,4,2,2,65,0,1
80488,-90.9090909090909,4,2,3,65,0,1
80708,-90.9090909090909,4,2,1,65,0,1
80929,-90.9090909090909,4,2,3,65,0,1
81150,-90.9090909090909,4,2,1,65,0,1
81370,-90.9090909090909,4,2,3,65,0,1
81591,-90.9090909090909,4,2,1,65,0,1
81811,-90.9090909090909,4,2,3,65,0,1
82473,-90.9090909090909,4,2,1,65,0,1
82693,-90.9090909090909,4,2,2,65,0,1
84017,-90.9090909090909,4,2,3,65,0,1
84348,-90.9090909090909,4,2,2,65,0,1
84679,-76.9230769230769,4,2,1,60,0,0
85009,-76.9230769230769,4,2,1,5,0,0
85120,-76.9230769230769,4,2,1,60,0,0
85341,-90.9090909090909,4,2,2,60,0,0
87326,-90.9090909090909,4,2,1,60,0,0
87546,-90.9090909090909,4,2,2,60,0,0
87767,-76.9230769230769,4,2,1,60,0,0
88097,-76.9230769230769,4,2,1,5,0,0
88208,-66.6666666666667,4,2,1,60,0,0
88538,-90.9090909090909,4,2,3,60,0,0
88870,-90.9090909090909,4,2,3,60,0,0
88980,-90.9090909090909,4,2,2,60,0,0
89091,-90.9090909090909,4,2,3,60,0,0
89311,-90.9090909090909,4,2,2,60,0,0
90303,-90.9090909090909,4,2,2,5,0,0
90414,-90.9090909090909,4,2,2,60,0,0
91517,-90.9090909090909,4,2,3,60,0,0
91738,-66.6666666666667,4,2,1,60,0,0
92069,-90.9090909090909,4,2,1,60,0,0
92400,-66.6666666666667,4,2,3,60,0,0
92620,-90.9090909090909,4,2,1,60,0,0
93282,-90.9090909090909,4,2,2,60,0,0
94385,-90.9090909090909,4,2,1,60,0,0
95267,-83.3333333333333,4,2,1,60,0,0
95597,-83.3333333333333,4,2,1,5,0,0
95708,-83.3333333333333,4,2,1,60,0,0
95929,-83.3333333333333,4,2,3,60,0,0
96039,-83.3333333333333,4,2,2,60,0,0
96591,-58.8235294117647,4,2,1,60,0,0
96921,-58.8235294117647,4,2,2,60,0,0
97032,-58.8235294117647,4,2,3,60,0,0
97142,-58.8235294117647,4,2,2,60,0,0
97253,-58.8235294117647,4,2,3,60,0,0
97473,-83.3333333333333,4,2,3,60,0,0
98466,-83.3333333333333,4,2,2,60,0,0
98797,-125,4,2,1,50,0,0
99017,-125,4,2,2,50,0,0
99238,-125,4,2,1,50,0,0
99458,-125,4,2,2,50,0,0
99679,-125,4,2,3,50,0,0
99900,-125,4,2,2,50,0,0
100120,-125,4,2,1,50,0,0
100341,-125,4,2,3,50,0,0
100451,-125,4,2,2,50,0,0
100781,-125,4,2,3,50,0,0
101003,-125,4,2,1,50,0,0
101223,-125,4,2,2,50,0,0
101444,-125,4,2,1,50,0,0
101664,-125,4,2,3,50,0,0
101995,-125,4,2,2,50,0,0
102105,-125,4,2,3,50,0,0
102326,-125,4,2,1,50,0,0
102547,-125,4,2,3,50,0,0
103098,-125,4,2,2,50,0,0
103208,-125,4,2,3,50,0,0
103980,-125,4,2,2,50,0,0
104091,-125,4,2,3,50,0,0
104532,-125,4,2,1,50,0,0
104753,-125,4,2,2,50,0,0
104973,-125,4,2,1,50,0,0
105194,-125,4,2,2,50,0,0
105414,-125,4,2,3,50,0,0
105525,-125,4,2,2,50,0,0
105745,-125,4,2,3,50,0,0
105965,-125,4,2,2,50,0,0
106297,-125,4,2,1,50,0,0
106517,-125,4,2,2,50,0,0
106738,-125,4,2,3,50,0,0
106958,-125,4,2,2,50,0,0
107178,-125,4,2,1,50,0,0
107400,-125,4,2,3,50,0,0
107510,-125,4,2,2,50,0,0
107840,-125,4,2,3,50,0,0
108061,-125,4,2,1,50,0,0
108281,-125,4,2,2,50,0,0
108503,-125,4,2,1,50,0,0
108723,-125,4,2,3,50,0,0
109054,-125,4,2,2,50,0,0
109164,-125,4,2,3,50,0,0
109385,-125,4,2,1,50,0,0
109605,-125,4,2,3,50,0,0
111150,-125,4,2,1,50,0,0
111370,-125,4,2,3,50,0,0
111591,-125,4,2,2,50,0,0
112473,-125,4,2,1,50,0,0
112914,-83.3333333333333,4,2,1,60,0,0
113244,-83.3333333333333,4,2,1,5,0,0
113355,-83.3333333333333,4,2,1,60,0,0
113576,-111.111111111111,4,2,3,60,0,0
113686,-111.111111111111,4,2,2,60,0,0
114238,-111.111111111111,4,2,1,60,0,0
114458,-111.111111111111,4,2,2,60,0,0
114679,-83.3333333333333,4,2,1,60,0,0
115341,-111.111111111111,4,2,3,60,0,0
115782,-111.111111111111,4,2,2,60,0,0
116223,-111.111111111111,4,2,3,60,0,0
118098,-111.111111111111,4,2,2,60,0,0
119532,-111.111111111111,4,2,1,60,0,0
119642,-111.111111111111,4,2,2,60,0,0
119973,-83.3333333333333,4,2,1,60,0,0
120303,-83.3333333333333,4,2,1,5,0,0
120414,-83.3333333333333,4,2,1,60,0,0
120635,-111.111111111111,4,2,3,60,0,0
121297,-111.111111111111,4,2,1,60,0,0
121517,-111.111111111111,4,2,3,60,0,0
121628,-111.111111111111,4,2,2,60,0,0
121738,-111.111111111111,4,2,1,60,0,0
121958,-111.111111111111,4,2,3,60,0,0
122179,-111.111111111111,4,2,1,60,0,0
122400,-111.111111111111,4,2,3,60,0,0
122841,-111.111111111111,4,2,2,60,0,0
123061,-111.111111111111,4,2,1,60,0,0
123282,-111.111111111111,4,2,3,60,0,0
123503,-83.3333333333333,4,2,1,60,0,0
123833,-83.3333333333333,4,2,1,5,0,0
123944,-83.3333333333333,4,2,1,60,0,0
124164,-111.111111111111,4,2,3,60,0,0
124605,-111.111111111111,4,2,2,60,0,0
125047,-111.111111111111,4,2,3,60,0,0
125267,-76.9230769230769,4,2,1,60,0,0
125488,-76.9230769230769,4,2,2,60,0,0
125928,-76.9230769230769,4,2,3,60,0,0
126370,-76.9230769230769,4,2,2,60,0,0
126591,-76.9230769230769,4,2,1,60,0,0
126811,-76.9230769230769,4,2,2,60,0,0
128989,441.176470588235,4,2,1,60,1,0
129238,441.176470588235,4,2,1,70,1,1
129238,-55.5555555555556,4,2,1,70,0,1
129568,-55.5555555555556,4,2,1,5,0,1
129679,-66.6666666666667,4,2,1,70,0,1
129899,-90.9090909090909,4,2,3,70,0,1
130009,-90.9090909090909,4,2,2,70,0,1
130120,-66.6666666666667,4,2,2,70,0,1
130561,-66.6666666666667,4,2,1,70,0,1
130891,-66.6666666666667,4,2,1,5,0,1
131002,-76.9230769230769,4,2,1,70,0,1
131222,-76.9230769230769,4,2,2,70,0,1
132767,-55.5555555555556,4,2,1,70,0,1
133097,-55.5555555555556,4,2,1,5,0,1
133208,-55.5555555555556,4,2,1,70,0,1
133429,-76.9230769230769,4,2,3,70,0,1
134421,-76.9230769230769,4,2,2,70,0,1
134532,-66.6666666666667,4,2,1,70,0,1
134862,-66.6666666666667,4,2,1,5,0,1
134973,-90.9090909090909,4,2,1,70,0,1
135193,-90.9090909090909,4,2,2,70,0,1
135414,-90.9090909090909,4,2,1,70,0,1
135635,-90.9090909090909,4,2,2,70,0,1
135855,-90.9090909090909,4,2,1,70,0,1
136075,-90.9090909090909,4,2,2,70,0,1
136296,-66.6666666666667,4,2,1,70,0,1
136626,-66.6666666666667,4,2,1,5,0,1
136738,-66.6666666666667,4,2,1,70,0,1
136958,-66.6666666666667,4,2,3,70,0,1
137179,-90.9090909090909,4,2,3,70,0,1
137399,-90.9090909090909,4,2,2,70,0,1
139826,-90.9090909090909,4,2,1,70,0,1
140046,-90.9090909090909,4,2,2,70,0,1
140487,-90.9090909090909,4,2,3,70,0,1
140929,-90.9090909090909,4,2,2,70,0,1
141149,-90.9090909090909,4,2,1,70,0,1
141370,-90.9090909090909,4,2,2,70,0,1
141811,-90.9090909090909,4,2,3,70,0,1
142032,-90.9090909090909,4,2,1,70,0,1
142252,-90.9090909090909,4,2,3,70,0,1
142473,-90.9090909090909,4,2,1,70,0,1
142693,-90.9090909090909,4,2,3,70,0,1
142914,-90.9090909090909,4,2,1,70,0,1
143135,-90.9090909090909,4,2,3,70,0,1
143245,-90.9090909090909,4,2,1,70,0,1
143355,-55.5555555555556,4,2,1,70,0,1
143685,-55.5555555555556,4,2,1,5,0,1
143796,-66.6666666666667,4,2,1,70,0,1
144017,-90.9090909090909,4,2,3,70,0,1
144127,-90.9090909090909,4,2,2,70,0,1
144238,-66.6666666666667,4,2,2,70,0,1
144679,-66.6666666666667,4,2,1,70,0,1
145009,-66.6666666666667,4,2,1,5,0,1
145120,-76.9230769230769,4,2,1,70,0,1
145340,-76.9230769230769,4,2,2,70,0,1
146885,-55.5555555555556,4,2,1,70,0,1
147215,-55.5555555555556,4,2,1,5,0,1
147326,-55.5555555555556,4,2,1,70,0,1
147546,-76.9230769230769,4,2,3,70,0,1
147656,-76.9230769230769,4,2,2,70,0,1
147988,-76.9230769230769,4,2,3,70,0,1
148649,-76.9230769230769,4,2,1,70,0,1
148979,-76.9230769230769,4,2,1,5,0,1
149090,-90.9090909090909,4,2,1,70,0,1
149310,-90.9090909090909,4,2,2,70,0,1
149532,-90.9090909090909,4,2,1,70,0,1
149752,-90.9090909090909,4,2,2,70,0,1
149973,-55.5555555555556,4,2,1,70,0,1
150303,-55.5555555555556,4,2,1,5,0,1
150414,-55.5555555555556,4,2,1,70,0,1
150635,-55.5555555555556,4,2,3,70,0,1
150855,-55.5555555555556,4,2,1,70,0,1
151076,-55.5555555555556,4,2,3,70,0,1
151186,-55.5555555555556,4,2,2,70,0,1
151296,-90.9090909090909,4,2,2,70,0,1
152179,-66.6666666666667,4,2,2,70,0,1
152840,-90.9090909090909,4,2,2,70,0,1
153943,-66.6666666666667,4,2,1,70,0,1
154163,-66.6666666666667,4,2,2,70,0,1
154605,-90.9090909090909,4,2,3,70,0,1
155046,-90.9090909090909,4,2,2,70,0,1
155267,-66.6666666666667,4,2,3,70,0,1
155597,-66.6666666666667,4,2,3,5,0,1
155708,-90.9090909090909,4,2,3,70,0,1
155928,-90.9090909090909,4,2,2,70,0,1
157032,-90.9090909090909,4,2,1,70,0,1
157252,-90.9090909090909,4,2,2,70,0,1
157473,-62.5,4,2,1,65,0,1
157803,-62.5,4,2,1,5,0,1
157914,-62.5,4,2,1,65,0,1
158135,-90.9090909090909,4,2,3,65,0,1
158245,-90.9090909090909,4,2,2,65,0,1
158796,-90.9090909090909,4,2,1,65,0,1
159016,-90.9090909090909,4,2,2,65,0,1
159237,-62.5,4,2,1,65,0,1
159567,-62.5,4,2,1,5,0,1
159679,-62.5,4,2,1,65,0,1
159899,-90.9090909090909,4,2,3,65,0,1
160009,-90.9090909090909,4,2,2,65,0,1
160781,-90.9090909090909,4,2,3,65,0,1
160892,-90.9090909090909,4,2,2,65,0,1
161002,-90.9090909090909,4,2,1,65,0,1
161222,-90.9090909090909,4,2,3,65,0,1
161443,-90.9090909090909,4,2,1,65,0,1
161664,-90.9090909090909,4,2,3,65,0,1
162326,-90.9090909090909,4,2,1,65,0,1
162546,-90.9090909090909,4,2,2,65,0,1
163870,-90.9090909090909,4,2,3,65,0,1
164090,-90.9090909090909,4,2,1,65,0,1
164311,-90.9090909090909,4,2,3,65,0,1
164532,-90.9090909090909,4,2,1,65,0,1
164752,-90.9090909090909,4,2,3,65,0,1
164973,-90.9090909090909,4,2,1,65,0,1
165193,-90.9090909090909,4,2,3,65,0,1
165855,-90.9090909090909,4,2,1,65,0,1
166075,-90.9090909090909,4,2,2,65,0,1
167399,-90.9090909090909,4,2,3,65,0,1
167730,-90.9090909090909,4,2,2,65,0,1
168061,-66.6666666666667,4,2,1,60,0,0
168391,-66.6666666666667,4,2,1,5,0,0
168502,-66.6666666666667,4,2,1,60,0,0
168723,-76.9230769230769,4,2,3,60,0,0
169164,-76.9230769230769,4,2,2,60,0,0
169385,-76.9230769230769,4,2,1,60,0,0
169605,-76.9230769230769,4,2,3,60,0,0
170046,-76.9230769230769,4,2,2,60,0,0
170708,-76.9230769230769,4,2,1,60,0,0
170818,-76.9230769230769,4,2,2,60,0,0
171149,-76.9230769230769,4,2,1,60,0,0
171369,-76.9230769230769,4,2,2,60,0,0
171590,-62.5,4,2,1,60,0,0
171920,-62.5,4,2,1,5,0,0
172032,-62.5,4,2,1,60,0,0
172252,-76.9230769230769,4,2,3,60,0,0
172693,-76.9230769230769,4,2,2,60,0,0
172914,-76.9230769230769,4,2,1,60,0,0
173135,-76.9230769230769,4,2,3,60,0,0
173576,-76.9230769230769,4,2,2,60,0,0
174237,-76.9230769230769,4,2,3,60,0,0
174457,-76.9230769230769,4,2,2,60,0,0
174679,-66.6666666666667,4,2,1,60,0,0
175009,-66.6666666666667,4,2,1,5,0,0
175120,-76.9230769230769,4,2,1,60,0,0
175450,-76.9230769230769,4,2,1,5,0,0
175561,-76.9230769230769,4,2,1,60,0,0
175782,-76.9230769230769,4,2,3,60,0,0
176223,-76.9230769230769,4,2,2,60,0,0
176443,-76.9230769230769,4,2,1,60,0,0
176664,-76.9230769230769,4,2,3,60,0,0
177105,-76.9230769230769,4,2,2,60,0,0
177767,-76.9230769230769,4,2,1,60,0,0
177987,-76.9230769230769,4,2,2,60,0,0
178208,-76.9230769230769,4,2,1,60,0,0
178429,-76.9230769230769,4,2,2,60,0,0
178649,-76.9230769230769,4,2,1,60,0,0
178979,-76.9230769230769,4,2,1,5,0,0
179090,-76.9230769230769,4,2,1,60,0,0
179311,-76.9230769230769,4,2,3,60,0,0
179421,-76.9230769230769,4,2,2,60,0,0
179973,-76.9230769230769,4,2,1,60,0,0
180193,-76.9230769230769,4,2,3,60,0,0
180634,-76.9230769230769,4,2,2,60,0,0
181296,-76.9230769230769,4,2,1,60,0,0
181406,-76.9230769230769,4,2,2,60,0,0
181737,-76.9230769230769,4,2,1,60,0,0
181957,-76.9230769230769,4,2,2,60,0,0
182179,-62.5,4,2,1,60,0,0
182509,-62.5,4,2,1,5,0,0
182620,-62.5,4,2,1,60,0,0
182840,-62.5,4,2,3,60,0,0
182951,-62.5,4,2,2,60,0,0
183061,-76.9230769230769,4,2,2,60,0,0
183502,-76.9230769230769,4,2,1,60,0,0
183723,-76.9230769230769,4,2,3,60,0,0
184164,-76.9230769230769,4,2,2,60,0,0
184826,-76.9230769230769,4,2,1,60,0,0
185046,-76.9230769230769,4,2,2,60,0,0
185267,-76.9230769230769,4,2,1,60,0,0
185377,-76.9230769230769,4,2,2,60,0,0
185708,-62.5,4,2,1,60,0,0
186038,-62.5,4,2,1,5,0,0
186149,-62.5,4,2,1,60,0,0
186370,-76.9230769230769,4,2,3,60,0,0
186810,-76.9230769230769,4,2,2,60,0,0
187032,-76.9230769230769,4,2,1,60,0,0
187252,-76.9230769230769,4,2,3,60,0,0
187693,-76.9230769230769,4,2,2,60,0,0
188355,-76.9230769230769,4,2,1,60,0,0
189017,-76.9230769230769,4,2,2,60,0,0
189237,-71.4285714285714,4,2,1,60,0,0
189567,-71.4285714285714,4,2,1,5,0,0
189679,-71.4285714285714,4,2,1,60,0,0
189899,-83.3333333333333,4,2,3,60,0,0
190340,-83.3333333333333,4,2,2,60,0,0
190561,-83.3333333333333,4,2,1,60,0,0
190782,-83.3333333333333,4,2,3,60,0,0
191222,-83.3333333333333,4,2,2,60,0,0
192326,-83.3333333333333,4,2,3,60,0,0
192767,-62.5,4,2,1,60,0,0
193097,-62.5,4,2,1,5,0,0
193208,-62.5,4,2,1,60,0,0
193429,-83.3333333333333,4,2,3,60,0,0
193870,-83.3333333333333,4,2,2,60,0,0
194090,-83.3333333333333,4,2,1,60,0,0
194311,-83.3333333333333,4,2,3,60,0,0
194421,-83.3333333333333,4,2,2,60,0,0
194973,-71.4285714285714,4,2,2,60,0,0
196076,-71.4285714285714,4,2,1,60,0,0
196296,-62.5,4,2,1,60,0,0
196626,-62.5,4,2,1,5,0,0
196737,-62.5,4,2,2,60,0,0
196958,-83.3333333333333,4,2,2,60,0,0
198502,-83.3333333333333,4,2,3,60,0,0
199164,-83.3333333333333,4,2,2,60,0,0
199385,-83.3333333333333,4,2,3,60,0,0
199715,-83.3333333333333,4,2,2,60,0,0
199826,-76.9230769230769,4,2,2,60,0,0
200929,-76.9230769230769,4,2,3,60,0,0
201039,-76.9230769230769,4,2,2,60,0,0
201149,-83.3333333333333,4,2,3,60,0,0
201259,-83.3333333333333,4,2,2,60,0,0
201370,-83.3333333333333,4,2,3,60,0,0
201480,-83.3333333333333,4,2,2,60,0,0
201590,-71.4285714285714,4,2,2,60,0,0
201920,-71.4285714285714,4,2,2,5,0,0
202032,-71.4285714285714,4,2,2,60,0,0
202252,-76.9230769230769,4,2,3,60,0,0
202362,-76.9230769230769,4,2,2,60,0,0
202693,-76.9230769230769,4,2,3,60,0,0
202913,-76.9230769230769,4,2,2,60,0,0
203135,-76.9230769230769,4,2,3,60,0,0
203355,-66.6666666666667,4,2,3,60,0,0
203685,-66.6666666666667,4,2,3,5,0,0
203796,-66.6666666666667,4,2,2,60,0,0
204017,-76.9230769230769,4,2,2,60,0,0
204679,-90.9090909090909,4,2,2,60,0,0
205340,-90.9090909090909,4,2,3,60,0,0
205892,-90.9090909090909,4,2,2,60,0,0
206002,-90.9090909090909,4,2,3,60,0,0
206885,-90.9090909090909,4,2,2,60,0,0
207767,-90.9090909090909,4,2,3,60,0,0
207877,-90.9090909090909,4,2,2,60,0,0
207987,-90.9090909090909,4,2,3,60,0,0
208098,-90.9090909090909,4,2,2,60,0,0
208208,-90.9090909090909,4,2,3,60,0,0
208760,-90.9090909090909,4,2,2,60,0,0
208870,-90.9090909090909,4,2,3,60,0,0
208980,-90.9090909090909,4,2,2,60,0,0
209311,-90.9090909090909,4,2,3,60,0,0
209421,-90.9090909090909,4,2,2,60,0,0
209752,-90.9090909090909,4,2,3,60,0,0
209862,-90.9090909090909,4,2,2,60,0,0
209973,-90.9090909090909,4,2,3,60,0,0
210083,-90.9090909090909,4,2,2,60,0,0
210193,-90.9090909090909,4,2,3,60,0,0
210304,-90.9090909090909,4,2,1,60,0,0
210414,-62.5,4,2,3,60,0,0
210744,-62.5,4,2,3,5,0,0
210855,-62.5,4,2,2,60,0,0
211296,-62.5,4,2,3,60,0,0
211737,-83.3333333333333,4,2,3,60,0,0
212068,-83.3333333333333,4,2,2,60,0,0
212179,-83.3333333333333,4,2,3,60,0,0
213281,-83.3333333333333,4,2,2,60,0,0
213502,-83.3333333333333,4,2,3,60,0,0
213943,-83.3333333333333,4,2,2,60,0,0
214164,-83.3333333333333,4,2,3,60,0,0
215266,-83.3333333333333,4,2,2,60,0,0
215487,-83.3333333333333,4,2,3,60,0,0
215598,-83.3333333333333,4,2,2,60,0,0
215708,-83.3333333333333,4,2,3,60,0,0
216590,-71.4285714285714,4,2,3,60,0,0
216920,-71.4285714285714,4,2,3,5,0,0
217032,-71.4285714285714,4,2,3,60,0,0
217473,-62.5,4,2,3,60,0,0
217803,-62.5,4,2,3,5,0,0
217914,-71.4285714285714,4,2,3,60,0,0
218024,-71.4285714285714,4,2,2,60,0,0
218135,-71.4285714285714,4,2,3,60,0,0
218245,-71.4285714285714,4,2,2,60,0,0
218355,-71.4285714285714,4,2,3,60,0,0
218686,-71.4285714285714,4,2,2,60,0,0
218796,-71.4285714285714,4,2,3,60,0,0
219127,-71.4285714285714,4,2,2,60,0,0
219237,-90.9090909090909,4,2,3,60,0,0
219347,-90.9090909090909,4,2,2,60,0,0
219457,-90.9090909090909,4,2,3,60,0,0
220120,-66.6666666666667,4,2,3,60,0,0
220450,-66.6666666666667,4,2,2,60,0,0
220561,-66.6666666666667,4,2,3,60,0,0
220782,-90.9090909090909,4,2,3,60,0,0
220892,-90.9090909090909,4,2,2,60,0,0
221223,-90.9090909090909,4,2,3,60,0,0
221774,-90.9090909090909,4,2,2,60,0,0
221885,-66.6666666666667,4,2,3,60,0,0
222215,-66.6666666666667,4,2,2,60,0,0
222326,-66.6666666666667,4,2,3,60,0,0
222436,-66.6666666666667,4,2,2,60,0,0
222546,-66.6666666666667,4,2,3,60,0,0
222657,-66.6666666666667,4,2,2,60,0,0
222767,-66.6666666666667,4,2,3,60,0,0
222987,-90.9090909090909,4,2,3,60,0,0
223097,-90.9090909090909,4,2,2,60,0,0
223208,-90.9090909090909,4,2,3,60,0,0
223429,-90.9090909090909,4,2,4,60,0,0
223649,-90.9090909090909,4,2,1,60,0,0
223760,-90.9090909090909,4,2,4,60,0,0
223870,-90.9090909090909,4,2,2,60,0,0
223980,-90.9090909090909,4,2,4,60,0,0
224090,-90.9090909090909,4,2,5,60,0,0
224200,-90.9090909090909,4,2,2,60,0,0
224311,-90.9090909090909,4,2,4,60,0,0
224532,-55.5555555555556,4,2,3,70,0,1
224862,-55.5555555555556,4,2,3,5,0,1
224973,-66.6666666666667,4,2,3,70,0,1
225193,-90.9090909090909,4,2,3,70,0,1
225303,-90.9090909090909,4,2,2,70,0,1
225414,-66.6666666666667,4,2,2,70,0,1
225855,-66.6666666666667,4,2,1,70,0,1
226185,-66.6666666666667,4,2,2,70,0,1
226296,-76.9230769230769,4,2,2,70,0,1
228061,-55.5555555555556,4,2,1,70,0,1
228391,-55.5555555555556,4,2,1,5,0,1
228502,-55.5555555555556,4,2,1,70,0,1
228723,-76.9230769230769,4,2,3,70,0,1
228833,-76.9230769230769,4,2,2,70,0,1
229164,-76.9230769230769,4,2,3,70,0,1
229715,-76.9230769230769,4,2,2,70,0,1
229826,-62.5,4,2,1,70,0,1
230156,-62.5,4,2,1,5,0,1
230267,-90.9090909090909,4,2,1,70,0,1
230487,-90.9090909090909,4,2,2,70,0,1
230708,-90.9090909090909,4,2,1,70,0,1
230928,-90.9090909090909,4,2,2,70,0,1
231149,-76.9230769230769,4,2,1,70,0,1
231479,-76.9230769230769,4,2,1,5,0,1
231590,-66.6666666666667,4,2,1,70,0,1
231920,-66.6666666666667,4,2,1,5,0,1
232032,-66.6666666666667,4,2,1,70,0,1
232252,-66.6666666666667,4,2,3,70,0,1
232362,-66.6666666666667,4,2,2,70,0,1
232473,-90.9090909090909,4,2,2,70,0,1
235120,-90.9090909090909,4,2,1,70,0,1
235340,-90.9090909090909,4,2,2,70,0,1
235781,-90.9090909090909,4,2,3,70,0,1
236223,-90.9090909090909,4,2,2,70,0,1
236443,-90.9090909090909,4,2,1,70,0,1
236664,-90.9090909090909,4,2,2,70,0,1
237105,-90.9090909090909,4,2,3,70,0,1
237767,-90.9090909090909,4,2,1,70,0,1
237987,-90.9090909090909,4,2,3,70,0,1
238208,-90.9090909090909,4,2,1,70,0,1
238429,-90.9090909090909,4,2,3,70,0,1
238539,-90.9090909090909,4,2,1,70,0,1
238649,-55.5555555555556,4,2,1,70,0,1
238979,-55.5555555555556,4,2,1,5,0,1
239090,-66.6666666666667,4,2,1,70,0,1
239311,-90.9090909090909,4,2,3,70,0,1
239421,-90.9090909090909,4,2,2,70,0,1
239532,-66.6666666666667,4,2,2,70,0,1
239973,-66.6666666666667,4,2,1,70,0,1
240303,-66.6666666666667,4,2,1,5,0,1
240414,-76.9230769230769,4,2,1,70,0,1
240634,-76.9230769230769,4,2,2,70,0,1
241296,-90.9090909090909,4,2,2,70,0,1
242179,-55.5555555555556,4,2,1,70,0,1
242509,-55.5555555555556,4,2,1,5,0,1
242620,-55.5555555555556,4,2,1,70,0,1
242840,-55.5555555555556,4,2,3,70,0,1
242951,-55.5555555555556,4,2,2,70,0,1
243282,-76.9230769230769,4,2,3,70,0,1
244273,-76.9230769230769,4,2,3,5,0,1
244385,-90.9090909090909,4,2,1,70,0,1
244605,-90.9090909090909,4,2,2,70,0,1
244826,-90.9090909090909,4,2,1,70,0,1
245046,-90.9090909090909,4,2,2,70,0,1
245267,-55.5555555555556,4,2,1,70,0,1
245597,-55.5555555555556,4,2,1,5,0,1
245708,-66.6666666666667,4,2,1,70,0,1
245928,-66.6666666666667,4,2,3,70,0,1
246149,-66.6666666666667,4,2,1,70,0,1
246370,-66.6666666666667,4,2,3,70,0,1
246480,-66.6666666666667,4,2,2,70,0,1
246590,-90.9090909090909,4,2,2,70,0,1
247473,-66.6666666666667,4,2,2,70,0,1
247803,-66.6666666666667,4,2,2,5,0,1
247914,-66.6666666666667,4,2,2,70,0,1
248135,-90.9090909090909,4,2,2,70,0,1
249237,-62.5,4,2,1,70,0,1
249567,-62.5,4,2,2,70,0,1
249899,-90.9090909090909,4,2,3,70,0,1
250340,-90.9090909090909,4,2,2,70,0,1
250561,-66.6666666666667,4,2,3,70,0,1
250891,-66.6666666666667,4,2,3,5,0,1
251002,-90.9090909090909,4,2,3,70,0,1
251222,-90.9090909090909,4,2,2,70,0,1
252326,-90.9090909090909,4,2,3,70,0,1
252546,-90.9090909090909,4,2,2,70,0,1
252767,-62.5,4,2,1,65,0,1
253097,-62.5,4,2,1,5,0,1
253208,-62.5,4,2,1,65,0,1
253429,-90.9090909090909,4,2,3,65,0,1
253539,-90.9090909090909,4,2,2,65,0,1
254090,-90.9090909090909,4,2,1,65,0,1
254310,-90.9090909090909,4,2,2,65,0,1
254532,-62.5,4,2,1,65,0,1
254862,-62.5,4,2,1,5,0,1
254973,-62.5,4,2,1,65,0,1
255193,-90.9090909090909,4,2,3,65,0,1
255303,-90.9090909090909,4,2,2,65,0,1
256075,-90.9090909090909,4,2,3,65,0,1
256296,-90.9090909090909,4,2,1,65,0,1
256517,-90.9090909090909,4,2,3,65,0,1
256737,-90.9090909090909,4,2,1,65,0,1
256958,-90.9090909090909,4,2,3,65,0,1
257620,-90.9090909090909,4,2,1,65,0,1
257840,-90.9090909090909,4,2,2,65,0,1
259164,-90.9090909090909,4,2,3,65,0,1
259385,-90.9090909090909,4,2,1,65,0,1
259605,-90.9090909090909,4,2,3,65,0,1
259826,-90.9090909090909,4,2,1,65,0,1
260046,-90.9090909090909,4,2,3,65,0,1
260267,-90.9090909090909,4,2,1,65,0,1
260487,-90.9090909090909,4,2,3,65,0,1
261149,-90.9090909090909,4,2,1,65,0,1
261369,-90.9090909090909,4,2,2,65,0,1
262693,-90.9090909090909,4,2,3,65,0,1
263024,-90.9090909090909,4,2,2,65,0,1
263135,-90.9090909090909,4,2,2,60,0,0
263355,-76.9230769230769,4,2,1,60,0,0
263685,-76.9230769230769,4,2,1,5,0,0
263796,-76.9230769230769,4,2,1,60,0,0
264017,-90.9090909090909,4,2,2,60,0,0
264679,-90.9090909090909,4,2,1,60,0,0
264899,-90.9090909090909,4,2,2,60,0,0
265561,-90.9090909090909,4,2,1,60,0,0
265781,-90.9090909090909,4,2,2,60,0,0
266002,-90.9090909090909,4,2,1,60,0,0
266222,-90.9090909090909,4,2,2,60,0,0
266443,-76.9230769230769,4,2,1,60,0,0
266663,-76.9230769230769,4,2,2,60,0,0
266885,-66.6666666666667,4,2,1,60,0,0
267215,-66.6666666666667,4,2,1,5,0,0
267326,-66.6666666666667,4,2,1,60,0,0
267546,-90.9090909090909,4,2,3,60,0,0
267987,-90.9090909090909,4,2,2,60,0,0
268208,-90.9090909090909,4,2,1,60,0,0
268428,-90.9090909090909,4,2,2,60,0,0
270193,-90.9090909090909,4,2,3,60,0,0
270414,-66.6666666666667,4,2,3,60,0,0
270744,-66.6666666666667,4,2,3,5,0,0
270855,-66.6666666666667,4,2,3,60,0,0
271076,-90.9090909090909,4,2,3,60,0,0
271517,-90.9090909090909,4,2,2,60,0,0
271737,-90.9090909090909,4,2,3,60,0,0
271847,-90.9090909090909,4,2,2,60,0,0
272399,-90.9090909090909,4,2,3,60,0,0
272510,-90.9090909090909,4,2,2,60,0,0
273061,-90.9090909090909,4,2,3,60,0,0
273171,-90.9090909090909,4,2,2,60,0,0
273502,-90.9090909090909,4,2,3,60,0,0
273612,-90.9090909090909,4,2,2,60,0,0
273943,-166.666666666667,4,2,1,60,0,0
281001,-166.666666666667,4,2,1,5,0,0

[Colours]
Combo1 : 149,219,125
Combo2 : 218,184,112

[HitObjects]
104,312,637,5,2,2:0:0:0:
132,291,857,1,2,2:0:0:0:
151,252,1078,1,2,2:0:0:0:
123,170,1299,6,0,L|53:183,2,70.42816,2|0|0,2:0|2:0|2:0,2:0:0:0:
184,72,1960,2,0,P|238:113|305:101,1,140.85632,2|2,2:0|2:0,2:0:0:0:
458,19,2622,2,0,B|409:12|409:12|390:101,1,140.85632,2|0,2:0|2:0,2:0:0:0:
488,264,3284,6,0,B|424:225|424:225|353:257|353:257|350:323|271:374|205:352,1,352.300373333333,2|0,2:0|2:0,2:0:0:0:
123,170,4607,1,10,2:0:0:0:
13,288,4828,2,0,B|35:262|35:231|35:231|46:260|77:271,1,123.528529573567,10|10,2:0|2:0,2:0:0:0:
104,360,5159,1,10,2:0:0:0:
104,360,5269,6,0,B|205:329|149:284|255:263,1,185.292794360352,6|0,3:2|2:0,2:0:0:0:
328,312,5710,1,10,2:0:0:0:
488,80,5931,1,2,2:0:0:0:
488,80,6041,1,2,2:0:0:0:
488,80,6151,2,0,P|436:75|390:100,1,105.881596777344,0|2,3:2|2:0,2:0:0:0:
123,170,6593,6,0,B|100:49|100:49|147:88,1,185.292794360352,10|2,2:0|2:0,2:0:0:0:
147,88,7034,2,0,L|94:80,1,52.9407983886719,2|0,3:2|2:0,2:0:0:0:
39,252,7254,2,0,L|143:266,1,105.881596777344,2|8,2:0|2:0,2:0:0:0:
320,364,7696,2,0,L|327:311,1,52.9407983886719,2|0,2:0|2:0,2:0:0:0:
299,163,7916,1,10,3:2:0:0:
319,129,8026,1,8,2:0:0:0:
352,107,8137,1,8,2:0:0:0:
390,100,8247,1,8,2:0:0:0:
428,109,8357,6,0,B|455:230|455:230|439:204|411:189,1,185.292794360352,14|0,3:2|2:0,2:0:0:0:
411,189,8798,1,10,2:0:0:0:
231,335,9018,1,2,2:0:0:0:
231,335,9129,1,2,2:0:0:0:
231,335,9239,2,0,P|275:307|326:311,1,105.881596777344,0|2,3:0|2:0,2:0:0:0:
399,370,9570,1,2,2:0:0:0:
399,370,9680,2,0,L|450:356,2,52.9407983886719,8|0|2,2:0|2:0|2:0,2:0:0:0:
411,189,10011,5,2,2:0:0:0:
407,196,10121,2,0,L|304:223,1,105.881596777344,0|2,3:0|2:0,2:0:0:0:
96,100,10562,2,0,P|132:64|183:63,1,105.881596777344,8|2,2:0|2:0,2:0:0:0:
246,114,10893,1,2,2:0:0:0:
256,110,11004,2,0,L|268:58,2,52.9407983886719,0|2|2,3:0|2:0|2:0,2:0:0:0:
72,193,11445,2,0,L|97:295,1,105.881596777344,10|2,2:0|2:0,2:0:0:0:
0,335,11776,5,2,2:0:0:0:
6,328,11886,2,0,B|125:305|78:397|206:368,1,211.7632,6|0,3:2|2:0,2:0:0:0:
256,304,12327,1,10,2:0:0:0:
456,121,12548,5,2,2:0:0:0:
456,121,12658,1,2,2:0:0:0:
456,121,12768,2,0,L|351:106,1,105.881596777344,0|0,3:0|3:0,2:0:0:0:
272,151,13099,1,0,3:0:0:0:
256,142,13209,2,0,L|248:89,1,52.9407983886719,8|0,2:0|2:0,2:0:0:0:
232,8,13430,5,0,3:0:0:0:
232,8,13540,1,8,2:0:0:0:
232,8,13651,1,0,3:0:0:0:
123,183,13871,2,0,L|71:192,1,52.9407983886719,0|0,3:0|3:0,2:0:0:0:
10,281,14092,2,0,P|62:280|105:308,1,105.881596777344,8|8,2:0|2:0,2:0:0:0:
180,373,14423,1,8,2:0:0:0:
180,373,14533,1,0,3:0:0:0:
180,373,14643,2,0,P|201:324|193:273,1,105.881596777344,8|8,2:0|2:0,2:0:0:0:
256,192,14974,5,8,2:0:0:0:
294,199,15084,1,8,2:0:0:0:
333,207,15195,1,8,2:0:0:0:
372,215,15305,1,8,2:0:0:0:
411,223,15415,6,0,L|480:206,1,70.5877333333333,6|2,3:2|2:0,2:0:0:0:
505,305,15856,2,0,L|436:322,1,70.5877333333333,2|2,3:2|2:0,2:0:0:0:
436,321,16187,1,2,2:0:0:0:
436,321,16298,1,2,3:2:0:0:
333,207,16518,2,0,P|298:206|268:224,1,70.5877333333333,2|2,2:0|3:2,2:0:0:0:
180,373,16959,5,2,2:0:0:0:
175,363,17070,1,2,2:0:0:0:
170,351,17180,2,0,L|186:282,1,70.5877333333333,2|2,3:2|2:0,2:0:0:0:
111,163,17621,2,0,L|94:231,1,70.5877333333333,2|2,3:2|2:0,2:0:0:0:
31,101,18062,5,2,3:2:0:0:
142,68,18283,1,2,2:0:0:0:
216,168,18504,2,0,L|250:161,2,35.2938666666666,2|2|2,3:2|2:0|2:0,2:0:0:0:
288,48,18945,5,2,3:2:0:0:
346,109,19165,2,0,P|350:144|336:176,1,70.5877333333333,2|0,2:0|3:0,2:0:0:0:
392,248,19606,2,0,L|426:240,2,35.2938666666666,2|2|2,2:0|2:0|3:2,2:0:0:0:
328,320,20048,2,0,P|293:311|259:302,1,70.5877333333333,2|0,2:0|3:0,2:0:0:0:
147,185,20489,5,2,2:0:0:0:
147,185,20599,1,2,2:0:0:0:
147,185,20709,2,0,P|181:176|215:167,1,70.5877333333333,2|2,3:2|2:0,2:0:0:0:
112,296,21151,2,0,P|77:287|43:278,1,70.5877333333333,2|2,3:2|2:0,2:0:0:0:
8,112,21592,2,0,P|42:120|76:129,1,70.5877333333333,2|2,3:2|2:0,2:0:0:0:
223,13,22033,2,0,P|205:17|188:21,3,35.2938666666666,2|2|2|2,3:2|2:0|2:0|2:0,2:0:0:0:
159,33,22474,5,2,3:2:0:0:
159,33,22584,1,2,2:0:0:0:
159,33,22695,1,2,2:0:0:0:
214,167,22915,2,0,P|229:135|227:100,1,70.5877333333333,2|2,3:2|2:0,2:0:0:0:
227,100,23246,1,2,2:0:0:0:
227,100,23356,2,0,L|295:85,1,70.5877333333333,2|2,3:2|2:0,2:0:0:0:
358,29,23798,1,2,3:2:0:0:
494,163,24018,5,2,2:0:0:0:
494,163,24129,1,2,2:0:0:0:
494,163,24239,1,2,3:2:0:0:
388,142,24459,1,2,2:0:0:0:
335,239,24680,2,0,L|350:307,1,70.5877333333333,2|2,3:2|2:0,2:0:0:0:
256,376,25121,5,2,3:2:0:0:
211,284,25342,1,2,2:0:0:0:
112,325,25562,2,0,L|77:331,2,35.2938666666666,2|2|2,3:2|2:0|2:0,2:0:0:0:
0,239,26004,5,2,3:2:0:0:
107,157,26224,2,0,L|95:227,1,70.5877333333333,2|0,2:0|3:0,2:0:0:0:
208,115,26665,5,2,2:0:0:0:
208,115,26776,1,2,2:0:0:0:
208,115,26886,1,2,3:2:0:0:
122,54,27106,2,0,L|52:66,1,70.5877333333333,2|0,2:0|3:0,2:0:0:0:
224,203,27548,5,2,2:0:0:0:
232,211,27658,1,2,2:0:0:0:
232,211,27768,1,2,3:2:0:0:
414,140,27989,1,10,2:0:0:0:
268,19,28209,1,10,3:2:0:0:
344,224,28430,6,0,L|335:258,1,35.2938666666666,8|8,2:0|2:0,2:0:0:0:
416,336,28651,1,0,3:0:0:0:
408,320,28761,2,0,L|416:285,1,35.2938666666666,8|8,2:0|2:0,2:0:0:0:
304,376,28981,1,0,3:0:0:0:
277,353,29092,1,2,3:2:0:0:
243,345,29202,1,8,2:0:0:0:
209,353,29312,1,8,2:0:0:0:
0,239,29533,6,0,B|88:226|54:293|146:276,1,158.822395166016,6|0,3:2|2:0,2:0:0:0:
176,256,29974,1,10,2:0:0:0:
148,106,30195,6,0,P|133:142|124:181,1,79.4111975830078,2|0,2:0|3:0,2:0:0:0:
99,35,30636,1,2,2:0:0:0:
233,76,30856,2,0,L|309:55,1,79.4111975830078,10|2,2:0|2:0,2:0:0:0:
427,86,31187,5,2,2:0:0:0:
426,97,31298,2,0,P|379:156|303:151,1,158.822395166016,2|0,3:2|2:0,2:0:0:0:
233,76,31739,1,10,2:0:0:0:
124,181,31959,2,0,L|142:258,1,79.4111975830078,2|0,2:0|3:0,2:0:0:0:
79,355,32401,1,2,2:0:0:0:
240,376,32621,1,10,2:0:0:0:
264,359,32731,1,2,2:0:0:0:
280,334,32842,1,2,2:0:0:0:
284,305,32952,1,2,2:0:0:0:
277,277,33062,5,2,3:2:0:0:
391,309,33283,1,2,2:0:0:0:
423,195,33504,1,10,2:0:0:0:
309,163,33724,2,0,L|295:84,1,79.4111975830078,2|0,2:0|3:0,2:0:0:0:
416,0,34165,2,0,L|402:78,1,79.4111975830078,2|8,2:0|2:0,2:0:0:0:
224,168,34606,5,2,2:0:0:0:
214,156,34717,1,2,2:0:0:0:
205,147,34827,2,0,L|126:160,1,79.4111975830078,0|2,3:0|2:0,2:0:0:0:
0,351,35268,2,0,P|57:354|101:316,1,119.116796374512,8|0,2:0|2:0,2:0:0:0:
96,280,35709,2,0,L|174:293,1,79.4111975830078,0|2,3:0|2:0,2:0:0:0:
270,169,36151,2,0,L|309:163,2,39.7055987915039,10|2|2,2:0|2:0|2:0,2:0:0:0:
488,312,36592,6,0,B|410:293|417:358|337:340,1,158.822395166016,6|0,3:2|2:0,2:0:0:0:
304,312,37033,1,10,2:0:0:0:
371,111,37254,2,0,P|390:144|389:183,1,79.4111975830078,2|0,2:0|3:0,2:0:0:0:
162,154,37695,5,2,2:0:0:0:
283,56,37915,1,10,2:0:0:0:
131,18,38136,5,2,2:0:0:0:
131,18,38246,1,2,2:0:0:0:
131,18,38356,1,2,3:2:0:0:
259,143,38577,1,2,2:0:0:0:
68,204,38798,1,10,2:0:0:0:
198,258,39018,6,0,P|144:202|67:204,1,158.463355166016,2|2,2:0|2:0,2:0:0:0:
152,367,39680,1,10,2:0:0:0:
180,360,39790,1,0,2:0:0:0:
209,353,39901,1,2,2:0:0:0:
238,347,40011,1,0,2:0:0:0:
267,340,40121,6,0,B|329:349|329:349|352:377|352:377|411:383,1,158.822395166016,6|0,3:2|2:0,2:0:0:0:
411,383,40562,1,10,2:0:0:0:
496,280,40783,2,0,P|476:283|457:288,2,39.7055987915039,2|2|0,2:0|2:0|3:0,2:0:0:0:
352,208,41224,1,2,2:0:0:0:
352,208,41334,1,2,2:0:0:0:
352,208,41445,2,0,P|371:211|390:216,1,39.7055987915039,8|0,2:0|2:0,2:0:0:0:
256,24,41665,5,2,2:0:0:0:
253,35,41776,1,0,2:0:0:0:
249,48,41886,2,0,L|304:35,1,57.3525307149252,2|0,3:2|2:0,2:0:0:0:
440,128,42106,2,0,L|384:115,1,57.3525307149252,10|0,2:0|2:0,2:0:0:0:
254,284,42327,2,0,L|266:339,1,57.3525307149252,8|0,2:0|2:0,2:0:0:0:
352,208,42548,1,2,3:2:0:0:
352,208,42658,1,0,3:0:0:0:
352,208,42768,2,0,B|317:162|317:162|265:184,1,114.705061429851,8|2,2:0|3:2,2:0:0:0:
181,283,43099,5,8,2:0:0:0:
198,296,43209,2,0,L|253:283,1,57.3525307149252,10|0,2:0|2:0,2:0:0:0:
170,107,43430,5,10,2:0:0:0:
182,132,43540,1,8,2:0:0:0:
162,154,43651,2,0,P|129:149|96:143,1,66.1760025177003,0|0,3:0|0:0,2:0:0:0:
14,88,43871,5,8,2:0:0:0:
104,232,44092,1,8,2:0:0:0:
248,40,44312,1,8,2:0:0:0:
254,55,44423,1,8,2:0:0:0:
250,73,44533,5,0,3:0:0:0:
294,51,44643,1,0,3:0:0:0:
347,54,44754,1,0,3:0:0:0:
389,84,44864,1,0,3:0:0:0:
416,128,44974,1,8,2:0:0:0:
464,144,45084,1,8,2:0:0:0:
505,133,45195,1,8,2:0:0:0:
512,140,45636,5,2,2:0:0:0:
512,140,45746,1,2,2:0:0:0:
512,140,45856,2,0,B|377:114|426:215|290:189,1,238.233592749024,6|0,3:2|2:0,2:0:0:0:
168,136,46297,2,0,B|155:109|155:109|184:129,1,66.1760025177003,8|0,2:0|2:0,2:0:0:0:
104,232,46517,2,0,L|56:224,1,48.5290681437174,2|2,2:0|2:0,2:0:0:0:
80,368,46738,2,0,P|127:324|191:326,1,132.352005035401,0|2,3:0|2:0,2:0:0:0:
450,154,47179,6,0,B|430:122|383:114|348:136|348:136|341:165|317:187|289:188,1,198.528007553101,10|0,2:0|2:0,2:0:0:0:
194,237,47620,2,0,P|161:191|167:135,1,114.705061429851,0|2,3:0|2:0,2:0:0:0:
267,69,48061,1,8,2:0:0:0:
116,22,48282,1,2,2:0:0:0:
116,22,48392,1,2,2:0:0:0:
116,22,48503,2,0,L|58:34,2,57.3525307149252,0|2|2,3:0|2:0|2:0,2:0:0:0:
120,224,48944,2,0,P|63:214|7:205,1,114.705061429851,8|2,2:0|2:0,2:0:0:0:
224,384,49385,6,0,B|232:328|280:296|328:296|328:296|360:336|408:328,1,238.233592749024,2|0,3:2|2:0,2:0:0:0:
424,320,49826,1,10,2:0:0:0:
383,175,50047,2,0,L|392:231,2,57.3525307149252,2|2|0,2:0|2:0|3:0,2:0:0:0:
457,11,50488,2,0,B|486:35|486:35|471:110,1,114.705061429851,2|8,2:0|2:0,2:0:0:0:
393,232,50929,1,2,2:0:0:0:
232,112,51150,6,0,B|205:68|223:22|272:8|272:8|306:27,1,172.057592144776,2|0,3:2|2:0,2:0:0:0:
268,189,51591,2,0,P|221:199|178:178,1,97.058136287435,10|2,2:0|2:0,2:0:0:0:
94,111,51922,1,2,2:0:0:0:
103,121,52032,2,0,L|8:143,1,97.058136287435,2|2,3:2|2:0,2:0:0:0:
39,345,52473,2,0,L|134:323,1,97.058136287435,10|2,2:0|2:0,2:0:0:0:
319,114,52914,6,0,B|319:146|337:180|337:180|316:196|306:226|306:226|327:258|322:296,1,198.528007553101,6|0,3:2|2:0,2:0:0:0:
323,296,53355,1,10,2:0:0:0:
488,260,53576,1,2,2:0:0:0:
488,260,53686,1,2,2:0:0:0:
488,260,53797,2,0,P|450:231|404:239,1,97.058136287435,0|2,3:0|2:0,2:0:0:0:
327,300,54128,1,2,2:0:0:0:
323,296,54238,2,0,L|275:288,2,48.5290681437174,8|2|2,2:0|2:0|2:0,2:0:0:0:
120,207,54679,6,0,B|92:171|92:171|102:120,1,97.058136287435,0|2,3:0|2:0,2:0:0:0:
210,40,55010,1,2,2:0:0:0:
216,49,55120,2,0,L|198:144,1,97.058136287435,8|2,2:0|2:0,2:0:0:0:
166,347,55561,5,0,3:0:0:0:
101,120,55782,1,2,2:0:0:0:
242,234,56003,1,8,2:0:0:0:
46,294,56223,1,2,2:0:0:0:
257,228,56444,6,0,P|304:240|351:254,1,97.058136287435,2|2,3:2|2:0,2:0:0:0:
400,325,56775,1,2,2:0:0:0:
411,322,56885,2,0,P|438:283|436:235,1,97.058136287435,8|2,2:0|2:0,2:0:0:0:
289,118,57326,5,0,3:0:0:0:
476,165,57547,1,2,2:0:0:0:
271,114,57767,1,10,2:0:0:0:
399,4,57988,1,2,2:0:0:0:
336,213,58208,5,0,3:0:0:0:
343,233,58319,1,8,2:0:0:0:
350,253,58429,1,10,2:0:0:0:
286,384,58650,1,10,2:0:0:0:
180,277,58870,5,2,2:0:0:0:
187,257,58980,1,8,2:0:0:0:
194,237,59091,2,0,L|241:226,1,48.5290681437174,2|8,3:2|2:0,2:0:0:0:
318,103,59311,2,0,L|270:113,1,48.5290681437174,10|0,2:0|2:0,2:0:0:0:
110,291,59532,5,10,2:0:0:0:
64,278,59642,1,10,2:0:0:0:
32,243,59753,1,10,2:0:0:0:
23,196,59863,1,10,2:0:0:0:
40,151,59973,6,0,B|96:118|152:164|152:164|171:225|240:225,1,238.233592749024,6|0,3:2|2:0,2:0:0:0:
327,107,60414,2,0,P|332:83|317:102,1,66.1760025177003,8|0,2:0|2:0,2:0:0:0:
392,184,60635,2,0,L|438:170,1,48.5290681437174,2|2,2:0|2:0,2:0:0:0:
496,312,60855,2,0,P|441:277|376:286,1,132.352005035401,0|2,3:0|2:0,2:0:0:0:
222,331,61297,6,0,B|168:346|168:346|137:320|137:320|172:328,1,132.352005035401,10|2,2:0|2:0,2:0:0:0:
79,384,61628,1,2,2:0:0:0:
78,383,61738,2,0,P|53:332|63:277,1,114.705061429851,0|2,3:0|2:0,2:0:0:0:
228,188,62179,1,8,2:0:0:0:
110,87,62400,1,2,2:0:0:0:
104,96,62510,1,2,2:0:0:0:
96,104,62620,2,0,L|39:92,2,57.3525307149252,0|2|2,3:0|2:0|2:0,2:0:0:0:
171,327,63061,2,0,B|210:288|210:288|267:306,1,114.705061429851,8|2,2:0|2:0,2:0:0:0:
497,115,63503,6,0,B|480:64|410:47|370:85|370:85|352:126|305:129,1,238.233592749024,2|0,3:2|2:0,2:0:0:0:
270,112,63944,1,10,2:0:0:0:
80,29,64164,5,2,2:0:0:0:
80,29,64275,1,2,2:0:0:0:
80,29,64385,1,0,3:0:0:0:
20,159,64605,2,0,B|37:190|37:190|113:206,1,114.705061429851,2|8,2:0|2:0,2:0:0:0:
154,94,65047,2,0,L|98:107,1,57.3525307149252,2|2,2:0|2:0,2:0:0:0:
66,305,65267,6,0,P|125:246|208:248,1,172.057592144776,2|0,3:2|2:0,2:0:0:0:
264,320,65708,2,0,L|357:294,1,97.058136287435,10|2,2:0|2:0,2:0:0:0:
494,136,66150,2,0,B|451:151|451:151|408:121,1,97.058136287435,2|2,3:2|2:0,2:0:0:0:
270,33,66480,5,2,2:0:0:0:
290,20,66591,2,0,B|337:31|337:31|392:72|380:158|301:175,1,238.233592749024,10|0,2:0|2:0,2:0:0:0:
330,257,67032,6,0,P|279:216|214:218,1,132.352005035401,6|2,3:2|2:0,2:0:0:0:
137,313,67473,1,10,2:0:0:0:
15,191,67694,1,2,2:0:0:0:
6,213,67804,1,2,2:0:0:0:
19,229,67914,2,0,P|69:217|113:206,1,97.058136287435,0|2,3:0|2:0,2:0:0:0:
291,96,68355,1,8,2:0:0:0:
152,15,68576,2,0,L|143:62,1,48.5290681437174,2|2,2:0|2:0,2:0:0:0:
232,216,68797,6,0,P|296:146|391:160,1,198.528007553101,0|0,3:0|2:0,2:0:0:0:
448,240,69238,1,8,2:0:0:0:
448,240,69458,2,0,L|495:228,2,48.5290681437174,2|2|0,2:0|2:0|3:0,2:0:0:0:
416,369,69900,1,2,2:0:0:0:
329,238,70120,2,0,L|310:333,1,97.058136287435,8|2,2:0|2:0,2:0:0:0:
200,366,70561,6,0,B|161:340|161:340|80:366,1,132.352005035401,2|2,3:2|2:0,2:0:0:0:
41,279,70892,1,2,2:0:0:0:
32,293,71003,2,0,L|78:278,1,48.5290681437174,10|2,2:0|2:0,2:0:0:0:
216,178,71223,5,2,2:0:0:0:
144,16,71444,2,0,P|129:62|140:109,1,97.058136287435,0|2,3:0|2:0,2:0:0:0:
23,145,71775,5,2,2:0:0:0:
32,137,71885,2,0,B|143:119|97:202|216:179,1,198.528007553101,10|0,2:0|2:0,2:0:0:0:
304,208,72326,6,0,P|327:166|323:118,1,97.058136287435,0|2,3:0|2:0,2:0:0:0:
256,72,72657,1,2,2:0:0:0:
256,72,72767,1,10,2:0:0:0:
416,104,72988,2,0,L|462:90,2,48.5290681437174,2|2|2,2:0|2:0|3:2,2:0:0:0:
400,248,73429,1,8,2:0:0:0:
352,32,73650,1,10,2:0:0:0:
512,164,73870,1,10,2:0:0:0:
312,344,74091,6,0,B|289:298|239:286|197:311|197:311|183:351|143:359,1,211.7632,6|0,3:2|2:0,2:0:0:0:
69,326,74532,1,10,2:0:0:0:
69,326,74753,2,0,L|78:278,2,48.5290681437174,2|2|2,2:0|2:0|3:2,2:0:0:0:
11,177,75194,1,2,2:0:0:0:
191,204,75414,2,0,L|284:179,1,97.058136287435,10|2,2:0|2:0,2:0:0:0:
478,182,75745,5,2,2:0:0:0:
466,171,75855,2,0,B|426:154|383:166|360:207|360:207|357:234|332:262|301:263,1,211.7632,2|0,3:2|2:0,2:0:0:0:
248,328,76297,1,10,2:0:0:0:
248,328,76517,2,0,L|258:375,2,48.5290681437174,2|2|2,2:0|2:0|3:2,2:0:0:0:
72,277,76958,1,2,2:0:0:0:
214,172,77179,1,8,2:0:0:0:
177,384,77400,5,2,2:0:0:0:
177,384,77510,1,2,2:0:0:0:
177,384,77620,2,0,P|136:358|90:366,1,97.058136287435,6|2,3:2|2:0,2:0:0:0:
18,213,78061,1,10,2:0:0:0:
90,365,78282,2,0,B|115:370|131:384|131:384|188:374|212:322|188:271,1,193.677445908203,2|2,2:0|2:0,2:0:0:0:
85,142,78944,2,0,B|118:179|118:179|163:165,1,97.058136287435,10|2,2:0|2:0,2:0:0:0:
377,65,79385,5,0,3:0:0:0:
185,35,79605,1,2,2:0:0:0:
259,198,79826,1,8,2:0:0:0:
259,198,80047,2,0,L|250:247,2,48.5290681437174,2|2|2,2:0|2:0|3:2,2:0:0:0:
293,11,80488,5,2,2:0:0:0:
474,160,80708,1,10,2:0:0:0:
250,245,80929,1,2,2:0:0:0:
416,384,81150,6,0,P|455:356|502:356,1,97.058136287435,6|2,3:2|2:0,2:0:0:0:
384,200,81591,1,10,2:0:0:0:
502,356,81811,2,0,B|399:348|448:276|329:291,1,193.677445908203,2|2,2:0|2:0,2:0:0:0:
175,360,82473,2,0,P|128:360|90:331,1,97.058136287435,10|2,2:0|2:0,2:0:0:0:
162,225,82804,1,8,2:0:0:0:
169,235,82914,2,0,L|156:281,1,48.5290681437174,0|0,3:0|2:0,2:0:0:0:
31,182,83135,2,0,L|43:228,1,48.5290681437174,2|0,2:0|2:0,2:0:0:0:
120,141,83355,6,0,L|144:47,1,97.058136287435,8|10,2:0|2:0,2:0:0:0:
144,47,83686,1,8,2:0:0:0:
144,47,83797,2,0,L|97:59,1,48.5290681437174,0|8,3:0|2:0,2:0:0:0:
43,228,84017,5,10,2:0:0:0:
84,215,84128,1,8,2:0:0:0:
126,226,84238,1,10,2:0:0:0:
159,254,84348,1,10,2:0:0:0:
191,282,84458,1,10,2:0:0:0:
233,292,84569,1,10,2:0:0:0:
274,280,84679,6,0,P|289:196|304:112,1,172.057592144776,6|0,3:2|2:0,2:0:0:0:
280,72,85120,1,8,2:0:0:0:
496,144,85341,6,0,B|391:122|425:211|319:195,1,193.677445908203,2|2,2:0|2:0,2:0:0:0:
152,96,86003,6,0,P|114:66|66:62,1,97.058136287435,8|2,2:0|2:0,2:0:0:0:
33,149,86333,1,2,2:0:0:0:
33,149,86444,2,0,P|70:178|118:182,1,97.058136287435,0|2,3:0|2:0,2:0:0:0:
216,0,86885,2,0,P|245:37|249:85,1,97.058136287435,8|2,2:0|2:0,2:0:0:0:
319,195,87326,2,0,P|366:184|413:172,1,97.058136287435,2|2,3:2|2:0,2:0:0:0:
502,356,87767,2,0,B|436:337|436:337|419:306|419:306|353:290,1,172.057592144776,10|0,2:0|2:0,2:0:0:0:
320,384,88208,6,0,P|265:343|201:343,1,132.000005035401,6|0,3:2|2:0,2:0:0:0:
192,326,88539,2,0,L|181:374,1,48.5290681437174,2|10,2:0|2:0,2:0:0:0:
54,374,88870,2,0,L|43:326,1,48.5290681437174,2|2,2:0|2:0,2:0:0:0:
0,228,89091,6,0,P|47:238|94:250,1,97.058136287435,2|2,3:2|2:0,2:0:0:0:
280,85,89532,2,0,P|232:95|185:107,1,97.058136287435,8|2,2:0|2:0,2:0:0:0:
128,330,89973,6,0,P|174:277|165:207,1,145.587204431152,0|0,3:0|2:0,2:0:0:0:
142,186,90414,1,8,2:0:0:0:
310,233,90635,1,2,2:0:0:0:
278,36,90855,2,0,P|267:83|255:130,1,97.058136287435,0|2,3:0|2:0,2:0:0:0:
158,64,91297,1,8,2:0:0:0:
310,233,91517,5,2,2:0:0:0:
314,215,91628,1,2,2:0:0:0:
318,198,91738,2,0,P|382:191|434:228,1,132.000005035401,4|0,3:2|0:0,0:0:0:0:
438,232,92069,2,0,L|485:223,1,48.4000014770508,2|10,0:0|0:0,0:0:0:0:
416,93,92400,1,2,2:0:0:0:
428,321,92620,6,0,B|328:304|347:389|248:369,1,193.677445908203,2|8,3:2|2:0,2:0:0:0:
78,208,93282,2,0,L|67:255,1,48.5290681437174,2|0,2:0|2:0,2:0:0:0:
143,302,93503,2,0,L|164:207,1,97.058136287435,0|2,3:0|2:0,2:0:0:0:
241,157,93833,1,2,2:0:0:0:
252,163,93944,2,0,L|299:152,2,48.5290681437174,8|0|2,2:0|2:0|2:0,2:0:0:0:
144,16,94385,6,0,P|73:13|23:63,1,145.587204431152,2|0,3:2|3:0,2:0:0:0:
8,176,94826,5,10,2:0:0:0:
56,160,94936,1,2,2:0:0:0:
104,168,95047,1,2,2:0:0:0:
144,200,95157,1,2,2:0:0:0:
159,247,95267,6,0,B|178:357|178:357|165:340|141:327,1,158.822395166016,6|0,3:2|2:0,2:0:0:0:
142,328,95708,1,10,2:0:0:0:
333,281,95929,1,2,2:0:0:0:
333,281,96039,1,2,2:0:0:0:
333,281,96150,2,0,B|379:295|379:295|386:306|386:306|427:320,1,105.881596777344,2|2,3:2|2:0,2:0:0:0:
497,121,96591,6,0,B|490:177|435:199|385:181|385:181|368:146|324:138,1,224.99840428009,14|10,2:0|2:0,2:0:0:0:
262,191,97032,1,10,3:2:0:0:
238,159,97142,1,2,2:0:0:0:
246,119,97253,1,2,2:0:0:0:
101,28,97473,6,0,L|111:79,1,52.9407983886719,0|0,3:0|2:0,2:0:0:0:
40,208,97694,2,0,L|29:156,1,52.9407983886719,2|0,2:0|2:0,2:0:0:0:
0,336,97914,5,8,2:0:0:0:
24,304,98025,1,0,2:0:0:0:
72,280,98135,1,2,2:0:0:0:
120,280,98245,1,0,3:0:0:0:
168,304,98355,5,0,3:0:0:0:
195,349,98466,1,10,2:0:0:0:
240,377,98576,1,10,2:0:0:0:
296,375,98686,1,10,2:0:0:0:
348,348,98797,6,0,P|355:314|362:280,1,70.5877333333333,6|2,3:2|2:0,2:0:0:0:
238,159,99238,2,0,P|245:193|252:227,1,70.5877333333333,2|2,3:2|2:0,2:0:0:0:
252,227,99569,1,2,2:0:0:0:
252,227,99679,1,2,3:2:0:0:
346,188,99900,2,0,P|380:195|414:202,1,70.5877333333333,2|2,2:0|3:2,2:0:0:0:
469,88,100341,5,2,2:0:0:0:
469,88,100451,1,2,2:0:0:0:
469,88,100561,2,0,P|435:95|401:102,1,70.5877333333333,2|2,3:2|2:0,2:0:0:0:
211,19,101003,2,0,P|246:18|277:35,1,70.5877333333333,2|2,3:2|2:0,2:0:0:0:
346,188,101444,5,2,3:2:0:0:
280,128,101664,1,2,2:0:0:0:
192,160,101885,2,0,L|181:193,2,35.2938666666666,2|2|2,3:2|2:0|2:0,2:0:0:0:
64,40,102326,5,2,3:2:0:0:
8,131,102547,2,0,P|43:130|76:142,1,70.5877333333333,2|0,2:0|3:0,2:0:0:0:
163,301,102988,5,2,2:0:0:0:
163,301,103098,1,2,2:0:0:0:
163,301,103208,1,2,3:2:0:0:
178,211,103429,2,0,P|142:210|109:222,1,70.5877333333333,2|0,2:0|3:0,2:0:0:0:
221,59,103870,5,2,2:0:0:0:
221,59,103980,1,2,2:0:0:0:
221,59,104091,1,2,3:2:0:0:
280,128,104311,1,2,2:0:0:0:
368,144,104532,1,2,3:2:0:0:
448,103,104753,2,0,P|454:69|460:34,2,70.42816,2|2|2,2:0|3:2|2:0,2:0:0:0:
502,238,105414,5,2,3:2:0:0:
476,264,105525,1,2,2:0:0:0:
445,280,105635,1,2,2:0:0:0:
413,277,105745,2,0,L|395:273,1,17.6469333333333,2|2,2:0|2:0,2:0:0:0:
384,257,105855,6,0,L|349:263,2,35.2938666666666,2|2|2,3:2|2:0|2:0,2:0:0:0:
328,368,106297,2,0,L|258:356,1,70.5877333333333,2|2,3:2|2:0,2:0:0:0:
218,349,106628,1,2,2:0:0:0:
218,349,106738,1,2,3:2:0:0:
106,247,106958,2,0,B|123:260|123:260|130:308,1,70.5877333333333,2|2,2:0|3:2,2:0:0:0:
227,206,107400,5,2,2:0:0:0:
227,206,107510,1,2,2:0:0:0:
227,206,107620,2,0,B|210:193|210:193|202:144,1,70.5877333333333,2|2,3:2|2:0,2:0:0:0:
312,74,108061,2,0,L|301:143,1,70.5877333333333,2|2,3:2|2:0,2:0:0:0:
179,32,108503,5,2,3:2:0:0:
115,103,108723,1,2,2:0:0:0:
24,80,108944,2,0,L|18:45,2,35.2938666666666,2|2|2,3:2|2:0|2:0,2:0:0:0:
106,247,109385,5,2,3:2:0:0:
0,199,109605,2,0,B|13:182|13:182|61:174,1,70.5877333333333,2|0,2:0|3:0,2:0:0:0:
206,122,110047,5,2,2:0:0:0:
206,122,110157,1,2,2:0:0:0:
206,122,110267,1,2,3:2:0:0:
312,74,110488,2,0,B|299:57|299:57|250:49,1,70.5877333333333,2|0,2:0|3:0,2:0:0:0:
400,142,110929,1,2,2:0:0:0:
400,142,111039,1,2,2:0:0:0:
400,142,111150,1,2,3:2:0:0:
422,42,111370,1,10,2:0:0:0:
292,166,111591,1,10,3:2:0:0:
471,223,111811,6,0,L|505:214,1,35.2938666666666,8|8,2:0|2:0,2:0:0:0:
512,314,112032,1,0,3:0:0:0:
504,309,112142,2,0,L|469:317,1,35.2938666666666,8|8,2:0|2:0,2:0:0:0:
416,384,112363,1,0,2:0:0:0:
390,360,112473,1,2,3:2:0:0:
356,350,112583,1,8,2:0:0:0:
322,356,112694,1,8,2:0:0:0:
80,173,112914,6,0,B|166:163|137:228|227:214,1,158.822395166016,6|0,3:2|2:0,2:0:0:0:
292,166,113355,1,10,2:0:0:0:
448,237,113576,2,0,L|486:226,2,39.7055987915039,2|2|0,2:0|2:0|3:0,2:0:0:0:
415,78,114017,1,2,2:0:0:0:
360,234,114238,2,0,P|356:273|375:307,1,79.4111975830078,10|2,2:0|2:0,2:0:0:0:
456,334,114569,5,2,2:0:0:0:
456,334,114679,2,0,B|346:317|374:396|257:384,1,211.284473554688,2|10,3:2|2:0,2:0:0:0:
64,256,115341,2,0,P|102:248|141:239,1,79.4111975830078,2|0,2:0|3:0,2:0:0:0:
292,166,115782,1,2,2:0:0:0:
166,98,116003,1,10,2:0:0:0:
166,98,116113,1,2,2:0:0:0:
166,98,116223,1,2,2:0:0:0:
232,240,116444,6,0,P|270:247|309:256,1,79.4111975830078,2|2,3:2|2:0,2:0:0:0:
394,71,116885,1,10,2:0:0:0:
432,203,117105,6,0,P|369:158|292:166,1,158.463355166016,2|2,2:0|2:0,2:0:0:0:
177,320,117767,1,8,2:0:0:0:
64,256,117988,5,2,2:0:0:0:
57,245,118098,1,2,2:0:0:0:
50,235,118208,2,0,L|68:158,1,79.4111975830078,0|2,3:0|2:0,2:0:0:0:
194,98,118650,1,8,2:0:0:0:
86,28,118870,1,2,2:0:0:0:
167,199,119091,5,0,3:0:0:0:
306,80,119311,1,2,2:0:0:0:
456,280,119532,1,10,2:0:0:0:
421,292,119642,1,2,2:0:0:0:
383,283,119753,1,2,2:0:0:0:
356,259,119863,1,2,2:0:0:0:
341,220,119973,6,0,P|320:296|300:373,1,158.822395166016,6|0,3:2|2:0,2:0:0:0:
300,373,120414,1,10,2:0:0:0:
159,301,120635,2,0,P|193:280|232:279,1,79.4111975830078,2|0,2:0|3:0,2:0:0:0:
407,110,121076,5,2,2:0:0:0:
235,154,121297,1,10,2:0:0:0:
301,26,121517,5,2,2:0:0:0:
301,26,121628,1,2,2:0:0:0:
301,26,121738,1,2,3:2:0:0:
341,220,121958,1,2,2:0:0:0:
407,110,122179,1,10,2:0:0:0:
235,154,122400,6,0,B|157:136|192:91|102:75,1,158.463355166016,2|2,2:0|2:0,2:0:0:0:
4,310,123061,1,10,2:0:0:0:
17,271,123172,1,0,2:0:0:0:
51,240,123282,1,2,2:0:0:0:
106,233,123392,1,0,2:0:0:0:
146,240,123503,6,0,P|207:286|283:274,1,158.822395166016,6|0,3:2|2:0,2:0:0:0:
302,229,123944,1,10,2:0:0:0:
316,37,124164,6,0,B|269:51|269:51|242:94|234:153,1,158.463355166016,2|2,2:0|2:0,2:0:0:0:
302,229,124716,1,2,2:0:0:0:
302,229,124826,2,0,L|340:219,1,39.7055987915039,8|0,2:0|2:0,2:0:0:0:
446,176,125047,2,0,L|407:166,1,39.7055987915039,2|0,2:0|2:0,2:0:0:0:
405,319,125267,6,0,P|415:292|419:264,1,57.3525307149252,2|0,3:2|2:0,2:0:0:0:
340,85,125488,2,0,P|329:111|325:139,1,57.3525307149252,10|0,2:0|2:0,2:0:0:0:
247,281,125708,2,0,B|203:270|203:270|192:252|192:252|145:239,1,114.705061429851,8|2,2:0|3:2,2:0:0:0:
17,329,126039,5,0,2:0:0:0:
26,337,126150,2,0,P|54:334|77:319,1,57.3525307149252,8|0,2:0|2:0,2:0:0:0:
64,112,126370,5,2,3:2:0:0:
56,128,126480,1,8,2:0:0:0:
48,144,126591,2,0,L|60:199,1,57.3525307149252,10|0,2:0|2:0,2:0:0:0:
210,321,126811,5,10,2:0:0:0:
247,281,126922,1,8,2:0:0:0:
299,293,127032,1,0,3:0:0:0:
499,103,127253,1,8,2:0:0:0:
266,40,127473,1,8,2:0:0:0:
450,256,127694,1,8,2:0:0:0:
464,243,127804,1,8,2:0:0:0:
472,227,127914,5,0,3:0:0:0:
456,184,128025,1,0,3:0:0:0:
408,160,128135,1,0,3:0:0:0:
352,168,128245,1,0,3:0:0:0:
328,216,128355,1,8,2:0:0:0:
272,240,128466,1,8,2:0:0:0:
208,224,128576,1,8,2:0:0:0:
56,54,128989,5,2,2:0:0:0:
56,54,129099,1,2,2:0:0:0:
56,54,129238,2,0,B|83:72|92:107|92:107|259:146,1,238.233592749024,6|0,3:2|2:0,2:0:0:0:
386,85,129679,6,0,B|407:59|407:59|376:70,1,66.1760025177003,8|0,2:0|2:0,2:0:0:0:
327,192,129899,2,0,L|337:239,1,48.5290681437174,2|2,2:0|2:0,2:0:0:0:
391,384,130120,2,0,P|434:337|425:274,1,132.352005035401,0|2,3:0|2:0,2:0:0:0:
512,234,130451,5,2,2:0:0:0:
512,234,130561,2,0,B|397:254|438:170|326:192,1,198.528007553101,10|0,2:0|2:0,2:0:0:0:
256,240,131002,2,0,P|221:195|222:139,1,114.705061429851,0|2,3:0|2:0,2:0:0:0:
48,16,131443,2,0,P|57:72|67:128,1,114.705061429851,8|2,2:0|2:0,2:0:0:0:
190,313,131885,5,0,3:0:0:0:
20,205,132105,1,2,2:0:0:0:
104,376,132326,1,8,2:0:0:0:
256,239,132546,2,0,P|280:234|271:253,1,57.3525307149252,2|2,2:0|2:0,2:0:0:0:
475,301,132767,6,0,B|455:253|399:234|350:267|350:267|346:296|324:324|292:328,1,238.233592749024,2|0,3:2|2:0,2:0:0:0:
294,329,133208,1,10,2:0:0:0:
198,149,133429,2,0,B|208:122|187:95|187:95|212:108|213:141,1,114.705061429851,2|0,2:0|3:0,2:0:0:0:
154,358,133870,2,0,B|114:349|114:349|97:335|97:335|47:323,1,114.705061429851,2|8,2:0|2:0,2:0:0:0:
79,162,134311,2,0,B|95:175|95:175|86:210,1,57.3525307149252,2|2,2:0|2:0,2:0:0:0:
37,318,134532,6,0,B|10:282|49:241|49:241|158:262,1,198.528007553101,2|0,3:2|2:0,2:0:0:0:
234,309,134973,2,0,P|273:282|319:290,1,97.058136287435,10|2,2:0|2:0,2:0:0:0:
495,184,135414,5,2,3:2:0:0:
387,366,135635,1,2,2:0:0:0:
248,178,135855,2,0,P|243:130|269:90,1,97.058136287435,10|2,2:0|2:0,2:0:0:0:
326,153,136186,1,2,2:0:0:0:
326,153,136296,6,0,B|226:130|283:67|171:43,1,198.528007553101,6|0,3:2|2:0,2:0:0:0:
171,43,136738,1,10,2:0:0:0:
128,224,136958,1,2,2:0:0:0:
0,157,137179,6,0,B|28:120|28:120|74:139,1,97.058136287435,0|2,3:0|2:0,2:0:0:0:
74,139,137510,1,2,2:0:0:0:
74,139,137620,1,8,2:0:0:0:
224,280,137840,1,2,2:0:0:0:
296,83,138061,6,0,P|342:70|389:56,1,97.058136287435,0|2,3:0|2:0,2:0:0:0:
461,161,138392,1,2,2:0:0:0:
457,167,138502,2,0,P|410:172|368:149,1,97.058136287435,8|2,2:0|2:0,2:0:0:0:
148,0,138943,5,0,3:0:0:0:
128,224,139164,1,2,2:0:0:0:
283,60,139385,1,8,2:0:0:0:
64,117,139605,1,2,2:0:0:0:
268,190,139826,6,0,P|286:234|276:280,1,97.058136287435,2|2,3:2|2:0,2:0:0:0:
303,358,140157,1,2,2:0:0:0:
290,371,140267,2,0,L|242:359,2,48.5290681437174,8|2|2,2:0|2:0|2:0,2:0:0:0:
425,200,140708,5,0,3:0:0:0:
275,280,140929,1,2,2:0:0:0:
275,280,141039,1,2,2:0:0:0:
275,280,141149,2,0,P|253:268|230:262,1,48.5290681437174,10|0,2:0|2:0,2:0:0:0:
66,200,141370,2,0,P|89:194|110:182,1,48.5290681437174,2|0,2:0|2:0,2:0:0:0:
192,40,141590,5,0,3:0:0:0:
224,64,141701,1,8,2:0:0:0:
231,99,141811,2,0,L|216:147,1,48.5290681437174,10|0,2:0|2:0,2:0:0:0:
275,280,142032,2,0,L|290:232,1,48.5290681437174,10|0,2:0|2:0,2:0:0:0:
388,56,142252,5,2,2:0:0:0:
388,56,142363,1,8,2:0:0:0:
388,56,142473,2,0,P|411:50|434:44,1,48.5290681437174,2|8,3:2|2:0,2:0:0:0:
471,211,142693,2,0,P|447:205|424:199,1,48.5290681437174,10|0,2:0|2:0,2:0:0:0:
192,40,142914,5,10,2:0:0:0:
136,29,143024,1,10,2:0:0:0:
71,50,143135,1,10,2:0:0:0:
40,123,143245,1,10,2:0:0:0:
66,200,143355,6,0,P|183:182|301:165,1,238.233592749024,6|0,3:2|2:0,2:0:0:0:
404,52,143796,2,0,B|414:27|414:27|388:56,1,66.1760025177003,8|0,2:0|2:0,2:0:0:0:
479,163,144017,2,0,L|471:210,1,48.5290681437174,2|2,2:0|2:0,2:0:0:0:
401,334,144238,6,0,B|355:291|355:291|291:317,1,132.352005035401,0|2,3:0|2:0,2:0:0:0:
166,330,144568,1,2,2:0:0:0:
176,340,144679,2,0,B|231:361|282:334|277:281|277:281|251:268|238:243,1,198.528007553101,10|0,2:0|2:0,2:0:0:0:
301,96,145120,6,0,B|330:128|330:128|311:196,1,114.705061429851,0|2,3:0|2:0,2:0:0:0:
176,72,145561,1,8,2:0:0:0:
392,27,145782,2,0,B|269:4|303:94|176:72,1,228.891509526368,2|2,2:0|2:0,2:0:0:0:
83,206,146443,1,8,2:0:0:0:
39,19,146664,1,2,2:0:0:0:
0,264,146885,6,0,B|43:241|99:256|118:290|118:290|123:324|149:354|188:358,1,238.233592749024,2|0,3:2|2:0,2:0:0:0:
256,312,147326,1,10,2:0:0:0:
256,312,147546,2,0,L|311:327,2,57.3525307149252,2|2|0,2:0|2:0|3:0,2:0:0:0:
440,232,147988,1,2,2:0:0:0:
280,152,148208,1,8,2:0:0:0:
408,40,148429,5,2,2:0:0:0:
408,40,148539,1,2,2:0:0:0:
408,40,148649,2,0,B|458:72|448:131|403:149|403:149|372:133,1,172.057592144776,2|0,3:2|2:0,2:0:0:0:
280,152,149090,2,0,L|184:170,1,97.058136287435,10|2,2:0|2:0,2:0:0:0:
9,55,149532,6,0,P|56:49|98:71,1,97.058136287435,2|2,3:2|2:0,2:0:0:0:
248,56,149863,1,2,2:0:0:0:
248,56,149973,2,0,B|177:30|112:133|181:69|112:164|41:135,1,238.233592749024,10|0,2:0|2:0,2:0:0:0:
98,71,150414,5,6,3:2:0:0:
252,249,150635,1,2,2:0:0:0:
21,292,150855,1,10,2:0:0:0:
186,127,151076,5,2,2:0:0:0:
186,127,151186,1,2,2:0:0:0:
186,127,151296,2,0,P|232:139|279:151,1,97.058136287435,0|2,3:0|2:0,2:0:0:0:
478,70,151738,1,8,2:0:0:0:
335,0,151958,1,2,2:0:0:0:
252,249,152179,6,0,B|271:278|271:278|366:257,1,132.352005035401,0|2,3:0|2:0,2:0:0:0:
425,149,152620,1,8,2:0:0:0:
505,311,152840,6,0,B|504:352|504:352|453:380|453:380|418:334|418:334|434:301,1,193.677445908203,2|2,2:0|2:0,2:0:0:0:
252,249,153502,2,0,L|157:270,1,97.058136287435,8|2,2:0|2:0,2:0:0:0:
24,336,153833,5,2,2:0:0:0:
44,353,153943,2,0,P|78:297|70:233,1,132.352005035401,2|2,3:2|2:0,2:0:0:0:
48,208,154274,1,2,2:0:0:0:
48,208,154385,1,10,2:0:0:0:
199,22,154605,6,0,B|226:160|226:160|209:139|185:126,1,193.677445908203,2|2,2:0|2:0,2:0:0:0:
146,198,155157,1,2,2:0:0:0:
146,198,155267,2,0,B|248:182|218:265|331:239,1,198.528007553101,10|0,2:0|2:0,2:0:0:0:
408,279,155708,6,0,P|437:242|439:195,1,97.058136287435,0|2,3:0|2:0,2:0:0:0:
408,152,156039,1,2,2:0:0:0:
408,152,156149,1,10,2:0:0:0:
368,360,156370,1,2,2:0:0:0:
146,198,156590,5,2,3:2:0:0:
330,239,156811,1,10,2:0:0:0:
272,48,157032,1,10,2:0:0:0:
208,296,157252,1,10,2:0:0:0:
46,174,157473,6,0,P|119:103|220:121,1,211.7632,6|0,3:2|2:0,2:0:0:0:
288,192,157914,1,10,2:0:0:0:
288,192,158135,2,0,L|335:181,2,48.5290681437174,2|2|2,2:0|2:0|3:2,2:0:0:0:
400,88,158576,1,2,2:0:0:0:
488,320,158796,6,0,P|447:294|399:296,1,97.058136287435,10|2,2:0|2:0,2:0:0:0:
257,355,159127,1,2,2:0:0:0:
271,372,159237,2,0,B|332:396|359:340|359:340|344:290|329:238,1,211.7632,2|0,3:2|2:0,2:0:0:0:
387,173,159679,1,10,2:0:0:0:
387,173,159899,2,0,L|433:184,2,48.5290681437174,2|2|2,2:0|2:0|3:2,2:0:0:0:
296,40,160340,1,2,2:0:0:0:
225,169,160561,2,0,P|178:173|135:152,1,97.058136287435,8|2,2:0|2:0,2:0:0:0:
64,80,160892,5,2,2:0:0:0:
71,90,161002,2,0,L|48:184,1,97.058136287435,6|2,3:2|2:0,2:0:0:0:
64,368,161443,5,10,2:0:0:0:
2,287,161664,2,0,P|94:272|161:337,1,193.677445908203,2|2,2:0|2:0,2:0:0:0:
319,144,162326,2,0,P|271:155|225:168,1,97.058136287435,10|2,2:0|2:0,2:0:0:0:
432,224,162767,5,0,3:0:0:0:
376,32,162987,1,2,2:0:0:0:
308,255,163208,1,8,2:0:0:0:
308,255,163429,2,0,L|319:301,2,48.5290681437174,2|2|2,2:0|2:0|3:2,2:0:0:0:
464,112,163870,5,2,2:0:0:0:
272,56,164090,1,10,2:0:0:0:
208,256,164311,1,2,2:0:0:0:
400,311,164532,6,0,P|440:286|487:286,1,97.058136287435,6|2,3:2|2:0,2:0:0:0:
380,136,164973,1,10,2:0:0:0:
488,286,165193,2,0,B|457:270|424:269|424:269|415:240|397:220|397:220|361:224|329:203,1,193.677445908203,2|2,2:0|2:0,2:0:0:0:
232,48,165855,2,0,P|194:77|146:77,1,97.058136287435,10|10,2:0|2:0,2:0:0:0:
64,128,166186,1,8,2:0:0:0:
56,120,166296,2,0,L|45:72,1,48.5290681437174,0|0,3:0|2:0,2:0:0:0:
144,168,166517,2,0,L|133:215,1,48.5290681437174,2|0,2:0|2:0,2:0:0:0:
40,328,166737,6,0,B|77:343|77:343|91:357|91:357|126:367,1,97.058136287435,8|2,2:0|2:0,2:0:0:0:
198,303,167068,1,8,2:0:0:0:
204,294,167179,5,0,3:0:0:0:
232,280,167289,1,8,2:0:0:0:
280,280,167399,1,10,2:0:0:0:
320,304,167510,1,8,2:0:0:0:
352,352,167620,1,10,2:0:0:0:
410,381,167730,1,10,2:0:0:0:
472,365,167840,1,10,2:0:0:0:
512,324,167951,1,10,2:0:0:0:
512,240,168061,6,0,P|414:221|317:205,1,198.528007553101,6|0,3:2|2:0,2:0:0:0:
317,205,168502,1,8,2:0:0:0:
31,98,168723,6,0,B|17:67|-12:47|-12:47|146:77,1,228.891509526368,2|2,2:0|2:0,2:0:0:0:
296,8,169385,1,10,2:0:0:0:
208,144,169605,2,0,B|188:166|180:192|180:192|156:174|125:174,1,114.705061429851,2|0,2:0|3:0,2:0:0:0:
146,77,170046,5,2,2:0:0:0:
39,311,170267,6,0,P|83:346|140:352,1,114.705061429851,8|2,2:0|2:0,2:0:0:0:
203,298,170598,1,2,2:0:0:0:
199,279,170708,2,0,L|188:221,2,57.3525307149252,2|2|2,3:2|2:0|2:0,2:0:0:0:
389,371,171149,2,0,B|420:343|420:343|405:271,1,114.705061429851,10|2,2:0|2:0,2:0:0:0:
512,160,171480,5,2,2:0:0:0:
496,144,171590,2,0,B|394:126|416:210|298:193,1,211.7632,6|0,3:2|2:0,2:0:0:0:
280,184,172032,1,8,2:0:0:0:
80,16,172252,2,0,B|112:32|112:32|126:109,1,114.705061429851,2|0,2:0|3:0,2:0:0:0:
56,304,172693,1,2,2:0:0:0:
3,153,172914,5,10,2:0:0:0:
188,222,173135,2,0,B|349:185|349:185|318:182|293:156,1,228.891509526368,2|2,2:0|2:0,2:0:0:0:
360,32,173686,1,2,2:0:0:0:
371,43,173796,2,0,L|357:98,1,57.3525307149252,10|0,2:0|2:0,2:0:0:0:
435,240,174017,2,0,L|449:185,1,57.3525307149252,2|0,2:0|2:0,2:0:0:0:
405,383,174237,6,0,B|386:361|386:361|301:346,1,114.705061429851,2|2,3:2|2:0,2:0:0:0:
64,253,174679,2,0,B|188:222|188:222|158:239|142:273,1,198.528007553101,10|0,2:0|2:0,2:0:0:0:
227,299,175120,6,0,P|213:214|199:129,1,172.057592144776,6|0,3:2|2:0,2:0:0:0:
120,80,175561,1,8,2:0:0:0:
120,80,175782,2,0,L|64:91,2,57.3525307149252,2|2|0,2:0|2:0|3:0,2:0:0:0:
256,56,176223,1,2,2:0:0:0:
349,185,176443,5,10,2:0:0:0:
465,120,176664,2,0,B|407:129|370:77|370:77|396:141|347:186,1,228.891509526368,2|2,2:0|2:0,2:0:0:0:
208,371,177326,1,8,2:0:0:0:
137,184,177546,1,2,2:0:0:0:
309,282,177767,2,0,P|364:270|421:258,1,114.705061429851,2|2,3:2|2:0,2:0:0:0:
348,184,178208,1,10,2:0:0:0:
264,382,178429,2,0,P|236:376|207:370,1,56.8339173815919,2|2,2:0|2:0,2:0:0:0:
0,226,178649,6,0,B|20:208|20:208|59:214|59:214|67:244|95:270|138:270,1,172.057592144776,6|0,3:2|2:0,2:0:0:0:
138,270,179090,1,8,2:0:0:0:
192,173,179311,2,0,P|163:175|136:183,2,57.3525307149252,2|2|2,2:0|2:0|3:2,2:0:0:0:
276,37,179752,1,2,2:0:0:0:
375,226,179973,5,10,2:0:0:0:
452,103,180193,2,0,B|434:66|385:55|351:77|351:77|336:115|294:129|259:121,1,228.891509526368,2|2,2:0|2:0,2:0:0:0:
34,274,180855,2,0,B|60:251|60:251|137:269,1,114.705061429851,8|2,2:0|2:0,2:0:0:0:
149,352,181186,1,2,2:0:0:0:
139,361,181296,2,0,L|84:344,2,57.3525307149252,2|2|2,3:2|2:0|2:0,2:0:0:0:
240,240,181737,2,0,P|288:271|343:263,1,114.705061429851,10|2,2:0|2:0,2:0:0:0:
512,160,182068,5,2,2:0:0:0:
498,146,182179,2,0,B|384:123|417:215|301:190,1,211.7632,6|0,3:2|2:0,2:0:0:0:
229,157,182620,1,8,2:0:0:0:
40,24,182840,5,2,2:0:0:0:
40,24,182951,1,2,2:0:0:0:
40,24,183061,2,0,B|70:38|70:38|82:118,1,114.705061429851,0|2,3:0|2:0,2:0:0:0:
118,347,183502,1,10,2:0:0:0:
0,220,183723,6,0,B|48:204|48:204|95:222|95:222|105:248|105:248|149:268|149:268|199:255,1,228.891509526368,2|2,2:0|2:0,2:0:0:0:
264,320,184274,1,2,2:0:0:0:
276,313,184385,2,0,L|331:324,1,57.3525307149252,8|2,2:0|2:0,2:0:0:0:
431,183,184605,2,0,L|375:194,1,57.3525307149252,2|2,2:0|2:0,2:0:0:0:
407,375,184826,2,0,P|431:325|418:270,1,114.705061429851,2|2,3:2|2:0,2:0:0:0:
418,270,185267,6,0,L|473:281,1,57.3525307149252,10|2,2:0|2:0,2:0:0:0:
497,106,185487,2,0,L|441:94,1,57.3525307149252,2|2,2:0|2:0,2:0:0:0:
183,182,185708,6,0,B|213:197|225:222|225:222|374:194,1,211.7632,6|0,3:2|2:0,2:0:0:0:
374,194,186149,1,8,2:0:0:0:
287,77,186370,2,0,B|271:85|271:85|263:123,1,57.3525307149252,2|0,2:0|2:0,2:0:0:0:
144,264,186590,2,0,P|87:253|31:243,1,114.705061429851,0|2,3:0|2:0,2:0:0:0:
112,128,187032,1,10,2:0:0:0:
168,352,187252,6,0,B|154:300|176:256|240:248|240:248|264:288|307:285,1,228.891509526368,2|2,2:0|2:0,2:0:0:0:
368,344,187804,1,2,2:0:0:0:
378,341,187914,2,0,P|389:314|390:286,1,57.3525307149252,8|0,2:0|2:0,2:0:0:0:
463,133,188135,5,2,2:0:0:0:
439,85,188245,1,2,2:0:0:0:
391,53,188355,1,2,3:2:0:0:
335,53,188465,1,4,2:3:0:0:
287,77,188576,1,6,2:3:0:0:
104,208,188796,1,10,2:0:0:0:
64,16,189017,1,2,3:2:0:0:
274,270,189237,6,0,B|232:229|180:253|180:253|159:293|114:296,1,185.292794360352,6|0,3:2|2:0,2:0:0:0:
114,296,189679,1,8,2:0:0:0:
8,104,189899,6,0,B|46:116|64:151|64:151|196:115,1,211.284473554688,2|2,2:0|2:0,2:0:0:0:
391,53,190561,1,10,2:0:0:0:
344,250,190782,1,2,2:0:0:0:
293,53,191002,6,0,B|318:35|318:35|390:52,1,105.881596777344,0|2,3:0|2:0,2:0:0:0:
435,66,191333,1,2,2:0:0:0:
435,66,191443,1,8,2:0:0:0:
485,240,191664,5,2,2:0:0:0:
469,277,191774,1,2,2:0:0:0:
439,304,191885,1,0,3:0:0:0:
397,309,191995,1,2,2:0:0:0:
357,301,192105,2,0,L|343:249,1,52.9407983886719,2|0,2:0|2:0,2:0:0:0:
320,163,192326,1,10,2:0:0:0:
256,384,192546,1,2,2:0:0:0:
320,163,192767,6,0,B|285:140|285:140|241:151|241:151|206:215|136:198,1,211.7632,6|0,3:2|2:0,2:0:0:0:
137,198,193208,1,8,2:0:0:0:
138,28,193429,6,0,B|138:16|129:0|129:0|156:15|192:8|192:8|147:56|163:115,1,211.284473554688,2|2,2:0|2:0,2:0:0:0:
236,276,194090,1,10,2:0:0:0:
88,384,194311,5,2,2:0:0:0:
48,360,194421,1,2,2:0:0:0:
16,312,194532,1,0,3:0:0:0:
16,256,194642,1,10,2:0:0:0:
48,208,194752,1,10,2:0:0:0:
48,208,194973,6,0,L|107:224,1,61.7642647867838,8|2,2:0|2:0,2:0:0:0:
222,99,195193,2,0,L|162:115,1,61.7642647867838,10|2,2:0|2:0,2:0:0:0:
186,354,195414,5,8,2:0:0:0:
218,370,195524,1,8,2:0:0:0:
255,371,195635,1,8,2:0:0:0:
292,353,195745,1,8,2:0:0:0:
321,321,195855,5,8,2:0:0:0:
336,264,195965,1,8,2:0:0:0:
352,208,196076,1,10,2:0:0:0:
368,144,196186,1,10,2:0:0:0:
381,58,196296,6,0,B|339:50|300:72|288:107|288:107|294:137|284:173|250:188,1,211.7632,6|0,3:2|2:0,2:0:0:0:
226,195,196737,1,10,2:0:0:0:
153,109,196958,2,0,L|205:120,2,52.9407983886719,2|2|2,2:0|2:0|3:2,2:0:0:0:
29,249,197399,1,2,2:0:0:0:
0,80,197620,5,10,2:0:0:0:
144,208,197840,1,2,2:0:0:0:
56,352,198061,6,0,P|43:300|29:249,1,105.881596777344,2|2,3:2|2:0,2:0:0:0:
8,208,198392,1,2,2:0:0:0:
8,208,198502,1,10,2:0:0:0:
230,0,198723,6,0,B|283:18|302:76|266:117|266:117|231:128|231:128|204:120,1,211.284473554688,2|2,2:0|2:0,2:0:0:0:
233,273,199385,1,10,2:0:0:0:
95,205,199605,2,0,B|112:215|112:215|143:207,1,52.9407983886719,2|2,2:0|2:0,2:0:0:0:
406,310,199826,6,0,B|367:283|367:283|320:298|320:298|312:340|273:372|221:365,1,228.891509526368,6|10,3:2|2:0,2:0:0:0:
95,205,200487,1,2,2:0:0:0:
317,129,200708,5,2,3:2:0:0:
241,281,200929,1,2,2:0:0:0:
241,281,201039,1,2,2:0:0:0:
241,281,201149,2,0,L|188:272,1,52.9407983886719,10|2,2:0|2:0,2:0:0:0:
147,110,201370,2,0,L|199:118,1,52.9407983886719,2|2,2:0|2:0,2:0:0:0:
408,168,201590,6,0,B|437:40|437:40|419:64|396:74,1,185.292794360352,0|0,3:0|2:0,2:0:0:0:
396,74,202032,1,8,2:0:0:0:
456,264,202252,2,0,L|511:251,2,57.3525307149252,2|2|2,2:0|2:0|3:2,2:0:0:0:
376,376,202693,2,0,B|362:352|362:352|277:336,1,114.705061429851,2|10,2:0|2:0,2:0:0:0:
18,235,203135,5,2,2:0:0:0:
18,235,203245,1,2,2:0:0:0:
18,235,203355,2,0,B|13:202|-14:184|-14:184|118:211,1,198.528007553101,6|0,3:2|2:0,2:0:0:0:
118,211,203796,1,10,2:0:0:0:
304,245,204017,6,0,B|193:225|214:332|95:311,1,228.891509526368,2|2,2:0|2:0,2:0:0:0:
19,109,204679,2,0,P|66:119|113:128,1,97.058136287435,10|2,2:0|2:0,2:0:0:0:
304,245,205120,5,2,3:2:0:0:
259,61,205340,1,2,2:0:0:0:
443,16,205561,1,10,2:0:0:0:
488,200,205782,1,2,2:0:0:0:
488,200,205892,1,2,2:0:0:0:
488,200,206002,1,2,3:2:0:0:
304,152,206223,5,2,2:0:0:0:
256,336,206443,1,10,2:0:0:0:
440,384,206664,1,2,2:0:0:0:
241,234,206885,6,0,P|194:247|147:260,1,97.058136287435,6|2,3:2|2:0,2:0:0:0:
20,72,207326,2,0,P|68:73|107:100,1,97.058136287435,10|2,2:0|2:0,2:0:0:0:
66,199,207657,1,2,2:0:0:0:
54,193,207767,2,0,P|48:170|42:146,1,48.5290681437174,2|2,3:2|2:0,2:0:0:0:
195,39,207987,5,2,2:0:0:0:
195,39,208098,1,2,2:0:0:0:
195,39,208208,1,10,2:0:0:0:
147,260,208429,1,2,2:0:0:0:
368,192,208649,5,2,3:2:0:0:
368,192,208760,1,10,2:0:0:0:
368,192,208870,2,0,L|415:202,2,48.5290681437174,2|2|10,3:2|2:0|2:0,2:0:0:0:
208,70,209311,1,2,3:2:0:0:
201,54,209421,1,10,2:0:0:0:
195,39,209532,5,2,3:2:0:0:
149,8,209642,1,10,2:0:0:0:
88,8,209752,1,2,3:2:0:0:
32,40,209862,1,2,2:0:0:0:
16,104,209973,5,10,2:0:0:0:
32,160,210083,1,10,2:0:0:0:
48,216,210193,1,10,2:0:0:0:
64,280,210304,1,10,2:0:0:0:
79,346,210414,6,0,B|125:319|125:319|174:337|174:337|196:384|261:384,1,211.7632,6|0,3:2|2:0,2:0:0:0:
261,384,210855,1,10,2:0:0:0:
410,239,211076,5,2,2:0:0:0:
410,239,211186,1,2,2:0:0:0:
410,239,211296,1,2,3:2:0:0:
249,293,211517,1,2,2:0:0:0:
304,56,211737,6,0,B|327:87|327:87|309:151,1,105.881596777344,10|2,2:0|2:0,2:0:0:0:
312,196,212068,1,2,2:0:0:0:
280,164,212179,1,2,3:2:0:0:
232,156,212289,1,2,2:0:0:0:
192,172,212399,1,2,2:0:0:0:
128,64,212620,5,10,2:0:0:0:
240,240,212840,2,0,B|272:224|312:224|312:224|352:248|352:248|392:224|438:228,1,211.284473554688,2|2,2:0|2:0,2:0:0:0:
408,320,213502,1,10,2:0:0:0:
417,125,213723,2,0,P|427:176|437:228,1,105.881596777344,2|6,2:0|3:2,2:0:0:0:
298,377,214164,5,2,2:0:0:0:
232,156,214385,1,10,2:0:0:0:
437,228,214605,1,2,2:0:0:0:
216,336,214826,2,0,L|164:323,1,52.9407983886719,2|2,3:2|2:0,2:0:0:0:
104,384,215046,2,0,B|71:369|71:369|57:301,1,105.881596777344,2|10,2:0|2:0,2:0:0:0:
144,192,215487,5,2,2:0:0:0:
144,192,215598,1,2,2:0:0:0:
144,192,215708,1,2,3:2:0:0:
9,85,215929,1,2,2:0:0:0:
57,301,216149,1,10,2:0:0:0:
213,97,216370,5,2,2:0:0:0:
229,89,216480,1,2,2:0:0:0:
245,81,216590,2,0,B|342:66|311:143|417:124,1,185.292794360352,2|0,3:2|2:0,2:0:0:0:
413,0,217032,2,0,B|395:9|395:9|385:49,1,61.7642647867838,10|2,2:0|2:0,2:0:0:0:
467,238,217252,5,2,2:0:0:0:
437,229,217362,1,2,2:0:0:0:
412,222,217473,2,0,B|370:211|370:211|327:229|327:229|319:269|281:297|236:293,1,211.7632,6|0,3:2|2:0,2:0:0:0:
224,193,217914,6,0,P|249:192|237:215,1,61.7642647867838,10|2,2:0|2:0,2:0:0:0:
117,313,218135,2,0,P|86:306|56:300,1,61.7642647867838,2|2,2:0|2:0,2:0:0:0:
16,200,218355,5,2,3:2:0:0:
16,200,218576,2,0,P|46:206|76:212,1,61.7642647867838,2|2,2:0|2:0,2:0:0:0:
72,64,218796,5,10,0:0:0:0:
72,64,219017,2,0,P|102:58|132:52,1,61.7642647867838,2|2,2:0|2:0,2:0:0:0:
234,108,219237,5,0,3:0:0:0:
282,92,219348,1,2,0:0:0:0:
322,125,219458,2,0,P|318:148|314:171,1,48.4000014770508,2|0,2:0|2:0,2:0:0:0:
355,308,219679,1,10,2:0:0:0:
497,184,219899,5,2,2:0:0:0:
492,199,220010,1,2,2:0:0:0:
487,216,220120,2,0,P|410:158|315:173,1,198.528007553101,2|2,3:2|2:0,2:0:0:0:
256,240,220561,1,10,2:0:0:0:
256,240,220782,2,0,L|209:228,2,48.5290681437174,2|2|6,2:0|2:0|3:2,2:0:0:0:
40,168,221223,5,2,2:0:0:0:
216,128,221443,1,10,2:0:0:0:
276,342,221664,5,2,2:0:0:0:
276,342,221774,1,2,2:0:0:0:
276,342,221885,2,0,P|199:284|104:299,1,198.528007553101,2|2,3:2|2:0,2:0:0:0:
72,384,222326,5,10,2:0:0:0:
34,360,222436,1,2,2:0:0:0:
12,321,222546,1,2,2:0:0:0:
12,277,222657,1,2,2:0:0:0:
34,239,222767,1,2,3:2:0:0:
34,239,222987,6,0,L|23:191,1,48.5290681437174,2|2,2:0|2:0,2:0:0:0:
0,56,223208,1,10,2:0:0:0:
122,126,223429,6,0,L|98:131,2,24.2000007385254,8|8|8,2:0|2:0|2:0,2:0:0:0:
206,107,223649,5,2,3:2:0:0:
214,119,223760,2,0,L|201:165,1,48.5290681437174,10|2,2:0|2:0,2:0:0:0:
273,341,223980,5,10,2:0:0:0:
263,326,224090,2,0,L|275:279,1,48.9678948103841,10|2,2:0|2:0,2:0:0:0:
482,154,224311,5,10,2:0:0:0:
492,188,224421,1,10,2:0:0:0:
471,222,224532,2,0,B|309:196|309:196|343:212|358:248,1,238.233592749024,6|0,3:2|2:0,2:0:0:0:
273,341,224973,2,0,B|264:327|264:327|275:280,1,66.1760025177003,8|0,2:0|2:0,2:0:0:0:
200,165,225193,2,0,L|153:177,1,48.5290681437174,2|2,2:0|2:0,2:0:0:0:
73,301,225414,2,0,B|126:287|126:287|145:271|145:271|194:255,1,132.352005035401,0|2,3:0|2:0,2:0:0:0:
424,29,225855,6,0,B|386:8|340:22|322:56|322:56|320:81|304:103|270:110,1,198.528007553101,10|2,2:0|2:0,2:0:0:0:
200,165,226296,2,0,P|163:122|165:66,1,114.705061429851,0|2,3:0|2:0,2:0:0:0:
309,196,226737,1,8,2:0:0:0:
129,310,226958,1,2,2:0:0:0:
129,310,227068,1,2,2:0:0:0:
129,310,227179,2,0,L|72:300,2,57.3525307149252,0|2|2,3:0|2:0|2:0,2:0:0:0:
256,384,227620,6,0,B|304:371|304:371|312:356|312:356|358:343,1,114.705061429851,8|2,2:0|2:0,2:0:0:0:
481,154,228061,6,0,B|489:182|510:213|510:213|492:239|455:249|455:249|428:227|424:192|424:192|441:178|449:164,1,238.233592749024,2|0,3:2|2:0,2:0:0:0:
481,154,228502,1,10,2:0:0:0:
352,16,228723,2,0,L|338:71,2,57.3525307149252,2|2|0,2:0|2:0|3:0,2:0:0:0:
264,256,229164,1,2,2:0:0:0:
200,16,229385,1,8,2:0:0:0:
0,140,229605,5,2,2:0:0:0:
0,140,229715,1,2,2:0:0:0:
0,140,229826,2,0,B|40:119|40:119|93:138|93:138|103:170|136:192|181:187,1,211.7632,2|0,3:2|2:0,2:0:0:0:
199,16,230267,2,0,P|171:54|171:101,1,97.058136287435,10|2,2:0|2:0,2:0:0:0:
237,255,230708,2,0,P|265:216|265:169,1,97.058136287435,2|2,3:2|2:0,2:0:0:0:
369,34,231149,2,0,B|385:78|426:100|471:84|471:84|449:78|432:62,1,172.057592144776,10|0,2:0|2:0,2:0:0:0:
500,3,231590,6,0,P|485:100|471:198,1,198.528007553101,6|0,3:2|2:0,2:0:0:0:
488,224,232032,1,10,2:0:0:0:
335,380,232252,1,2,2:0:0:0:
335,380,232362,1,2,2:0:0:0:
335,380,232473,2,0,P|310:338|310:290,1,97.058136287435,0|2,3:0|2:0,2:0:0:0:
243,247,232804,1,2,2:0:0:0:
237,255,232914,2,0,L|189:266,2,48.5290681437174,8|2|2,2:0|2:0|2:0,2:0:0:0:
16,120,233355,6,0,P|62:132|109:144,1,97.058136287435,0|2,3:0|2:0,2:0:0:0:
162,82,233686,1,2,2:0:0:0:
175,87,233796,2,0,P|194:130|188:178,1,97.058136287435,8|2,2:0|2:0,2:0:0:0:
167,384,234237,5,0,3:0:0:0:
109,144,234458,1,2,2:0:0:0:
243,247,234679,1,8,2:0:0:0:
40,304,234899,1,2,2:0:0:0:
261,236,235120,6,0,P|307:248|354:260,1,97.058136287435,2|2,3:2|2:0,2:0:0:0:
416,184,235451,1,2,2:0:0:0:
426,191,235561,2,0,P|449:184|472:178,2,48.5290681437174,8|2|2,2:0|2:0|2:0,2:0:0:0:
318,147,236002,5,0,3:0:0:0:
292,334,236223,1,2,2:0:0:0:
472,178,236443,1,10,2:0:0:0:
256,64,236664,1,2,2:0:0:0:
354,260,236885,5,0,3:0:0:0:
377,251,236995,1,8,2:0:0:0:
401,244,237105,1,10,2:0:0:0:
187,178,237326,1,8,2:0:0:0:
276,381,237546,5,2,2:0:0:0:
285,358,237657,1,8,2:0:0:0:
292,334,237767,2,0,L|240:346,1,48.5290681437174,2|8,3:2|2:0,2:0:0:0:
139,167,237987,2,0,L|186:177,1,48.5290681437174,10|0,2:0|2:0,2:0:0:0:
401,244,238208,5,10,2:0:0:0:
445,222,238318,1,10,2:0:0:0:
474,180,238429,1,10,2:0:0:0:
478,130,238539,1,10,2:0:0:0:
457,85,238649,6,0,B|417:62|417:62|370:75|370:75|349:36|290:16|244:37,1,238.233592749024,6|0,3:2|2:0,2:0:0:0:
274,133,239090,2,0,P|298:127|275:116,1,66.1760025177003,8|0,2:0|2:0,2:0:0:0:
186,177,239311,2,0,L|196:224,1,48.5290681437174,2|2,2:0|2:0,2:0:0:0:
152,360,239532,2,0,B|104:317|104:317|42:344,1,132.352005035401,0|2,3:0|2:0,2:0:0:0:
42,344,239862,5,2,2:0:0:0:
43,344,239973,2,0,B|149:363|114:279|228:301,1,198.528007553101,10|0,2:0|2:0,2:0:0:0:
296,360,240414,2,0,P|325:311|319:255,1,114.705061429851,0|2,3:0|2:0,2:0:0:0:
392,41,240855,2,0,P|448:35|494:67,1,114.705061429851,8|2,2:0|2:0,2:0:0:0:
448,167,241186,1,2,2:0:0:0:
441,161,241296,2,0,L|431:113,2,48.5290681437174,0|2|2,3:0|2:0|2:0,2:0:0:0:
319,255,241737,2,0,L|299:160,1,97.058136287435,8|2,2:0|2:0,2:0:0:0:
48,35,242179,6,0,B|-7:90|21:169|80:185|80:185|130:172,1,238.233592749024,2|0,3:2|2:0,2:0:0:0:
129,173,242620,1,10,2:0:0:0:
280,56,242840,1,2,2:0:0:0:
280,56,242951,1,2,2:0:0:0:
280,56,243061,1,0,3:0:0:0:
413,207,243282,2,0,B|396:238|396:238|320:254,1,114.186448096517,2|8,2:0|2:0,2:0:0:0:
243,147,243723,2,0,L|299:160,1,57.3525307149252,2|2,2:0|2:0,2:0:0:0:
376,352,243943,6,0,P|305:306|224:324,1,172.057592144776,2|0,3:2|2:0,2:0:0:0:
144,384,244385,2,0,P|136:336|126:288,1,97.058136287435,10|2,2:0|2:0,2:0:0:0:
9,89,244826,2,0,B|47:120|47:120|92:104,1,97.058136287435,2|2,3:2|2:0,2:0:0:0:
239,52,245157,5,2,2:0:0:0:
223,44,245267,2,0,B|201:33|172:19|172:19|112:44|98:124|152:168,1,238.233592749024,10|0,2:0|2:0,2:0:0:0:
112,256,245708,6,0,P|163:216|228:217,1,132.352005035401,6|2,3:2|2:0,2:0:0:0:
344,312,246149,1,10,2:0:0:0:
498,128,246370,1,2,2:0:0:0:
490,152,246480,1,2,2:0:0:0:
498,176,246590,2,0,P|450:167|402:158,1,97.058136287435,0|2,3:0|2:0,2:0:0:0:
272,128,247032,1,8,2:0:0:0:
346,7,247252,1,2,2:0:0:0:
304,232,247473,6,0,B|330:363|330:363|312:333|280:323,1,198.528007553101,0|0,3:0|2:0,2:0:0:0:
281,323,247914,1,8,2:0:0:0:
416,256,248135,2,0,L|463:265,2,48.5290681437174,2|2|0,2:0|2:0|3:0,2:0:0:0:
272,128,248576,5,2,2:0:0:0:
368,48,248796,1,8,2:0:0:0:
304,232,249017,1,2,2:0:0:0:
152,88,249237,6,0,B|6:59|6:59|33:75|44:106,1,211.7632,2|2,3:2|2:0,2:0:0:0:
44,106,249679,1,10,2:0:0:0:
182,226,249899,6,0,P|177:249|171:273,1,48.5290681437174,2|0,2:0|2:0,2:0:0:0:
193,384,250120,2,0,P|156:354|110:365,1,97.058136287435,0|2,3:0|2:0,2:0:0:0:
67,202,250561,6,0,P|162:176|258:150,1,198.528007553101,10|0,2:0|2:0,2:0:0:0:
295,234,251002,2,0,P|247:239|203:220,1,97.058136287435,0|2,3:0|2:0,2:0:0:0:
400,100,251443,1,10,2:0:0:0:
341,337,251664,1,2,2:0:0:0:
258,149,251885,5,2,3:2:0:0:
497,203,252105,1,10,2:0:0:0:
216,318,252326,1,10,2:0:0:0:
486,378,252546,1,10,2:0:0:0:
454,94,252767,6,0,B|348:77|364:164|257:148,1,211.7632,6|0,3:2|2:0,2:0:0:0:
191,105,253208,1,10,2:0:0:0:
191,105,253429,2,0,L|180:57,2,48.5290681437174,2|2|2,2:0|2:0|3:2,2:0:0:0:
120,304,253870,1,2,2:0:0:0:
8,168,254090,2,0,P|54:180|101:191,1,97.058136287435,10|2,2:0|2:0,2:0:0:0:
225,380,254532,6,0,P|303:314|404:331,1,211.7632,2|0,3:2|2:0,2:0:0:0:
496,320,254973,1,10,2:0:0:0:
496,320,255193,2,0,L|486:367,2,48.5290681437174,2|2|2,2:0|2:0|3:2,2:0:0:0:
344,176,255635,1,2,2:0:0:0:
504,208,255855,6,0,P|457:220|411:235,1,97.058136287435,8|2,2:0|2:0,2:0:0:0:
227,133,256296,5,6,3:2:0:0:
396,36,256517,1,2,2:0:0:0:
318,272,256737,1,10,2:0:0:0:
272,56,256958,6,0,B|214:37|214:37|145:58|126:128,1,193.677445908203,2|2,2:0|2:0,2:0:0:0:
97,300,257620,2,0,P|49:288|2:277,1,97.058136287435,10|2,2:0|2:0,2:0:0:0:
208,176,258061,5,0,3:0:0:0:
34,147,258282,1,2,2:0:0:0:
97,300,258502,1,8,2:0:0:0:
97,300,258723,2,0,L|86:347,2,48.5290681437174,2|2|2,2:0|2:0|3:2,2:0:0:0:
126,128,259164,5,2,2:0:0:0:
336,208,259385,1,10,2:0:0:0:
97,300,259605,1,2,2:0:0:0:
368,384,259826,6,0,P|415:373|462:363,1,97.058136287435,6|2,3:2|2:0,2:0:0:0:
336,208,260267,1,10,2:0:0:0:
461,362,260487,6,0,P|393:297|301:314,1,193.677445908203,2|2,2:0|2:0,2:0:0:0:
120,384,261149,2,0,P|108:337|94:290,1,97.058136287435,10|10,2:0|2:0,2:0:0:0:
217,181,261480,5,8,2:0:0:0:
225,197,261590,2,0,P|219:220|212:243,1,48.5290681437174,0|0,3:0|2:0,2:0:0:0:
96,192,261811,2,0,P|90:168|83:145,1,48.5290681437174,2|2,2:0|2:0,2:0:0:0:
192,8,262032,2,0,P|180:54|166:101,1,97.058136287435,8|2,2:0|2:0,2:0:0:0:
165,101,262362,1,8,2:0:0:0:
165,101,262473,2,0,P|188:95|211:88,1,48.5290681437174,0|8,3:0|2:0,2:0:0:0:
440,176,262693,5,10,2:0:0:0:
448,200,262804,1,8,2:0:0:0:
457,226,262914,5,10,2:0:0:0:
453,287,263024,1,10,2:0:0:0:
413,332,263135,1,10,2:0:0:0:
353,342,263245,1,10,2:0:0:0:
301,313,263355,6,0,P|216:326|132:342,1,172.057592144776,6|0,3:2|2:0,2:0:0:0:
131,342,263796,1,10,2:0:0:0:
65,110,264017,2,0,B|51:89|27:73|27:73|165:100,1,193.677445908203,2|2,2:0|2:0,2:0:0:0:
248,232,264679,6,0,B|287:223|287:223|296:214|296:214|338:204,1,97.058136287435,10|2,2:0|2:0,2:0:0:0:
512,96,265120,5,0,3:0:0:0:
336,72,265340,1,2,2:0:0:0:
406,264,265561,2,0,P|426:221|418:174,1,97.058136287435,10|2,2:0|2:0,2:0:0:0:
231,40,266002,2,0,P|241:87|252:134,1,97.058136287435,2|2,3:2|2:0,2:0:0:0:
155,274,266443,6,0,P|114:236|59:242,1,114.705061429851,10|2,2:0|2:0,2:0:0:0:
80,360,266774,1,2,2:0:0:0:
102,364,266885,2,0,B|212:344|147:296|268:268,1,198.528007553101,2|0,3:2|2:0,2:0:0:0:
312,280,267326,1,8,2:0:0:0:
512,96,267546,6,0,P|464:87|416:77,1,97.058136287435,2|0,2:0|3:0,2:0:0:0:
328,184,267987,1,2,2:0:0:0:
152,24,268208,6,0,P|176:64|168:111,1,97.058136287435,10|2,2:0|2:0,2:0:0:0:
120,184,268539,1,2,2:0:0:0:
112,176,268649,2,0,L|64:186,2,48.5290681437174,2|2|2,3:2|2:0|2:0,2:0:0:0:
152,328,269090,6,0,P|104:318|57:309,1,97.058136287435,8|2,2:0|2:0,2:0:0:0:
208,200,269532,1,0,3:0:0:0:
264,384,269752,1,2,2:0:0:0:
464,264,269973,2,0,B|424:233|424:233|378:242,1,97.058136287435,8|2,2:0|2:0,2:0:0:0:
325,300,270304,1,2,2:0:0:0:
325,300,270414,6,0,P|307:207|389:163,1,198.528007553101,6|0,3:2|2:0,2:0:0:0:
387,163,270855,1,8,2:0:0:0:
264,384,271076,6,0,B|160:355|227:301|115:270,1,193.677445908203,2|2,2:0|2:0,2:0:0:0:
40,312,271627,1,2,2:0:0:0:
40,312,271737,2,0,L|32:360,2,48.5290681437174,10|2|2,2:0|2:0|2:0,2:0:0:0:
192,144,272179,5,0,3:0:0:0:
24,120,272399,1,2,2:0:0:0:
24,120,272510,1,2,2:0:0:0:
24,120,272620,2,0,L|32:168,1,48.5290681437174,10|2,2:0|2:0,2:0:0:0:
127,267,272840,2,0,L|135:219,1,48.5290681437174,2|2,2:0|2:0,2:0:0:0:
207,43,273061,5,2,3:2:0:0:
255,67,273171,1,2,2:0:0:0:
279,123,273282,1,2,2:0:0:0:
279,179,273392,1,2,2:0:0:0:
257,232,273502,1,10,2:0:0:0:
223,263,273612,1,2,2:0:0:0:
175,275,273723,1,2,2:0:0:0:
143,272,273833,1,2,2:0:0:0:
127,267,273943,6,0,B|91:210|167:147|260:169|321:313|237:426|154:450|35:444|-116:442|-190:58|36:-50|327:43|211:152|340:185|446:110|467:11|467:11|502:127|459:222|332:222|332:222|387:242|415:313|412:370|412:370|362:318|287:323,1,1689.5999484375,6|0,3:2|2:0,2:0:0:0:
