osu file format v14

[General]
AudioFilename: audio.mp3
AudioLeadIn: 0
PreviewTime: 45526
Countdown: 0
SampleSet: Soft
StackLeniency: 0.7
Mode: 0
LetterboxInBreaks: 0
WidescreenStoryboard: 1

[Editor]
Bookmarks: 273943,281002
DistanceSpacing: 1
BeatDivisor: 4
GridSize: 32
TimelineZoom: 1

[Metadata]
Title:Perfect Sky
TitleUnicode:Perfect Sky
Artist:Shimotsuki Haruka
ArtistUnicode:霜月はるか
Creator:Kazato Asa
Version:Easy
Source:この大空に、翼をひろげて
Tags:Shizuku- Kono Oozora ni, Tsubasa o Hirogete Konosora If My Heart Had Wings IMHHW PULLTOP WillPlus pv op ed opening ending vn visual novel galgame Kenichi Okuma おおくま けんいち 大熊謙一 TWOFIVE Shimotsukin jpop pop eroge video game japanese
BeatmapID:2560717
BeatmapSetID:1230415

[Difficulty]
HPDrainRate:3
CircleSize:3
OverallDifficulty:3
ApproachRate:4
SliderMultiplier:0.96
SliderTickRate:1

[Events]
//Background and Video events
0,0,"HUT_07_002B.jpg",0,0
//Break Periods
2,98996,111594
2,171790,173800
//Storyboard Layer 0 (Background)
//Storyboard Layer 1 (Fail)
//Storyboard Layer 2 (Pass)
//Storyboard Layer 3 (Foreground)
//Storyboard Layer 4 (Overlay)
//Storyboard Sound Samples

[TimingPoints]
1299,441.176470588235,3,2,1,40,1,0
4828,-100,3,2,1,50,0,0
5269,-100,3,2,1,60,0,0
6151,-100,3,2,2,60,0,0
6593,-100,3,2,1,60,0,0
7254,-100,3,2,3,60,0,0
7916,-100,3,2,1,60,0,0
8357,441.176470588235,4,2,1,60,1,0
9018,-100,4,2,3,60,0,0
11445,-100,4,2,1,60,0,0
12547,-100,4,2,3,60,0,0
15415,-100,4,2,1,50,0,0
16298,-100,4,2,3,50,0,0
17621,-100,4,2,1,50,0,0
18503,-100,4,2,3,50,0,0
18945,-100,4,2,1,50,0,0
19827,-100,4,2,3,50,0,0
21370,-100,4,2,2,50,0,0
22032,-100,4,2,3,50,0,0
22915,-100,4,2,1,50,0,0
23356,-100,4,2,3,50,0,0
24679,-100,4,2,1,50,0,0
25562,-100,4,2,3,50,0,0
26004,-100,4,2,1,50,0,0
26886,-100,4,2,3,50,0,0
27768,-100,4,2,1,50,0,0
27988,-100,4,2,3,50,0,0
28209,-100,4,2,2,50,0,0
29092,-100,4,2,1,50,0,0
30194,-100,4,2,3,50,0,0
30856,-100,4,2,1,50,0,0
32621,-100,4,2,2,50,0,0
33062,-100,4,2,3,50,0,0
36151,-100,4,2,1,50,0,0
39017,-100,4,2,3,50,0,0
39679,-100,4,2,1,50,0,0
42547,-100,4,2,3,50,0,0
43209,-100,4,2,1,50,0,0
45856,441.176470588235,4,2,1,70,1,1
46517,-100,4,2,3,70,0,1
47179,-100,4,2,1,70,0,1
50046,-100,4,2,3,70,0,1
51590,-100,4,2,1,70,0,1
57105,-100,4,2,3,70,0,1
57767,-100,4,2,1,70,0,1
60634,-100,4,2,3,70,0,1
61296,-100,4,2,1,70,0,1
64605,-100,4,2,3,70,0,1
65708,-100,4,2,1,70,0,1
71222,-100,4,2,3,70,0,1
72767,-100,4,2,2,70,0,1
73650,-100,4,2,1,70,0,1
74091,-100,4,2,1,65,0,1
78281,-100,4,2,3,65,0,1
78943,-100,4,2,1,65,0,1
80267,-100,4,2,2,65,0,1
80708,-100,4,2,1,65,0,1
81811,-100,4,2,3,65,0,1
82473,-100,4,2,1,65,0,1
84238,-100,4,2,3,65,0,1
84679,-100,4,2,1,60,0,0
88870,-100,4,2,3,60,0,0
91738,-100,4,2,1,60,0,0
92399,-100,4,2,3,60,0,0
92620,-100,4,2,1,60,0,0
95928,-100,4,2,3,60,0,0
96591,-100,4,2,1,60,0,0
97252,-100,4,2,3,60,0,0
98797,-100,4,2,1,50,0,0
112914,-100,4,2,1,60,0,0
113575,-100,4,2,3,60,0,0
114237,-100,4,2,1,60,0,0
116002,-100,4,2,2,60,0,0
116444,-100,4,2,3,60,0,0
119532,-100,4,2,1,60,0,0
122399,-100,4,2,3,60,0,0
123061,-100,4,2,1,60,0,0
125928,-100,4,2,3,60,0,0
126590,-100,4,2,1,60,0,0
128989,441.176470588235,4,2,1,60,1,0
129238,441.176470588235,4,2,1,70,1,1
129899,-100,4,2,3,70,0,1
130561,-100,4,2,1,70,0,1
133428,-100,4,2,3,70,0,1
134972,-100,4,2,1,70,0,1
140487,-100,4,2,3,70,0,1
141149,-100,4,2,1,70,0,1
144016,-100,4,2,3,70,0,1
144678,-100,4,2,1,70,0,1
147987,-100,4,2,3,70,0,1
149090,-100,4,2,1,70,0,1
154604,-100,4,2,3,70,0,1
156149,-100,4,2,2,70,0,1
157031,-100,4,2,1,70,0,1
157473,-100,4,2,1,65,0,1
161663,-100,4,2,3,65,0,1
162325,-100,4,2,1,65,0,1
163649,-100,4,2,2,65,0,1
164090,-100,4,2,1,65,0,1
165193,-100,4,2,3,65,0,1
165855,-100,4,2,1,65,0,1
167620,-100,4,2,3,65,0,1
168061,-100,4,2,1,60,0,0
175781,-100,4,2,3,60,0,0
176443,-100,4,2,1,60,0,0
179310,-100,4,2,3,60,0,0
179972,-100,4,2,1,60,0,0
186369,-100,4,2,3,60,0,0
187031,-100,4,2,1,60,0,0
189898,-100,4,2,3,60,0,0
190560,-100,4,2,1,60,0,0
192326,-100,4,2,3,60,0,0
192767,-100,4,2,1,60,0,0
193428,-100,4,2,3,60,0,0
194090,-100,4,2,1,60,0,0
197178,-100,4,2,2,60,0,0
198502,-100,4,2,3,60,0,0
199826,-100,4,2,2,60,0,0
201149,-100,4,2,3,60,0,0
204679,-100,4,2,2,60,0,0
205561,-100,4,2,3,60,0,0
206885,-100,4,2,2,60,0,0
207767,-100,4,2,3,60,0,0
209090,-100,4,2,2,60,0,0
209973,-100,4,2,3,60,0,0
213943,-100,4,2,2,60,0,0
214385,-100,4,2,3,60,0,0
215267,-100,4,2,2,60,0,0
215708,-100,4,2,3,60,0,0
223649,-100,4,2,1,60,0,0
224090,-100,4,2,5,60,0,0
224532,-100,4,2,3,70,0,1
225855,-100,4,2,1,70,0,1
228722,-100,4,2,3,70,0,1
230266,-100,4,2,1,70,0,1
235781,-100,4,2,3,70,0,1
236443,-100,4,2,1,70,0,1
239310,-100,4,2,3,70,0,1
239972,-100,4,2,1,70,0,1
242840,-100,4,2,3,70,0,1
244384,-100,4,2,1,70,0,1
249898,-100,4,2,3,70,0,1
251443,-100,4,2,2,70,0,1
252326,-100,4,2,3,70,0,1
252767,-100,4,2,1,65,0,1
256957,-100,4,2,3,65,0,1
257619,-100,4,2,1,65,0,1
258943,-100,4,2,2,65,0,1
259385,-100,4,2,1,65,0,1
260487,-100,4,2,3,65,0,1
261149,-100,4,2,1,65,0,1
262914,-100,4,2,3,65,0,1
263355,-100,4,2,1,60,0,0
267546,-100,4,2,3,60,0,0
268208,-100,4,2,1,60,0,0
268649,-100,4,2,2,60,0,0
270414,-100,4,2,3,60,0,0
272620,-100,4,2,2,60,0,0
273061,-100,4,2,3,60,0,0
273943,-100,4,2,1,60,0,0
281002,-100,4,2,1,5,0,0

[Colours]
Combo1 : 149,219,125
Combo2 : 218,184,112

[HitObjects]
224,128,857,5,2,2:2:0:0:
146,70,1299,2,0,P|75:60|13:92,1,144.1664,2|2,2:2|2:2,0:0:0:0:
35,235,2622,2,0,P|105:244|167:212,1,144.1664,2|2,2:2|2:2,0:0:0:0:
225,287,5269,6,0,P|272:278|319:269,1,96.0383999999999,6|10,3:2|2:2,0:0:0:0:
400,320,6151,1,2,3:2:0:0:
489,285,6593,2,0,P|514:219|497:150,1,144.1664,10|2,2:2|2:2,0:0:0:0:
387,57,7916,1,10,3:2:0:0:
295,84,8357,6,0,B|215:59|259:29|178:5,2,144.0576,14|2|8,3:2|2:2|2:2,0:0:0:0:
357,156,10121,2,0,P|350:203|344:251,1,96.0383999999999,0|8,3:0|2:2,0:0:0:0:
320,344,11004,1,0,3:0:0:0:
228,371,11445,1,10,2:2:0:0:
157,305,11886,6,0,B|77:330|121:360|40:384,2,144.0576,6|2|8,3:2|2:2|2:2,0:0:0:0:
212,226,13651,2,0,P|211:178|186:138,1,96.0383999999999,0|8,3:0|2:2,0:0:0:0:
100,95,14533,2,0,L|5:113,2,96.0383999999999,0|8|6,3:0|2:2|3:2,0:0:0:0:
182,45,15856,5,2,3:2:0:0:
267,89,16298,2,0,L|406:53,2,144.0576,2|2|2,3:2|2:2|3:2,0:0:0:0:
186,138,18062,2,0,P|187:186|212:226,1,96.0383999999999,2|2,3:2|3:2,0:0:0:0:
194,320,18945,6,0,B|257:307|257:307|315:345|315:345|371:332,1,192.0768,2|2,3:2|3:2,0:0:0:0:
384,237,20268,1,0,3:0:0:0:
398,142,20709,2,0,P|461:172|485:238,2,144.0576,2|2|2,3:2|2:2|3:2,0:0:0:0:
328,75,22474,5,2,3:2:0:0:
237,108,22915,1,2,3:2:0:0:
149,65,23356,2,0,P|97:19|26:18,2,144.0576,2|2|2,3:2|2:2|3:2,0:0:0:0:
98,147,25121,2,0,P|105:194|112:241,1,96.0383999999999,2|2,3:2|3:2,0:0:0:0:
49,314,26004,6,0,B|151:295|122:383|226:358,1,192.0768,2|2,3:2|3:2,0:0:0:0:
275,276,27327,1,0,3:0:0:0:
249,183,27768,2,0,L|202:172,2,48.0192,2|10|10,3:2|2:2|3:2,0:0:0:0:
294,98,28651,1,0,3:0:0:0:
386,123,29092,1,2,3:2:0:0:
480,142,29533,6,0,P|506:76|482:10,2,144.0576,6|2|10,3:2|2:2|2:2,0:0:0:0:
414,217,31298,1,2,3:2:0:0:
443,308,31739,2,0,P|374:369|283:350,1,192.0768,10|10,2:2|2:2,0:0:0:0:
237,265,33062,6,0,P|249:194|261:123,1,144.1664,2|2,3:2|2:2,0:0:0:0:
224,34,34165,1,2,2:2:0:0:
132,1,34606,2,0,P|62:4|10:51,1,144.1664,2|8,2:2|2:2,0:0:0:0:
29,146,35709,1,0,3:0:0:0:
51,239,36151,1,10,2:2:0:0:
12,327,36592,5,6,3:2:0:0:
92,379,37033,2,0,P|185:356|278:334,1,192.0768,10|10,2:2|2:2,0:0:0:0:
354,275,38356,2,0,B|396:284|416:315|416:315|442:298|482:305,2,144.0576,2|2|10,3:2|2:2|2:2,0:0:0:0:
264,239,40121,5,6,3:2:0:0:
170,258,40562,2,0,P|148:167|202:91,1,192.0768,10|8,2:2|2:2,0:0:0:0:
294,119,41886,2,0,B|351:105|351:105|375:78|375:78|422:65,2,144.0576,2|2|10,3:2|3:2|2:2,0:0:0:0:
200,91,43651,6,0,P|153:97|109:80,1,96.0383999999999,0|8,3:0|2:2,0:0:0:0:
16,52,44533,1,0,3:0:0:0:
36,145,44974,1,8,2:2:0:0:
136,308,45856,6,0,P|67:297|10:337,2,144.0576,6|2|10,3:2|2:2|2:2,0:0:0:0:
209,368,47620,2,0,P|227:325|223:277,1,96.0383999999999,0|8,3:0|2:2,0:0:0:0:
174,194,48503,1,0,3:0:0:0:
198,101,48944,1,8,2:2:0:0:
277,46,49385,6,0,B|316:75|316:75|409:56,1,144.1664,2|2,3:2|2:2,0:0:0:0:
504,38,50488,1,2,2:2:0:0:
476,130,50929,2,0,B|490:189|490:189|485:212|485:212|499:270,1,144.1664,2|10,2:2|2:2,0:0:0:0:
454,355,52032,1,2,3:2:0:0:
364,319,52473,1,10,2:2:0:0:
290,381,52914,5,6,3:2:0:0:
238,300,53355,2,0,P|256:205|272:111,1,192.0768,10|8,2:2|2:2,0:0:0:0:
206,40,54679,2,0,P|247:16|294:16,2,96.0383999999999,0|8|0,3:0|2:2|3:0,0:0:0:0:
162,126,56003,1,8,2:2:0:0:
66,126,56444,6,0,P|24:68|31:-1,2,144.0576,2|2|10,3:2|2:2|2:2,0:0:0:0:
112,210,58208,2,0,L|92:304,1,96.0383999999999,0|10,3:0|2:2,0:0:0:0:
161,370,59091,1,2,3:2:0:0:
238,313,59532,1,10,2:2:0:0:
328,346,59973,6,0,B|403:332|388:395|462:379,2,144.0576,6|2|10,3:2|2:2|2:2,0:0:0:0:
238,313,61738,2,0,P|241:265|246:217,1,96.0383999999999,0|8,3:0|2:2,0:0:0:0:
153,194,62620,2,0,P|149:146|144:98,1,96.0383999999999,0|8,3:0|2:2,0:0:0:0:
199,19,63503,5,2,3:2:0:0:
285,59,63944,2,0,B|354:67|346:16|421:26,1,144.1664,10|2,2:2|2:2,0:0:0:0:
500,81,65047,2,0,P|488:152|479:223,1,144.1664,2|10,2:2|2:2,0:0:0:0:
506,315,66150,1,2,3:2:0:0:
425,366,66591,1,10,2:2:0:0:
329,374,67032,5,6,3:2:0:0:
255,312,67473,2,0,B|263:271|263:271|260:258|260:258|268:218,1,96,10|0,2:2|3:2,0:0:0:0:
281,123,68355,1,8,0:0:0:0:
359,67,68797,2,0,P|404:79|451:70,2,96.0383999999999,0|8|0,3:0|2:2|3:0,0:0:0:0:
281,123,70120,1,8,2:2:0:0:
215,53,70561,6,0,B|159:64|159:64|140:81|140:81|80:94,2,144.0576,2|2|10,3:2|2:2|2:2,0:0:0:0:
281,123,72326,2,0,L|263:217,1,96.0383999999999,0|10,3:0|2:2,0:0:0:0:
246,311,73208,1,2,3:2:0:0:
316,376,73650,1,10,2:2:0:0:
401,331,74091,5,6,3:2:0:0:
483,379,74532,2,0,B|499:297|499:297|494:272|494:272|509:190,1,192.0768,10|10,2:2|2:2,0:0:0:0:
490,96,75855,5,2,3:2:0:0:
395,79,76297,2,0,B|380:161|380:161|385:186|385:186|369:268,1,192.0768,10|8,2:2|2:2,0:0:0:0:
299,332,77620,6,0,P|369:332|428:372,2,144.0576,6|2|10,3:2|2:2|2:2,0:0:0:0:
208,364,79385,2,0,P|160:355|113:346,2,96.0383999999999,0|8|2,3:0|2:2|3:2,0:0:0:0:
299,332,80708,1,10,2:2:0:0:
315,237,81150,6,0,P|244:249|173:263,2,144.0576,6|2|10,3:2|2:2|2:2,0:0:0:0:
403,274,82914,2,0,P|424:231|421:184,1,96.0383999999999,0|8,3:0|2:2,0:0:0:0:
387,93,83797,1,0,3:0:0:0:
303,46,84238,1,10,2:2:0:0:
208,64,84679,5,6,3:2:0:0:
256,192,84900,12,2,87326,3:2:0:0:
352,64,88208,5,6,3:2:0:0:
427,123,88650,2,0,L|473:110,2,48.0192,8|2|2,2:2|2:2|3:2,0:0:0:0:
379,206,89532,1,8,2:2:0:0:
415,294,89973,5,0,3:0:0:0:
359,372,90414,2,0,B|253:331|315:302|203:265,1,192.0768,8|8,2:2|2:2,0:0:0:0:
134,331,91738,5,6,3:2:0:0:
48,287,92179,2,0,L|1:299,2,48.0192,8|2|2,2:2|2:2|3:2,0:0:0:0:
117,220,93061,1,8,2:2:0:0:
73,134,93503,6,0,P|119:122|166:110,1,96.0383999999999,0|8,3:0|2:2,0:0:0:0:
240,50,94385,1,2,3:2:0:0:
314,110,94826,1,10,2:2:0:0:
407,87,95267,6,0,P|445:146|438:216,1,144.1664,6|2,3:2|2:2,0:0:0:0:
447,360,96591,2,0,B|397:349|397:349|356:364|356:364|307:354,1,144.1664,14|2,2:2|2:2,0:0:0:0:
192,268,97914,2,0,L|99:292,2,96,8|8|6,0:0|0:0|3:2,0:0:0:0:
167,109,112914,6,0,B|114:94|114:94|99:73|99:73|38:53,2,144.0576,6|2|10,3:2|2:2|2:2,0:0:0:0:
259,134,114679,1,2,3:2:0:0:
337,78,115120,2,0,P|428:65|488:135,1,192.0768,10|10,2:2|2:2,0:0:0:0:
476,230,116444,6,0,P|405:242|334:256,1,144.1664,2|2,3:2|2:2,0:0:0:0:
258,315,117547,1,2,2:2:0:0:
170,274,117988,2,0,B|160:217|160:217|171:182|171:182|161:133,1,144.1664,2|8,2:2|2:2,0:0:0:0:
143,39,119091,1,0,3:0:0:0:
236,58,119532,1,10,2:2:0:0:
318,9,119973,5,6,3:2:0:0:
409,38,120414,2,0,P|439:126|398:210,1,192.0768,10|10,2:2|2:2,0:0:0:0:
325,271,121738,2,0,P|395:276|451:319,2,144.0576,2|2|10,3:2|2:2|2:2,0:0:0:0:
254,337,123503,5,6,3:2:0:0:
162,307,123944,2,0,B|147:242|147:242|171:186|171:186|156:123,1,192.0768,10|8,2:2|2:2,0:0:0:0:
236,71,125267,6,0,P|177:31|108:42,2,144.0576,2|2|10,3:2|3:2|2:2,0:0:0:0:
291,149,127032,2,0,L|385:128,1,96.0383999999999,0|8,3:0|2:2,0:0:0:0:
478,106,127914,1,0,3:0:0:0:
451,198,128355,1,8,2:2:0:0:
345,358,129238,6,0,B|398:348|398:348|429:362|429:362|483:350,2,144.0576,6|2|10,3:2|2:2|2:2,0:0:0:0:
250,376,131002,2,0,P|232:333|236:285,1,96.0383999999999,0|8,3:0|2:2,0:0:0:0:
295,209,131885,1,0,3:0:0:0:
309,114,132326,1,8,2:2:0:0:
258,32,132767,6,0,B|188:46|188:46|183:41|183:41|118:53,1,144.1664,2|2,3:2|2:2,0:0:0:0:
28,19,133870,1,2,2:2:0:0:
2,111,134311,2,0,P|10:182|20:253,1,144.1664,2|10,2:2|2:2,0:0:0:0:
30,349,135414,1,2,3:2:0:0:
111,298,135855,1,10,2:2:0:0:
206,307,136296,5,6,3:2:0:0:
275,372,136738,2,0,P|326:293|317:199,1,191.8592,10|8,2:2|2:2,0:0:0:0:
249,131,138061,2,0,L|155:151,2,96.0383999999999,0|8|0,3:0|2:2|3:0,0:0:0:0:
268,36,139385,1,8,2:2:0:0:
363,46,139826,6,0,B|419:31|419:31|426:19|426:19|495:-1,2,144.0576,2|2|10,3:2|2:2|2:2,0:0:0:0:
268,36,141590,2,0,L|174:56,1,96.0383999999999,0|10,3:0|2:2,0:0:0:0:
81,31,142473,1,2,3:2:0:0:
40,117,142914,1,10,2:2:0:0:
96,194,143355,6,0,L|67:335,2,144.0576,6|2|10,3:2|2:2|2:2,0:0:0:0:
180,147,145120,2,0,L|274:127,1,96.0383999999999,0|8,3:0|2:2,0:0:0:0:
344,60,146002,2,0,P|391:58|432:82,1,96.0383999999999,0|8,3:0|2:2,0:0:0:0:
464,172,146885,5,2,3:2:0:0:
423,259,147326,2,0,B|356:242|356:242|301:293,1,144.1664,10|2,2:2|2:2,0:0:0:0:
246,371,148429,2,0,P|209:311|222:241,1,144.1664,2|10,2:2|2:2,0:0:0:0:
276,162,149532,1,2,3:2:0:0:
281,66,149973,1,10,2:2:0:0:
203,9,150414,5,6,3:2:0:0:
107,0,150855,2,0,B|59:17|51:72,1,96,10|0,2:2|3:2,0:0:0:0:
61,166,151738,1,8,0:0:0:0:
95,255,152179,2,0,P|47:259|3:240,2,96.0383999999999,0|8|0,3:0|2:2|3:0,0:0:0:0:
186,286,153502,1,8,2:2:0:0:
249,213,153943,6,0,B|260:140|272:70,2,144.0576,2|2|10,3:2|2:2|2:2,0:0:0:0:
186,286,155708,2,0,P|227:309|274:311,1,96.0383999999999,0|10,3:0|2:2,0:0:0:0:
347,373,156590,2,0,P|393:361|440:351,1,96.0383999999999,2|10,3:2|2:2,0:0:0:0:
503,278,157473,5,6,3:2:0:0:
510,182,157914,2,0,P|482:93|395:64,1,192.0768,10|10,2:2|2:2,0:0:0:0:
318,6,159237,5,2,3:2:0:0:
230,46,159679,2,0,P|244:140|260:235,1,192.0768,10|8,2:2|2:2,0:0:0:0:
270,331,161002,6,0,B|345:331|327:380|401:380,2,144,6|2|10,3:2|2:2|2:2,0:0:0:0:
181,294,162767,1,0,3:0:0:0:
118,366,163208,2,0,P|93:325|91:278,1,96.0383999999999,8|2,2:2|3:2,0:0:0:0:
149,201,164090,1,10,2:2:0:0:
123,108,164532,6,0,B|46:91|78:55|-1:41,2,144.0576,6|2|10,3:2|2:2|2:2,0:0:0:0:
198,49,166296,2,0,P|245:56|292:63,1,96.0383999999999,0|8,3:0|2:2,0:0:0:0:
376,16,167179,1,0,3:0:0:0:
445,82,167620,1,10,2:2:0:0:
403,168,168061,5,6,3:2:0:0:
256,192,168282,12,6,171590,3:2:0:0:
342,267,175120,6,0,P|411:254|472:290,2,144.0576,6|2|10,3:2|2:2|2:2,0:0:0:0:
269,331,176885,2,0,P|250:288|254:241,1,96.0383999999999,0|8,3:0|2:2,0:0:0:0:
298,155,177767,1,2,3:2:0:0:
261,66,178208,1,10,2:2:0:0:
181,12,178649,6,0,B|127:5|127:5|100:22|100:22|42:14,2,144.0576,6|2|10,3:2|2:2|2:2,0:0:0:0:
151,103,180414,1,0,3:0:0:0:
129,196,180855,2,0,P|82:199|38:182,2,96.0383999999999,8|2|10,2:2|3:2|2:2,0:0:0:0:
221,169,182179,5,6,3:2:0:0:
270,86,182620,2,0,P|318:164|283:250,1,192.0768,8|10,2:2|2:2,0:0:0:0:
236,333,183943,2,0,L|141:349,2,96.0383999999999,0|8|2,3:0|2:2|3:2,0:0:0:0:
283,250,185267,1,10,2:2:0:0:
377,232,185708,6,0,P|436:270|458:337,2,144.0576,6|2|10,3:2|2:2|2:2,0:0:0:0:
316,157,187473,2,0,L|221:141,1,96.0383999999999,0|8,3:0|2:2,0:0:0:0:
152,73,188355,1,2,3:2:0:0:
63,110,188796,1,10,2:2:0:0:
76,205,189237,6,0,L|52:347,2,144.0576,6|2|10,3:2|2:2|2:2,0:0:0:0:
171,217,191002,2,0,L|186:122,2,96.0383999999999,0|8|0,3:0|2:2|3:0,0:0:0:0:
231,291,192326,1,10,2:2:0:0:
324,270,192767,6,0,B|390:256|390:256|398:264|398:264|461:250,2,144.0576,6|2|10,3:2|2:2|2:2,0:0:0:0:
289,359,194532,2,0,B|212:346|212:346|171:366|171:366|103:358|103:358|65:322|79:268,1,288.1152,0|8,3:0|2:2,0:0:0:0:
13,199,196296,6,0,P|105:205|168:137,1,192.0768,6|2,3:2|3:2,0:0:0:0:
193,44,197620,1,10,2:2:0:0:
283,74,198061,1,2,3:2:0:0:
359,15,198502,2,0,B|385:81|385:81|363:129|363:129|382:194,1,192.0768,10|10,2:2|2:2,0:0:0:0:
448,264,199826,6,0,P|386:333|293:329,1,192.0768,6|2,3:2|3:2,0:0:0:0:
230,257,201149,1,10,2:2:0:0:
262,166,201590,2,0,P|266:95|224:38,1,144.1664,0|2,3:0|2:2,0:0:0:0:
129,21,202693,1,2,2:2:0:0:
27,122,203355,6,0,P|43:216|59:311,1,192.0768,6|2,3:2|3:2,0:0:0:0:
136,368,204679,1,10,2:2:0:0:
228,342,205120,2,0,P|245:298|238:251,1,96.0383999999999,2|10,3:2|2:2,0:0:0:0:
177,177,206002,1,2,3:2:0:0:
178,81,206443,1,10,2:2:0:0:
251,18,206885,6,0,B|324:6|324:6|364:22|364:22|437:6,1,192.0768,6|2,3:2|3:2,0:0:0:0:
507,72,208208,1,10,2:2:0:0:
461,156,208649,2,0,L|482:249,1,96.0383999999999,2|10,3:2|2:2,0:0:0:0:
500,343,209532,1,2,3:2:0:0:
409,312,209973,1,10,2:2:0:0:
341,380,210414,6,0,P|282:308|289:215,1,192.0768,6|2,3:2|3:2,0:0:0:0:
342,135,211737,1,10,2:2:0:0:
295,50,212179,2,0,B|366:35|366:35|377:40|377:40|435:27,2,144.0576,2|2|10,3:2|2:2|2:2,0:0:0:0:
208,9,213943,5,6,3:2:0:0:
148,85,214385,2,0,P|101:85|58:65,2,96.0383999999999,10|2|10,2:2|3:2|2:2,0:0:0:0:
213,155,215708,2,0,L|200:250,1,96.0383999999999,2|10,3:2|2:2,0:0:0:0:
187,345,216590,2,0,P|234:346|277:366,1,96.0383999999999,2|10,3:2|2:2,0:0:0:0:
360,318,217473,5,6,3:2:0:0:
440,370,217914,1,10,2:2:0:0:
511,305,218355,2,0,P|502:257|493:210,1,96.0383999999999,2|10,3:2|2:2,0:0:0:0:
429,139,219237,2,0,P|437:91|446:44,2,96.0383999999999,2|10|2,3:2|2:2|3:2,0:0:0:0:
348,191,220561,6,0,B|246:174|268:247|166:230,1,192.0768,10|10,2:2|2:2,0:0:0:0:
90,172,221885,2,0,P|69:214|72:261,1,96.0383999999999,2|10,3:2|2:2,0:0:0:0:
112,349,222767,2,0,P|65:361|19:372,2,96.0383999999999,2|10|2,3:2|2:2|3:2,0:0:0:0:
204,324,224090,1,10,2:2:0:0:
281,267,224532,6,0,B|360:291|317:318|396:347,2,144.0576,6|2|10,3:2|2:2|2:2,0:0:0:0:
193,228,226296,2,0,P|201:180|211:133,1,96.0383999999999,0|8,3:0|2:2,0:0:0:0:
180,42,227179,1,0,3:0:0:0:
87,15,227620,1,8,2:2:0:0:
0,56,228061,6,0,P|14:126|26:197,1,144.1664,2|2,3:2|2:2,0:0:0:0:
11,292,229164,1,2,2:2:0:0:
77,360,229605,2,0,B|154:337|117:303|193:281,1,144.1664,2|10,2:2|2:2,0:0:0:0:
281,243,230708,1,2,3:2:0:0:
301,149,231149,1,10,2:2:0:0:
230,83,231590,5,6,3:2:0:0:
284,3,232032,2,0,P|377:-3|449:59,1,192.0768,10|8,2:2|2:2,0:0:0:0:
423,150,233355,2,0,P|376:159|329:167,2,96.0383999999999,0|8|0,3:0|2:2|3:0,0:0:0:0:
445,243,234679,1,8,2:2:0:0:
366,298,235120,6,0,P|424:337|493:327,2,144.0576,2|2|10,3:2|2:2|2:2,0:0:0:0:
281,252,236885,2,0,P|234:261|187:269,1,96.0383999999999,0|8,3:0|2:2,0:0:0:0:
131,348,237767,2,0,P|101:311|94:264,1,96.0383999999999,2|10,3:2|2:2,0:0:0:0:
144,182,238649,2,0,B|81:173|81:173|75:163|75:163|7:152,2,144.0576,6|2|10,3:2|2:2|2:2,0:0:0:0:
217,244,240414,2,0,P|235:200|232:152,1,96.0383999999999,0|8,3:0|2:2,0:0:0:0:
202,61,241296,1,0,3:0:0:0:
278,2,241737,1,8,2:2:0:0:
367,37,242179,6,0,B|438:25|438:25|489:75,1,144.1664,2|2,3:2|2:2,0:0:0:0:
458,166,243282,1,2,2:2:0:0:
511,245,243723,2,0,L|370:274,1,144.1664,2|10,2:2|2:2,0:0:0:0:
307,346,244826,1,2,3:2:0:0:
215,318,245267,1,10,2:2:0:0:
221,222,245708,5,6,3:2:0:0:
312,192,246149,2,0,P|332:149|331:101,1,96,10|0,2:2|3:2,0:0:0:0:
273,23,247032,1,8,0:0:0:0:
178,12,247473,1,0,3:0:0:0:
102,71,247914,2,0,L|7:56,2,96.0383999999999,8|0|8,2:2|3:0|2:2,0:0:0:0:
134,161,249237,6,0,B|78:172|78:172|59:189|59:189|-1:202,2,144.0576,2|2|10,3:2|2:2|2:2,0:0:0:0:
226,135,251002,2,0,L|208:229,1,96.0383999999999,0|10,3:0|2:2,0:0:0:0:
189,323,251885,1,2,3:2:0:0:
265,381,252326,1,10,2:2:0:0:
351,338,252767,5,6,3:2:0:0:
436,380,253208,2,0,B|470:349|470:349|445:205,1,192.0768,10|10,2:2|2:2,0:0:0:0:
491,120,254532,1,2,3:2:0:0:
440,38,254973,2,0,B|340:21|357:91|257:74,1,192.0768,10|8,2:2|2:2,0:0:0:0:
192,145,256296,6,0,P|162:80|180:12,2,144.0576,6|2|10,3:2|2:2|2:2,0:0:0:0:
275,193,258061,2,0,P|323:184|370:175,1,96.0383999999999,0|8,3:0|2:2,0:0:0:0:
463,159,258943,1,2,3:2:0:0:
508,244,259385,1,10,2:2:0:0:
452,322,259826,6,0,B|400:316|400:316|374:328|374:328|312:320,1,144.1664,6|2,3:2|2:2,0:0:0:0:
178,376,261149,2,0,B|162:304|162:304|181:266|181:266|164:192,1,192.0768,10|8,2:2|2:2,0:0:0:0:
137,99,262473,1,0,3:0:0:0:
200,27,262914,1,10,2:2:0:0:
289,60,263355,6,0,B|384:86|376:12|472:32,2,192.0768,6|0|0,3:2|3:0|3:0,0:0:0:0:
222,129,265561,1,10,2:2:0:0:
130,100,266002,2,0,P|106:141|104:188,1,96.0383999999999,2|10,3:2|2:2,0:0:0:0:
139,278,266885,6,0,B|67:269|78:321|3:313,2,144.0576,2|2|10,3:2|2:2|2:2,0:0:0:0:
215,335,268649,1,2,3:2:0:0:
302,295,269090,2,0,B|315:213|315:213|307:190|307:190|321:106,1,192.0768,8|8,2:2|2:2,0:0:0:0:
270,25,270414,6,0,P|339:13|398:51,2,144.0576,6|2|10,3:2|2:2|2:2,0:0:0:0:
201,92,272179,1,0,3:0:0:0:
198,187,272620,2,0,L|104:210,2,96.0383999999999,10|2|10,2:2|3:2|2:2,0:0:0:0:
256,263,273943,5,6,3:2:0:0:
256,192,274164,12,0,281002,0:0:0:0:
