osu file format v14

[General]
AudioFilename: audio.mp3
AudioLeadIn: 0
PreviewTime: 73707
Countdown: 0
SampleSet: Soft
StackLeniency: 0.7
Mode: 0
LetterboxInBreaks: 0
WidescreenStoryboard: 1

[Editor]
Bookmarks: 622,5728,13387,33813,54239,74664,115515,135941,156366,176792,217643,243562,258858,263964,284425,300948
DistanceSpacing: 0.4
BeatDivisor: 8
GridSize: 4
TimelineZoom: 1.4

[Metadata]
Title:Nijiiro Sekai
TitleUnicode:虹色世界
Artist:Shimotsuki Haruka
ArtistUnicode:霜月はるか
Creator:Mcen314
Version:Rainbow World
Source:猛獣たちとお姫様 ~in blossom~
Tags:princess moujuu tachi to ohime sama ending ed
BeatmapID:1607980
BeatmapSetID:764717

[Difficulty]
HPDrainRate:5.2
CircleSize:4
OverallDifficulty:8.2
ApproachRate:8.6
SliderMultiplier:2.64
SliderTickRate:1

[Events]
//Background and Video events
0,0,"BG123.jpg",0,0
//Break Periods
//Storyboard Layer 0 (Background)
//Storyboard Layer 1 (Fail)
//Storyboard Layer 2 (Pass)
//Storyboard Layer 3 (Foreground)
//Storyboard Layer 4 (Overlay)
//Storyboard Sound Samples

[TimingPoints]
622,638.297872340426,4,2,32,28,1,0
622,-166.666666666667,4,2,32,28,0,0
5249,-166.666666666667,4,2,16,36,0,0
5409,-166.666666666667,4,2,16,44,0,0
5568,-166.666666666667,4,2,16,52,0,0
5728,-83.3333333333333,4,2,16,60,0,0
13068,-285.714285714286,4,2,32,30,0,0
23600,-142.857142857143,4,2,32,34,0,0
33813,-83.3333333333333,4,2,16,44,0,0
49132,-74.0740740740741,4,2,16,44,0,0
49611,-83.3333333333333,4,2,16,44,0,0
51685,-76.9230769230769,4,2,16,44,0,0
53600,-200,4,2,16,44,0,0
54239,-80,4,2,16,52,0,0
63175,-133.333333333333,4,2,16,56,0,0
63813,-100,4,2,16,60,0,0
64451,-80,4,2,16,52,0,0
69558,-76.9230769230769,4,2,16,60,0,0
72111,-83.3333333333333,4,2,16,60,0,0
74664,-76.9230769230769,4,2,16,66,0,1
84239,-76.9230769230769,4,2,16,66,0,0
84877,-76.9230769230769,4,2,16,66,0,1
92536,-90.9090909090909,4,2,16,66,0,1
93175,-80,4,2,16,66,0,1
93813,-71.4285714285714,4,2,16,66,0,1
94451,-71.4285714285714,4,2,16,66,0,0
95090,-76.9230769230769,4,2,16,66,0,1
104664,-76.9230769230769,4,2,16,66,0,0
105302,-76.9230769230769,4,2,16,66,0,1
107856,-90.9090909090909,4,2,16,66,0,1
108334,-80,4,2,16,66,0,1
108813,-71.4285714285714,4,2,16,66,0,1
109132,-66.6666666666667,4,2,16,66,0,1
110409,-76.9230769230769,4,2,16,66,0,1
115515,-71.4285714285714,4,2,16,66,0,0
115834,-71.4285714285714,4,2,16,36,0,0
115994,-71.4285714285714,4,2,16,66,0,0
116313,-142.857142857143,4,2,16,36,0,0
120622,-71.4285714285714,4,2,16,66,0,0
120941,-71.4285714285714,4,2,16,36,0,0
121100,-71.4285714285714,4,2,16,66,0,0
121419,-142.857142857143,4,2,16,36,0,0
125728,-71.4285714285714,4,2,16,66,0,0
126047,-71.4285714285714,4,2,16,36,0,0
126207,-71.4285714285714,4,2,16,66,0,0
126526,-142.857142857143,4,2,16,36,0,0
128281,-71.4285714285714,4,2,16,66,0,0
128600,-71.4285714285714,4,2,16,36,0,0
128760,-71.4285714285714,4,2,16,66,0,0
129079,-142.857142857143,4,2,16,36,0,0
130834,-71.4285714285714,4,2,16,66,0,0
131153,-71.4285714285714,4,2,16,36,0,0
131313,-71.4285714285714,4,2,16,66,0,0
131632,-142.857142857143,4,2,16,36,0,0
133387,-125,4,2,16,44,0,0
134664,-100,4,2,16,44,0,0
135941,-90.9090909090909,4,2,16,44,0,0
146153,-83.3333333333333,4,2,16,44,0,0
155728,-200,4,2,16,52,0,0
156366,-80,4,2,16,52,0,0
165302,-72.7272727272727,4,2,16,56,0,0
165941,-66.6666666666667,4,2,16,60,0,0
166579,-80,4,2,16,52,0,0
171685,-80,4,2,16,60,0,0
176792,-76.9230769230769,4,2,16,66,0,1
186366,-76.9230769230769,4,2,16,66,0,0
187004,-76.9230769230769,4,2,16,66,0,1
194664,-90.9090909090909,4,2,16,66,0,1
195302,-80,4,2,16,66,0,1
195941,-71.4285714285714,4,2,16,66,0,1
196579,-71.4285714285714,4,2,16,66,0,0
197217,-76.9230769230769,4,2,16,66,0,1
206792,-76.9230769230769,4,2,16,66,0,0
207430,-76.9230769230769,4,2,16,66,0,1
209983,-90.9090909090909,4,2,16,66,0,1
210462,-80,4,2,16,66,0,1
210941,-71.4285714285714,4,2,16,66,0,1
211260,-66.6666666666667,4,2,16,66,0,1
212536,-76.9230769230769,4,2,16,66,0,1
217643,-166.666666666667,4,2,16,30,0,0
227856,-142.857142857143,4,2,16,36,0,0
235515,641.711229946524,4,2,16,36,1,0
235515,-142.857142857143,4,2,16,36,0,0
238081,645.161290322581,4,2,16,30,1,0
238081,-166.666666666667,4,2,16,30,0,0
240016,705.882352941176,4,2,16,30,1,0
240016,-166.666666666667,4,2,16,30,0,0
240721,710.059171597633,4,2,16,26,1,0
240721,-200,4,2,16,26,0,0
243561,666.666666666667,4,2,32,30,1,0
244894,625,4,2,32,30,1,0
246144,631.578947368421,4,2,32,30,1,0
247408,618.556701030928,4,2,32,30,1,0
248645,651.465798045603,4,2,32,30,1,0
249947,631.578947368421,4,2,32,30,1,0
251210,641.711229946524,4,2,32,30,1,0
252492,631.578947368421,4,2,32,30,1,0
252492,-200,4,2,32,30,0,0
253755,638.297872340426,4,2,32,30,1,0
258858,-90.9090909090909,4,2,16,60,0,0
261411,-82.6446280991736,4,2,16,60,0,0
262049,-72.7272727272727,4,2,16,60,0,0
262688,-64.9350649350649,4,2,16,60,0,0
263967,-69.9300699300699,4,2,16,72,0,1
273542,-69.9300699300699,4,2,16,72,0,0
274180,-69.9300699300699,4,2,16,72,0,1
276729,-82.6446280991736,4,2,16,72,0,1
277208,-72.7272727272727,4,2,16,72,0,1
277687,-64.9350649350649,4,2,16,72,0,1
278006,-60.6060606060606,4,2,16,72,0,1
279283,-69.9300699300699,4,2,16,72,0,1
284074,705.882352941177,4,2,16,72,1,1
284425,722.89156626506,4,2,32,30,1,0
284786,631.578947368421,4,2,32,30,1,0
285733,638.297872340426,4,2,32,30,1,0
285733,-166.666666666667,4,2,32,30,0,0
286052,674.157303370787,4,2,32,30,1,0
286389,714.285714285714,4,2,32,30,1,0
286389,-166.666666666667,4,2,32,30,0,0
286746,895.522388059701,4,2,32,30,1,0
287193,821.917808219178,4,2,32,32,1,0
290480,991.735537190083,4,2,32,12,1,0
292339,-100,4,2,32,22,0,0
292463,1090.90909090909,4,2,32,22,1,0
293553,1395.3488372093,4,2,32,22,1,0
294948,1500,4,2,32,22,1,0
296444,-100,4,2,32,18,0,0
297944,-100,4,2,32,14,0,0
299444,-100,4,2,32,10,0,0
300944,-100,4,1,32,6,0,0

[Colours]
Combo1 : 170,245,170
Combo2 : 190,160,255
Combo3 : 255,200,140
Combo4 : 250,190,230

[HitObjects]
195,83,622,5,4,0:0:0:0:
133,151,941,2,0,L|134:235,2,79.1999975830079
331,100,1898,2,0,P|317:147|217:175,1,158.399995166016,2|0,0:0|0:0,0:0:0:0:
65,132,2856,1,2,0:0:0:0:
92,218,3175,6,0,P|96:255|84:297,1,79.1999975830079,6|0,0:0|0:0,0:0:0:0:
189,340,3813,2,0,P|224:330|269:339,1,79.1999975830079,2|0,0:0|0:0,0:0:0:0:
276,342,4292,1,2,0:0:0:0:
289,348,4451,2,0,P|334:361|376:357,1,79.1999975830079,6|0,0:0|0:0,0:0:0:0:
388,342,5090,5,0,0:0:0:0:
397,220,5249,1,8,0:3:0:0:
332,274,5409,1,0,1:0:0:0:
451,278,5568,1,0,1:0:0:0:
458,156,5728,6,0,P|377:134|314:192,1,158.399995166016,4|0,1:2|0:0,0:0:0:0:
93,294,6366,2,0,P|157:321|246:295,1,158.399995166016,8|0,0:0|1:0,0:0:0:0:
254,219,6845,1,8,0:0:0:0:
174,170,7004,2,0,B|157:87|157:87|191:14,1,158.399995166016,0|0,1:0|1:0,0:0:0:0:
441,43,7643,2,0,B|462:95|462:95|431:195,1,158.399995166016,8|0,0:0|0:0,0:0:0:0:
313,275,8281,6,0,P|364:205|457:199,1,158.399995166016,0|0,1:0|0:0,0:0:0:0:
194,343,8919,2,0,L|216:175,1,158.399995166016,8|0,0:0|0:0,0:0:0:0:
231,62,9398,1,8,0:0:0:0:
146,28,9558,5,0,1:0:0:0:
275,139,9717,2,0,P|306:109|295:0,1,158.399995166016,0|0,1:0|0:0,0:0:0:0:
159,139,10196,1,8,0:0:0:0:
103,216,10356,1,8,0:3:0:0:
63,125,10515,1,0,1:0:0:0:
159,139,10675,1,0,1:0:0:0:
26,252,10834,6,0,P|115:301|167:275,1,158.399995166016,4|0,1:2|1:0,0:0:0:0:
343,151,11313,1,0,1:0:0:0:
302,282,11473,1,8,0:0:0:0:
427,255,11632,1,8,0:3:0:0:
332,143,11792,1,0,1:0:0:0:
434,263,11951,1,0,1:0:0:0:
322,132,12111,5,4,1:2:0:0:
322,132,13068,5,0,0:0:0:0:
329,122,13387,2,0,P|333:88|306:35,1,92.3999971801759,6|0,0:0|0:0,0:0:0:0:
180,44,14345,1,0,0:0:0:0:
187,53,14664,2,0,P|188:80|149:138,1,92.3999971801759,10|0,0:0|0:0,0:0:0:0:
57,235,15622,5,0,0:0:0:0:
65,248,15941,2,0,L|161:256,1,92.3999971801759,6|0,0:0|0:0,0:0:0:0:
300,216,16898,2,0,L|297:184,1,23.099999295044
232,234,17217,2,0,P|243:261|302:289,1,92.3999971801759,10|2,0:0|0:0,0:0:0:0:
481,313,18175,5,0,0:0:0:0:
470,327,18494,2,0,L|370:338,1,92.3999971801759,6|2,0:0|0:0,0:0:0:0:
176,347,19451,1,0,0:0:0:0:
160,337,19770,2,0,P|154:314|164:246,1,92.3999971801759,10|2,0:0|0:0,0:0:0:0:
215,115,20728,5,0,0:0:0:0:
228,127,21047,2,0,P|258:137|319:124,1,92.3999971801759,6|2,0:0|0:0,0:0:0:0:
410,42,22004,1,2,0:0:0:0:
473,168,22324,5,10,0:0:0:0:
444,241,22643,1,2,0:0:0:0:
387,263,22962,1,2,0:0:0:0:
340,257,23281,1,2,0:0:0:0:
362,350,23600,6,0,P|403:336|461:348,1,92.3999971801759,2|0,0:1|0:0,0:0:0:0:
258,269,24079,2,0,L|269:376,1,92.3999971801759,2|0,0:1|0:0,0:0:0:0:
306,195,24558,2,0,L|312:144,1,46.1999985900879,2|0,0:1|0:0,0:0:0:0:
119,172,24877,6,0,P|88:180|22:161,1,92.3999971801759,2|0,0:0|0:0,0:0:0:0:
184,28,25515,1,2,0:0:0:0:
278,196,25834,2,0,L|238:211,3,23.099999295044
226,223,26153,6,0,L|228:126,1,92.3999971801759,2|0,0:1|0:0,0:0:0:0:
313,272,26632,2,0,B|287:314|287:314|230:334,1,92.3999971801759,2|0,0:1|0:0,0:0:0:0:
406,327,27111,2,0,L|455:339,1,46.1999985900879,2|0,0:1|0:0,0:0:0:0:
448,200,27430,5,2,0:0:0:0:
263,50,27749,1,0,0:0:0:0:
453,104,28068,1,2,0:0:0:0:
234,134,28387,1,0,0:0:0:0:
327,299,28707,6,0,L|428:296,1,92.3999971801759,2|0,0:1|0:0,0:0:0:0:
228,265,29185,2,0,P|188:280|157:335,1,92.3999971801759,2|0,0:1|0:0,0:0:0:0:
302,197,29664,2,0,P|301:168|292:144,1,46.1999985900879,2|0,0:1|0:0,0:0:0:0:
205,184,29983,5,2,0:0:0:0:
417,133,30302,1,0,0:0:0:0:
211,90,30622,1,2,0:0:0:0:
392,222,30941,1,0,0:0:0:0:
168,19,31260,6,0,P|137:52|131:109,1,92.3999971801759,2|0,0:1|0:0,0:0:0:0:
178,182,31739,1,2,0:1:0:0:
264,225,31898,2,0,L|267:171,1,46.1999985900879
91,231,32217,2,0,L|98:286,1,46.1999985900879,2|0,1:0|0:0,0:0:0:0:
280,347,32536,6,0,L|380:337,1,92.3999971801759,2|0,0:0|0:0,0:0:0:0:
337,57,33175,2,0,L|234:48,1,92.3999971801759,2|0,0:0|0:0,0:0:0:0:
225,51,33574,1,0,0:0:0:0:
209,58,33653,1,0,0:0:0:0:
196,71,33733,1,0,0:0:0:0:
188,82,33813,6,0,P|227:113|354:121,1,158.399995166016,0|0,1:2|0:0,0:0:0:0:
137,190,34292,2,0,P|84:182|52:271,1,158.399995166016,0|0,1:2|0:0,0:0:0:0:
47,24,34770,2,0,L|66:108,1,79.1999975830079,0|0,1:0|0:0,0:0:0:0:
207,351,35090,6,0,L|223:178,1,158.399995166016,8|0,0:0|0:0,0:0:0:0:
308,273,35568,2,0,L|398:275,1,79.1999975830079,0|0,1:2|0:0,0:0:0:0:
387,274,36047,2,0,L|308:273,1,79.1999975830079,0|0,1:2|0:0,0:0:0:0:
291,269,36286,1,0,0:0:0:0:
278,259,36366,6,0,B|241:182|302:174|261:78,1,158.399995166016,0|0,1:0|0:0,0:0:0:0:
89,61,36845,2,0,P|108:118|214:132,1,158.399995166016,0|0,1:0|0:0,0:0:0:0:
357,127,37324,2,0,P|368:83|360:42,1,79.1999975830079
349,38,37563,1,0,0:0:0:0:
335,33,37643,6,0,P|383:47|435:46,1,79.1999975830079,8|0,0:0|0:0,0:0:0:0:
416,185,37962,1,0,0:0:0:0:
307,306,38122,1,8,0:0:0:0:
390,349,38281,2,0,P|400:304|388:258,1,79.1999975830079,0|0,1:0|0:0,0:0:0:0:
236,251,38600,2,0,P|218:302|229:348,1,79.1999975830079,4|0,0:3|0:0,0:0:0:0:
160,196,38919,6,0,P|127:261|136:357,1,158.399995166016,0|0,1:0|0:0,0:0:0:0:
213,94,39398,2,0,B|106:113|106:113|81:95|77:48,1,158.399995166016,0|0,1:0|0:0,0:0:0:0:
310,39,39877,2,0,L|399:49,1,79.1999975830079
300,221,40196,6,0,B|309:193|335:182|335:182|449:204,1,158.399995166016,8|0,0:0|0:0,0:0:0:0:
350,336,40675,2,0,P|307:352|271:342,1,79.1999975830079,8|0,0:0|1:0,0:0:0:0:
275,344,41153,2,0,P|314:351|350:336,1,79.1999975830079,0|0,1:0|0:0,0:0:0:0:
331,125,41473,6,0,B|299:144|299:144|301:275,1,158.399995166016,0|0,1:0|0:0,0:0:0:0:
406,261,41951,1,0,1:0:0:0:
460,177,42111,2,0,P|474:134|469:93,1,79.1999975830079
269,42,42430,2,0,P|242:80|240:116,1,79.1999975830079
232,120,42669,1,0,0:0:0:0:
224,131,42749,6,0,P|165:109|87:162,1,158.399995166016,8|0,0:0|0:0,0:0:0:0:
164,316,43228,1,8,0:0:0:0:
244,352,43387,2,0,L|332:358,1,79.1999975830079,0|0,1:0|0:0,0:0:0:0:
349,161,43707,1,0,1:0:0:0:
237,261,43866,1,0,1:0:0:0:
423,221,44026,6,0,P|439:171|393:75,1,158.399995166016,0|0,1:0|0:0,0:0:0:0:
125,49,44504,2,0,B|247:60|247:60|309:44,1,158.399995166016,0|0,1:0|0:0,0:0:0:0:
53,236,44983,2,0,P|49:192|63:142,1,79.1999975830079
293,273,45302,6,0,P|276:320|249:344,1,79.1999975830079,8|0,0:0|0:0,0:0:0:0:
255,339,45622,1,0,0:0:0:0:
233,147,45781,2,0,L|336:146,1,79.1999975830079,8|0,0:0|0:0,0:0:0:0:
312,146,46260,2,0,L|233:147,1,79.1999975830079
29,290,46579,6,0,P|72:263|75:156,1,158.399995166016,0|0,1:0|0:0,0:0:0:0:
257,76,47058,1,0,1:0:0:0:
184,35,47217,2,0,L|90:31,1,79.1999975830079
367,31,47536,1,0,0:0:0:0:
422,146,47696,1,0,0:0:0:0:
422,146,47776,1,0,0:0:0:0:
422,146,47856,6,0,P|405:190|414:244,1,79.1999975830079,8|0,0:0|0:0,0:0:0:0:
217,292,48175,1,0,0:0:0:0:
295,208,48334,1,8,0:0:0:0:
358,309,48494,1,0,0:0:0:0:
168,188,48653,2,0,L|155:99,2,79.1999975830079,8|0|0,0:0|0:0|0:0,0:0:0:0:
277,28,49132,6,0,L|268:147,1,89.1000003398895,0|0,1:0|0:0,0:0:0:0:
370,197,49451,1,8,0:0:0:0:
168,96,49611,2,0,P|119:118|26:70,1,158.399995166016,0|0,1:0|0:0,0:0:0:0:
152,193,50090,1,0,1:0:0:0:
146,169,50169,1,0,1:0:0:0:
148,141,50249,1,0,1:0:0:0:
152,119,50329,1,0,1:0:0:0:
168,96,50409,6,0,P|241:61|312:94,1,158.399995166016,8|0,0:0|1:0,0:0:0:0:
314,101,51047,2,0,L|323:182,1,79.1999975830079,0|0,1:0|0:0,0:0:0:0:
422,322,51366,2,0,L|431:225,1,79.1999975830079,0|8,1:0|0:0,0:0:0:0:
365,27,51685,5,0,1:0:0:0:
117,247,52004,1,0,1:0:0:0:
218,332,52164,2,0,P|267:339|303:330,1,85.7999960723879,8|0,0:0|0:0,0:0:0:0:
117,247,52483,1,0,1:0:0:0:
207,164,52643,2,0,P|219:119|215:80,1,85.7999960723879,8|0,0:0|0:0,0:0:0:0:
68,49,52962,5,0,1:0:0:0:
337,191,53281,1,8,0:0:0:0:
275,33,53441,1,0,1:0:0:0:
446,46,53600,6,0,L|441:124,1,66,2|0,0:1|0:0,0:0:0:0:
440,134,54239,6,0,P|386:113|319:210,1,165,0|0,1:2|0:0,0:0:0:0:
405,343,54717,2,0,B|415:228|415:228|389:186,1,165,0|0,1:2|0:0,0:0:0:0:
147,281,55196,2,0,L|317:283,1,165,0|0,1:0|0:0,0:0:0:0:
321,281,55834,6,0,P|313:239|327:201,1,82.5,0|8,1:0|0:0,0:0:0:0:
427,107,56153,1,8,0:0:0:0:
388,241,56313,1,0,1:0:0:0:
477,185,56473,1,0,1:0:0:0:
168,77,56792,6,0,P|212:40|325:78,1,165,0|0,1:0|0:0,0:0:0:0:
229,206,57270,2,0,L|249:113,2,82.5,0|0|0,1:0|0:0|0:0,0:0:0:0:
338,349,57749,2,0,L|326:178,1,165,0|0,1:0|0:0,0:0:0:0:
323,176,58547,5,8,0:0:0:0:
155,150,58707,1,8,0:0:0:0:
90,221,58866,2,0,P|138:240|183:239,1,82.5,0|0,1:0|1:0,0:0:0:0:
397,78,59345,6,0,B|412:118|412:118|404:251,1,165,0|0,1:0|0:0,0:0:0:0:
172,63,59824,2,0,P|220:62|254:88,1,82.5,8|0,0:0|0:0,0:0:0:0:
205,222,60143,1,0,1:0:0:0:
197,132,60302,1,0,1:0:0:0:
278,275,60462,1,0,0:0:0:0:
186,313,60622,6,0,B|117:314|117:314|77:333|77:333|7:333,1,165,0|0,1:0|0:0,0:0:0:0:
257,353,61100,1,8,0:0:0:0:
418,218,61260,2,0,P|387:185|346:165,1,82.5,8|0,0:0|1:0,0:0:0:0:
370,348,61579,2,0,L|454:344,1,82.5,0|0,1:0|0:0,0:0:0:0:
278,70,61898,6,0,B|251:141|251:141|277:245,1,165,0|0,1:0|0:0,0:0:0:0:
481,224,62377,2,0,P|446:192|407:175,1,82.5,8|0,0:0|0:0,0:0:0:0:
313,349,62696,1,8,0:0:0:0:
133,332,62856,2,0,P|172:301|222:298,1,82.5
149,145,63175,6,0,P|100:148|96:93,1,99.0000037765504,4|0,1:2|1:0,0:0:0:0:
183,45,63653,1,0,1:0:0:0:
116,179,63813,6,0,P|75:173|48:144,1,66,4|0,1:2|0:0,0:0:0:0:
258,14,64132,2,0,P|267:51|260:83,1,66
153,181,64451,6,0,P|96:195|25:117,1,165,0|0,1:0|0:0,0:0:0:0:
267,9,64930,2,0,P|275:66|263:104,1,82.5,0|8,1:0|0:0,0:0:0:0:
304,222,65249,1,0,0:0:0:0:
439,144,65409,2,0,P|389:132|354:138,1,82.5
387,343,65728,6,0,L|389:233,1,82.5,0|8,1:0|0:0,0:0:0:0:
247,347,66047,1,0,1:0:0:0:
329,69,66366,2,0,P|373:87|494:50,1,165,8|0,0:0|1:0,0:0:0:0:
221,28,66845,1,0,1:0:0:0:
221,28,67004,6,0,P|168:24|98:133,1,165,0|0,1:0|0:0,0:0:0:0:
138,208,67483,1,0,1:0:0:0:
231,240,67643,2,0,L|217:123,1,82.5,8|0,0:0|0:0,0:0:0:0:
369,101,67962,2,0,L|356:194,1,82.5,0|0,1:0|1:0,0:0:0:0:
182,328,68281,6,0,B|90:301|90:301|59:308|43:353,1,165,0|0,1:0|0:0,0:0:0:0:
330,328,68919,2,0,B|422:301|422:301|453:308|469:353,1,165,8|0,0:0|0:0,0:0:0:0:
207,229,69398,1,8,0:0:0:0:
296,13,69558,6,0,L|297:205,1,171.599992144776,12|0,1:1|0:0,0:0:0:0:
302,199,70036,1,0,1:0:0:0:
223,151,70196,1,8,0:0:0:0:
347,265,70356,1,0,1:0:0:0:
376,117,70515,1,0,1:0:0:0:
360,255,70675,1,0,0:0:0:0:
295,346,70834,6,0,P|396:363|468:303,1,171.599992144776,12|0,1:1|0:0,0:0:0:0:
447,315,71473,1,8,0:0:0:0:
169,161,71792,2,0,P|144:219|145:263,1,85.7999960723879,0|0,1:0|0:0,0:0:0:0:
214,298,72111,6,0,L|54:293,1,158.399995166016,12|0,1:1|0:0,0:0:0:0:
348,63,72749,2,0,L|516:65,1,158.399995166016,4|0,0:1|1:0,0:0:0:0:
318,175,73228,1,0,1:0:0:0:
458,235,73387,5,0,1:0:0:0:
422,355,73547,1,0,1:0:0:0:
306,268,73707,2,0,P|296:225|317:181,1,79.1999975830079
453,240,74026,2,0,L|346:230,1,79.1999975830079,0|0,1:0|0:0,0:0:0:0:
232,351,74345,2,0,L|333:342,1,79.1999975830079,0|0,1:0|0:0,0:0:0:0:
388,93,74664,6,0,B|441:137|441:137|455:264,1,171.599992144776,4|0,1:2|0:0,0:0:0:0:
306,268,75143,1,0,1:0:0:0:
229,150,75302,2,0,P|275:164|305:211,1,85.7999960723879,8|0,0:0|0:0,0:0:0:0:
192,299,75622,2,0,P|162:320|106:315,1,85.7999960723879,2|8,1:2|0:0,0:0:0:0:
360,317,75941,6,0,P|324:345|273:340,1,85.7999960723879,2|8,1:2|0:0,0:0:0:0:
138,251,76260,2,0,P|155:161|248:119,1,171.599992144776,0|8,1:0|0:0,0:0:0:0:
218,120,76739,1,0,0:0:0:0:
108,46,76898,2,0,P|72:94|79:144,1,85.7999960723879,2|0,1:2|1:0,0:0:0:0:
266,195,77217,6,0,P|302:243|303:289,1,85.7999960723879,2|0,1:2|0:0,0:0:0:0:
199,40,77536,2,0,P|200:92|240:135,1,85.7999960723879,0|0,1:0|0:0,0:0:0:0:
279,64,77856,2,0,L|363:38,1,85.7999960723879,8|0,0:0|0:0,0:0:0:0:
120,103,78175,2,0,P|97:168|111:217,1,85.7999960723879,0|8,1:0|0:0,0:0:0:0:
176,293,78494,5,0,1:0:0:0:
184,165,78653,1,8,0:0:0:0:
277,257,78813,1,0,1:2:0:0:
286,112,78973,2,0,L|399:126,1,85.7999960723879,2|8,0:0|0:0,0:0:0:0:
386,274,79292,2,0,P|371:329|311:369,1,85.7999960723879,2|0,0:0|1:0,0:0:0:0:
277,257,79611,1,0,1:0:0:0:
93,248,79770,6,0,P|103:297|90:357,1,85.7999960723879,0|0,1:0|0:0,0:0:0:0:
269,346,80090,2,0,P|264:290|286:242,1,85.7999960723879,0|0,1:0|0:0,0:0:0:0:
298,62,80409,2,0,P|239:74|198:185,1,171.599992144776,8|0,0:0|1:0,0:0:0:0:
302,174,80887,1,8,0:0:0:0:
424,96,81047,6,0,L|431:1,1,85.7999960723879,0|8,1:0|0:0,0:0:0:0:
384,230,81366,1,0,1:0:0:0:
228,59,81685,2,0,P|173:45|135:70,1,85.7999960723879,8|0,0:0|0:0,0:0:0:0:
89,192,82004,2,0,L|89:288,1,85.7999960723879,0|0,1:0|1:0,0:0:0:0:
268,318,82324,6,0,B|205:295|205:295|242:279,1,85.7999960723879,0|0,1:0|0:0,0:0:0:0:
423,182,82643,1,2,1:2:0:0:
361,350,82802,1,0,1:0:0:0:
344,223,82962,1,8,0:0:0:0:
423,272,83122,2,0,P|477:258|500:226,1,85.7999960723879,2|0,0:0|1:0,0:0:0:0:
487,138,83441,1,8,0:0:0:0:
487,138,83520,1,8,0:0:0:0:
487,138,83600,5,0,1:0:0:0:
423,272,83760,1,8,0:0:0:0:
338,144,83919,1,0,1:0:0:0:
412,194,84079,1,0,1:0:0:0:
262,190,84239,5,8,0:0:0:0:
415,98,84398,1,4,0:3:0:0:
350,276,84558,1,0,1:0:0:0:
191,225,84717,1,0,1:0:0:0:
34,300,84877,6,0,P|98:279|194:339,1,171.599992144776,4|0,1:2|1:0,0:0:0:0:
60,156,85356,1,0,0:0:0:0:
155,94,85515,2,0,P|198:70|222:23,1,85.7999960723879,8|0,0:0|0:0,0:0:0:0:
271,195,85834,2,0,P|248:241|251:288,1,85.7999960723879,2|8,1:2|0:0,0:0:0:0:
389,92,86153,5,2,1:2:0:0:
241,125,86313,1,8,0:0:0:0:
340,181,86473,1,0,1:0:0:0:
155,94,86632,2,0,P|150:143|174:187,1,85.7999960723879,2|8,0:0|0:0,0:0:0:0:
355,19,86951,1,0,0:0:0:0:
302,84,87111,2,0,P|357:100|417:73,1,85.7999960723879,0|0,1:0|1:0,0:0:0:0:
140,93,87430,6,0,L|147:197,1,85.7999960723879,0|0,1:0|0:0,0:0:0:0:
122,313,87749,1,0,1:0:0:0:
208,340,87909,2,0,P|254:315|274:269,1,85.7999960723879,0|8,0:0|0:0,0:0:0:0:
230,107,88228,1,0,0:0:0:0:
197,260,88387,2,0,P|173:214|181:165,1,85.7999960723879,2|8,1:2|0:0,0:0:0:0:
336,50,88707,6,0,P|395:56|432:68,2,85.7999960723879,2|8|0,1:2|0:0|1:0,0:0:0:0:
358,277,89345,2,0,L|364:175,1,85.7999960723879,8|0,0:0|0:0,0:0:0:0:
268,291,89664,1,0,1:0:0:0:
414,357,89824,1,0,1:0:0:0:
256,297,89983,6,0,P|198:312|165:347,1,85.7999960723879,0|0,1:0|0:0,0:0:0:0:
101,184,90302,2,0,P|40:175|1:147,1,85.7999960723879,0|0,1:0|0:0,0:0:0:0:
187,40,90622,2,0,L|192:232,1,171.599992144776,8|0,0:0|1:0,0:0:0:0:
299,357,91100,1,8,0:0:0:0:
415,216,91260,6,0,B|425:139|425:139|440:113|440:113|446:28,2,171.599992144776,0|0|8,1:0|1:0|0:0,0:0:0:0:
340,161,92058,1,0,0:0:0:0:
382,292,92217,1,0,1:0:0:0:
494,204,92377,1,0,1:0:0:0:
188,266,92536,6,0,P|120:259|45:314,1,145.200004431152,0|0,1:0|1:0,0:0:0:0:
262,330,93015,1,0,1:0:0:0:
327,259,93175,6,0,P|380:243|480:319,1,165,8|0,0:0|1:0,0:0:0:0:
382,340,93653,1,0,1:0:0:0:
252,74,93813,6,0,L|246:202,1,92.3999971801759,0|0,1:0|1:0,0:0:0:0:
255,173,94052,1,0,1:0:0:0:
260,180,94132,2,0,L|255:291,1,92.3999971801759,8|0,0:0|0:0,0:0:0:0:
355,251,94451,5,8,0:0:0:0:
161,221,94611,1,4,0:3:0:0:
356,143,94770,1,4,0:3:0:0:
221,341,94930,1,0,1:0:0:0:
126,145,95090,6,0,P|83:188|129:297,1,171.599992144776,6|0,1:2|1:0,0:0:0:0:
208,102,95568,2,0,P|169:66|114:53,1,85.7999960723879,2|8,0:0|0:0,0:0:0:0:
249,185,95887,1,0,0:0:0:0:
317,34,96047,1,0,1:0:0:0:
359,182,96207,1,8,0:0:0:0:
317,34,96366,6,0,L|417:32,1,85.7999960723879,2|8,1:2|0:0,0:0:0:0:
359,182,96685,1,0,1:0:0:0:
240,76,96845,2,0,L|123:71,1,85.7999960723879,2|8,0:0|0:0,0:0:0:0:
81,203,97164,1,0,0:0:0:0:
197,152,97324,1,0,1:0:0:0:
138,296,97483,1,0,1:0:0:0:
263,210,97643,6,0,P|285:155|273:111,1,85.7999960723879,0|0,1:0|0:0,0:0:0:0:
314,337,97962,1,2,1:2:0:0:
233,203,98122,2,0,P|174:172|58:200,1,171.599992144776,2|0,1:2|0:0,0:0:0:0:
201,357,98600,2,0,P|169:311|132:294,1,85.7999960723879,2|8,1:2|0:0,0:0:0:0:
149,169,98919,5,0,1:0:0:0:
119,298,99079,1,8,0:0:0:0:
58,119,99239,1,2,1:2:0:0:
130,34,99398,2,0,L|225:41,1,85.7999960723879,2|8,0:0|0:0,0:0:0:0:
283,172,99717,1,0,0:0:0:0:
390,51,99877,2,0,P|412:82|418:146,1,85.7999960723879,0|0,1:0|1:0,0:0:0:0:
328,267,100196,6,0,P|240:251|181:329,1,171.599992144776,2|0,1:2|0:0,0:0:0:0:
338,350,100675,2,0,P|405:297|383:203,1,171.599992144776,2|0,0:2|0:0,0:0:0:0:
449,122,101153,1,0,1:0:0:0:
501,251,101313,1,8,0:0:0:0:
417,44,101473,6,0,P|375:80|366:142,1,85.7999960723879,2|0,1:2|0:0,0:0:0:0:
289,261,101792,2,0,P|247:213|190:206,1,85.7999960723879,0|0,1:0|0:0,0:0:0:0:
429,66,102111,2,0,P|394:99|379:142,1,85.7999960723879,10|0,0:0|0:0,0:0:0:0:
273,284,102430,1,0,1:0:0:0:
111,144,102590,1,0,1:0:0:0:
273,284,102749,6,0,P|229:235|164:229,1,85.7999960723879,0|0,1:0|0:0,0:0:0:0:
308,368,103068,2,0,B|357:348|372:311|372:311|403:354|459:364,1,171.599992144776,2|8,1:2|0:0,0:0:0:0:
443,348,103707,6,0,L|424:253,1,85.7999960723879,0|10,1:0|0:0,0:0:0:0:
426,167,104026,1,2,1:2:0:0:
340,277,104185,1,8,0:0:0:0:
506,225,104345,1,2,1:2:0:0:
336,156,104504,1,0,1:0:0:0:
497,131,104664,5,10,0:0:0:0:
340,277,104824,1,4,0:3:0:0:
392,104,104983,1,0,1:0:0:0:
422,323,105143,1,0,1:0:0:0:
196,319,105302,6,0,L|82:327,1,85.7999960723879,6|0,1:2|0:0,0:0:0:0:
271,356,105622,1,0,1:0:0:0:
146,228,105781,2,0,P|122:154|219:82,1,171.599992144776,2|0,0:2|0:0,0:0:0:0:
388,147,106260,1,0,1:0:0:0:
209,168,106419,1,8,0:0:0:0:
302,219,106579,6,0,L|295:119,2,85.7999960723879,0|0|0,1:0|0:0|1:0,0:0:0:0:
294,230,107217,2,0,P|289:298|310:331,1,85.7999960723879,10|0,0:0|0:0,0:0:0:0:
476,349,107536,2,0,P|444:298|388:294,1,85.7999960723879,0|0,1:0|1:0,0:0:0:0:
405,289,107776,1,0,1:0:0:0:
390,288,107856,6,0,B|408:242|408:242|396:119,1,145.200004431152,2|0,1:2|1:0,0:0:0:0:
277,41,108334,2,0,P|248:77|236:124,1,82.5,2|8,0:0|0:0,0:0:0:0:
302,224,108653,1,0,0:0:0:0:
131,142,108813,2,0,P|163:189|165:249,1,92.3999971801759,2|8,1:2|0:0,0:0:0:0:
14,309,109132,6,0,P|45:249|90:226,1,99.0000037765504,2|8,1:2|0:0,0:0:0:0:
215,316,109451,2,0,P|178:329|110:313,1,99.0000037765504,2|0,1:2|0:0,0:0:0:0:
263,219,109770,2,0,B|343:223|343:223|368:247|368:247|471:257,1,198.000007553101,10|0,0:0|1:0,0:0:0:0:
311,114,110409,6,0,B|298:54|323:28|323:28|373:14|414:44,1,171.599992144776,0|0,1:0|1:0,0:0:0:0:
361,219,110887,1,0,0:0:0:0:
222,167,111047,2,0,P|157:162|103:173,1,85.7999960723879,8|0,0:0|0:0,0:0:0:0:
177,351,111366,1,0,1:0:0:0:
268,256,111526,1,8,0:0:0:0:
333,342,111685,6,0,L|432:338,1,85.7999960723879,0|8,1:0|0:0,0:0:0:0:
358,213,112004,2,0,L|354:115,1,85.7999960723879,0|0,1:0|0:0,0:0:0:0:
180,47,112324,2,0,P|223:74|349:12,1,171.599992144776,8|0,0:0|1:0,0:0:0:0:
217,149,112802,1,0,1:0:0:0:
126,180,112962,6,0,B|95:229|95:229|103:367,1,171.599992144776,0|0,1:0|1:0,0:0:0:0:
313,358,113441,1,0,0:0:0:0:
214,271,113600,2,0,P|187:313|191:360,1,85.7999960723879,8|0,0:0|0:0,0:0:0:0:
328,262,113919,2,0,P|310:208|285:185,1,85.7999960723879,0|8,1:0|0:0,0:0:0:0:
144,182,114239,5,0,1:0:0:0:
393,47,114558,1,0,1:0:0:0:
394,164,114717,1,0,1:0:0:0:
394,164,114797,1,0,1:0:0:0:
394,164,114877,5,8,0:0:0:0:
307,97,115036,1,8,0:0:0:0:
490,153,115196,1,0,1:0:0:0:
328,262,115356,1,0,0:0:0:0:
176,232,115515,6,0,B|159:224|148:204|148:204|155:355,1,184.799994360352,0|0,1:0|0:0,0:0:0:0:
332,349,115994,2,0,B|380:345|410:297|410:297|428:344|485:356,1,184.799994360352,0|0,1:0|0:0,0:0:0:0:
495,265,116473,1,0,0:0:0:0:
495,265,116792,6,0,L|481:159,1,92.3999971801759,2|0,0:0|0:0,0:0:0:0:
407,115,117270,2,0,P|399:75|401:54,1,46.1999985900879,2|0,0:0|0:0,0:0:0:0:
328,37,117590,1,2,0:0:0:0:
328,37,117749,1,2,0:0:0:0:
189,208,118068,6,0,P|163:220|88:206,2,92.3999971801759,2|0|2,0:0|0:0|0:0,0:0:0:0:
466,140,119345,1,2,0:0:0:0:
381,101,119664,1,2,0:0:0:0:
381,101,119824,2,0,P|372:136|387:197,1,92.3999971801759,2|2,0:0|0:0,0:0:0:0:
263,350,120302,2,0,L|209:345,1,46.1999985900879,2|0,0:0|0:0,0:0:0:0:
120,280,120622,6,0,L|310:264,1,184.799994360352,0|0,1:0|0:0,0:0:0:0:
280,64,121100,2,0,L|95:79,1,184.799994360352,0|0,1:0|0:0,0:0:0:0:
33,163,121579,1,0,0:0:0:0:
33,163,121898,6,0,P|48:206|37:269,1,92.3999971801759,2|0,0:0|0:0,0:0:0:0:
113,348,122377,2,0,P|116:314|129:288,1,46.1999985900879,2|0,0:0|0:0,0:0:0:0:
193,340,122696,1,2,0:0:0:0:
193,340,122856,1,2,0:0:0:0:
405,339,123175,5,2,0:0:0:0:
405,339,123494,2,0,L|514:339,2,92.3999971801759,0|2|0,0:0|0:0|0:0,0:0:0:0:
283,221,124451,2,0,L|385:221,1,92.3999971801759,2|0,0:0|0:0,0:0:0:0:
68,209,125090,6,0,P|57:155|76:116,1,92.3999971801759,2|0,0:0|0:0,0:0:0:0:
79,121,125489,1,0,0:0:0:0:
86,119,125568,1,0,0:0:0:0:
94,122,125648,1,0,0:0:0:0:
101,125,125728,6,0,B|79:97|100:37|100:37|139:45|168:72|174:108,1,184.799994360352,0|0,1:0|0:0,0:0:0:0:
319,199,126207,2,0,B|421:214|405:155|509:179,1,184.799994360352,0|0,1:0|0:0,0:0:0:0:
456,276,126685,1,0,0:0:0:0:
364,351,127004,6,0,P|313:368|266:357,1,92.3999971801759,2|0,0:0|0:0,0:0:0:0:
189,318,127643,1,2,0:0:0:0:
66,344,127962,2,0,L|66:294,1,46.1999985900879
168,138,128281,6,0,B|170:197|170:197|185:223|185:223|190:337,1,184.799994360352,0|0,1:0|0:0,0:0:0:0:
265,132,128760,2,0,P|227:54|106:65,1,184.799994360352,0|0,1:0|0:0,0:0:0:0:
47,171,129239,1,0,0:0:0:0:
47,171,129558,6,0,P|49:202|42:274,2,92.3999971801759,2|2|2,0:0|0:1|0:0,0:0:0:0:
289,359,130515,1,2,0:1:0:0:
324,264,130675,1,2,0:1:0:0:
246,225,130834,6,0,P|339:178|407:238,1,184.799994360352,0|0,1:0|0:0,0:0:0:0:
227,312,131313,2,0,P|182:278|189:160,1,184.799994360352,0|0,1:0|0:0,0:0:0:0:
325,123,131792,1,0,0:0:0:0:
325,123,132111,6,0,L|434:115,2,92.3999971801759,2|0|2,0:0|0:0|0:0,0:0:0:0:
313,122,133068,1,0,1:0:0:0:
411,138,133228,1,0,1:0:0:0:
261,47,133387,6,0,P|223:99|293:212,1,211.2,4|0,1:2|0:0,0:0:0:0:
431,224,134345,1,0,0:0:0:0:
345,208,134664,6,0,P|281:204|236:282,1,132,4|0,1:2|0:0,0:0:0:0:
297,357,135143,1,8,0:0:0:0:
411,265,135302,1,0,1:0:0:0:
415,273,135622,1,0,1:0:0:0:
423,290,135941,6,0,L|408:143,1,145.200004431152,2|0,1:2|0:0,0:0:0:0:
277,55,136419,1,0,1:0:0:0:
192,90,136579,2,0,P|149:90|113:69,1,72.6000022155762,4|0,0:1|0:0,0:0:0:0:
37,207,136898,2,0,P|67:184|105:176,1,72.6000022155762,0|0,0:0|0:0,0:0:0:0:
117,187,137137,1,0,0:0:0:0:
131,197,137217,6,0,P|177:217|277:176,1,145.200004431152,8|0,0:0|0:0,0:0:0:0:
325,41,137696,2,0,L|404:42,1,72.6000022155762,8|4,0:0|0:1,0:0:0:0:
397,41,138175,2,0,L|325:41,1,72.6000022155762,0|0,0:0|0:0,0:0:0:0:
297,30,138414,1,0,0:0:0:0:
273,22,138494,6,0,P|283:71|245:160,1,145.200004431152,0|0,1:0|0:0,0:0:0:0:
385,265,138973,2,0,P|378:225|392:174,1,72.6000022155762,0|4,1:0|0:1,0:0:0:0:
238,338,139451,1,0,0:0:0:0:
149,293,139611,1,0,0:0:0:0:
149,293,139691,1,0,0:0:0:0:
149,293,139770,6,0,P|90:303|29:226,1,145.200004431152,8|0,0:0|0:0,0:0:0:0:
110,156,140249,2,0,P|110:200|104:232,1,72.6000022155762,8|4,0:0|0:1,0:0:0:0:
258,338,140728,1,0,0:0:0:0:
324,55,141047,6,0,L|339:134,1,72.6000022155762,0|0,1:0|0:0,0:0:0:0:
424,217,141366,2,0,L|453:128,1,72.6000022155762,0|0,0:0|1:0,0:0:0:0:
305,90,141685,2,0,L|323:164,1,72.6000022155762,4|0,0:1|0:0,0:0:0:0:
448,193,142004,2,0,L|467:108,1,72.6000022155762,0|0,0:0|0:0,0:0:0:0:
449,96,142244,1,0,0:0:0:0:
436,80,142324,6,0,P|388:59|299:98,1,145.200004431152,8|0,0:0|0:0,0:0:0:0:
169,140,142802,2,0,P|165:88|160:58,1,72.6000022155762,8|4,0:0|0:1,0:0:0:0:
161,67,143281,1,0,0:0:0:0:
69,275,143600,6,0,P|111:307|212:282,1,145.200004431152,0|0,1:0|0:0,0:0:0:0:
288,249,144079,2,0,P|275:283|270:319,1,72.6000022155762,0|4,1:0|0:1,0:0:0:0:
270,319,144558,2,0,P|277:278|293:242,1,72.6000022155762,0|0,0:0|0:0,0:0:0:0:
304,237,144797,1,0,0:0:0:0:
321,228,144877,6,0,P|371:253|457:240,1,145.200004431152,8|0,0:0|0:0,0:0:0:0:
490,101,145356,1,8,0:0:0:0:
404,40,145515,2,0,L|331:30,1,72.6000022155762,4|0,0:1|0:0,0:0:0:0:
287,137,145834,2,0,L|207:152,1,72.6000022155762,2|0,0:0|0:0,0:0:0:0:
138,78,146153,6,0,P|172:123|126:233,1,158.399995166016,2|0,1:2|0:0,0:0:0:0:
94,369,146632,2,0,P|53:338|7:331,1,79.1999975830079,0|4,1:0|0:1,0:0:0:0:
95,152,147111,1,0,0:0:0:0:
36,51,147270,1,0,0:0:0:0:
36,51,147350,1,0,0:0:0:0:
36,51,147430,6,0,P|87:62|193:30,1,158.399995166016,8|0,0:0|0:0,0:0:0:0:
367,64,147909,2,0,P|347:105|343:144,1,79.1999975830079,8|4,0:0|0:1,0:0:0:0:
348,147,148387,2,0,P|359:186|356:227,1,79.1999975830079,0|0,0:0|0:0,0:0:0:0:
239,335,148707,6,0,L|416:321,1,158.399995166016,4|0,1:1|0:0,0:0:0:0:
277,193,149185,1,0,1:0:0:0:
197,79,149345,2,0,P|192:125|197:161,1,79.1999975830079,4|0,0:1|0:0,0:0:0:0:
321,25,149664,2,0,P|333:68|327:114,1,79.1999975830079,0|0,0:0|0:0,0:0:0:0:
311,112,149903,1,0,0:0:0:0:
296,118,149983,6,0,L|479:109,1,158.399995166016,8|0,0:0|0:0,0:0:0:0:
330,224,150462,2,0,P|318:272|323:309,1,79.1999975830079,8|4,0:0|0:1,0:0:0:0:
425,357,150781,2,0,L|510:348,1,79.1999975830079,0|0,0:0|0:0,0:0:0:0:
483,338,151260,6,0,L|314:335,1,158.399995166016,4|8,1:1|0:0,0:0:0:0:
138,343,151739,2,0,P|135:294|113:251,1,79.1999975830079,0|4,1:0|0:1,0:0:0:0:
227,197,152058,1,0,0:0:0:0:
347,216,152217,1,0,1:0:0:0:
349,204,152297,1,0,1:0:0:0:
353,192,152377,1,0,1:0:0:0:
354,180,152457,1,0,1:0:0:0:
354,168,152536,6,0,P|325:116|215:81,1,158.399995166016,8|8,0:0|0:0,0:0:0:0:
97,318,153175,2,0,L|116:141,1,158.399995166016,4|0,1:1|1:0,0:0:0:0:
226,275,153653,1,0,1:0:0:0:
254,43,153813,6,0,B|282:73|282:73|267:201,1,158.399995166016,4|0,1:1|1:0,0:0:0:0:
343,337,154292,1,8,0:0:0:0:
166,349,154451,2,0,L|69:343,1,79.1999975830079,8|0,0:0|1:0,0:0:0:0:
307,261,154770,2,0,P|354:253|392:269,1,79.1999975830079,0|0,1:0|0:0,0:0:0:0:
466,342,155090,5,4,1:1:0:0:
414,84,155409,1,8,0:0:0:0:
479,204,155568,1,0,1:0:0:0:
306,181,155728,6,0,L|238:176,1,66,2|0,0:1|0:0,0:0:0:0:
233,182,156366,6,0,L|64:196,1,165,0|0,1:0|0:0,0:0:0:0:
22,29,156845,2,0,P|80:34|115:72,1,82.5,0|0,1:0|0:0,0:0:0:0:
180,98,157164,1,0,0:0:0:0:
344,37,157324,2,0,P|336:83|416:175,1,165,0|0,1:0|0:0,0:0:0:0:
417,181,157962,6,0,P|340:183|319:194,1,82.5,0|8,0:0|0:0,0:0:0:0:
266,284,158281,1,8,0:0:0:0:
380,261,158441,1,0,1:0:0:0:
261,299,158600,1,0,1:0:0:0:
403,354,158760,1,0,0:0:0:0:
197,241,158919,6,0,P|179:314|272:384,1,165,0|0,1:0|0:0,0:0:0:0:
76,222,159398,2,0,P|73:165|-6:94,1,165,0|0,1:0|0:0,0:0:0:0:
177,35,159877,2,0,B|220:53|220:53|356:42,1,165,0|0,1:0|0:0,0:0:0:0:
342,41,160675,5,8,0:0:0:0:
304,235,160834,1,8,0:0:0:0:
395,189,160994,2,0,L|414:95,1,82.5,0|0,1:0|1:0,0:0:0:0:
227,123,161313,1,0,0:0:0:0:
227,123,161393,1,0,0:0:0:0:
227,123,161473,6,0,P|174:109|79:183,1,165,0|0,1:0|0:0,0:0:0:0:
38,254,161951,1,8,0:0:0:0:
26,354,162111,2,0,L|16:261,1,82.5,0|8,0:0|0:0,0:0:0:0:
151,321,162430,2,0,L|235:334,1,82.5,0|0,1:0|0:0,0:0:0:0:
248,326,162669,1,0,0:0:0:0:
262,318,162749,6,0,B|344:331|344:331|431:307,1,165,0|0,1:0|0:0,0:0:0:0:
403,149,163228,1,8,0:0:0:0:
403,149,163387,2,0,P|393:105|404:65,1,82.5,8|0,0:0|0:0,0:0:0:0:
311,245,163707,2,0,P|321:205|314:142,1,82.5,0|0,1:0|0:0,0:0:0:0:
112,99,164026,6,0,L|292:73,1,165,0|0,1:0|0:0,0:0:0:0:
96,191,164504,2,0,P|41:161|22:125,1,82.5,8|0,0:0|0:0,0:0:0:0:
192,223,164824,2,0,L|184:324,2,82.5,8|0|0,0:0|0:0|0:0,0:0:0:0:
241,55,165302,6,0,B|284:33|328:43|331:49|332:56|366:82|422:56,1,181.500001730919,4|0,1:2|1:0,0:0:0:0:
292,226,165781,1,0,1:0:0:0:
423,66,165941,6,0,B|380:35|333:54|332:60|331:65|287:95|230:56,1,198.000007553101,4|0,1:2|0:0,0:0:0:0:
217,57,166579,6,0,P|167:36|61:102,1,165,0|0,1:0|0:0,0:0:0:0:
100,287,167058,2,0,B|144:211|144:211|154:135,1,165,0|0,1:0|0:0,0:0:0:0:
235,291,167536,2,0,P|241:335|262:367,2,82.5,0|0|0,1:0|0:0|0:0,0:0:0:0:
304,205,168015,2,0,P|314:159|303:112,1,82.5,0|0,1:0|1:0,0:0:0:0:
299,111,168494,5,8,0:0:0:0:
433,68,168653,1,0,0:0:0:0:
347,32,168813,1,0,1:0:0:0:
392,152,168973,1,0,1:0:0:0:
233,45,169132,6,0,P|210:114|260:194,1,165,0|0,1:0|0:0,0:0:0:0:
433,232,169611,1,0,1:0:0:0:
325,279,169770,2,0,L|158:299,1,165,8|0,0:0|0:0,0:0:0:0:
289,363,170249,1,0,0:0:0:0:
185,128,170409,6,0,P|181:175|189:211,1,82.5,0|0,1:0|0:0,0:0:0:0:
373,153,170728,2,0,P|383:197|379:237,1,82.5
120,243,171047,2,0,P|164:289|188:294,1,82.5,8|0,0:0|0:0,0:0:0:0:
444,279,171366,2,0,P|406:311|370:320,1,82.5,0|0,1:0|1:0,0:0:0:0:
66,337,171685,6,0,P|137:306|249:338,1,165,12|0,1:1|0:0,0:0:0:0:
235,331,172164,1,0,1:0:0:0:
384,270,172324,1,8,0:0:0:0:
278,244,172483,1,0,0:0:0:0:
396,357,172643,1,0,1:0:0:0:
339,174,172802,1,0,1:0:0:0:
430,49,172962,6,0,B|374:21|374:21|248:39,1,165,12|0,1:1|1:0,0:0:0:0:
255,39,173600,1,8,0:0:0:0:
440,179,173919,2,0,P|436:226|442:264,1,82.5,0|0,1:0|0:0,0:0:0:0:
279,336,174239,6,0,P|229:295|114:313,1,165,4|0,1:1|0:0,0:0:0:0:
253,44,174877,2,0,P|320:75|429:40,1,165,4|0,0:1|1:0,0:0:0:0:
376,180,175356,2,0,L|385:266,1,82.5,0|0,1:0|1:0,0:0:0:0:
468,215,175675,5,0,1:0:0:0:
468,215,175754,1,0,1:0:0:0:
468,215,175834,1,0,1:0:0:0:
286,269,175994,1,0,1:0:0:0:
469,371,176153,2,0,P|487:325|486:280,1,82.5,0|0,1:0|0:0,0:0:0:0:
273,92,176473,2,0,P|259:147|267:187,1,82.5,0|0,1:0|0:0,0:0:0:0:
56,299,176792,6,0,P|121:279|248:345,1,171.599992144776,4|0,1:2|1:0,0:0:0:0:
315,360,177270,1,0,0:0:0:0:
430,214,177430,2,0,P|381:205|341:227,1,85.7999960723879,8|0,0:0|0:0,0:0:0:0:
199,111,177749,2,0,L|218:207,1,85.7999960723879,2|8,1:2|0:0,0:0:0:0:
339,232,178068,6,0,L|317:128,2,85.7999960723879,2|0|0,1:2|0:0|1:0,0:0:0:0:
108,34,178707,2,0,L|75:218,1,171.599992144776,8|2,0:0|1:2,0:0:0:0:
136,322,179185,1,0,1:0:0:0:
357,251,179345,6,0,P|305:215|183:255,1,171.599992144776,2|0,1:2|1:0,0:0:0:0:
268,314,179824,1,0,0:0:0:0:
376,357,179983,2,0,P|429:341|454:308,1,85.7999960723879,8|0,0:0|0:0,0:0:0:0:
369,128,180302,1,0,1:0:0:0:
369,128,180462,1,8,0:0:0:0:
464,181,180622,6,0,L|458:82,1,85.7999960723879,2|8,1:2|0:0,0:0:0:0:
356,233,180941,1,0,1:0:0:0:
356,233,181100,1,2,0:0:0:0:
249,163,181260,2,0,P|202:145|161:153,1,85.7999960723879,8|2,0:0|0:0,0:0:0:0:
119,314,181579,2,0,P|166:336|216:326,1,85.7999960723879,0|0,1:0|1:0,0:0:0:0:
40,306,181898,6,0,P|77:246|181:263,1,171.599992144776,0|0,1:0|1:0,0:0:0:0:
274,340,182377,1,0,0:0:0:0:
336,148,182536,2,0,L|326:244,1,85.7999960723879,8|0,0:0|0:0,0:0:0:0:
468,344,182856,1,0,1:0:0:0:
415,219,183015,1,8,0:0:0:0:
467,83,183175,5,0,1:0:0:0:
291,28,183334,2,0,P|350:14|394:19,1,85.7999960723879,8|0,0:0|1:0,0:0:0:0:
387,21,183813,2,0,L|389:210,1,171.599992144776,8|0,0:0|1:0,0:0:0:0:
337,328,184292,1,0,1:0:0:0:
337,328,184451,6,0,B|235:302|235:302|198:320|186:366,1,171.599992144776,0|2,1:0|1:2,0:0:0:0:
84,286,184930,1,0,0:0:0:0:
44,121,185090,2,0,P|30:170|49:220,1,85.7999960723879,10|0,0:0|0:0,0:0:0:0:
131,172,185409,1,2,1:2:0:0:
64,30,185568,1,0,1:0:0:0:
64,30,185648,1,0,1:0:0:0:
64,30,185728,5,0,1:0:0:0:
211,97,185887,1,8,0:0:0:0:
160,17,186047,1,0,1:0:0:0:
44,121,186207,1,0,1:0:0:0:
225,186,186366,5,8,0:0:0:0:
126,88,186526,1,4,0:3:0:0:
295,22,186685,1,0,1:0:0:0:
333,230,186845,1,0,1:0:0:0:
408,162,187004,6,0,B|424:52|424:52|452:18|496:10,1,171.599992144776,4|0,1:2|1:0,0:0:0:0:
471,255,187483,1,0,0:0:0:0:
471,255,187643,2,0,P|453:306|465:347,1,85.7999960723879,8|0,0:0|0:0,0:0:0:0:
264,304,187962,2,0,P|304:343|350:353,1,85.7999960723879,2|8,1:2|0:0,0:0:0:0:
258,197,188281,5,2,1:2:0:0:
194,255,188441,2,0,P|181:306|200:364,1,85.7999960723879,0|0,0:0|1:0,0:0:0:0:
258,197,188919,2,0,B|206:173|206:173|60:187,1,171.599992144776,8|0,0:0|1:0,0:0:0:0:
30,49,189398,1,0,1:0:0:0:
170,99,189558,6,0,P|201:47|325:69,1,171.599992144776,0|0,1:0|1:0,0:0:0:0:
402,137,190036,1,2,0:0:0:0:
414,36,190196,2,0,P|427:83|422:137,1,85.7999960723879,10|2,0:0|0:0,0:0:0:0:
346,208,190515,2,0,P|331:261|343:312,1,85.7999960723879,2|8,1:2|0:0,0:0:0:0:
207,352,190834,5,0,1:0:0:0:
207,352,190994,1,8,0:0:0:0:
101,325,191153,2,0,B|27:252|27:252|14:211|41:163,1,171.599992144776,0|8,1:0|0:0,0:0:0:0:
123,85,191632,1,0,0:0:0:0:
169,164,191792,2,0,P|175:206|162:255,1,85.7999960723879,0|0,1:0|1:0,0:0:0:0:
123,85,192111,6,0,L|232:54,1,85.7999960723879,2|0,1:2|0:0,0:0:0:0:
321,147,192430,2,0,L|419:161,1,85.7999960723879,2|0,1:2|0:0,0:0:0:0:
154,88,192749,2,0,B|250:56|250:56|365:67,1,171.599992144776,10|2,0:0|1:2,0:0:0:0:
442,49,193228,1,8,0:0:0:0:
321,147,193387,6,0,P|316:223|418:251,2,171.599992144776,0|0|8,1:0|1:0|0:0,0:0:0:0:
472,82,194185,1,0,0:0:0:0:
380,188,194345,1,0,1:0:0:0:
494,232,194504,1,0,1:0:0:0:
297,55,194664,6,0,L|122:43,1,145.200004431152,4|0,1:2|1:0,0:0:0:0:
175,162,195143,1,0,1:0:0:0:
69,280,195302,6,0,L|260:255,1,165,10|0,0:0|1:0,0:0:0:0:
175,162,195781,1,0,1:0:0:0:
160,47,195941,6,0,L|51:52,1,92.3999971801759,4|0,1:2|0:0,0:0:0:0:
51,52,196180,1,8,0:0:0:0:
37,53,196260,2,0,P|52:89|40:153,1,92.3999971801759,0|0,1:0|0:0,0:0:0:0:
121,267,196579,5,8,0:0:0:0:
175,162,196739,1,4,0:3:0:0:
235,354,196898,1,0,1:0:0:0:
11,302,197058,1,0,1:0:0:0:
247,253,197217,6,0,B|348:263|318:321|420:327,1,171.599992144776,4|0,1:2|1:0,0:0:0:0:
416,217,197696,1,0,0:0:0:0:
298,29,197856,2,0,P|281:84|281:122,1,85.7999960723879,8|0,0:0|0:0,0:0:0:0:
156,200,198175,2,0,P|99:157|56:160,1,85.7999960723879,2|0,1:2|0:0,0:0:0:0:
298,29,198494,6,0,P|348:65|417:61,1,85.7999960723879,2|8,1:2|0:0,0:0:0:0:
475,190,198813,1,0,1:0:0:0:
152,96,199132,2,0,L|158:195,1,85.7999960723879,8|0,0:0|0:0,0:0:0:0:
225,290,199451,1,0,1:0:0:0:
308,218,199611,1,0,1:0:0:0:
133,299,199770,6,0,P|166:367|276:366,1,171.599992144776,0|2,1:0|1:2,0:0:0:0:
353,315,200249,1,2,0:0:0:0:
472,167,200409,2,0,P|428:181|398:220,1,85.7999960723879,8|0,0:0|0:0,0:0:0:0:
447,359,200728,1,2,1:2:0:0:
479,258,200887,1,10,0:0:0:0:
341,116,201047,6,0,P|335:64|359:25,1,85.7999960723879,2|8,1:2|0:0,0:0:0:0:
430,90,201366,1,2,1:2:0:0:
234,56,201526,2,0,L|134:46,1,85.7999960723879,2|8,0:0|0:0,0:0:0:0:
144,247,201845,1,0,0:0:0:0:
185,142,202004,1,2,1:2:0:0:
48,183,202164,1,0,1:0:0:0:
48,183,202244,1,0,1:0:0:0:
48,183,202324,6,0,L|59:371,1,171.599992144776,0|0,1:0|1:0,0:0:0:0:
186,336,202802,1,0,1:0:0:0:
261,259,202962,2,0,P|315:244|365:258,1,85.7999960723879,8|0,0:0|0:0,0:0:0:0:
397,344,203281,1,0,1:0:0:0:
441,200,203441,1,8,0:0:0:0:
475,279,203600,6,0,L|482:374,1,85.7999960723879,0|8,1:0|0:0,0:0:0:0:
363,155,203919,2,0,P|404:117|469:116,1,85.7999960723879,0|0,1:0|0:0,0:0:0:0:
276,66,204239,2,0,P|222:66|182:38,1,85.7999960723879,8|0,0:0|0:0,0:0:0:0:
389,149,204558,2,0,P|434:118|481:124,1,85.7999960723879,0|0,1:0|1:0,0:0:0:0:
264,84,204877,6,0,B|220:79|183:62|166:38|166:38|128:45|109:65|91:95,1,171.599992144776,2|0,1:2|1:0,0:0:0:0:
152,192,205356,1,0,0:0:0:0:
264,300,205515,2,0,B|220:305|183:322|166:346|166:346|128:339|109:319|91:289,1,171.599992144776,10|0,0:0|1:0,0:0:0:0:
152,192,205994,1,8,0:0:0:0:
319,149,206153,5,2,1:2:0:0:
271,76,206313,1,8,0:0:0:0:
250,204,206473,1,0,1:0:0:0:
271,76,206632,1,0,0:0:0:0:
336,232,206792,5,10,0:0:0:0:
202,129,206951,1,0,0:0:0:0:
365,71,207111,1,0,1:0:0:0:
265,290,207270,1,0,1:0:0:0:
265,290,207350,1,0,0:0:0:0:
265,290,207430,6,0,P|313:318|426:264,1,171.599992144776,4|0,1:2|0:0,0:0:0:0:
470,153,207909,1,0,1:0:0:0:
291,59,208068,2,0,P|300:116|343:142,1,85.7999960723879,10|0,0:0|0:0,0:0:0:0:
192,143,208387,2,0,P|190:193|145:244,1,85.7999960723879,2|8,1:2|0:0,0:0:0:0:
33,113,208707,5,2,1:2:0:0:
33,113,208866,2,0,L|12:24,1,85.7999960723879,8|0,0:0|1:0,0:0:0:0:
48,284,209345,2,0,B|63:316|84:332|84:332|216:312,1,171.599992144776,8|2,0:0|1:2,0:0:0:0:
287,224,209824,1,0,1:0:0:0:
287,224,209983,6,0,P|286:295|349:352,1,145.200004431152,2|0,1:2|1:0,0:0:0:0:
412,186,210462,1,2,0:0:0:0:
458,91,210622,2,0,L|468:3,1,82.5,8|0,0:0|0:0,0:0:0:0:
366,258,210941,2,0,P|422:271|467:252,1,92.3999971801759,2|8,1:2|0:0,0:0:0:0:
305,183,211260,5,2,1:2:0:0:
305,183,211419,1,8,0:0:0:0:
193,268,211579,2,0,L|194:377,1,99.0000037765504,2|0,1:2|0:0,0:0:0:0:
70,235,211898,2,0,P|53:167|83:127,1,99.0000037765504,10|0,0:0|0:0,0:0:0:0:
234,30,212217,1,0,1:0:0:0:
174,129,212377,1,0,1:0:0:0:
174,129,212457,1,0,1:0:0:0:
174,129,212536,6,0,P|154:69|108:34,1,85.7999960723879,2|0,1:2|0:0,0:0:0:0:
290,115,212856,2,0,P|321:68|358:47,1,85.7999960723879,2|0,1:2|1:0,0:0:0:0:
177,160,213175,2,0,P|129:105|17:95,1,171.599992144776,10|2,0:0|1:2,0:0:0:0:
217,249,213653,1,8,0:0:0:0:
134,275,213813,6,0,B|126:306|126:306|134:370,1,85.7999960723879,2|8,1:2|0:0,0:0:0:0:
298,267,214132,2,0,B|311:294|311:294|303:370,1,85.7999960723879,0|0,1:0|0:0,0:0:0:0:
415,315,214451,2,0,B|418:255|418:255|367:142,1,171.599992144776,8|0,0:0|1:0,0:0:0:0:
301,41,214930,1,0,1:0:0:0:
209,102,215090,5,2,1:2:0:0:
427,38,215409,2,0,L|447:163,1,85.7999960723879,2|0,1:2|1:0,0:0:0:0:
331,232,215728,1,10,0:0:0:0:
120,37,216047,1,2,1:2:0:0:
84,324,216366,5,10,0:0:0:0:
292,154,216685,1,0,1:0:0:0:
469,320,216845,1,0,1:0:0:0:
469,320,216925,1,0,1:0:0:0:
469,320,217004,1,10,0:0:0:0:
300,281,217164,1,8,0:0:0:0:
390,244,217324,2,0,L|385:362,1,85.7999960723879,4|0,0:3|0:0,0:0:0:0:
177,198,217643,6,0,L|170:293,1,79.1999975830079,2|0,0:0|0:0,0:0:0:0:
42,342,218281,2,0,L|26:255,1,79.1999975830079,0|2,0:0|0:0,0:0:0:0:
113,48,218919,2,0,L|204:59,1,79.1999975830079,2|0,0:0|0:0,0:0:0:0:
130,162,219558,2,0,L|40:176,1,79.1999975830079,0|2,0:0|0:0,0:0:0:0:
350,77,220196,6,0,P|391:67|468:150,1,158.399995166016,2|2,0:0|0:0,0:0:0:0:
285,246,221153,1,0,0:0:0:0:
205,211,221473,2,0,P|195:160|198:124,1,79.1999975830079,2|0,0:0|0:0,0:0:0:0:
111,27,222111,2,0,P|90:66|86:103,1,79.1999975830079,2|0,0:0|0:0,0:0:0:0:
31,250,222749,5,2,0:0:0:0:
345,72,223387,1,2,0:0:0:0:
74,343,224026,2,0,P|99:326|154:318,1,79.1999975830079,2|2,0:0|0:0,0:0:0:0:
293,268,224664,2,0,P|249:246|222:207,1,79.1999975830079,2|2,0:0|0:0,0:0:0:0:
160,64,225302,6,0,P|203:54|295:117,1,158.399995166016,2|2,0:0|0:0,0:0:0:0:
332,192,226260,1,2,0:0:0:0:
253,245,226579,2,0,P|301:281|399:260,1,158.399995166016,2|2,0:0|0:0,0:0:0:0:
394,266,227856,6,0,B|365:173|432:185|413:88,1,184.799994360352,6|0,0:0|0:0,0:0:0:0:
295,29,228813,1,2,0:0:0:0:
185,51,229132,2,0,P|133:126|126:228,1,184.799994360352,2|0,0:0|0:0,0:0:0:0:
274,349,230090,1,2,0:0:0:0:
177,308,230409,6,0,P|126:293|72:300,1,92.3999971801759,2|0,0:0|0:0,0:0:0:0:
29,202,231047,2,0,P|51:151|50:104,1,92.3999971801759,2|0,0:0|0:0,0:0:0:0:
201,57,231685,2,0,P|251:93|256:133,1,92.3999971801759,2|0,0:0|0:0,0:0:0:0:
265,238,232324,2,0,P|265:281|298:319,1,92.3999971801759,2|0,0:0|0:0,0:0:0:0:
447,247,232962,5,2,0:0:0:0:
137,306,233600,1,2,0:0:0:0:
197,26,234239,2,0,P|220:58|237:114,1,92.3999971801759,2|2,0:0|0:0,0:0:0:0:
278,232,234877,2,0,P|289:182|321:136,1,92.3999971801759,2|2,0:0|0:0,0:0:0:0:
188,226,235515,6,0,P|211:293|331:302,1,184.799994360352,2|2,0:0|0:0,0:0:0:0:
458,203,236477,1,2,0:0:0:0:
401,47,236798,2,0,P|357:70|328:104,1,92.3999971801759,2|0,0:0|0:0,0:0:0:0:
242,181,237440,2,0,P|190:170|152:142,1,92.3999971801759,2|0,0:0|0:0,0:0:0:0:
88,33,238081,6,0,P|76:73|80:111,1,79.1999975830079,2|0,0:0|0:0,0:0:0:0:
115,230,238726,2,0,P|124:279|112:323,1,79.1999975830079
177,365,239371,2,0,P|216:364|253:349,1,79.1999975830079
318,261,240016,2,0,P|360:255|405:281,1,79.1999975830079
172,168,240721,6,0,P|221:272|260:188,1,264,2|0,0:0|0:0,0:0:0:0:
352,205,243561,5,6,0:0:0:0:
331,214,244894,1,2,0:0:0:0:
315,222,246144,1,2,0:0:0:0:
303,227,247407,1,2,0:0:0:0:
155,293,248645,5,2,0:0:0:0:
168,298,249947,1,2,0:0:0:0:
182,302,251210,1,2,0:0:0:0:
456,339,252172,5,2,0:0:0:0:
385,291,252493,2,0,P|375:249|381:220,2,66,2|2|2,0:0|0:0|0:0,0:0:0:0:
402,50,253755,5,10,0:0:0:0:
339,109,254074,1,0,0:0:0:0:
250,107,254393,1,0,0:0:0:0:
181,54,254712,1,0,0:0:0:0:
52,199,255031,5,10,0:0:0:0:
134,156,255350,1,0,0:0:0:0:
218,191,255669,1,0,0:0:0:0:
256,277,255989,1,0,0:0:0:0:
456,309,256308,5,10,0:0:0:0:
369,275,256627,1,0,0:0:0:0:
270,291,256946,1,0,0:0:0:0:
190,353,257265,1,0,0:0:0:0:
359,250,257584,5,10,0:0:0:0:
414,172,257903,1,0,0:0:0:0:
416,81,258223,1,0,0:0:0:0:
352,20,258542,1,0,0:0:0:0:
77,243,258861,5,4,1:2:0:0:
467,291,260137,5,4,1:2:0:0:
471,302,261095,2,0,L|380:287,1,72.6000022155762,8|0,0:0|1:0,0:0:0:0:
364,208,261414,6,0,P|318:254|335:347,1,159.719995491303,4|0,1:2|0:0,0:0:0:0:
323,133,261893,1,0,0:0:0:0:
260,82,262052,6,0,P|219:32|185:22,1,90.7500008654595,4|0,1:2|0:0,0:0:0:0:
394,92,262372,2,0,P|459:92|507:66,1,90.7500008654595,8|0,0:0|0:0,0:0:0:0:
239,89,262691,6,0,P|198:40|148:34,1,101.639997983826,0|0,1:0|0:0,0:0:0:0:
50,172,263010,1,8,0:0:0:0:
163,108,263169,5,8,0:0:0:0:
163,108,263249,1,8,0:0:0:0:
163,108,263329,1,8,0:0:0:0:
205,259,263489,1,0,1:0:0:0:
317,153,263648,1,4,0:3:0:0:
199,345,263808,1,0,1:0:0:0:
400,189,263967,6,0,P|395:119|260:77,1,188.760002592224,4|0,0:0|0:0,0:0:0:0:
156,155,264446,1,0,1:0:0:0:
62,117,264606,2,0,P|46:61|58:9,1,94.3800012961121,8|0,0:0|0:0,0:0:0:0:
168,259,264925,2,0,P|115:282|28:273,1,94.3800012961121,2|8,1:2|0:0,0:0:0:0:
354,314,265244,6,0,P|418:293|478:307,1,94.3800012961121,2|0,1:2|0:0,0:0:0:0:
261,252,265563,2,0,B|242:143|242:143|281:44,1,188.760002592224,0|8,1:0|0:0,0:0:0:0:
451,115,266042,1,0,0:0:0:0:
362,167,266201,2,0,P|351:233|377:300,1,94.3800012961121,2|0,1:2|1:0,0:0:0:0:
451,115,266520,6,0,P|395:73|273:119,1,188.760002592224,2|0,1:2|1:0,0:0:0:0:
202,238,266999,1,2,1:2:0:0:
112,143,267159,2,0,L|103:37,1,94.3800012961121,8|0,0:0|0:0,0:0:0:0:
202,238,267478,2,0,L|181:351,1,94.3800012961121,2|8,1:2|0:0,0:0:0:0:
79,344,267797,5,2,1:2:0:0:
114,157,267957,2,0,P|77:119|28:113,1,94.3800012961121,10|0,0:0|1:0,0:0:0:0:
224,36,268276,2,0,P|264:73|332:62,1,94.3800012961121,2|8,0:0|0:0,0:0:0:0:
439,38,268595,1,0,0:0:0:0:
371,196,268755,1,2,1:2:0:0:
473,140,268914,1,0,1:0:0:0:
277,181,269074,6,0,P|296:257|444:260,1,188.760002592224,2|0,1:2|0:0,0:0:0:0:
192,129,269552,1,2,1:2:0:0:
139,205,269712,2,0,L|149:311,1,94.3800012961121,8|0,0:0|0:0,0:0:0:0:
61,123,270031,2,0,P|79:64|63:9,1,94.3800012961121,2|0,0:0|0:0,0:0:0:0:
66,30,270270,1,0,0:0:0:0:
60,27,270350,6,0,L|174:43,1,94.3800012961121,2|8,1:2|0:0,0:0:0:0:
339,18,270669,2,0,P|345:74|319:110,1,94.3800012961121,2|0,1:2|0:0,0:0:0:0:
155,142,270989,2,0,P|193:141|237:196,1,94.3800012961121,10|0,0:0|0:0,0:0:0:0:
420,170,271308,2,0,P|376:162|317:201,1,94.3800012961121,2|0,1:2|1:0,0:0:0:0:
324,188,271547,1,0,1:0:0:0:
317,194,271627,6,0,B|272:272|352:293|310:388,1,188.760002592224,2|0,1:2|1:0,0:0:0:0:
141,304,272106,1,0,0:0:0:0:
48,206,272265,2,0,P|70:104|158:131,1,188.760002592224,10|0,0:0|1:0,0:0:0:0:
141,304,272744,1,8,0:0:0:0:
276,275,272903,5,2,1:2:0:0:
180,224,273063,1,8,0:0:0:0:
244,347,273223,1,2,1:2:0:0:
254,171,273382,1,0,1:0:0:0:
139,369,273542,5,10,0:0:0:0:
358,260,273701,1,4,0:3:0:0:
180,224,273861,1,2,1:2:0:0:
379,361,274020,1,0,1:0:0:0:
441,264,274180,6,0,P|422:208|373:184,1,94.3800012961121,4|0,1:2|0:0,0:0:0:0:
248,108,274499,2,0,L|269:305,1,188.760002592224,2|8,0:0|0:0,0:0:0:0:
310,56,274978,2,0,P|247:28|167:123,1,188.760002592224,2|0,0:0|0:0,0:0:0:0:
404,198,275457,6,0,P|456:210|527:175,1,94.3800012961121,2|0,1:2|0:0,0:0:0:0:
442,75,275776,1,0,0:0:0:0:
314,110,275935,2,0,P|269:82|217:86,1,94.3800012961121,2|8,0:0|0:0,0:0:0:0:
212,278,276414,1,2,1:2:0:0:
112,330,276574,1,0,1:0:0:0:
237,361,276733,6,0,P|284:323|297:273,1,79.8599977456513,0|0,1:0|0:0,0:0:0:0:
209,161,277052,1,2,1:2:0:0:
290,294,277212,2,0,P|323:231|384:206,1,90.7500008654595,0|8,1:0|0:0,0:0:0:0:
444,350,277531,1,2,0:0:0:0:
350,217,277691,2,0,P|412:190|431:117,1,101.639997983826,0|8,1:0|0:0,0:0:0:0:
304,65,278010,6,0,P|323:119|308:187,1,108.900001038551,2|0,1:2|1:0,0:0:0:0:
301,173,278249,1,0,1:0:0:0:
290,178,278329,2,0,P|252:214|241:284,1,108.900001038551,0|0,1:0|1:0,0:0:0:0:
452,358,278648,1,8,0:0:0:0:
332,259,278808,1,0,0:0:0:0:
471,239,278967,1,0,1:0:0:0:
265,351,279127,1,0,1:0:0:0:
108,185,279286,6,0,P|64:239|117:364,1,188.760002592224,2|0,1:2|1:0,0:0:0:0:
154,274,279765,1,0,0:0:0:0:
205,181,279925,2,0,P|186:125|151:93,1,94.3800012961121,10|0,0:0|0:0,0:0:0:0:
241,27,280244,1,0,1:0:0:0:
316,100,280403,1,8,0:0:0:0:
394,35,280563,6,0,L|498:39,1,94.3800012961121,2|8,1:2|0:0,0:0:0:0:
406,225,280882,2,0,L|285:221,1,94.3800012961121,0|0,1:0|0:0,0:0:0:0:
147,148,281201,2,0,B|264:106|264:106|366:113,1,188.760002592224,8|0,0:0|1:0,0:0:0:0:
342,322,281680,1,0,1:0:0:0:
342,322,281760,1,0,1:0:0:0:
342,322,281840,6,0,P|397:342|467:332,1,94.3800012961121,2|0,1:2|0:0,0:0:0:0:
230,275,282159,2,0,P|177:274|117:308,1,94.3800012961121,2|0,0:0|1:0,0:0:0:0:
317,219,282478,2,0,L|304:101,1,94.3800012961121,10|0,0:0|0:0,0:0:0:0:
144,75,282797,1,2,1:2:0:0:
139,93,282877,1,0,1:0:0:0:
135,112,282957,1,0,1:0:0:0:
129,131,283036,1,0,1:0:0:0:
125,151,283116,6,0,P|199:173|314:104,1,188.760002592224,2|2,1:2|0:0,0:0:0:0:
390,37,283595,1,0,1:0:0:0:
390,37,283675,1,0,1:0:0:0:
390,37,283755,1,10,0:0:0:0:
472,139,283914,2,0,L|464:246,1,94.3800012961121,0|2,1:0|0:0,0:0:0:0:
457,230,284425,5,8,0:0:0:0:
358,192,284786,1,0,0:0:0:0:
271,204,285101,1,0,0:0:0:0:
223,229,285417,1,0,0:0:0:0:
200,252,285733,6,0,L|189:168,1,79.1999975830079,8|0,0:0|0:0,0:0:0:0:
85,274,286389,2,0,L|78:360,1,79.1999975830079
372,323,287193,5,12,0:0:0:0:
256,192,287398,12,8,290480,0:0:0:0:
83,78,292339,6,0,L|80:58,2,16.5,0|0|8,0:0|0:0|0:0,0:0:0:0:
155,200,293553,5,8,0:0:0:0:
18,329,294948,5,4,0:1:0:0:
256,192,295135,12,0,300948,0:0:0:0:
