osu file format v14

[General]
AudioFilename: audio.mp3
AudioLeadIn: 0
PreviewTime: 62025
Countdown: 0
SampleSet: Soft
StackLeniency: 0.7
Mode: 0
LetterboxInBreaks: 0
WidescreenStoryboard: 0

[Editor]
DistanceSpacing: 1.2
BeatDivisor: 4
GridSize: 4
TimelineZoom: 2.1

[Metadata]
Title:Niji no Mahou
TitleUnicode:虹の魔法
Artist:Shimotsuki Haruka
ArtistUnicode:霜月はるか
Creator:Lily Bread
Version:Hard
Source:FLOWERS - Le volume sur automne -
Tags:百合 yuri 秋篇 Innocent Grey the of autumn MANYO Visual Novel VN
BeatmapID:1061549
BeatmapSetID:498681

[Difficulty]
HPDrainRate:5
CircleSize:4
OverallDifficulty:6
ApproachRate:7.5
SliderMultiplier:1.5
SliderTickRate:1

[Events]
//Background and Video events
0,0,"ev02a.png",0,0
//Break Periods
2,29606,43105
//Storyboard Layer 0 (Background)
//Storyboard Layer 1 (Fail)
//Storyboard Layer 2 (Pass)
//Storyboard Layer 3 (Foreground)
//Storyboard Sound Samples

[TimingPoints]
121,476.190476190476,4,2,1,30,1,0
17263,-100,4,2,1,25,0,0
62978,-90.9090909090909,4,2,1,55,0,1
78097,-90.9090909090909,4,2,1,55,0,0
78216,-90.9090909090909,4,2,1,55,0,1
108573,-90.9090909090909,4,2,1,55,0,0
108692,-90.9090909090909,4,2,1,55,0,1
127740,-100,4,2,1,35,0,0

[Colours]
Combo1 : 106,106,106
Combo2 : 250,163,44

[HitObjects]
88,88,17263,5,2,0:0:0:0:
88,88,17501,2,0,P|128:80|164:96,1,75
228,148,17978,1,2,0:0:0:0:
228,148,18454,2,0,L|312:152,1,75
388,124,18930,2,0,P|432:136|432:236,1,150
284,316,19882,5,2,0:0:0:0:
284,316,20120,2,0,L|184:320,1,75
124,292,20597,2,0,P|88:276|28:268,1,75
28,184,21073,2,0,P|24:136|32:100,2,75,2|0|0,0:0|0:0|0:0,0:0:0:0:
116,184,21787,2,0,P|192:176|280:192,1,150,2|0,0:0|0:0,0:0:0:0:
424,88,24882,5,2,0:0:0:0:
424,88,25120,2,0,L|344:80,1,75
284,148,25597,1,2,0:0:0:0:
284,148,26073,2,0,L|200:160,1,75
124,132,26549,2,0,P|52:164|80:244,1,150
216,312,27501,5,2,0:0:0:0:
256,232,27740,1,0,0:0:0:0:
308,304,27978,1,0,0:0:0:0:
356,228,28216,2,0,L|452:204,1,75
496,148,28692,6,0,P|456:96|356:76,1,150,2|0,0:0|0:0,0:0:0:0:
308,128,29406,1,2,0:0:0:0:
256,192,43930,12,0,46787,0:0:0:0:
72,52,47501,5,0,0:0:0:0:
136,116,47740,6,0,L|240:124,1,75,2|0,0:0|0:0,0:0:0:0:
284,68,48216,1,0,0:0:0:0:
436,168,48692,1,2,0:0:0:0:
404,252,48930,2,0,L|316:276,1,75
248,244,49406,6,0,L|156:224,2,75,0|2|0,0:0|0:0|0:0,0:0:0:0:
104,352,50359,2,0,L|12:356,2,75,0|2|2,0:0|0:0|0:0,0:0:0:0:
184,308,51073,1,2,0:0:0:0:
104,264,51311,2,0,L|28:220,1,75,0|2,0:0|0:0,0:0:0:0:
20,140,51787,5,0,0:0:0:0:
100,96,52025,1,0,0:0:0:0:
168,156,52263,2,0,L|264:140,1,75,0|2,0:0|0:0,0:0:0:0:
272,60,52740,2,0,P|322:112|319:185,1,150
244,236,53454,5,2,0:0:0:0:
276,320,53692,1,2,0:0:0:0:
364,320,53930,1,2,0:0:0:0:
392,236,54168,2,0,P|448:292|432:372,2,150,0|2|0,0:0|0:0|0:0,0:0:0:0:
328,172,55359,6,0,P|358:150|394:144,1,75,2|0,0:0|0:0,0:0:0:0:
420,60,55835,2,0,L|332:48,1,75
260,28,56311,1,2,0:0:0:0:
232,112,56549,2,0,L|208:196,1,75,2|2,0:0|0:0,0:0:0:0:
276,244,57025,2,0,L|288:328,2,75,0|2|0,0:0|0:0|0:0,0:0:0:0:
104,188,57978,6,0,L|88:28,2,150
68,268,59168,6,0,B|116:288|116:288|168:272|168:272|204:336|272:312,1,225,2|0,0:0|0:0,0:0:0:0:
239,246,60120,2,0,P|347:226|403:318,1,225,2|2,0:0|0:0,0:0:0:0:
404,312,61311,5,2,0:0:0:0:
420,224,61549,1,2,0:0:0:0:
384,144,61787,1,2,0:0:0:0:
316,84,62025,2,0,L|200:72,1,112.5,2|8,0:0|0:0,0:0:0:0:
180,72,62501,1,8,0:0:0:0:
88,60,62740,1,8,0:0:0:0:
88,60,62859,1,8,0:0:0:0:
88,60,62978,5,4,2:0:0:0:
120,160,63216,1,0,0:0:0:0:
120,160,63335,1,0,0:0:0:0:
120,160,63454,2,0,P|124:212|136:248,1,82.5000025177003,8|0,0:0|0:0,0:0:0:0:
144,260,63811,1,8,0:0:0:0:
160,276,63930,2,0,P|198:277|276:276,1,82.5000025177003,0|8,0:0|0:0,0:0:0:0:
308,196,64406,2,0,P|344:240|340:296,1,82.5000025177003
288,356,64882,5,2,0:0:0:0:
396,356,65120,1,8,0:0:0:0:
456,268,65359,1,8,0:0:0:0:
396,180,65597,2,0,L|396:128,2,41.2500012588501,8|8|8,0:0|0:0|0:0,0:0:0:0:
504,180,66073,1,8,0:0:0:0:
464,80,66311,2,0,P|428:56|389:49,1,82.5000025177003
304,116,66787,5,2,0:0:0:0:
328,220,67025,1,0,0:0:0:0:
328,220,67144,1,0,0:0:0:0:
328,220,67263,2,0,P|276:216|240:204,1,82.5000025177003,8|0,0:0|0:0,0:0:0:0:
228,196,67620,1,8,0:0:0:0:
212,180,67739,2,0,P|210:141|212:64,1,82.5000025177003,0|8,0:0|0:0,0:0:0:0:
112,48,68216,2,0,L|112:148,1,82.5000025177003
20,188,68692,5,2,0:0:0:0:
20,296,68930,1,8,0:0:0:0:
108,356,69169,1,8,0:0:0:0:
196,296,69407,2,0,L|248:296,2,41.2500012588501,8|8|8,0:0|0:0|0:0,0:0:0:0:
112,228,69882,1,8,0:0:0:0:
200,168,70120,1,8,0:0:0:0:
296,216,70359,2,0,L|352:216,2,41.2500012588501,8|8|2,0:0|0:0|0:0,0:0:0:0:
296,324,70835,5,0,0:0:0:0:
400,296,71073,2,0,P|439:262|461:231,1,82.5000025177003,8|0,0:0|0:0,0:0:0:0:
466,217,71430,1,8,0:0:0:0:
470,195,71549,2,0,L|456:80,1,82.5000025177003,0|8,0:0|0:0,0:0:0:0:
372,52,72025,2,0,L|384:164,1,82.5000025177003
320,224,72501,5,2,0:0:0:0:
272,128,72740,1,8,0:0:0:0:
212,216,72978,1,8,0:0:0:0:
168,116,73216,2,0,L|176:60,2,41.2500012588501,8|8|8,0:0|0:0|0:0,0:0:0:0:
120,212,73692,1,0,0:0:0:0:
120,212,73811,1,0,0:0:0:0:
120,212,73930,2,0,L|64:212,3,41.2500012588501,8|8|8|8,0:0|0:0|0:0|0:0,0:0:0:0:
96,172,74406,6,0,P|107:91|81:13,1,165.000005035401,4|8,0:0|0:0,0:0:0:0:
11,63,75120,2,0,P|24:101|18:142,1,82.5000025177003,4|0,0:0|0:0,0:0:0:0:
16,256,75597,1,8,0:0:0:0:
16,256,75716,1,8,0:0:0:0:
16,256,75835,2,0,P|47:283|87:292,1,82.5000025177003,8|0,0:0|0:0,0:0:0:0:
144,200,76311,5,4,0:0:0:0:
200,292,76549,1,8,0:0:0:0:
256,200,76787,1,8,0:0:0:0:
308,292,77025,1,2,0:0:0:0:
404,336,77263,2,0,P|415:276|384:224,1,123.75000377655,8|8,0:0|0:0,0:0:0:0:
364,212,77740,1,8,0:0:0:0:
364,108,77978,1,0,0:0:0:0:
364,108,78097,1,0,0:0:0:0:
364,108,78216,5,4,2:0:0:0:
296,32,78454,1,0,0:0:0:0:
296,32,78573,1,0,0:0:0:0:
296,32,78692,2,0,P|244:36|208:48,1,82.5000025177003,8|0,0:0|0:0,0:0:0:0:
196,56,79049,1,8,0:0:0:0:
180,72,79168,2,0,P|179:110|180:188,1,82.5000025177003,0|8,0:0|0:0,0:0:0:0:
148,256,79644,2,0,P|98:227|82:174,1,82.5000025177003
88,100,80120,5,2,0:0:0:0:
4,168,80358,1,8,0:0:0:0:
4,276,80597,1,8,0:0:0:0:
88,340,80835,2,0,L|88:408,2,41.2500012588501,8|8|8,0:0|0:0|0:0,0:0:0:0:
172,276,81311,1,8,0:0:0:0:
176,168,81549,2,0,P|216:175|250:199,1,82.5000025177003
276,304,82025,5,2,0:0:0:0:
352,228,82263,1,0,0:0:0:0:
352,228,82382,1,0,0:0:0:0:
352,228,82501,2,0,P|404:224|440:212,1,82.5000025177003,8|0,0:0|0:0,0:0:0:0:
452,204,82858,1,8,0:0:0:0:
468,188,82977,2,0,L|480:76,1,82.5000025177003,0|8,0:0|0:0,0:0:0:0:
396,36,83454,2,0,L|384:136,1,82.5000025177003
292,168,83930,5,2,0:0:0:0:
272,64,84168,1,8,0:0:0:0:
184,128,84407,1,8,0:0:0:0:
216,232,84645,2,0,L|232:288,2,41.2500012588501,2|8|8,0:0|0:0|0:0,0:0:0:0:
116,192,85120,1,2,0:0:0:0:
76,92,85359,1,0,0:0:0:0:
12,176,85597,1,8,0:0:0:0:
12,176,85716,1,8,0:0:0:0:
12,176,85835,6,0,P|20:232|52:268,1,82.5000025177003,2|0,0:0|0:0,0:0:0:0:
120,316,86311,1,8,0:0:0:0:
227,271,86549,1,0,0:0:0:0:
227,271,86668,1,8,0:0:0:0:
227,271,86787,2,0,L|323:255,1,82.5000025177003,0|8,0:0|0:0,0:0:0:0:
356,344,87263,2,0,L|460:304,1,82.5000025177003
492,236,87739,5,2,0:0:0:0:
392,196,87978,1,8,0:0:0:0:
476,128,88216,1,8,0:0:0:0:
384,72,88454,2,0,L|376:16,2,41.2500012588501,8|8|8,0:0|0:0|0:0,0:0:0:0:
300,140,88930,1,8,0:0:0:0:
300,140,89049,1,8,0:0:0:0:
300,140,89168,2,0,L|240:152,3,41.2500012588501,8|8|8|8,0:0|0:0|0:0|0:0,0:0:0:0:
272,108,89644,6,0,L|260:20,2,82.5000025177003,4|0|8,0:0|0:0|0:0,0:0:0:0:
288,216,90358,2,0,P|292:268|256:320,1,82.5000025177003,4|0,0:0|0:0,0:0:0:0:
184,244,90835,1,0,0:0:0:0:
148,344,91073,2,0,L|92:344,3,41.2500012588501,8|8|8|8,0:0|0:0|0:0|0:0,0:0:0:0:
120,304,91549,6,0,P|96:252|108:208,1,82.5000025177003,4|0,0:0|0:0,0:0:0:0:
172,148,92025,1,8,0:0:0:0:
68,132,92263,1,2,0:0:0:0:
144,56,92501,2,0,P|208:56|252:96,1,123.75000377655,8|8,0:0|0:0,0:0:0:0:
272,136,92978,2,0,L|328:136,3,41.2500012588501,8|8|8|8,0:0|0:0|0:0|0:0,0:0:0:0:
288,180,93454,6,0,L|288:356,1,165.000005035401,2|8,0:0|0:0,0:0:0:0:
388,352,94168,2,0,L|444:352,2,41.2500012588501,8|8|8,0:0|0:0|0:0,0:0:0:0:
360,256,94644,1,8,0:0:0:0:
464,288,94882,2,0,P|472:240|456:200,1,82.5000025177003,8|0,0:0|0:0,0:0:0:0:
368,152,95359,5,2,0:0:0:0:
468,108,95597,1,8,0:0:0:0:
380,48,95835,1,8,0:0:0:0:
284,96,96073,1,8,0:0:0:0:
284,96,96192,1,8,0:0:0:0:
284,96,96311,2,0,L|196:68,1,82.5000025177003,8|0,0:0|0:0,0:0:0:0:
172,160,96787,2,0,L|88:136,1,82.5000025177003
16,64,97263,5,2,0:0:0:0:
12,172,97501,1,0,0:0:0:0:
12,172,97620,1,0,0:0:0:0:
12,172,97739,2,0,P|16:224|28:260,1,82.5000025177003,8|0,0:0|0:0,0:0:0:0:
36,272,98096,1,8,0:0:0:0:
52,288,98215,2,0,P|91:290|168:288,1,82.5000025177003,0|8,0:0|0:0,0:0:0:0:
232,244,98692,2,0,P|271:242|348:244,1,82.5000025177003
368,336,99168,5,2,0:0:0:0:
464,292,99406,1,8,0:0:0:0:
420,196,99645,1,8,0:0:0:0:
480,104,99883,2,0,L|480:48,2,41.2500012588501,8|8|8,0:0|0:0|0:0,0:0:0:0:
384,60,100358,1,8,0:0:0:0:
316,144,100596,1,8,0:0:0:0:
316,144,100716,1,8,0:0:0:0:
316,144,100835,2,0,L|256:144,2,41.2500012588501,8|8|2,0:0|0:0|0:0,0:0:0:0:
296,40,101311,5,0,0:0:0:0:
196,80,101549,2,0,P|146:95|113:114,1,82.5000025177003,8|0,0:0|0:0,0:0:0:0:
103,125,101906,1,8,0:0:0:0:
90,143,102025,2,0,L|56:253,1,82.5000025177003,0|8,0:0|0:0,0:0:0:0:
168,256,102501,2,0,L|180:368,1,82.5000025177003
280,364,102977,5,2,0:0:0:0:
316,260,103216,1,8,0:0:0:0:
416,300,103454,1,8,0:0:0:0:
452,200,103692,2,0,L|460:148,2,41.2500012588501,8|8|8,0:0|0:0|0:0,0:0:0:0:
364,140,104168,1,8,0:0:0:0:
364,140,104287,1,8,0:0:0:0:
364,140,104406,2,0,L|340:80,2,41.2500012588501,8|8|8,0:0|0:0|0:0,0:0:0:0:
268,188,104882,6,0,P|188:188|100:140,1,165.000005035401,4|8,0:0|0:0,0:0:0:0:
28,88,105596,2,0,P|8:132|28:200,1,82.5000025177003,4|0,0:0|0:0,0:0:0:0:
24,272,106073,1,8,0:0:0:0:
24,272,106192,1,8,0:0:0:0:
24,272,106311,2,0,L|24:328,3,41.2500012588501,8|8|8|8,0:0|0:0|0:0|0:0,0:0:0:0:
60,292,106787,6,0,L|148:292,1,82.5000025177003,4|0,0:0|0:0,0:0:0:0:
220,220,107263,1,8,0:0:0:0:
264,316,107501,2,0,L|264:368,2,41.2500012588501,8|8|8,0:0|0:0|0:0,0:0:0:0:
332,232,107978,1,8,0:0:0:0:
332,232,108097,1,8,0:0:0:0:
332,232,108216,2,0,L|332:164,3,41.2500012588501,8|8|8|8,0:0|0:0|0:0|0:0,0:0:0:0:
368,212,108692,5,4,2:0:0:0:
476,228,108930,1,0,0:0:0:0:
476,228,109049,1,0,0:0:0:0:
476,228,109168,2,0,P|472:176|460:140,1,82.5000025177003,8|0,0:0|0:0,0:0:0:0:
452,128,109525,1,8,0:0:0:0:
436,112,109644,2,0,P|398:111|320:112,1,82.5000025177003,0|8,0:0|0:0,0:0:0:0:
260,164,110120,2,0,P|218:164|177:163,1,82.5000025177003,0|8,0:0|0:0,0:0:0:0:
192,56,110596,5,2,0:0:0:0:
88,24,110834,1,8,0:0:0:0:
32,116,111073,1,8,0:0:0:0:
104,196,111311,2,0,L|108:264,2,41.2500012588501,8|8|8,0:0|0:0|0:0,0:0:0:0:
184,268,111787,1,8,0:0:0:0:
177,163,112025,1,0,0:0:0:0:
272,212,112263,2,0,L|328:212,2,41.2500012588501,8|8|2,0:0|0:0|0:0,0:0:0:0:
316,312,112739,5,0,0:0:0:0:
316,312,112858,1,0,0:0:0:0:
316,312,112977,2,0,P|367:306|403:292,1,82.5000025177003,8|0,0:0|0:0,0:0:0:0:
415,284,113334,1,8,0:0:0:0:
430,267,113453,2,0,L|438:154,1,82.5000025177003,0|8,0:0|0:0,0:0:0:0:
500,96,113930,1,0,0:0:0:0:
400,60,114168,1,0,0:0:0:0:
400,60,114287,1,8,0:0:0:0:
400,60,114406,6,0,L|296:52,1,82.5000025177003
228,116,114883,1,8,0:0:0:0:
292,200,115121,2,0,L|292:256,2,41.2500012588501,2|8|8,0:0|0:0|0:0,0:0:0:0:
184,212,115596,1,0,0:0:0:0:
184,212,115716,1,0,0:0:0:0:
184,212,115835,2,0,L|160:264,3,41.2500012588501,8|8|8|8,0:0|0:0|0:0|0:0,0:0:0:0:
136,216,116311,6,0,L|56:164,1,82.5000025177003,2|0,0:0|0:0,0:0:0:0:
8,260,116787,1,8,0:0:0:0:
80,340,117025,1,0,0:0:0:0:
80,340,117144,1,8,0:0:0:0:
80,340,117263,2,0,L|176:348,1,82.5000025177003,0|8,0:0|0:0,0:0:0:0:
264,308,117740,1,0,0:0:0:0:
360,356,117978,1,0,0:0:0:0:
360,356,118097,1,8,0:0:0:0:
360,356,118215,5,2,0:0:0:0:
392,252,118454,1,8,0:0:0:0:
476,316,118692,1,8,0:0:0:0:
488,208,118930,1,8,0:0:0:0:
488,208,119049,1,8,0:0:0:0:
488,208,119168,2,0,L|488:144,3,41.2500012588501,8|8|8|8,0:0|0:0|0:0|0:0,0:0:0:0:
436,180,119644,2,0,L|436:120,3,41.2500012588501,8|8|8|8,0:0|0:0|0:0|0:0,0:0:0:0:
396,164,120120,6,0,L|288:164,2,82.5000025177003,4|0|8,0:0|0:0|0:0,0:0:0:0:
416,60,120834,2,0,P|468:60|512:100,1,82.5000025177003,4|0,0:0|0:0,0:0:0:0:
488,166,121311,1,8,0:0:0:0:
412,240,121549,2,0,L|356:240,3,41.2500012588501,8|0|0|0,0:0|0:0|0:0|0:0,0:0:0:0:
384,284,122025,6,0,P|332:308|288:296,1,82.5000025177003,4|0,0:0|0:0,0:0:0:0:
228,232,122501,1,8,0:0:0:0:
204,336,122739,1,2,0:0:0:0:
132,260,122977,2,0,P|132:196|172:152,1,123.75000377655,8|8,0:0|0:0,0:0:0:0:
192,144,123454,1,8,0:0:0:0:
276,80,123692,2,0,L|336:80,2,41.2500012588501,0|8|2,0:0|0:0|0:0,0:0:0:0:
180,28,124168,5,0,0:0:0:0:
104,104,124406,1,8,0:0:0:0:
40,20,124644,2,0,P|8:68|4:112,1,82.5000025177003
8,200,125120,1,8,0:0:0:0:
8,200,125240,1,8,0:0:0:0:
8,200,125359,2,0,L|8:256,3,41.2500012588501,8|8|8|8,0:0|0:0|0:0|0:0,0:0:0:0:
44,220,125835,6,0,L|136:220,1,82.5000025177003
228,192,126311,1,8,0:0:0:0:
200,296,126549,1,2,0:0:0:0:
304,268,126787,2,0,P|340:208|332:152,1,123.75000377655,8|8,0:0|0:0,0:0:0:0:
324,136,127263,1,8,0:0:0:0:
256,52,127501,1,0,0:0:0:0:
256,52,127620,1,8,0:0:0:0:
256,52,127740,6,0,L|160:52,2,75,2|0|0,0:0|0:0|0:0,0:0:0:0:
348,24,128454,1,0,0:0:0:0:
424,88,128692,2,0,L|508:88,2,75,2|0|0,0:0|0:0|0:0,0:0:0:0:
408,184,129406,1,0,0:0:0:0:
444,264,129644,6,0,P|380:308|256:240,1,225,2|0,0:0|0:0,0:0:0:0:
236,160,130597,2,0,P|148:98|51:144,1,225,2|0,0:0|0:0,0:0:0:0:
16,232,131549,6,0,L|16:316,2,75,2|0|0,0:0|0:0|0:0,0:0:0:0:
112,216,132263,1,0,0:0:0:0:
172,292,132501,2,0,L|256:296,1,75,2|0,0:0|0:0,0:0:0:0:
244,196,132978,2,0,L|344:208,1,75
348,296,133454,6,0,P|416:208|368:116,1,225,2|0,0:0|0:0,0:0:0:0:
272,104,134406,2,0,P|176:144|60:100,1,225,2|0,0:0|0:0,0:0:0:0:
16,20,135359,5,2,0:0:0:0:
