osu file format v14

[General]
AudioFilename: audio.mp3
AudioLeadIn: 0
PreviewTime: 62025
Countdown: 0
SampleSet: Soft
StackLeniency: 0.7
Mode: 0
LetterboxInBreaks: 0
WidescreenStoryboard: 0

[Editor]
DistanceSpacing: 0.9
BeatDivisor: 2
GridSize: 4
TimelineZoom: 1.8

[Metadata]
Title:Niji no Mahou
TitleUnicode:虹の魔法
Artist:Shimotsuki Haruka
ArtistUnicode:霜月はるか
Creator:Lily Bread
Version:Easy
Source:FLOWERS - Le volume sur automne -
Tags:百合 yuri 秋篇 Innocent Grey the of autumn MANYO Visual Novel VN
BeatmapID:1079054
BeatmapSetID:498681

[Difficulty]
HPDrainRate:1
CircleSize:3
OverallDifficulty:1
ApproachRate:3
SliderMultiplier:0.9
SliderTickRate:1

[Events]
//Background and Video events
0,0,"ev02a.png",0,0
//Break Periods
2,29606,42490
//Storyboard Layer 0 (Background)
//Storyboard Layer 1 (Fail)
//Storyboard Layer 2 (Pass)
//Storyboard Layer 3 (Foreground)
//Storyboard Sound Samples

[TimingPoints]
121,476.190476190476,4,2,1,30,1,0
17263,-100,4,2,1,25,0,0
62978,-100,4,2,1,55,0,1
77978,-100,4,2,1,55,0,0
78216,-100,4,2,1,55,0,1
108454,-100,4,2,1,55,0,0
108692,-100,4,2,1,55,0,1
127740,-100,4,2,1,35,0,0

[Colours]
Combo1 : 106,106,106
Combo2 : 250,163,44

[HitObjects]
40,128,17263,6,0,P|100:92|176:112,1,135,2|2,0:0|0:0,0:0:0:0:
228,248,18930,1,0,0:0:0:0:
228,248,21073,2,0,L|384:248,1,135,2|2,0:0|0:0,0:0:0:0:
446,165,24882,6,0,P|422:229|334:237,1,135,2|2,0:0|0:0,0:0:0:0:
256,124,26549,1,0,0:0:0:0:
256,124,28692,2,0,L|112:124,1,135,2|2,0:0|0:0,0:0:0:0:
256,192,43930,12,0,45835,0:0:0:0:
72,152,47740,6,0,P|104:92|192:152,1,180,2|2,0:0|0:0,0:0:0:0:
196,292,49644,2,0,P|256:346|316:290,1,180,2|2,0:0|0:0,0:0:0:0:
321,129,51549,6,0,P|391:86|440:152,1,180,2|2,0:0|0:0,0:0:0:0:
440,316,53454,2,0,P|372:324|312:280,1,135,2|0,0:0|0:0,0:0:0:0:
268,224,54644,1,2,0:0:0:0:
248,106,55359,6,0,P|196:45|84:23,1,180,2|2,0:0|0:0,0:0:0:0:
4,148,57263,2,0,P|55:209|168:231,1,180,2|0,0:0|0:0,0:0:0:0:
300,300,59168,5,2,0:0:0:0:
180,192,60120,2,0,P|256:168|312:180,2,135,2|0|2,0:0|0:0|0:0,0:0:0:0:
108,228,62025,1,2,0:0:0:0:
40,184,62501,1,8,0:0:0:0:
52,104,62978,6,0,P|100:80|156:92,1,90,4|8,2:0|0:0,0:0:0:0:
200,132,63930,1,0,0:0:0:0:
172,208,64406,1,0,0:0:0:0:
200,284,64882,2,0,P|242:296|285:286,1,90,2|8,0:0|0:0,0:0:0:0:
344,228,65835,2,0,P|396:215|448:239,2,90,8|0|2,0:0|0:0|0:0,0:0:0:0:
280,180,67263,6,0,L|264:80,1,90,8|0,0:0|0:0,0:0:0:0:
296,16,68216,1,0,0:0:0:0:
352,72,68692,2,0,P|424:68|492:24,2,135,2|8|8,0:0|0:0|0:0,0:0:0:0:
276,100,70597,6,0,L|164:100,1,90,2|8,0:0|0:0,0:0:0:0:
112,128,71549,2,0,P|90:166|91:211,1,90,0|0,0:0|0:0,0:0:0:0:
132,280,72501,1,2,0:0:0:0:
196,232,72978,2,0,L|312:224,1,90,8|8,0:0|0:0,0:0:0:0:
360,256,73930,1,8,0:0:0:0:
404,188,74406,6,0,P|420:120|408:40,2,135,4|4|8,0:0|0:0|0:0,0:0:0:0:
332,152,76311,2,0,P|264:136|184:148,2,135,4|2|8,0:0|0:0|0:0,0:0:0:0:
332,232,78216,6,0,L|328:340,1,90,4|8,2:0|0:0,0:0:0:0:
264,368,79168,1,0,0:0:0:0:
208,308,79644,1,0,0:0:0:0:
144,356,80120,2,0,P|101:368|58:358,1,90,2|8,0:0|0:0,0:0:0:0:
32,280,81073,2,0,L|4:192,2,90,8|0|2,0:0|0:0|0:0,0:0:0:0:
112,268,82501,6,0,P|155:257|197:270,1,90,8|0,0:0|0:0,0:0:0:0:
264,316,83454,1,0,0:0:0:0:
336,284,83930,2,0,P|396:268|480:264,2,135,2|2|0,0:0|0:0|0:0,0:0:0:0:
272,232,85835,6,0,L|252:128,1,90,2|8,0:0|0:0,0:0:0:0:
216,72,86787,2,0,P|171:70|132:92,1,90,0|0,0:0|0:0,0:0:0:0:
80,156,87739,1,2,0:0:0:0:
144,208,88216,2,0,L|168:320,1,90,8|8,0:0|0:0,0:0:0:0:
112,360,89168,1,8,0:0:0:0:
56,300,89644,6,0,P|34:228|36:140,2,135,4|4|8,0:0|0:0|0:0,0:0:0:0:
128,260,91549,2,0,P|199:238|288:240,2,135,4|2|8,0:0|0:0|0:0,0:0:0:0:
144,340,93454,6,0,P|216:348|240:336,1,90,2|8,0:0|0:0,0:0:0:0:
300,300,94406,1,8,0:0:0:0:
364,348,94882,1,8,0:0:0:0:
420,292,95359,2,0,L|448:164,1,90,2|8,0:0|0:0,0:0:0:0:
500,148,96311,1,8,0:0:0:0:
456,80,96787,1,0,0:0:0:0:
396,136,97263,6,0,L|300:140,1,90,2|8,0:0|0:0,0:0:0:0:
224,140,98216,2,0,P|156:132|136:112,1,90,0|0,0:0|0:0,0:0:0:0:
60,108,99168,2,0,P|48:173|76:233,2,135,2|8|8,0:0|0:0|0:0,0:0:0:0:
112,44,101073,6,0,P|176:36|224:56,1,90,2|8,0:0|0:0,0:0:0:0:
260,96,102025,1,0,0:0:0:0:
324,48,102501,1,0,0:0:0:0:
380,108,102978,2,0,L|408:208,1,90,2|8,0:0|0:0,0:0:0:0:
420,272,103930,2,0,P|376:320|336:324,1,90,8|8,0:0|0:0,0:0:0:0:
280,292,104882,6,0,P|200:292|116:308,2,135,4|4|8,0:0|0:0|0:0,0:0:0:0:
328,228,106787,2,0,L|332:56,2,135,4|8|8,0:0|0:0|0:0,0:0:0:0:
248,236,108692,6,0,P|204:243|156:236,1,90,4|8,2:0|0:0,0:0:0:0:
88,196,109644,2,0,L|80:88,1,90,0|0,0:0|0:0,0:0:0:0:
140,48,110597,1,2,0:0:0:0:
212,88,111073,1,8,0:0:0:0:
276,40,111549,2,0,L|372:40,1,90,8|0,0:0|0:0,0:0:0:0:
436,80,112501,6,0,P|460:136|452:168,1,90,2|8,0:0|0:0,0:0:0:0:
416,232,113454,1,0,0:0:0:0:
340,204,113930,1,0,0:0:0:0:
284,264,114406,2,0,P|240:336|200:368,2,135,0|2|8,0:0|0:0|0:0,0:0:0:0:
256,188,116311,6,0,L|248:92,1,90,2|8,0:0|0:0,0:0:0:0:
180,56,117263,2,0,P|136:32|88:36,1,90,0|0,0:0|0:0,0:0:0:0:
48,96,118216,2,0,L|24:216,1,90,2|8,0:0|0:0,0:0:0:0:
72,252,119168,2,0,P|120:296|152:292,1,90,8|8,0:0|0:0,0:0:0:0:
216,268,120120,6,0,P|284:272|364:300,2,135,4|4|8,0:0|0:0|0:0,0:0:0:0:
172,200,122025,2,0,L|136:64,2,135,4|2|8,0:0|0:0|0:0,0:0:0:0:
252,188,123930,6,0,P|304:180|368:120,2,135,2|0|8,0:0|0:0|0:0,0:0:0:0:
196,244,125835,2,0,P|148:272|56:264,2,135,0|2|8,0:0|0:0|0:0,0:0:0:0:
200,164,127740,6,0,P|440:148|440:176,1,360,2|2,0:0|0:0,0:0:0:0:
380,292,130597,1,2,0:0:0:0:
220,324,131549,6,0,P|108:256|216:96,1,360,2|2,0:0|0:0,0:0:0:0:
332,200,134406,2,0,P|428:192|440:100,1,180,2|2,0:0|0:0,0:0:0:0:
