osu file format v14

[General]
AudioFilename: audio.mp3
AudioLeadIn: 0
PreviewTime: 68351
Countdown: 0
SampleSet: Soft
StackLeniency: 0.7
Mode: 0
LetterboxInBreaks: 0
WidescreenStoryboard: 1

[Editor]
Bookmarks: 12393,16392,20392,36392,52392,68392,84392,100393,112059,116059,120058,136058,152058,168058,184058,200058,216059
DistanceSpacing: 1.1
BeatDivisor: 4
GridSize: 32
TimelineZoom: 0.9999999

[Metadata]
Title:Mizu o Utsusu Mono
TitleUnicode:水を映す者
Artist:Shimotsuki Haruka
ArtistUnicode:霜月はるか
Creator:Lasse
Version:Hard
Source:
Tags:japanese folk gust resona impurepug 想いのコンチェルト omoi no concerto manyo craftscape doujin 光の雨音 hikari amaoto SACRED DOORS element maxi side Undine
BeatmapID:4233790
BeatmapSetID:2031289

[Difficulty]
HPDrainRate:4.3
CircleSize:3.8
OverallDifficulty:6.8
ApproachRate:8
SliderMultiplier:1.3
SliderTickRate:1

[Events]
//Background and Video events
0,0,"70502695_p0_5.jpg",0,0
//Break Periods
2,20592,35642
//Storyboard Layer 0 (Background)
//Storyboard Layer 1 (Fail)
//Storyboard Layer 2 (Pass)
//Storyboard Layer 3 (Foreground)
//Storyboard Layer 4 (Overlay)
//Storyboard Sound Samples

[TimingPoints]
727,333.333333333333,5,2,1,65,1,0
727,-100,5,2,1,65,0,0
8976,-100,5,2,1,35,0,0
9060,-100,5,2,1,65,0,0
12393,333.333333333333,6,2,1,60,1,0
12393,-111.111111111111,6,2,1,60,0,0
16392,-200,6,2,1,40,0,0
16726,-200,6,2,1,30,0,0
19392,-200,6,2,1,30,0,0
19559,-200,6,2,1,25,0,0
19726,-200,6,2,1,26,0,0
19892,-111.111111111111,6,2,1,21,0,0
20059,-111.111111111111,6,2,1,22,0,0
20226,-111.111111111111,6,2,1,17,0,0
20392,-111.111111111111,6,2,1,35,0,0
36226,-111.111111111111,6,2,1,25,0,0
36392,-117.647058823529,6,2,1,45,0,0
44309,-117.647058823529,6,2,1,25,0,0
44392,-117.647058823529,6,2,1,45,0,0
52392,-100,6,2,1,60,0,0
67392,-100,6,2,1,65,0,0
67726,-100,6,2,1,65,0,0
68392,-90.9090909090909,6,2,1,70,0,1
68642,-90.9090909090909,6,2,1,35,0,1
68726,-90.9090909090909,6,2,1,70,0,1
77392,-100,6,2,1,70,0,1
78392,-90.9090909090909,6,2,1,70,0,1
82392,-83.3333333333333,6,2,1,75,0,1
84392,-90.9090909090909,6,2,1,70,0,1
84642,-90.9090909090909,6,2,1,35,0,1
84726,-90.9090909090909,6,2,1,70,0,1
95642,-90.9090909090909,6,2,1,35,0,1
95726,-90.9090909090909,6,2,1,70,0,1
98392,-133.333333333333,6,2,1,65,0,0
98726,-100,6,2,1,50,0,0
100393,333.333333333333,5,2,1,65,1,0
100393,-100,5,2,1,65,0,0
108642,-100,5,2,1,35,0,0
108726,-100,5,2,1,65,0,0
111975,-100,5,2,1,35,0,0
112059,333.333333333333,6,2,1,60,1,0
112059,-111.111111111111,6,2,1,60,0,0
116059,-200,6,2,1,40,0,0
116392,-200,6,2,1,30,0,0
119059,-200,6,2,1,30,0,0
119225,-200,6,2,1,25,0,0
119392,-200,6,2,1,26,0,0
119558,-200,6,2,1,21,0,0
119725,-100,6,2,1,22,0,0
119892,-100,6,2,1,17,0,0
120058,-133.333333333333,6,2,12,40,0,0
136058,-111.111111111111,6,2,12,50,0,0
143975,-111.111111111111,6,2,12,25,0,0
144058,-111.111111111111,6,2,12,50,0,0
152058,-100,6,2,1,60,0,0
168058,-95.2380952380952,6,2,1,68,0,0
170308,-95.2380952380952,6,2,1,38,0,0
170392,-95.2380952380952,6,2,1,68,0,0
172308,-95.2380952380952,6,2,1,38,0,0
172392,-95.2380952380952,6,2,1,68,0,0
177308,-95.2380952380952,6,2,1,38,0,0
177392,-95.2380952380952,6,2,1,68,0,0
178308,-95.2380952380952,6,2,1,38,0,0
178392,-95.2380952380952,6,2,1,68,0,0
181642,-95.2380952380952,6,2,1,38,0,0
181725,-95.2380952380952,6,2,1,68,0,0
182058,-95.2380952380952,6,2,1,68,0,0
183725,-80,6,2,1,68,0,0
184058,-100,6,2,1,70,0,0
185392,-100,6,2,1,64,0,0
190058,-100,6,2,1,64,0,0
195975,-100,6,2,1,34,0,0
196058,-100,6,2,1,64,0,0
198058,-100,6,2,1,68,0,0
200058,-86.9565217391304,6,2,1,72,0,1
200308,-86.9565217391304,6,2,1,40,0,1
200392,-86.9565217391304,6,2,1,72,0,1
203975,-86.9565217391304,6,2,1,40,0,1
204058,-86.9565217391304,6,2,1,72,0,1
214058,-133.333333333333,6,2,1,65,0,0
214725,-133.333333333333,6,2,1,50,0,0
215058,-133.333333333333,6,2,1,60,0,0
215725,-100,6,2,1,50,0,0
216058,-100,6,2,1,67,0,0
216059,333.333333333333,5,2,1,67,1,0
216059,-100,5,2,1,67,0,0
217642,-100,5,2,1,37,0,0
217725,-100,5,2,1,67,0,0
227725,-90.9090909090909,5,2,1,70,0,0
228725,-90.9090909090909,5,2,1,72,0,0

[Colours]
Combo1 : 100,135,217
Combo2 : 149,200,217
Combo3 : 53,157,219
Combo4 : 143,201,105
Combo5 : 255,91,169
Combo6 : 98,172,145
Combo7 : 233,188,233
Combo8 : 220,220,220

[HitObjects]
40,257,727,38,0,L|35:335,2,65,4|0|8,3:1|0:0|0:0,0:0:0:0:
110,211,1226,2,0,B|176:210|163:262|231:259,1,130,2|8,1:3|2:1,0:0:0:0:
296,317,1726,2,0,P|327:316|367:303,1,65,10|0,0:0|0:0,0:0:0:0:
340,175,2060,2,0,P|309:176|269:189,1,65,8|0,1:1|0:0,0:0:0:0:
422,237,2393,22,0,P|429:165|458:86,1,130,2|8,3:1|0:0,0:0:0:0:
391,31,2893,2,0,P|313:35|253:18,1,130,2|8,1:3|2:1,0:0:0:0:
188,46,3393,1,8,0:0:0:0:
246,98,3560,1,2,0:2:0:0:
174,129,3726,1,8,1:1:0:0:
108,75,3893,85,8,0:1:0:0:
108,75,3976,1,8,0:1:0:0:
108,75,4060,2,0,P|77:146|92:212,1,130,4|8,3:2|0:0,0:0:0:0:
124,275,4560,1,2,1:3:0:0:
226,151,4893,1,8,2:1:0:0:
226,151,5060,2,0,P|260:143|298:144,1,65,10|0,0:0|0:0,0:0:0:0:
366,190,5393,2,0,P|398:190|429:198,1,65,8|0,1:1|0:0,0:0:0:0:
496,296,5726,22,0,P|444:364|384:359,1,130,2|8,3:1|0:0,0:0:0:0:
320,308,6226,2,0,P|258:293|229:237,1,130,2|8,1:3|2:1,0:0:0:0:
208,162,6726,1,10,0:0:0:0:
268,115,6893,1,8,0:3:0:0:
335,150,7060,1,2,0:3:0:0:
404,107,7226,85,8,0:3:0:0:
404,107,7310,1,8,0:3:0:0:
404,107,7393,2,0,P|413:72|409:25,2,65,4|0|8,3:1|0:0|0:0,0:0:0:0:
331,170,7893,2,0,P|265:145|199:141,1,130,2|8,1:3|2:1,0:0:0:0:
81,95,8393,2,0,P|126:90|154:79,1,65,10|0,0:0|0:0,0:0:0:0:
159,210,8726,2,0,P|114:215|86:226,1,65,8|0,1:1|0:0,0:0:0:0:
197,320,9060,22,0,P|253:354|317:360,1,130,2|8,3:1|0:0,0:0:0:0:
409,336,9560,2,0,P|420:274|452:206,1,130,2|8,1:3|2:1,0:0:0:0:
512,165,10060,1,8,0:0:0:0:
441,133,10226,1,2,0:2:0:0:
503,86,10393,1,8,1:1:0:0:
432,52,10560,85,8,0:1:0:0:
432,52,10643,1,8,0:1:0:0:
432,52,10726,2,0,B|371:29|374:81|287:50,1,130,4|8,3:2|0:0,0:0:0:0:
230,14,11226,1,2,1:3:0:0:
93,100,11560,1,8,2:1:0:0:
93,100,11726,2,0,L|106:176,1,65,10|0,0:0|0:0,0:0:0:0:
38,277,12060,2,0,L|27:212,1,65,8|0,1:1|0:0,0:0:0:0:
103,164,12393,22,0,P|158:181|233:162,1,116.999996429443,4|8,3:1|0:0,0:0:0:0:
264,234,12893,2,0,P|321:243|376:226,1,116.999996429443,2|8,1:3|0:1,0:0:0:0:
436,278,13392,1,10,1:1:0:0:
512,162,13726,2,0,P|517:129|493:43,1,116.999996429443,8|8,0:3|1:2,0:0:0:0:
435,1,14226,1,8,0:3:0:0:
362,59,14392,86,0,L|240:45,1,116.999996429443,2|8,3:1|0:0,0:0:0:0:
183,92,14892,2,0,L|61:78,1,116.999996429443,2|4,1:3|0:3,0:0:0:0:
0,121,15392,1,10,1:1:0:0:
66,224,15726,2,0,P|98:222|132:208,1,58.4999982147217,8|2,0:3|2:1,0:0:0:0:
188,259,16059,2,0,P|217:260|244:269,1,58.4999982147217,8|8,1:2|0:3,0:0:0:0:
303,320,16392,86,0,L|308:385,2,65,6|0|0,2:2|0:0|0:0,0:0:0:0:
350,227,17392,2,0,L|345:162,2,65,2|0|0,0:0|0:0|0:0,0:0:0:0:
416,287,18226,1,0,0:0:0:0:
416,287,18309,1,0,0:0:0:0:
416,287,18392,2,0,P|451:289|484:274,2,65,2|0|0,0:0|0:0|0:0,0:0:0:0:
327,224,19392,2,0,P|292:222|259:237,2,65,2|0|0,0:2|0:2|0:2,0:0:0:0:
409,156,20392,85,2,0:1:0:0:
0,96,36392,102,0,P|60:77|130:87,1,110.50000210762,4|0,3:2|0:0,0:0:0:0:
182,97,36892,1,0,0:0:0:0:
130,154,37059,1,2,0:0:0:0:
216,253,37392,2,0,L|214:390,2,110.50000210762,10|0|0,2:1|0:0|0:0,0:0:0:0:
284,215,38226,1,0,0:0:0:0:
346,281,38392,38,0,P|402:295|463:265,1,110.50000210762,2|0,0:1|0:0,0:0:0:0:
512,156,39059,2,0,L|506:97,1,55.2500010538101
436,146,39392,2,0,L|430:87,1,55.2500010538101,2|0,0:0|0:0,0:0:0:0:
359,131,39726,2,0,P|303:117|242:147,1,110.50000210762,4|0,1:3|0:0,0:0:0:0:
180,106,40226,1,0,0:0:0:0:
100,156,40392,70,0,L|92:273,1,110.50000210762,2|0,3:2|0:0,0:0:0:0:
169,310,40892,2,0,L|177:193,1,110.50000210762,8|0,0:0|0:0,0:0:0:0:
261,172,41392,2,0,L|253:282,2,110.50000210762,8|2|0,0:3|0:0|0:0,0:0:0:0:
327,131,42226,1,0,0:0:0:0:
394,198,42392,38,0,P|442:214|509:196,2,110.50000210762,2|0|2,0:1|0:0|0:2,0:0:0:0:
330,153,43226,1,8,0:1:0:0:
275,207,43392,1,2,0:1:0:0:
305,358,43726,1,4,1:3:0:0:
275,207,44059,1,2,0:3:0:0:
155,307,44392,70,0,P|94:317|41:288,1,110.50000210762,4|0,3:2|0:0,0:0:0:0:
11,230,44892,1,0,0:0:0:0:
55,166,45059,1,2,0:0:0:0:
180,214,45392,2,0,P|241:224|294:195,2,110.50000210762,10|0|0,2:1|0:0|0:0,0:0:0:0:
106,246,46226,1,0,0:0:0:0:
33,189,46392,38,0,L|29:69,1,110.50000210762,2|0,0:1|0:0,0:0:0:0:
155,12,47059,2,0,L|151:72,1,55.2500010538101
227,121,47392,2,0,L|231:61,1,55.2500010538101,2|0,2:2|0:0,0:0:0:0:
306,21,47726,2,0,P|355:18|423:48,1,110.50000210762,4|0,1:3|0:0,0:0:0:0:
479,81,48226,1,0,0:0:0:0:
418,152,48392,70,0,P|369:155|301:125,1,110.50000210762,2|0,3:2|0:0,0:0:0:0:
241,165,48892,2,0,P|190:144|135:146,1,110.50000210762,8|0,0:0|0:0,0:0:0:0:
69,105,49392,1,8,0:3:0:0:
7,247,49726,1,2,0:0:0:0:
113,358,50059,1,0,0:0:0:0:
258,306,50392,38,0,L|263:189,1,110.50000210762,2|8,0:1|0:2,0:0:0:0:
343,172,50892,2,0,L|338:289,1,110.50000210762,8|8,1:1|2:1,0:1:0:0:
394,346,51392,2,0,P|432:352|466:344,1,55.2500010538101,2|2,1:1|0:0,0:0:0:0:
510,288,51726,2,0,P|516:262|512:232,1,55.2500010538101,4|8,1:3|0:1,0:0:0:0:
459,169,52059,1,2,0:3:0:0:
338,282,52392,6,0,P|289:301|209:267,1,130,4|8,3:1|0:1,0:0:0:0:
135,294,52892,1,8,2:2:0:0:
70,238,53059,2,0,P|69:207|88:154,1,65,2|0,0:2|0:0,0:0:0:0:
100,92,53392,2,0,P|67:81|27:78,1,65,10|0,1:1|0:0,0:0:0:0:
160,156,53726,2,0,P|206:162|286:109,1,130,8|8,0:3|1:2,0:0:0:0:
329,56,54226,1,8,0:3:0:0:
433,97,54392,102,0,P|453:143|450:228,1,130,2|8,3:1|0:1,0:0:0:0:
408,299,54892,2,0,P|370:285|271:282,1,130,8|4,1:2|0:3,0:0:0:0:
217,346,55392,2,0,P|146:351|80:379,1,130,10|8,1:1|0:3,0:0:0:0:
12,227,56059,1,8,1:2:0:0:
12,227,56226,1,8,0:3:0:0:
95,259,56392,6,0,P|166:254|232:226,1,130,2|8,3:1|0:1,0:0:0:0:
304,245,56892,1,8,2:2:0:0:
358,180,57059,2,0,P|354:146|332:104,1,65,2|0,0:2|0:0,0:0:0:0:
272,69,57392,2,0,P|201:74|135:102,1,130,10|8,1:1|0:3,0:0:0:0:
64,73,57892,1,2,0:0:0:0:
9,137,58059,2,0,P|12:165|30:217,1,65,8|8,1:2|0:3,0:0:0:0:
100,271,58392,102,0,L|242:290,1,130,2|8,3:1|0:1,0:0:0:0:
289,356,58892,2,0,L|431:375,1,130,8|4,1:2|0:3,0:0:0:0:
451,288,59392,2,0,P|483:285|530:259,1,65,10|0,1:1|0:0,0:0:0:0:
485,178,59726,2,0,P|453:181|406:207,1,65,8|2,0:3|2:3,0:0:0:0:
349,255,60059,1,8,1:2:0:0:
349,255,60226,1,8,0:3:0:0:
265,184,60392,6,0,L|273:27,1,130,2|8,3:1|0:1,0:0:0:0:
199,9,60892,1,8,2:2:0:0:
130,58,61059,2,0,L|138:135,1,65,2|0,0:2|0:0,0:0:0:0:
87,191,61392,2,0,P|49:192|16:176,1,65,10|0,1:1|0:0,0:0:0:0:
133,266,61726,2,0,B|212:267|182:310|246:318,1,130,8|8,0:3|1:2,0:0:0:0:
311,373,62226,1,8,0:3:0:0:
392,298,62392,102,0,P|406:217|386:156,1,130,2|8,3:1|0:1,0:0:0:0:
354,97,62892,1,8,1:2:0:0:
279,138,63059,2,0,P|241:135|196:114,1,65,2|4,0:2|0:3,0:0:0:0:
159,62,63392,2,0,P|104:40|28:55,1,130,10|8,1:1|2:3,0:0:0:0:
7,217,64059,1,8,1:2:0:0:
7,217,64226,1,8,0:3:0:0:
73,283,64392,6,0,P|128:305|204:290,1,130,2|8,3:1|0:1,0:0:0:0:
263,356,64892,2,0,P|326:344|386:367,1,130,10|4,2:2|0:3,0:0:0:0:
441,290,65392,2,0,P|477:283|513:257,1,65,10|0,1:1|0:3,0:0:0:0:
442,200,65726,2,0,P|456:174|466:130,1,65,8|2,0:3|0:0,0:0:0:0:
416,57,66059,1,8,1:2:0:0:
416,57,66226,1,8,0:3:0:0:
325,124,66392,102,0,L|336:256,1,130,2|8,3:1|0:1,0:0:0:0:
238,319,66892,2,0,L|227:187,1,130,8|4,1:2|0:3,0:0:0:0:
145,147,67392,1,10,1:1:0:0:
113,326,67726,1,10,1:1:0:0:
0,124,68392,38,0,P|84:135|150:93,1,143.000004364014,4|8,3:1|0:2,0:0:0:0:
216,147,68892,1,2,1:3:0:0:
276,85,69059,2,0,P|272:49|254:14,1,71.5000021820069,2|0,0:2|0:0,0:0:0:0:
216,147,69392,2,0,P|210:226|257:299,1,143.000004364014,10|8,1:1|0:3,0:0:0:0:
274,353,69892,1,2,2:1:0:0:
345,315,70059,1,8,1:2:0:0:
413,358,70226,1,8,0:3:0:0:
485,293,70392,22,0,P|512:227|503:157,1,143.000004364014,2|8,3:1|0:0,0:0:0:0:
415,207,70892,2,0,P|379:151|289:111,1,143.000004364014,2|4,1:3|0:3,0:0:0:0:
274,197,71392,2,0,P|239:198|190:217,1,71.5000021820069,10|8,1:1|0:1,0:0:0:0:
176,68,71726,2,0,P|211:67|260:48,1,71.5000021820069,8|2,0:3|2:1,0:0:0:0:
135,155,72059,1,8,1:2:0:0:
65,122,72226,1,8,0:3:0:0:
17,210,72392,86,0,P|17:270|59:358,1,143.000004364014,2|8,3:1|0:0,0:0:0:0:
131,381,72892,1,2,1:3:0:0:
191,320,73059,2,0,L|199:236,1,71.5000021820069,2|4,0:2|0:3,0:0:0:0:
295,302,73392,2,0,L|281:146,1,143.000004364014,10|8,1:1|0:3,0:0:0:0:
232,89,73892,1,2,2:1:0:0:
304,42,74059,1,8,1:2:0:0:
375,117,74226,21,8,0:3:0:0:
375,117,74309,1,8,0:3:0:0:
375,117,74392,2,0,L|389:273,1,143.000004364014,2|8,3:1|0:0,0:0:0:0:
325,341,74892,2,0,P|255:355|187:336,1,143.000004364014,2|4,1:3|2:3,0:0:0:0:
124,259,75392,2,0,L|137:117,1,143.000004364014,10|8,1:1|0:3,0:0:0:0:
93,46,75892,1,8,2:3:0:0:
93,46,75976,1,8,0:3:0:0:
93,46,76059,2,0,P|39:41|13:45,1,71.5000021820069,8|8,1:2|0:3,0:0:0:0:
137,117,76392,86,0,P|166:116|224:91,1,71.5000021820069,2|0,3:1|0:0,0:0:0:0:
312,34,76726,2,0,P|298:59|291:122,1,71.5000021820069,8|2,0:0|1:3,0:0:0:0:
296,227,77059,2,0,P|280:202|229:164,1,71.5000021820069,2|4,0:0|2:3,0:0:0:0:
164,147,77392,22,0,P|138:156|98:159,1,65,10|0,1:1|0:0,0:0:0:0:
36,101,77726,2,0,P|56:119|79:152,1,65,8|0,0:3|2:1,0:0:0:0:
61,235,78059,2,0,P|66:207|83:171,1,65,10|8,1:2|0:3,0:0:0:0:
189,125,78392,86,0,P|269:128|345:74,1,143.000004364014,2|8,3:1|0:0,0:0:0:0:
388,43,78892,1,2,1:3:0:0:
464,90,79059,2,0,P|472:124|474:169,1,71.5000021820069,2|4,0:2|0:3,0:0:0:0:
433,240,79392,2,0,P|430:275|422:310,1,71.5000021820069,10|0,1:1|0:0,0:0:0:0:
356,373,79726,2,0,P|303:341|212:332,1,143.000004364014,8|8,0:3|1:2,0:0:0:0:
139,363,80226,1,8,0:3:0:0:
54,302,80392,22,0,L|71:148,1,143.000004364014,2|8,3:1|0:0,0:0:0:0:
171,232,80892,2,0,L|154:78,1,143.000004364014,2|4,1:3|2:3,0:0:0:0:
213,12,81392,1,10,1:1:0:0:
397,54,81726,1,8,0:3:0:0:
340,107,81892,1,2,2:1:0:0:
381,174,82059,1,8,1:2:0:0:
318,222,82226,1,8,0:3:0:0:
368,291,82392,86,0,P|307:263|210:272,1,155.999995239258,2|8,3:1|0:0,0:0:0:0:
148,186,82892,2,0,P|71:193|0:163,1,155.999995239258,2|4,1:3|0:3,0:0:0:0:
94,96,83392,2,0,P|98:69|122:23,1,77.999997619629,10|8,1:1|0:3,0:0:0:0:
135,21,83642,1,8,0:3:0:0:
151,19,83726,2,0,P|176:34|233:46,1,77.999997619629,8|10,0:3|2:1,0:0:0:0:
303,76,84059,1,8,1:2:0:0:
381,40,84226,1,8,0:3:0:0:
459,94,84392,22,0,P|477:153|445:230,1,143.000004364014,4|8,3:1|0:2,0:0:0:0:
396,294,84892,1,2,1:3:0:0:
310,306,85059,2,0,P|270:299|222:273,1,71.5000021820069,2|0,0:2|0:0,0:0:0:0:
203,178,85392,2,0,P|141:176|47:224,1,143.000004364014,10|8,1:1|0:3,0:0:0:0:
2,263,85892,1,2,2:1:0:0:
53,331,86059,2,0,P|90:315|132:280,1,71.5000021820069,8|8,1:2|0:3,0:0:0:0:
194,196,86392,86,0,P|155:138|163:59,1,143.000004364014,2|8,3:1|0:0,0:0:0:0:
249,109,86892,2,0,P|264:53|329:1,1,143.000004364014,2|4,1:3|0:3,0:0:0:0:
370,83,87392,2,0,P|411:74|445:74,1,71.5000021820069,10|8,1:1|0:1,0:0:0:0:
375,196,87726,2,0,P|410:194|445:186,1,71.5000021820069,8|2,0:3|2:1,0:0:0:0:
304,141,88059,1,8,1:2:0:0:
233,173,88226,1,8,0:3:0:0:
157,117,88392,22,0,P|123:170|132:264,1,143.000004364014,2|8,3:1|0:0,0:0:0:0:
83,323,88892,1,2,1:3:0:0:
146,380,89059,2,0,P|184:377|239:353,1,71.5000021820069,2|4,0:2|0:3,0:0:0:0:
292,281,89392,2,0,L|436:296,1,143.000004364014,10|8,1:1|0:3,0:0:0:0:
507,251,89892,1,2,2:1:0:0:
478,170,90059,1,8,1:2:0:0:
399,202,90226,85,8,0:3:0:0:
399,202,90309,1,8,0:3:0:0:
399,202,90392,2,0,L|256:187,1,143.000004364014,2|8,3:1|0:0,0:0:0:0:
181,254,90892,2,0,P|116:283|47:270,1,143.000004364014,2|4,1:3|2:3,0:0:0:0:
35,153,91392,2,0,P|99:123|168:136,1,143.000004364014,10|8,1:1|0:3,0:0:0:0:
240,169,91892,1,2,2:3:0:0:
287,105,92059,1,8,1:2:0:0:
216,69,92226,1,2,0:3:0:0:
160,145,92392,22,0,L|148:292,1,143.000004364014,2|8,3:1|0:0,0:0:0:0:
191,361,92892,1,2,1:3:0:0:
273,336,93059,2,0,L|281:256,1,71.5000021820069,2|4,0:2|0:3,0:0:0:0:
364,205,93392,2,0,P|437:219|506:193,2,143.000004364014,10|8|8,1:1|0:3|1:2,0:0:0:0:
299,147,94226,1,8,0:3:0:0:
244,250,94392,86,0,P|171:264|102:238,1,143.000004364014,2|8,3:1|0:0,0:0:0:0:
27,183,94892,2,0,P|27:109|67:35,1,143.000004364014,2|4,1:3|0:3,0:0:0:0:
146,16,95392,1,10,1:1:0:0:
274,130,95726,1,8,0:3:0:0:
343,93,95892,1,2,2:1:0:0:
276,50,96059,1,8,1:2:0:0:
208,90,96226,1,8,0:3:0:0:
276,147,96392,22,0,L|284:290,1,143.000004364014,2|8,3:1|0:0,0:0:0:0:
177,372,96892,2,0,L|169:229,1,143.000004364014,2|4,1:3|0:3,0:0:0:0:
99,166,97392,2,0,P|70:173|20:165,1,71.5000021820069,10|8,1:1|0:3,0:0:0:0:
98,61,97726,2,0,P|63:56|28:63,1,71.5000021820069,8|10,0:3|2:1,0:0:0:0:
174,117,98059,1,8,1:2:0:0:
240,63,98226,1,8,0:3:0:0:
309,126,98392,6,0,P|379:255|517:219,1,292.50001115799,4|2,3:1|0:0,0:0:0:0:
503,233,100392,54,0,L|511:153,2,65,4|0|8,3:1|0:0|0:0,0:0:0:0:
444,302,100893,2,0,P|390:305|311:274,1,130,2|8,1:3|2:1,0:0:0:0:
202,361,101393,2,0,P|233:360|270:342,1,65,10|0,0:0|0:0,0:0:0:0:
240,232,101726,2,0,P|209:233|172:251,1,65,8|0,1:1|0:0,0:0:0:0:
319,279,102059,22,0,L|336:120,1,130,2|8,3:1|0:0,0:0:0:0:
253,102,102559,2,0,L|239:231,1,130,2|8,1:3|2:1,0:0:0:0:
191,292,103059,1,8,0:0:0:0:
131,241,103226,1,2,0:2:0:0:
79,299,103393,1,8,1:1:0:0:
23,243,103559,85,8,0:1:0:0:
23,243,103643,1,8,0:1:0:0:
23,243,103726,2,0,L|15:101,1,130,4|8,3:2|0:0,0:0:0:0:
52,32,104226,1,2,1:3:0:0:
190,110,104559,1,8,2:1:0:0:
190,110,104726,2,0,P|222:109|253:101,1,65,10|0,0:0|0:0,0:0:0:0:
308,35,105059,2,0,P|339:27|371:26,1,65,8|0,1:1|0:0,0:0:0:0:
466,88,105393,22,0,P|484:130|458:231,1,130,2|8,3:1|0:0,0:0:0:0:
384,167,105893,2,0,P|347:202|260:213,1,130,2|0,1:3|1:0,0:0:0:0:
200,247,106393,1,10,0:0:0:0:
156,181,106559,1,8,0:3:0:0:
77,179,106726,1,2,0:3:0:0:
27,244,106893,85,8,0:3:0:0:
27,244,106976,1,8,0:3:0:0:
27,244,107059,2,0,P|17:283|21:323,2,65,4|0|8,3:1|0:0|0:0,0:0:0:0:
82,164,107559,2,0,P|144:165|206:134,1,130,2|8,1:3|2:1,0:0:0:0:
307,83,108059,2,0,P|296:114|291:154,1,65,10|0,0:0|0:0,0:0:0:0:
404,170,108392,2,0,P|415:139|420:99,1,65,8|0,1:1|0:0,0:0:0:0:
332,223,108726,22,0,P|380:265|443:281,1,130,2|8,3:1|0:0,0:0:0:0:
375,380,109226,2,0,P|326:337|263:321,1,130,2|8,1:3|2:1,0:0:0:0:
199,277,109726,1,8,0:0:0:0:
162,345,109892,1,2,0:2:0:0:
84,355,110059,1,8,1:1:0:0:
21,305,110226,85,8,0:1:0:0:
21,305,110309,1,8,0:1:0:0:
21,305,110392,2,0,L|43:168,1,130,4|8,3:2|0:0,0:0:0:0:
116,119,110892,1,2,1:3:0:0:
186,241,111226,1,8,2:1:0:0:
186,241,111392,2,0,P|217:254|267:253,1,65,10|0,0:0|0:0,0:0:0:0:
316,334,111726,2,0,P|348:336|378:349,1,65,8|0,1:1|0:0,0:0:0:0:
463,304,112059,22,0,P|478:273|479:182,1,116.999996429443,4|8,3:1|0:0,0:0:0:0:
448,120,112559,2,0,P|382:118|325:87,1,116.999996429443,2|8,1:3|0:1,0:0:0:0:
293,32,113059,1,10,1:1:0:0:
239,148,113392,2,0,P|185:171|127:171,1,116.999996429443,8|8,0:3|1:2,0:0:0:0:
54,152,113892,1,8,0:3:0:0:
0,227,114059,86,0,L|12:360,1,116.999996429443,2|8,3:1|0:0,0:0:0:0:
90,355,114559,2,0,L|78:222,1,116.999996429443,2|4,1:3|0:3,0:0:0:0:
136,186,115059,1,10,1:1:0:0:
203,297,115392,2,0,P|237:309|276:310,1,58.4999982147217,8|2,0:3|2:1,0:0:0:0:
335,347,115725,2,0,P|363:343|391:332,1,58.4999982147217,8|8,1:2|0:3,0:0:0:0:
450,265,116059,86,0,P|478:276|519:277,2,65,6|0|0,2:2|0:0|0:0,0:0:0:0:
383,177,117059,2,0,L|378:112,2,65,2|0|0,0:0|0:0|0:0,0:0:0:0:
336,242,117892,1,0,0:0:0:0:
336,242,117975,1,0,0:0:0:0:
336,242,118059,2,0,L|341:307,2,65,2|0|0,0:0|0:0|0:0,0:0:0:0:
254,174,119059,2,0,P|219:184|182:178,2,65,2|0|0,0:2|0:2|0:2,0:0:0:0:
341,98,120058,86,0,L|347:34,1,48.750001859665,10|0,0:1|0:0,0:0:0:0:
422,31,120392,2,0,L|412:132,1,97.50000371933,8|0,0:0|0:0,0:0:0:0:
464,192,120892,1,8,0:0:0:0:
464,192,121058,1,10,0:0:0:0:
359,215,121392,1,0,0:0:0:0:
385,318,121725,1,0,0:0:0:0:
293,373,122058,22,0,P|266:369|239:356,1,48.750001859665,10|0,0:1|0:0,0:0:0:0:
190,309,122392,2,0,L|88:322,1,97.50000371933,8|0,0:0|0:0,0:0:0:0:
18,335,122892,1,8,0:0:0:0:
18,335,123058,1,10,0:0:0:0:
6,228,123392,1,8,0:0:0:0:
6,228,123558,2,0,L|102:215,1,97.50000371933,8|0,0:0|0:0,0:0:0:0:
190,238,124058,86,0,P|192:211|201:181,1,48.750001859665,10|0,0:1|0:0,0:0:0:0:
271,158,124392,2,0,P|283:205|283:253,1,97.50000371933,8|0,0:0|0:0,0:0:0:0:
252,326,124892,1,8,0:0:0:0:
252,326,125058,1,10,0:0:0:0:
343,382,125392,1,0,0:0:0:0:
445,351,125725,1,0,0:0:0:0:
493,255,126058,22,0,P|492:207|471:144,1,97.50000371933,10|8,0:1|0:0,0:0:0:0:
405,88,126725,1,2,0:0:0:0:
405,88,126892,1,8,0:0:0:0:
405,88,127058,2,0,P|344:96|297:71,1,97.50000371933,2|8,0:1|0:0,0:0:0:0:
241,55,127558,1,8,0:0:0:0:
241,55,127725,1,2,0:0:0:0:
168,126,128058,86,0,L|177:195,1,48.750001859665,10|0,0:1|0:0,0:0:0:0:
104,213,128392,2,0,L|90:114,1,97.50000371933,8|0,0:0|0:0,0:0:0:0:
77,40,128892,1,8,0:0:0:0:
77,40,129058,1,10,0:2:0:0:
1,116,129392,1,0,0:0:0:0:
11,222,129725,1,0,0:0:0:0:
102,278,130058,22,0,P|136:278|169:264,1,48.750001859665,10|0,0:1|0:0,0:0:0:0:
208,221,130392,2,0,P|213:172|229:108,1,97.50000371933,8|0,0:0|0:0,0:0:0:0:
282,69,130892,1,8,0:0:0:0:
282,69,131058,1,10,0:0:0:0:
361,148,131392,1,8,0:0:0:0:
361,148,131558,2,0,P|356:196|345:243,1,97.50000371933,8|0,0:0|0:0,0:0:0:0:
286,314,132058,86,0,P|258:304|235:302,1,48.750001859665,10|0,0:1|0:0,0:0:0:0:
173,348,132392,2,0,P|128:366|65:345,1,97.50000371933,8|0,0:0|0:0,0:0:0:0:
10,328,132892,1,8,0:0:0:0:
10,328,133058,2,0,L|-1:227,2,97.50000371933,10|0|0,0:2|0:0|0:0,0:0:0:0:
130,376,134058,22,0,L|135:306,1,48.750001859665,8|0,0:0|0:0,0:0:0:0:
213,334,134392,2,0,L|208:264,1,48.750001859665,8|0,0:0|0:0,0:0:0:0:
258,224,134725,1,2,0:2:0:0:
258,224,134892,1,8,0:0:0:0:
322,271,135058,2,0,P|354:279|421:257,1,97.50000371933,10|8,0:1|0:0,0:0:0:0:
464,199,135558,2,0,L|468:94,1,97.50000371933,8|0,0:0|0:0,0:0:0:0:
395,34,136058,70,0,P|335:15|268:32,1,116.999996429443,4|8,3:1|0:0,0:0:0:0:
214,58,136558,1,0,2:3:0:0:
214,58,136725,2,0,P|215:91|208:122,1,58.4999982147217,2|8,0:0|0:0,0:0:0:0:
145,159,137058,2,0,P|85:140|18:157,2,116.999996429443,10|0|0,2:1|0:0|0:0,0:0:0:0:
193,222,137892,1,0,0:0:0:0:
264,166,138058,38,0,L|276:47,1,116.999996429443,2|8,2:1|0:0,0:0:0:0:
424,95,138725,2,0,P|396:101|361:113,1,58.4999982147217,2|8,0:0|0:0,0:0:0:0:
480,191,139058,2,0,P|452:181|423:175,1,58.4999982147217,8|0,0:2|0:0,0:0:0:0:
477,282,139392,2,8,P|412:256|351:286,1,116.999996429443,4|2,1:3|0:0,0:0:0:0:
300,307,139892,1,0,0:0:0:0:
229,243,140058,70,0,L|223:127,1,116.999996429443,2|8,3:1|0:0,0:0:0:0:
136,96,140558,2,0,L|142:212,1,116.999996429443,8|8,2:0|0:0,0:0:0:0:
61,262,141058,2,0,L|55:146,2,116.999996429443,8|2|0,0:2|0:0|0:0,0:0:0:0:
7,322,141892,1,0,0:0:0:0:
78,373,142058,38,0,P|120:372|144:359,1,58.4999982147217,2|0,0:1|0:0,0:0:0:0:
195,315,142392,2,0,P|230:330|310:326,1,116.999996429443,8|2,2:0|0:2,0:0:0:0:
382,302,142892,1,8,0:1:0:0:
382,302,143058,1,2,0:1:0:0:
320,162,143392,1,4,1:3:0:0:
389,191,143558,1,8,0:0:0:0:
464,180,143725,1,2,0:3:0:0:
388,49,144058,70,0,P|334:37|271:63,1,116.999996429443,4|8,3:1|0:0,0:0:0:0:
222,115,144558,1,0,2:1:0:0:
222,115,144725,2,0,L|233:196,1,58.4999982147217,2|8,0:0|0:0,0:0:0:0:
285,229,145058,2,0,P|338:240|402:215,2,116.999996429443,10|0|0,2:1|0:0|0:0,0:0:0:0:
229,172,145892,1,0,0:0:0:0:
194,278,146058,38,0,P|139:298|83:287,1,116.999996429443,2|8,0:1|0:0,0:0:0:0:
1,162,146725,2,0,P|35:158|66:147,1,58.4999982147217,2|8,0:0|0:0,0:0:0:0:
120,91,147058,2,0,P|123:65|132:33,1,58.4999982147217,8|0,0:0|0:0,0:0:0:0:
175,154,147392,2,8,P|223:179|292:169,1,116.999996429443,4|2,1:3|0:0,0:0:0:0:
350,129,147892,1,0,0:0:0:0:
419,196,148058,70,0,P|434:244|411:321,1,116.999996429443,2|8,3:1|0:0,0:0:0:0:
362,361,148558,2,0,P|311:340|243:341,1,116.999996429443,8|8,2:2|0:0,0:0:0:0:
178,366,149058,1,8,0:2:0:0:
54,277,149392,1,2,0:0:0:0:
77,126,149725,1,0,0:0:0:0:
209,51,150058,38,0,P|268:44|332:74,1,116.999996429443,2|8,0:1|2:0,0:0:0:0:
395,22,150558,2,0,P|419:75|411:146,1,116.999996429443,8|8,0:0|0:1,0:0:0:0:
480,189,151058,2,0,P|436:229|366:242,1,116.999996429443,2|4,1:1|1:3,0:0:0:0:
315,280,151558,1,8,0:0:0:0:
270,218,151725,1,8,2:3:0:0:
336,181,151892,1,8,0:2:0:0:
282,104,152058,6,0,B|220:81|220:116|154:93,1,130,4|8,3:1|0:1,0:0:0:0:
79,54,152558,1,8,2:2:0:0:
6,97,152725,2,0,P|-5:126|-7:162,1,65,2|0,0:2|0:0,0:0:0:0:
35,232,153058,2,0,P|66:241|99:241,1,65,10|0,1:1|0:0,0:0:0:0:
176,211,153392,2,0,L|202:58,1,130,8|8,0:3|1:2,0:0:0:0:
272,43,153892,1,8,0:3:0:0:
325,134,154058,102,0,L|299:287,1,130,2|8,3:1|0:1,0:0:0:0:
382,307,154558,2,0,L|408:154,1,130,8|4,1:2|0:3,0:0:0:0:
496,166,155058,2,0,L|474:294,1,130,10|8,1:1|0:3,0:0:0:0:
328,377,155725,1,8,1:2:0:0:
328,377,155892,1,8,0:3:0:0:
263,301,156058,6,0,P|202:278|138:285,1,130,2|8,3:1|0:1,0:0:0:0:
58,313,156558,1,8,2:2:0:0:
6,245,156725,2,0,P|9:212|22:182,1,65,2|0,0:2|0:0,0:0:0:0:
95,140,157058,2,0,P|159:146|219:123,1,130,10|8,1:1|0:3,0:0:0:0:
284,69,157558,1,2,0:0:0:0:
216,18,157725,2,0,P|192:19|147:30,1,65,8|8,1:2|0:3,0:0:0:0:
77,103,158058,102,0,L|91:252,1,130,2|8,3:1|0:1,0:0:0:0:
184,193,158558,2,0,L|170:342,1,130,8|4,1:2|0:3,0:0:0:0:
248,377,159058,2,0,P|280:374|327:348,1,65,10|0,1:1|0:0,0:0:0:0:
371,291,159392,2,0,P|359:259|352:210,1,65,8|2,0:3|2:3,0:0:0:0:
420,164,159725,1,8,1:2:0:0:
420,164,159892,1,8,0:3:0:0:
346,84,160058,6,0,P|308:62|205:85,1,130,2|8,3:1|0:1,0:0:0:0:
157,121,160558,1,8,2:2:0:0:
208,187,160725,2,0,P|220:222|216:264,1,65,2|0,0:2|0:0,0:0:0:0:
168,317,161058,2,0,P|134:331|93:327,1,65,10|0,1:1|0:0,0:0:0:0:
27,292,161392,2,0,P|8:223|33:144,1,130,8|8,0:3|1:2,0:0:0:0:
75,103,161892,1,8,0:3:0:0:
168,151,162058,102,0,P|222:161|302:113,1,130,2|8,3:1|0:1,0:0:0:0:
348,70,162558,1,8,1:2:0:0:
415,120,162725,2,0,P|445:131|478:132,1,65,2|4,0:2|0:3,0:0:0:0:
356,182,163058,2,0,P|346:217|379:325,1,130,10|8,1:1|2:3,0:0:0:0:
215,381,163725,1,8,1:2:0:0:
215,381,163892,1,8,0:3:0:0:
278,324,164058,6,0,P|288:289|255:181,1,130,2|8,3:1|0:1,0:0:0:0:
205,267,164558,2,0,P|159:203|99:187,1,130,10|4,2:2|0:3,0:0:0:0:
60,115,165058,2,0,P|31:130|-3:137,1,65,10|8,1:1|0:1,0:0:0:0:
112,187,165392,2,0,P|140:171|171:165,1,65,8|0,0:3|0:0,0:0:0:0:
246,114,165725,1,8,1:2:0:0:
246,114,165892,1,8,0:3:0:0:
293,218,166058,102,0,P|342:256|405:248,1,130,2|8,3:1|0:1,0:0:0:0:
481,209,166558,2,0,P|505:142|486:74,1,130,8|4,1:2|0:3,0:0:0:0:
429,30,167058,2,0,P|398:19|366:19,1,65,10|2,1:1|0:0,0:0:0:0:
289,50,167392,1,10,1:1:0:0:
289,50,167558,1,8,0:3:0:0:
214,21,167725,1,2,0:3:0:0:
214,21,167892,1,4,0:3:0:0:
138,71,168058,38,0,B|119:128|176:157|162:202,1,136.499995834351,4|8,3:1|0:0,0:0:0:0:
199,279,168558,1,2,1:3:0:0:
142,345,168725,2,0,P|109:347|72:329,1,68.2499979171754,2|4,0:2|0:3,0:0:0:0:
19,270,169058,2,0,P|20:212|61:123,2,136.499995834351,10|8|8,1:1|0:3|1:2,0:0:0:0:
51,350,169892,1,8,0:3:0:0:
148,302,170058,102,0,L|162:208,1,68.2499979171754,2|0,3:1|0:0,0:0:0:0:
250,346,170392,2,0,L|227:253,1,68.2499979171754,8|2,0:0|1:3,0:0:0:0:
361,348,170725,2,0,L|305:270,1,68.2499979171754,2|4,2:2|0:3,0:0:0:0:
464,308,171058,2,0,P|423:280|388:187,1,136.499995834351,10|8,1:1|0:3,0:0:0:0:
370,129,171558,1,2,2:1:0:0:
439,99,171725,1,8,1:2:0:0:
457,172,171892,1,8,0:3:0:0:
381,219,172058,6,0,P|322:199|228:197,1,136.499995834351,2|8,3:1|0:0,0:0:0:0:
171,166,172558,1,2,1:3:0:0:
106,216,172725,2,0,P|71:217|13:197,1,68.2499979171754,2|4,2:2|0:3,0:0:0:0:
112,105,173058,2,0,P|78:104|45:111,1,68.2499979171754,10|0,1:1|0:0,0:0:0:0:
171,166,173392,2,0,P|187:198|221:231,1,68.2499979171754,8|2,0:3|2:1,0:0:0:0:
285,276,173725,1,8,1:2:0:0:
285,276,173892,1,8,0:3:0:0:
380,216,174058,102,0,P|436:217|507:167,1,136.499995834351,2|8,3:1|0:0,0:0:0:0:
413,134,174558,2,0,P|446:100|461:4,1,136.499995834351,2|4,1:3|2:3,0:0:0:0:
373,48,175058,2,0,P|338:27|295:17,1,68.2499979171754,10|8,1:1|0:1,0:0:0:0:
303,17,175308,1,8,0:1:0:0:
293,21,175392,2,0,P|258:43|223:48,1,68.2499979171754,8|2,0:3|2:3,0:0:0:0:
158,76,175725,1,8,1:2:0:0:
98,29,175892,1,2,0:3:0:0:
26,94,176058,5,6,3:1:0:0:
169,209,176392,2,0,P|133:198|82:194,1,68.2499979171754,8|2,0:0|1:3,0:0:0:0:
84,288,176725,2,0,P|120:299|171:303,1,68.2499979171754,2|4,0:2|0:3,0:0:0:0:
243,278,177058,2,0,L|262:183,1,68.2499979171754,10|0,1:1|0:0,0:0:0:0:
346,217,177392,2,0,L|332:283,1,68.2499979171754,8|0,0:3|0:0,0:0:0:0:
382,364,177725,1,8,1:2:0:0:
382,364,177892,1,8,0:3:0:0:
482,317,178058,102,0,P|495:281|481:175,1,136.499995834351,2|8,3:1|0:0,0:0:0:0:
441,115,178558,1,2,1:3:0:0:
379,169,178725,2,0,P|347:178|296:174,1,68.2499979171754,2|4,0:0|0:3,0:0:0:0:
257,246,179058,2,0,P|222:246|190:237,1,68.2499979171754,10|0,1:1|0:1,0:0:0:0:
111,282,179392,2,0,P|79:252|57:143,1,136.499995834351,8|8,0:3|1:2,0:0:0:0:
22,89,179892,1,8,0:3:0:0:
110,33,180058,6,0,B|274:18,1,136.499995834351,2|8,3:1|0:0,0:0:0:0:
217,110,180558,2,0,B|381:95,1,136.499995834351,2|4,1:3|0:3,0:0:0:0:
436,121,181058,2,0,P|437:83|426:47,1,68.2499979171754,10|8,1:1|0:1,0:0:0:0:
374,179,181392,2,0,P|336:199|313:222,1,68.2499979171754,8|0,0:3|0:0,0:0:0:0:
262,277,181725,1,8,1:2:0:0:
241,356,181892,1,8,0:3:0:0:
248,264,182058,102,0,P|213:221|127:185,1,136.499995834351,2|8,3:1|0:0,0:0:0:0:
58,184,182558,1,2,1:3:0:0:
28,107,182725,1,2,0:0:0:0:
93,58,182892,1,4,0:3:0:0:
157,108,183058,2,0,P|197:104|252:80,1,68.2499979171754,10|0,1:1|0:3,0:0:0:0:
298,154,183392,2,0,P|338:158|393:182,1,68.2499979171754,8|10,0:3|2:1,0:0:0:0:
449,230,183725,70,0,B|486:256|486:256|456:112,1,162.5,8|4,1:2|3:1,0:0:0:0:
462,141,185392,5,4,3:1:0:0:
256,299,186058,1,4,3:1:0:0:
256,299,187392,101,2,3:2:0:0:
148,371,187725,1,2,3:1:0:0:
177,205,188058,1,4,3:1:0:0:
177,205,189392,5,4,3:1:0:0:
435,175,190058,2,0,L|458:375,2,195,4|2|10,3:1|1:3|1:1,0:0:0:0:
416,46,191392,1,8,0:3:0:0:
416,46,191558,1,2,2:3:0:0:
346,82,191725,1,8,1:2:0:0:
346,82,191892,1,2,0:3:0:0:
266,54,192058,102,0,P|245:115|258:197,2,130,4|2|0,3:1|3:1|0:0,0:0:0:0:
142,141,193058,2,0,P|163:79|156:15,2,130,2|2|0,3:2|3:1|0:0,0:0:0:0:
0,213,194058,6,0,P|38:202|83:206,1,65,2|8,3:1|2:1,0:0:0:0:
70,207,194308,1,8,2:1:0:0:
77,214,194392,2,0,L|86:288,1,65,8|2,0:0|2:3,0:0:0:0:
158,320,194725,2,0,L|149:394,1,65,2|4,0:2|0:3,0:0:0:0:
242,292,195058,2,0,P|285:286|322:266,1,65,10|0,3:1|0:1,0:0:0:0:
191,188,195392,2,0,P|230:206|272:209,1,65,8|2,1:3|2:1,0:0:0:0:
204,73,195725,2,0,P|226:109|260:135,1,65,8|0,1:2|0:0,0:0:0:0:
347,157,196058,102,0,P|407:137|487:140,1,130,4|8,3:1|0:0,0:0:0:0:
488,235,196558,2,0,P|428:255|348:252,1,130,2|4,1:3|2:3,0:0:0:0:
286,310,197058,2,0,P|281:273|267:224,1,65,10|2,1:1|0:0,0:0:0:0:
217,194,197392,1,8,0:3:0:0:
153,235,197558,1,2,2:1:0:0:
183,304,197725,1,8,1:2:0:0:
127,356,197892,1,8,0:3:0:0:
59,321,198058,6,0,P|48:254|78:174,1,130,2|8,3:1|0:0,0:0:0:0:
127,119,198558,2,0,P|179:111|255:55,1,130,2|4,1:3|0:3,0:0:0:0:
350,7,199058,2,0,P|328:46|327:90,1,65,10|8,1:1|0:3,0:0:0:0:
330,141,199392,1,8,0:3:0:0:
395,102,199558,1,10,2:1:0:0:
465,131,199725,1,8,1:2:0:0:
488,223,199892,37,2,0:3:0:0:
488,223,199975,1,2,0:3:0:0:
488,223,200058,2,0,P|455:270|361:249,1,149.500002851486,4|8,3:1|0:2,0:0:0:0:
297,311,200558,1,2,1:3:0:0:
236,244,200725,2,0,P|239:205|253:160,1,74.7500014257431,2|0,0:2|0:0,0:0:0:0:
157,202,201058,2,0,P|158:113|142:47,1,149.500002851486,10|8,1:1|0:3,0:0:0:0:
62,17,201558,1,2,2:1:0:0:
3,85,201725,2,0,P|5:134|16:163,1,74.7500014257431,8|8,1:2|0:3,0:0:0:0:
77,242,202058,86,0,B|173:222|142:274|241:246,1,149.500002851486,2|8,3:1|0:0,0:0:0:0:
298,183,202558,2,0,P|299:124|359:35,1,149.500002851486,2|4,1:3|0:3,0:0:0:0:
402,128,203058,2,0,P|444:124|476:139,1,74.7500014257431,10|8,1:1|2:1,0:0:0:0:
512,209,203392,1,8,0:3:0:0:
508,290,203558,1,2,2:1:0:0:
459,356,203725,2,0,P|417:360|385:345,1,74.7500014257431,8|0,1:2|0:0,0:0:0:0:
320,265,204058,22,0,P|322:204|299:102,1,149.500002851486,2|8,3:1|0:0,0:0:0:0:
340,35,204558,1,2,1:3:0:0:
254,12,204725,2,0,P|218:14|165:36,1,74.7500014257431,2|4,0:2|0:3,0:0:0:0:
142,111,205058,2,0,P|77:116|17:196,1,149.500002851486,10|8,1:1|0:3,0:0:0:0:
0,254,205558,1,2,2:1:0:0:
69,298,205725,1,8,1:2:0:0:
152,260,205892,85,8,0:3:0:0:
152,260,205975,1,8,0:3:0:0:
152,260,206058,2,0,L|141:99,1,149.500002851486,2|8,3:1|0:0,0:0:0:0:
228,188,206558,2,0,L|278:34,1,149.500002851486,2|4,1:3|2:3,0:0:0:0:
325,149,207058,2,0,L|428:25,1,149.500002851486,10|8,1:1|0:3,0:0:0:0:
444,147,207558,1,2,2:3:0:0:
500,207,207725,1,8,1:2:0:0:
489,288,207892,1,2,0:3:0:0:
423,348,208058,22,0,P|349:349|274:291,1,149.500002851486,4|8,3:1|0:0,0:0:0:0:
232,245,208558,1,2,1:3:0:0:
147,276,208725,2,0,P|122:316|118:351,1,74.7500014257431,2|4,0:2|0:3,0:0:0:0:
232,245,209058,2,0,P|253:190|251:84,2,149.500002851486,10|8|8,1:1|0:3|1:2,0:0:0:0:
147,276,209892,1,8,0:3:0:0:
70,210,210058,86,0,P|68:135|92:65,1,149.500002851486,2|8,3:1|0:0,0:0:0:0:
186,37,210558,2,0,P|238:50|345:36,1,149.500002851486,2|4,1:3|0:3,0:0:0:0:
418,15,211058,1,10,1:1:0:0:
368,185,211392,1,8,0:3:0:0:
449,173,211558,1,2,2:1:0:0:
482,248,211725,1,8,1:2:0:0:
401,260,211892,1,8,0:3:0:0:
348,188,212058,22,0,L|328:34,1,149.500002851486,2|8,3:1|0:0,0:0:0:0:
247,166,212558,2,0,L|227:17,1,149.500002851486,2|4,1:3|0:3,0:0:0:0:
150,112,213058,2,0,P|115:125|78:123,1,74.7500014257431,10|8,1:1|0:3,0:0:0:0:
71,217,213392,2,0,P|37:204|0:206,1,74.7500014257431,8|10,0:3|2:1,0:0:0:0:
95,300,213725,1,8,1:2:0:0:
167,238,213892,1,8,0:3:0:0:
198,328,214058,38,0,P|234:353|386:330,1,195.00000743866,4|0,3:1|0:0,0:0:0:0:
381,216,215058,2,0,P|345:191|193:214,1,195.00000743866,4|0,3:1|0:0,0:0:0:0:
137,266,215892,53,8,0:1:0:0:
137,266,215975,1,8,0:1:0:0:
137,266,216058,2,0,L|129:341,2,65,4|0|8,3:1|0:0|0:0,0:0:0:0:
202,206,216559,2,0,P|256:209|335:178,1,130,2|8,1:3|2:1,0:0:0:0:
437,264,217059,2,0,P|407:250|369:247,1,65,10|0,0:0|0:0,0:0:0:0:
396,138,217392,2,0,P|425:151|457:155,1,65,8|0,1:1|0:0,0:0:0:0:
326,183,217725,22,0,P|312:114|310:31,1,130,2|8,3:1|0:0,0:0:0:0:
214,23,218225,2,0,P|228:92|230:175,1,130,2|8,1:3|2:1,0:0:0:0:
201,224,218725,1,8,0:0:0:0:
127,198,218892,1,2,0:2:0:0:
157,125,219059,1,8,1:1:0:0:
95,71,219225,85,8,0:1:0:0:
95,71,219309,1,8,0:1:0:0:
95,71,219392,2,0,P|48:75|5:160,1,130,4|8,3:2|0:0,0:0:0:0:
13,229,219892,1,2,1:3:0:0:
140,326,220225,1,8,2:1:0:0:
140,326,220392,2,0,L|132:261,1,65,10|0,0:0|0:0,0:0:0:0:
226,281,220725,2,0,L|218:216,1,65,8|0,1:1|0:0,0:0:0:0:
310,340,221059,22,0,P|373:354|433:332,1,130,2|8,3:1|0:0,0:0:0:0:
508,267,221559,2,0,P|483:219|487:126,1,130,2|0,1:3|1:0,0:0:0:0:
454,70,222059,1,10,0:0:0:0:
405,131,222225,1,8,0:3:0:0:
377,57,222392,1,2,0:3:0:0:
327,117,222559,85,8,0:3:0:0:
327,117,222642,1,8,0:3:0:0:
327,117,222725,2,0,L|314:197,2,65,4|0|8,3:1|0:0|0:0,0:0:0:0:
256,34,223225,2,0,P|192:27|132:64,1,130,2|8,1:3|2:1,0:0:0:0:
65,119,223725,2,0,P|36:115|-2:92,1,65,10|0,0:0|0:0,0:0:0:0:
141,167,224059,2,0,P|169:151|201:146,1,65,8|0,1:1|0:0,0:0:0:0:
299,202,224392,22,0,L|308:337,1,130,2|8,3:1|0:0,0:0:0:0:
221,380,224892,2,0,L|212:245,1,130,2|8,1:3|2:1,0:0:0:0:
142,213,225392,1,8,0:0:0:0:
73,250,225559,1,2,0:2:0:0:
12,200,225725,1,8,1:1:0:0:
83,152,225892,85,8,0:1:0:0:
83,152,225975,1,8,0:1:0:0:
83,152,226059,2,0,L|92:17,1,130,4|8,3:2|0:0,0:0:0:0:
187,8,226559,1,2,1:3:0:0:
247,153,226892,1,8,2:1:0:0:
247,153,227059,2,0,P|278:166|328:162,1,65,10|0,0:0|0:0,0:0:0:0:
208,235,227392,2,0,P|175:236|145:248,1,65,2|0,0:3|2:3,0:0:0:0:
270,314,227725,6,0,P|308:356|400:360,1,143.000004364014,4|8,3:1|0:0,0:0:0:0:
481,307,228225,2,0,P|471:259|463:136,1,143.000004364014,2|8,1:3|0:1,0:0:0:0:
426,81,228725,1,6,1:0:0:0:
369,256,229059,1,6,1:0:0:0:
