osu file format v14

[General]
AudioFilename: audio.mp3
AudioLeadIn: 0
PreviewTime: 68351
Countdown: 0
SampleSet: Soft
StackLeniency: 0.7
Mode: 0
LetterboxInBreaks: 0
WidescreenStoryboard: 1

[Editor]
Bookmarks: 12393,16392,20392,36392,52392,68392,84392,100393,112059,116059,120058,136058,152058,168058,184058,200058,216059
DistanceSpacing: 0.8
BeatDivisor: 4
GridSize: 32
TimelineZoom: 0.9999999

[Metadata]
Title:Mizu o Utsusu Mono
TitleUnicode:水を映す者
Artist:Shimotsuki Haruka
ArtistUnicode:霜月はるか
Creator:Lasse
Version:Azure
Source:
Tags:japanese folk gust resona impurepug 想いのコンチェルト omoi no concerto manyo craftscape doujin 光の雨音 hikari amaoto SACRED DOORS element maxi side Undine
BeatmapID:4233787
BeatmapSetID:2031289

[Difficulty]
HPDrainRate:6
CircleSize:4
OverallDifficulty:8.5
ApproachRate:9
SliderMultiplier:1.7
SliderTickRate:1

[Events]
//Background and Video events
0,0,"70502695_p0_5.jpg",0,0
//Break Periods
//Storyboard Layer 0 (Background)
//Storyboard Layer 1 (Fail)
//Storyboard Layer 2 (Pass)
//Storyboard Layer 3 (Foreground)
//Storyboard Layer 4 (Overlay)
//Storyboard Sound Samples

[TimingPoints]
727,333.333333333333,5,2,1,65,1,0
727,-90.9090909090909,5,2,1,65,0,0
8976,-90.9090909090909,5,2,1,35,0,0
9060,-90.9090909090909,5,2,1,65,0,0
12393,333.333333333333,6,2,1,60,1,0
12393,-125,6,2,1,60,0,0
16392,-250,6,2,1,40,0,0
16726,-250,6,2,1,30,0,0
19392,-200,6,2,1,30,0,0
19559,-200,6,2,1,25,0,0
19726,-250,6,2,1,26,0,0
19892,-250,6,2,1,21,0,0
20059,-333.333333333333,6,2,1,22,0,0
20226,-333.333333333333,6,2,1,17,0,0
20392,-200,6,2,1,35,0,0
36226,-200,6,2,1,25,0,0
36392,-133.333333333333,6,2,1,45,0,0
44309,-133.333333333333,6,2,1,25,0,0
44392,-133.333333333333,6,2,1,45,0,0
52392,-100,6,2,1,60,0,0
67392,-100,6,2,1,65,0,0
67726,-100,6,2,1,65,0,0
68392,-76.9230769230769,6,2,1,70,0,1
68642,-76.9230769230769,6,2,1,35,0,1
68726,-76.9230769230769,6,2,1,70,0,1
77392,-90.9090909090909,6,2,1,70,0,1
78392,-76.9230769230769,6,2,1,70,0,1
82392,-66.6666666666667,6,2,1,75,0,1
84392,-76.9230769230769,6,2,1,70,0,1
84642,-76.9230769230769,6,2,1,35,0,1
84726,-76.9230769230769,6,2,1,70,0,1
95642,-76.9230769230769,6,2,1,35,0,1
95726,-76.9230769230769,6,2,1,70,0,1
98392,-133.333333333333,6,2,1,65,0,0
98726,-133.333333333333,6,2,1,50,0,0
100393,333.333333333333,5,2,1,65,1,0
100393,-90.9090909090909,5,2,1,65,0,0
108642,-90.9090909090909,5,2,1,35,0,0
108726,-90.9090909090909,5,2,1,65,0,0
111975,-90.9090909090909,5,2,1,35,0,0
112059,333.333333333333,6,2,1,60,1,0
112059,-125,6,2,1,60,0,0
116059,-250,6,2,1,40,0,0
116392,-250,6,2,1,30,0,0
119059,-200,6,2,1,30,0,0
119225,-200,6,2,1,25,0,0
119392,-250,6,2,1,26,0,0
119558,-250,6,2,1,21,0,0
119725,-333.333333333333,6,2,1,22,0,0
119892,-333.333333333333,6,2,1,17,0,0
120058,-156.25,6,2,12,40,0,0
136058,-121.951219512195,6,2,12,50,0,0
143975,-121.951219512195,6,2,12,25,0,0
144058,-121.951219512195,6,2,12,50,0,0
152058,-100,6,2,1,60,0,0
168058,-83.3333333333333,6,2,1,68,0,0
170308,-83.3333333333333,6,2,1,38,0,0
170392,-83.3333333333333,6,2,1,68,0,0
172308,-83.3333333333333,6,2,1,38,0,0
172392,-83.3333333333333,6,2,1,68,0,0
177308,-83.3333333333333,6,2,1,38,0,0
177392,-83.3333333333333,6,2,1,68,0,0
178308,-83.3333333333333,6,2,1,38,0,0
178392,-83.3333333333333,6,2,1,68,0,0
181642,-83.3333333333333,6,2,1,38,0,0
181725,-83.3333333333333,6,2,1,68,0,0
182058,-76.9230769230769,6,2,1,68,0,0
183725,-66.6666666666667,6,2,1,68,0,0
184058,-66.6666666666667,6,2,1,70,0,0
185392,-66.6666666666667,6,2,1,64,0,0
190058,-100,6,2,1,64,0,0
195975,-100,6,2,1,34,0,0
196058,-90.9090909090909,6,2,1,64,0,0
198058,-83.3333333333333,6,2,1,68,0,0
200058,-71.4285714285714,6,2,1,72,0,1
200308,-71.4285714285714,6,2,1,40,0,1
200392,-71.4285714285714,6,2,1,72,0,1
203975,-71.4285714285714,6,2,1,40,0,1
204058,-71.4285714285714,6,2,1,72,0,1
214058,-133.333333333333,6,2,1,65,0,0
214725,-133.333333333333,6,2,1,50,0,0
215058,-133.333333333333,6,2,1,60,0,0
215725,-133.333333333333,6,2,1,50,0,0
216058,-100,6,2,1,67,0,0
216059,333.333333333333,5,2,1,67,1,0
216059,-83.3333333333333,5,2,1,67,0,0
217642,-83.3333333333333,5,2,1,37,0,0
217725,-83.3333333333333,5,2,1,67,0,0
227725,-71.4285714285714,5,2,1,70,0,0
228725,-71.4285714285714,5,2,1,72,0,0

[Colours]
Combo1 : 100,135,217
Combo2 : 149,200,217
Combo3 : 53,157,219
Combo4 : 143,201,105
Combo5 : 255,91,169
Combo6 : 98,172,145
Combo7 : 233,188,233
Combo8 : 220,220,220

[HitObjects]
109,275,727,38,0,P|63:269|20:287,1,93.5000028533936,4|0,3:1|0:0,0:0:0:0:
150,380,1060,1,8,0:0:0:0:
228,316,1226,2,0,P|254:253|242:117,1,187.000005706787,2|8,1:3|2:1,0:0:0:0:
337,291,1726,2,0,P|382:296|425:267,1,93.5000028533936,10|0,0:0|0:0,0:0:0:0:
230,181,2060,2,0,P|193:152|148:143,1,93.5000028533936,8|0,1:1|0:0,0:0:0:0:
390,62,2393,22,0,P|377:152|308:213,1,187.000005706787,2|8,3:1|0:0,0:0:0:0:
195,343,2893,2,0,P|141:342|72:213,1,187.000005706787,2|8,1:3|2:1,0:0:0:0:
6,168,3393,1,8,0:0:0:0:
37,60,3560,1,2,0:2:0:0:
162,25,3726,1,8,1:1:0:0:
264,118,3893,85,8,0:1:0:0:
267,133,3976,1,8,0:1:0:0:
266,148,4060,2,0,P|246:213|245:258,1,93.5000028533936,4|0,3:2|0:0,0:0:0:0:
279,335,4393,1,8,0:0:0:0:
414,384,4560,1,2,1:3:0:0:
414,384,4893,1,8,2:1:0:0:
280,310,5060,2,0,P|337:300|373:269,1,93.5000028533936,10|0,0:0|0:0,0:0:0:0:
432,155,5393,2,0,P|467:184|512:179,1,93.5000028533936,8|0,1:1|0:0,0:0:0:0:
264,28,5726,22,0,P|317:66|331:199,1,187.000005706787,2|8,3:1|0:0,0:0:0:0:
241,293,6226,2,0,P|144:263|38:261,1,187.000005706787,2|8,1:3|2:1,0:0:0:0:
171,363,6726,1,10,0:0:0:0:
286,307,6893,1,8,0:3:0:0:
225,158,7060,1,2,0:3:0:0:
308,333,7226,85,8,0:3:0:0:
337,349,7310,1,8,0:3:0:0:
370,353,7393,2,0,P|417:347|470:306,1,93.5000028533936,4|0,3:1|0:0,0:0:0:0:
509,204,7726,1,8,0:0:0:0:
379,110,7893,2,0,P|338:189|392:260,1,187.000005706787,2|8,1:3|2:1,0:0:0:0:
264,99,8393,2,0,P|212:91|174:124,1,93.5000028533936,10|0,0:0|0:0,0:0:0:0:
152,324,8726,2,0,P|109:334|38:271,1,140.25000428009,8|0,1:1|0:0,0:0:0:0:
43,197,9060,22,0,P|170:168|240:174,1,187.000005706787,2|8,3:1|0:0,0:0:0:0:
430,286,9560,2,0,P|407:364|320:342,1,187.000005706787,2|8,1:3|2:1,0:0:0:0:
254,274,10060,1,8,0:0:0:0:
257,146,10226,1,2,0:2:0:0:
374,77,10393,1,8,1:1:0:0:
487,162,10560,85,8,0:1:0:0:
497,187,10643,1,8,0:1:0:0:
492,211,10726,2,0,P|441:206|400:176,1,93.5000028533936,4|0,3:2|0:0,0:0:0:0:
347,112,11060,1,8,0:0:0:0:
395,303,11226,1,2,1:3:0:0:
395,303,11560,1,8,2:1:0:0:
510,378,11726,2,0,P|500:306|455:278,1,93.5000028533936,10|0,0:0|0:0,0:0:0:0:
212,337,12060,2,0,P|276:363|320:341,1,93.5000028533936,8|0,1:1|0:0,0:0:0:0:
423,214,12393,22,0,P|394:134|391:55,1,136,4|8,3:1|0:0,0:0:0:0:
287,25,12893,2,0,P|340:34|327:118,1,136,2|8,1:3|0:1,0:0:0:0:
271,191,13392,1,10,1:1:0:0:
271,191,13726,2,0,P|226:168|194:165,1,68,8|0,0:3|0:0,0:0:0:0:
145,119,14059,1,8,1:2:0:0:
67,158,14226,1,8,0:3:0:0:
50,270,14392,86,0,P|119:318|162:267,1,136,2|8,3:1|0:0,0:0:0:0:
238,261,14892,2,0,P|194:319|178:382,1,136,2|4,1:3|0:3,0:0:0:0:
275,332,15392,2,0,P|308:339|344:314,1,68,10|0,1:1|0:2,0:0:0:0:
453,260,15726,1,8,0:3:0:0:
498,171,15892,1,2,2:1:0:0:
469,99,16059,1,8,1:2:0:0:
433,82,16226,1,8,0:3:0:0:
407,85,16392,86,0,P|394:115|395:161,2,68,6|0|0,2:2|0:0|0:0,0:0:0:0:
302,91,17392,2,0,P|315:61|314:15,2,68,2|0|0,0:0|0:0|0:0,0:0:0:0:
225,133,18226,1,0,0:0:0:0:
225,133,18309,1,0,0:0:0:0:
225,133,18392,2,0,P|180:122|152:121,2,68,2|0|0,0:0|0:0|0:0,0:0:0:0:
296,206,19392,70,0,P|304:228|324:242,1,42.5,2|0,0:2|0:0,0:0:0:0:
336,285,19726,38,0,P|357:289|376:288,1,34,2|0,0:2|0:0,0:0:0:0:
395,319,20059,70,0,P|404:319|416:309,1,25.4999992218018,2|0,0:2|0:0,0:0:0:0:
436,330,20392,6,0,P|444:288|462:249,1,85,2|0,0:1|0:0,0:0:0:0:
512,187,21059,1,0,0:0:0:0:
505,98,21392,1,2,0:2:0:0:
432,23,21726,1,0,0:0:0:0:
324,7,22059,1,0,0:0:0:0:
251,96,22392,22,0,P|243:150|204:157,1,85,2|0,0:1|0:0,0:0:0:0:
224,183,23059,1,0,0:0:0:0:
149,129,23392,1,2,0:0:0:0:
73,148,23726,1,0,0:0:0:0:
59,175,24059,1,0,0:0:0:0:
154,121,24392,86,0,P|163:107|175:80,1,42.5,2|0,0:1|0:0,0:0:0:0:
217,166,24726,2,0,P|248:217|284:237,1,85,0|0,0:2|0:0,0:0:0:0:
300,301,25226,1,0,0:0:0:0:
382,338,25392,1,2,0:0:0:0:
468,290,25726,1,0,0:0:0:0:
486,186,26059,1,0,0:0:0:0:
392,101,26392,22,0,P|347:95|301:70,2,85,2|0|0,0:1|0:0|0:0,0:0:0:0:
421,90,27226,1,0,0:0:0:0:
393,114,27392,1,2,0:0:0:0:
373,157,27559,1,0,0:0:0:0:
372,212,27726,1,0,0:0:0:0:
405,253,27892,1,0,0:0:0:0:
459,271,28059,85,0,0:0:0:0:
399,208,28392,1,2,0:1:0:0:
296,167,28726,1,0,0:0:0:0:
188,194,29059,1,0,0:0:0:0:
125,252,29392,1,2,0:0:0:0:
118,327,29726,1,0,0:0:0:0:
137,351,30059,1,0,0:0:0:0:
1,252,30392,22,0,P|48:255|90:223,1,85,2|0,0:1|0:0,0:0:0:0:
93,220,31059,1,0,0:0:0:0:
131,295,31392,1,2,0:0:0:0:
227,355,31726,1,0,0:0:0:0:
349,340,32059,1,0,0:0:0:0:
437,238,32392,86,0,P|476:224|506:194,1,85,2|0,0:1|0:0,0:0:0:0:
420,221,32892,2,0,P|408:187|376:152,1,85
312,115,33392,1,2,0:0:0:0:
312,115,33726,1,0,0:0:0:0:
302,194,33892,2,0,P|288:215|223:222,1,85
144,256,34392,22,0,P|134:203|119:176,2,85,2|0|0,0:1|0:0|0:0,0:0:0:0:
134,336,35226,1,2,0:2:0:0:
134,336,35392,2,0,P|181:331|347:386,1,212.5,0|0,0:2|0:2,0:2:0:0:
404,257,36392,70,0,P|451:296|512:284,1,127.500004863739,4|0,3:2|0:0,0:0:0:0:
447,183,36892,1,0,0:0:0:0:
366,174,37059,2,0,P|335:187|300:213,1,63.7500024318696,2|0,0:0|0:0,0:0:0:0:
249,313,37392,2,0,P|226:234|186:181,2,127.500004863739,10|0|0,2:1|0:0|0:0,0:0:0:0:
210,384,38226,1,0,0:0:0:0:
143,265,38392,38,0,P|83:267|18:304,1,127.500004863739,2|0,0:1|0:0,0:0:0:0:
108,184,38892,1,0,0:0:0:0:
58,121,39059,2,0,P|32:104|-19:91,1,63.7500024318696
129,221,39392,2,0,P|158:184|150:148,1,63.7500024318696,2|0,0:0|0:0,0:0:0:0:
230,75,39726,2,0,P|237:129|300:178,1,127.500004863739,4|0,1:3|0:0,0:0:0:0:
347,234,40226,1,0,0:0:0:0:
442,193,40392,70,0,P|481:178|517:175,1,63.7500024318696,2|0,3:2|0:0,0:0:0:0:
437,338,40726,1,0,0:0:0:0:
340,287,40892,2,0,P|316:251|309:215,1,63.7500024318696,8|0,0:0|0:0,0:0:0:0:
235,139,41226,1,0,0:0:0:0:
365,111,41392,2,0,P|347:141|309:154,1,63.7500024318696,8|0,0:3|0:0,0:0:0:0:
237,257,41726,2,0,P|172:215|119:214,1,127.500004863739,2|0,0:0|0:0,0:0:0:0:
31,159,42226,37,0,0:0:0:0:
31,159,42309,1,0,0:0:0:0:
31,159,42392,2,0,P|82:122|110:65,2,127.500004863739,2|0|2,0:1|0:0|0:2,0:0:0:0:
154,261,43226,1,8,0:1:0:0:
73,244,43392,1,2,0:1:0:0:
24,318,43559,1,0,0:0:0:0:
138,352,43726,2,0,P|102:363|70:386,1,63.7500024318696,4|0,1:3|0:0,0:0:0:0:
196,296,44059,2,0,P|214:250|214:184,1,95.6250036478044,2|0,0:3|0:0,0:0:0:0:
213,198,44392,70,0,P|152:210|104:171,1,127.500004863739,4|0,3:2|0:0,0:0:0:0:
207,111,44892,1,8,0:0:0:0:
289,138,45059,2,0,P|301:172|307:219,1,63.7500024318696,2|0,0:0|0:0,0:0:0:0:
377,276,45392,2,0,P|426:278|501:213,2,127.500004863739,10|0|0,2:1|0:0|0:0,0:0:0:0:
336,354,46226,1,0,0:0:0:0:
273,251,46392,38,0,P|291:202|297:110,1,127.500004863739,2|0,0:1|0:0,0:0:0:0:
189,67,46892,1,0,0:0:0:0:
156,174,47059,2,0,P|187:168|217:159,1,63.7500024318696
83,62,47392,2,0,P|114:83|162:90,1,63.7500024318696,2|0,2:2|0:0,0:0:0:0:
77,198,47726,2,0,P|41:253|44:317,1,127.500004863739,4|0,1:3|0:0,0:0:0:0:
91,384,48226,1,0,0:0:0:0:
216,317,48392,70,0,P|205:280|203:248,1,63.7500024318696,2|0,3:2|0:0,0:0:0:0:
278,167,48726,1,0,0:0:0:0:
371,274,48892,2,0,P|340:265|312:250,1,63.7500024318696,8|0,0:0|0:0,0:0:0:0:
269,148,49226,1,0,0:0:0:0:
397,130,49392,2,0,P|387:168|353:190,1,63.7500024318696,8|0,0:3|0:0,0:0:0:0:
261,126,49726,2,0,P|212:88|217:26,1,127.500004863739,2|0,0:0|0:0,0:0:0:0:
294,14,50226,1,0,0:0:0:0:
351,143,50392,38,0,P|327:193|308:292,1,127.500004863739,2|8,0:1|0:2,0:0:0:0:
272,384,50892,2,0,P|253:323|211:276,1,127.500004863739,8|8,1:1|2:1,0:1:0:0:
188,189,51392,1,2,1:1:0:0:
97,154,51559,1,2,0:0:0:0:
2,207,51726,1,4,1:3:0:0:
2,315,51892,1,8,0:1:0:0:
102,371,52059,2,0,P|148:365|173:348,1,63.7500024318696,2|0,0:3|0:0,0:0:0:0:
260,261,52392,6,0,P|258:204|299:96,1,170,4|8,3:1|0:1,0:0:0:0:
420,63,52892,1,8,2:2:0:0:
482,212,53059,2,0,P|444:231|402:233,1,85,2|0,0:2|0:0,0:0:0:0:
304,331,53392,2,0,P|270:305|228:300,1,85,10|0,1:1|0:0,0:0:0:0:
94,384,53726,2,0,P|96:301|36:244,1,170,8|8,0:3|1:2,0:0:0:0:
0,175,54226,1,8,0:3:0:0:
134,305,54392,102,0,P|232:298|277:212,1,170,2|8,3:1|0:1,0:0:0:0:
371,153,54892,2,0,P|370:69|420:2,1,170,8|4,1:2|0:3,0:0:0:0:
512,104,55392,1,10,1:1:0:0:
512,104,55726,1,8,0:3:0:0:
467,168,55892,1,2,2:3:0:0:
380,196,56059,1,8,1:2:0:0:
275,153,56226,1,8,0:3:0:0:
228,25,56392,6,0,P|149:16|66:94,1,170,2|8,3:1|0:1,0:0:0:0:
5,159,56892,1,8,2:2:0:0:
68,244,57059,2,0,P|116:247|169:205,1,85,2|0,0:2|0:0,0:0:0:0:
278,310,57392,2,0,P|248:343|259:411,1,85,10|0,1:1|0:3,0:0:0:0:
378,265,57726,1,8,0:3:0:0:
478,303,57892,1,2,0:0:0:0:
415,181,58059,1,8,1:2:0:0:
306,210,58226,1,8,0:3:0:0:
433,196,58392,102,0,P|489:132|468:46,1,170,2|8,3:1|0:1,0:0:0:0:
334,163,58892,2,0,P|306:190|237:181,1,85,8|0,1:2|0:0,0:0:0:0:
188,262,59226,1,4,0:3:0:0:
232,96,59392,2,0,P|201:67|159:64,1,85,10|8,1:1|0:1,0:0:0:0:
93,31,59642,1,8,0:1:0:0:
75,21,59726,1,8,0:3:0:0:
4,63,59892,1,2,2:3:0:0:
0,163,60059,1,8,1:2:0:0:
94,221,60226,1,8,0:3:0:0:
231,135,60392,6,0,P|199:231|235:292,1,170,2|8,3:1|0:1,0:0:0:0:
333,374,60892,1,8,2:2:0:0:
419,241,61059,2,0,P|388:237|340:285,1,85,2|0,0:2|0:0,0:0:0:0:
187,371,61392,2,0,P|154:344|112:343,1,85,10|0,1:1|0:0,0:0:0:0:
263,257,61726,2,0,P|292:206|283:80,1,170,8|8,0:3|1:2,0:0:0:0:
256,11,62226,1,8,0:3:0:0:
348,197,62392,102,0,P|426:213|511:167,1,170,2|8,3:1|0:1,0:0:0:0:
472,300,62892,1,8,1:2:0:0:
403,127,63059,2,0,P|368:101|328:86,1,85,2|4,0:2|0:3,0:0:0:0:
204,73,63392,1,10,1:1:0:0:
204,73,63726,1,8,2:3:0:0:
286,148,63892,1,4,0:3:0:0:
299,182,63976,1,4,0:3:0:0:
299,217,64059,1,8,1:2:0:0:
228,301,64226,1,8,0:3:0:0:
129,218,64392,6,0,P|74:217|-3:310,1,170,2|8,3:1|0:1,0:0:0:0:
218,204,64892,2,0,P|238:166|245:97,1,85,10|0,2:2|0:2,0:0:0:0:
225,27,65226,1,4,0:3:0:0:
334,171,65392,2,0,P|368:166|415:127,1,85,10|0,1:1|0:3,0:0:0:0:
255,243,65726,1,8,0:3:0:0:
262,341,65892,1,2,0:0:0:0:
390,384,66059,1,8,1:2:0:0:
492,279,66226,1,8,0:3:0:0:
410,140,66392,102,0,P|322:144|250:63,1,170,2|8,3:1|0:1,0:0:0:0:
21,38,66892,1,8,1:2:0:0:
173,14,67059,1,2,0:2:0:0:
269,127,67226,1,4,0:3:0:0:
223,323,67392,1,10,1:1:0:0:
216,349,67726,1,10,1:1:0:0:
275,87,68392,38,0,P|192:32|109:50,1,165.749992412568,4|0,3:1|0:0,0:0:0:0:
52,54,68726,1,8,0:2:0:0:
167,129,68892,1,2,1:3:0:0:
60,267,69059,2,0,P|39:194|69:175,1,110.499994941712,2|0,0:2|0:0,0:0:0:0:
259,267,69392,2,0,P|146:295|110:401,1,220.999989883423,10|8,1:1|0:3,0:0:0:0:
298,349,69892,1,2,2:1:0:0:
333,207,70059,1,8,1:2:0:0:
246,141,70226,1,8,0:3:0:0:
339,315,70392,22,0,P|416:306|514:197,1,220.999989883423,2|8,3:1|0:0,0:0:0:0:
234,36,70892,2,0,P|339:87|351:219,1,220.999989883423,2|4,1:3|0:3,0:0:0:0:
49,152,71392,2,0,P|96:111|169:116,1,110.499994941712,10|8,1:1|0:1,0:0:0:0:
218,130,71642,1,8,0:1:0:0:
227,152,71726,1,8,0:3:0:0:
193,248,71892,1,2,2:1:0:0:
143,122,72059,1,8,1:2:0:0:
269,48,72226,1,8,0:3:0:0:
391,215,72392,86,0,P|486:239|435:150,1,220.999989883423,2|8,3:1|0:0,0:0:0:0:
335,325,72892,1,2,1:3:0:0:
265,195,73059,2,0,P|239:228|228:314,1,110.499994941712,2|4,0:2|0:3,0:0:0:0:
10,71,73392,2,0,P|89:142|193:121,1,220.999989883423,10|8,1:1|0:3,0:0:0:0:
279,38,73892,1,2,2:1:0:0:
198,155,74059,1,8,1:2:0:0:
261,301,74226,21,8,0:3:0:0:
285,327,74309,1,8,0:3:0:0:
314,338,74392,2,0,P|370:336|428:305,1,110.499994941712,2|0,3:1|0:0,0:0:0:0:
508,201,74726,1,8,0:0:0:0:
462,76,74892,1,2,1:3:0:0:
374,42,75059,1,2,0:0:0:0:
291,65,75226,1,4,2:3:0:0:
270,140,75392,1,10,1:1:0:0:
270,140,75726,1,8,0:3:0:0:
218,33,75892,1,8,2:3:0:0:
194,23,75976,1,8,0:3:0:0:
167,21,76059,1,8,1:2:0:0:
63,45,76226,1,8,0:3:0:0:
50,190,76392,86,0,P|94:211|181:184,1,110.499994941712,2|0,3:1|0:0,0:0:0:0:
351,16,76726,2,0,P|310:43|290:132,1,110.499994941712,8|2,0:0|1:3,0:0:0:0:
351,363,77059,2,0,P|347:314|280:252,1,110.499994941712,2|4,0:0|2:3,0:0:0:0:
153,203,77392,22,0,P|96:192|59:160,1,93.5000028533936,10|0,1:1|0:0,0:0:0:0:
287,99,77726,2,0,P|325:55|371:39,1,93.5000028533936,8|0,0:3|2:1,0:0:0:0:
310,266,78059,2,0,P|328:320|319:368,1,93.5000028533936,10|8,1:2|0:3,0:0:0:0:
57,190,78392,86,0,P|73:279|140:218,1,220.999989883423,2|8,3:1|0:0,0:0:0:0:
122,116,78892,1,2,1:3:0:0:
204,329,79059,2,0,P|261:327|291:264,1,110.499994941712,2|4,0:2|0:3,0:0:0:0:
439,28,79392,2,0,P|380:27|363:82,1,110.499994941712,10|8,1:1|0:1,0:0:0:0:
387,144,79642,1,8,0:1:0:0:
401,163,79726,1,8,0:3:0:0:
496,175,79892,1,2,2:1:0:0:
397,92,80059,1,8,1:2:0:0:
263,120,80226,1,8,0:3:0:0:
229,294,80392,22,0,P|295:376|398:337,1,220.999989883423,2|8,3:1|0:0,0:0:0:0:
480,220,80892,1,2,1:3:0:0:
480,220,81226,1,4,2:3:0:0:
489,364,81392,2,0,P|426:355|406:288,1,110.499994941712,10|8,1:1|0:1,0:0:0:0:
362,252,81642,1,8,0:1:0:0:
360,214,81726,1,8,0:3:0:0:
459,126,81892,1,2,2:1:0:0:
444,298,82059,1,8,1:2:0:0:
265,346,82226,1,8,0:3:0:0:
128,163,82392,86,0,P|24:219|45:351,1,255.000009727478,2|8,3:1|0:0,0:0:0:0:
254,200,82892,2,0,P|266:80|161:21,1,255.000009727478,2|4,1:3|0:3,0:0:0:0:
388,279,83392,2,0,P|457:285|491:246,1,127.500004863739,10|8,1:1|0:3,0:0:0:0:
512,167,83642,1,8,0:3:0:0:
496,131,83726,1,8,0:3:0:0:
376,41,83892,1,10,2:1:0:0:
210,123,84059,1,8,1:2:0:0:
229,325,84226,1,8,0:3:0:0:
0,277,84392,22,0,P|76:298|135:244,1,165.749992412568,4|0,3:1|0:0,0:0:0:0:
213,238,84726,1,8,0:2:0:0:
109,127,84892,1,2,1:3:0:0:
290,24,85059,2,0,P|241:11|207:72,1,110.499994941712,2|0,0:2|0:0,0:0:0:0:
360,212,85392,2,0,P|375:103|460:21,1,220.999989883423,10|8,1:1|0:3,0:0:0:0:
512,116,85892,1,2,2:1:0:0:
510,149,85976,1,2,0:1:0:0:
487,173,86059,1,8,1:2:0:0:
314,127,86226,1,8,0:3:0:0:
320,323,86392,86,0,P|409:376|523:344,1,220.999989883423,2|8,3:1|0:0,0:0:0:0:
253,213,86892,2,0,P|276:117|167:15,1,220.999989883423,2|4,1:3|0:3,0:0:0:0:
7,126,87392,2,0,P|20:150|102:139,1,110.499994941712,10|8,1:1|0:1,0:0:0:0:
153,96,87642,1,8,0:1:0:0:
151,76,87726,1,8,0:3:0:0:
26,38,87892,1,2,2:1:0:0:
59,212,88059,1,8,1:2:0:0:
204,167,88226,1,8,0:3:0:0:
142,339,88392,22,0,P|242:340|177:270,1,220.999989883423,2|8,3:1|0:0,0:0:0:0:
118,256,88892,1,2,1:3:0:0:
286,350,89059,2,0,P|342:351|375:300,1,110.499994941712,2|4,0:2|0:3,0:0:0:0:
359,73,89392,2,0,P|458:87|502:224,1,220.999989883423,10|8,1:1|0:3,0:0:0:0:
456,330,89892,1,2,2:1:0:0:
318,378,90059,1,8,1:2:0:0:
168,317,90226,85,8,0:3:0:0:
140,289,90309,1,8,0:3:0:0:
128,256,90392,2,0,P|129:202|160:135,1,110.499994941712,2|0,3:1|0:0,0:0:0:0:
275,34,90726,1,8,0:0:0:0:
404,35,90892,1,2,1:3:0:0:
486,109,91059,1,2,0:0:0:0:
508,202,91226,1,4,2:3:0:0:
470,277,91392,1,10,1:1:0:0:
470,277,91726,1,8,0:3:0:0:
404,195,91892,1,2,2:3:0:0:
279,164,92059,1,8,1:2:0:0:
185,291,92226,21,2,0:3:0:0:
186,320,92309,1,2,0:3:0:0:
199,347,92392,2,0,P|269:372|378:253,1,220.999989883423,2|8,3:1|0:0,0:0:0:0:
440,132,92892,1,2,1:3:0:0:
332,43,93059,2,0,P|266:56|230:100,1,110.499994941712,2|4,0:2|0:3,0:0:0:0:
382,268,93392,2,0,P|421:291|482:238,1,110.499994941712,10|8,1:1|0:1,0:0:0:0:
512,199,93642,1,8,0:1:0:0:
501,180,93726,1,8,0:3:0:0:
417,116,93892,1,2,2:1:0:0:
308,166,94059,1,8,1:2:0:0:
286,327,94226,1,8,0:3:0:0:
256,105,94392,86,0,P|204:40|60:44,1,220.999989883423,2|8,3:1|0:0,0:0:0:0:
326,187,94892,2,0,P|456:163|497:65,1,220.999989883423,2|4,1:3|0:3,0:0:0:0:
230,201,95392,2,0,P|148:227|124:319,1,165.749992412568,10|0,1:1|0:1,0:0:0:0:
136,371,95726,1,8,0:3:0:0:
279,351,95892,1,2,2:1:0:0:
344,222,96059,1,8,1:2:0:0:
295,68,96226,1,8,0:3:0:0:
423,259,96392,22,0,P|513:254|458:182,1,220.999989883423,2|8,3:1|0:0,0:0:0:0:
121,286,96892,2,0,P|30:281|85:209,1,220.999989883423,2|4,1:3|0:3,0:0:0:0:
343,325,97392,2,0,P|309:368|231:344,1,110.499994941712,10|8,1:1|0:3,0:0:0:0:
194,329,97642,1,8,0:3:0:0:
176,302,97726,1,8,0:3:0:0:
149,173,97892,1,10,2:1:0:0:
246,53,98059,1,8,1:2:0:0:
422,66,98226,1,8,0:3:0:0:
477,267,98392,6,0,P|343:221|89:207,1,382.500014591218,4|2,3:1|0:0,0:0:0:0:
0,244,100393,54,0,P|45:250|88:232,1,93.5000028533936,4|0,3:1|0:0,0:0:0:0:
164,155,100726,1,8,0:0:0:0:
169,303,100893,2,0,P|227:360|351:328,1,187.000005706787,2|8,1:3|2:1,0:0:0:0:
512,334,101393,2,0,P|461:338|392:365,1,93.5000028533936,10|0,0:0|0:0,0:0:0:0:
298,224,101726,2,0,P|330:255|395:273,1,93.5000028533936,8|0,1:1|0:0,0:0:0:0:
512,75,102059,22,0,P|480:159|393:184,1,187.000005706787,2|8,3:1|0:0,0:0:0:0:
220,113,102559,2,0,P|250:192|265:319,1,187.000005706787,2|8,1:3|2:1,0:0:0:0:
202,382,103059,1,8,0:0:0:0:
84,359,103226,1,2,0:2:0:0:
46,230,103393,1,8,1:1:0:0:
135,132,103559,85,8,0:1:0:0:
152,126,103643,1,8,0:1:0:0:
171,123,103726,2,0,P|203:148|283:170,1,93.5000028533936,4|0,3:2|0:0,0:0:0:0:
380,182,104059,1,8,0:0:0:0:
486,108,104226,1,2,1:3:0:0:
486,108,104559,1,8,2:1:0:0:
440,276,104726,2,0,P|470:314|524:330,1,93.5000028533936,10|0,0:0|0:0,0:0:0:0:
365,150,105059,2,0,P|343:113|291:117,1,93.5000028533936,8|0,1:1|0:0,0:0:0:0:
216,308,105393,22,0,P|159:369|47:328,1,187.000005706787,2|8,3:1|0:0,0:0:0:0:
209,198,105893,2,0,P|212:104|273:10,1,187.000005706787,2|0,1:3|1:0,0:0:0:0:
375,11,106393,1,10,0:0:0:0:
286,119,106559,1,8,0:3:0:0:
139,10,106726,1,2,0:3:0:0:
303,147,106893,85,8,0:3:0:0:
316,172,106976,1,8,0:3:0:0:
318,200,107059,2,0,P|307:252|253:293,1,93.5000028533936,4|0,3:1|0:0,0:0:0:0:
136,352,107393,1,8,0:0:0:0:
170,188,107559,2,0,P|72:125|-18:143,1,187.000005706787,2|8,1:3|2:1,0:0:0:0:
251,109,108059,2,0,P|290:79|318:26,1,93.5000028533936,10|0,0:0|0:0,0:0:0:0:
346,256,108392,2,0,P|400:314|468:310,1,140.25000428009,8|0,1:1|0:0,0:0:0:0:
512,250,108726,22,0,P|439:178|341:172,1,187.000005706787,2|8,3:1|0:0,0:0:0:0:
132,307,109226,2,0,P|61:348|85:257,1,187.000005706787,2|8,1:3|2:1,0:0:0:0:
128,200,109726,1,8,0:0:0:0:
250,219,109892,1,2,0:2:0:0:
299,338,110059,1,8,1:1:0:0:
453,358,110226,85,8,0:1:0:0:
478,330,110309,1,8,0:1:0:0:
484,293,110392,2,0,P|479:246|455:193,1,93.5000028533936,4|0,3:2|0:0,0:0:0:0:
386,108,110726,1,8,0:0:0:0:
245,79,110892,1,2,1:3:0:0:
245,79,111226,1,8,2:1:0:0:
335,221,111392,2,0,P|378:224|407:178,1,93.5000028533936,10|0,0:0|0:0,0:0:0:0:
170,326,111726,2,0,P|229:367|302:345,1,140.25000428009,8|0,1:1|0:0,0:0:0:0:
342,298,112059,22,0,P|300:224|299:161,1,136,4|8,3:1|0:0,0:0:0:0:
329,84,112559,2,0,P|295:139|232:130,1,136,2|8,1:3|0:1,0:0:0:0:
123,63,113059,1,10,1:1:0:0:
123,63,113392,2,0,P|136:94|142:127,1,68,8|0,0:3|0:0,0:0:0:0:
150,210,113725,1,8,1:2:0:0:
85,271,113892,1,8,0:3:0:0:
163,354,114059,86,0,P|211:367|275:291,1,136,2|8,3:1|0:0,0:0:0:0:
307,238,114559,2,0,P|314:305|378:343,1,136,2|4,1:3|0:3,0:0:0:0:
394,228,115059,2,0,P|420:216|444:175,1,68,10|0,1:1|0:2,0:0:0:0:
461,81,115392,1,8,0:3:0:0:
388,12,115559,1,2,2:1:0:0:
307,14,115725,1,8,1:2:0:0:
279,44,115892,1,8,0:3:0:0:
274,66,116059,86,0,P|277:101|302:134,2,68,6|0|0,2:2|0:0|0:0,0:0:0:0:
208,185,117059,2,0,P|205:150|180:117,2,68,2|0|0,0:0|0:0|0:0,0:0:0:0:
144,260,117892,1,0,0:0:0:0:
144,260,117975,1,0,0:0:0:0:
144,260,118059,2,0,P|106:265|67:281,2,68,2|0|0,0:0|0:0|0:0,0:0:0:0:
215,335,119059,70,0,P|235:350|261:354,1,42.5,2|0,0:2|0:0,0:0:0:0:
287,377,119392,38,0,P|308:371|324:361,1,34,2|0,0:2|0:0,0:0:0:0:
362,374,119725,70,0,P|369:370|373:346,1,25.4999992218018,2|0,0:2|0:0,0:0:0:0:
443,303,120058,6,0,P|429:282|422:245,1,54.4,10|0,0:1|0:0,0:0:0:0:
450,183,120392,2,0,P|495:159|512:107,1,108.8,8|0,0:0|0:0,0:0:0:0:
486,35,120892,1,8,0:0:0:0:
413,1,121058,1,10,0:0:0:0:
299,12,121392,1,0,0:0:0:0:
243,104,121725,1,0,0:0:0:0:
281,227,122058,22,0,P|316:238|355:232,1,54.4,10|0,0:1|0:0,0:0:0:0:
393,287,122392,2,0,P|325:291|278:324,1,108.8,8|0,0:0|0:0,0:0:0:0:
214,299,122892,1,8,0:0:0:0:
174,367,123058,1,10,0:0:0:0:
174,367,123392,1,8,0:0:0:0:
214,299,123558,2,0,P|197:233|154:188,1,108.8,8|0,0:0|0:0,0:0:0:0:
75,152,124058,86,0,P|52:149|22:140,1,54.4,10|0,0:1|0:0,0:0:0:0:
111,75,124392,2,0,P|134:47|216:48,1,108.8,8|0,0:0|0:0,0:0:0:0:
274,14,124892,1,8,0:0:0:0:
346,51,125058,1,10,0:0:0:0:
365,160,125392,1,0,0:0:0:0:
286,238,125725,2,0,P|267:228|238:223,2,27.2
354,324,126058,22,0,P|380:338|421:343,1,54.4,10|0,0:1|0:0,0:0:0:0:
483,302,126392,2,0,P|498:269|500:229,1,54.4,8|0,0:0|0:0,0:0:0:0:
512,151,126725,1,2,0:0:0:0:
437,81,126892,1,8,0:0:0:0:
355,84,127058,1,2,0:1:0:0:
310,150,127225,1,0,0:0:0:0:
311,163,127308,1,0,0:0:0:0:
321,172,127392,1,8,0:0:0:0:
380,115,127558,1,8,0:0:0:0:
362,39,127725,1,2,0:0:0:0:
292,21,127892,1,0,0:0:0:0:
237,80,128058,86,0,P|240:108|249:132,1,54.4,10|0,0:1|0:0,0:0:0:0:
324,196,128392,2,0,P|380:199|432:241,1,108.8,8|0,0:0|0:0,0:0:0:0:
471,289,128892,1,8,0:0:0:0:
448,365,129058,1,10,0:2:0:0:
321,379,129392,1,0,0:0:0:0:
243,265,129725,1,0,0:0:0:0:
329,162,130058,22,0,P|360:153|390:134,1,54.4,10|0,0:1|0:0,0:0:0:0:
282,96,130392,2,0,P|244:59|183:52,1,108.8,8|0,0:0|0:0,0:0:0:0:
118,18,130892,1,8,0:0:0:0:
44,51,131058,1,10,0:0:0:0:
44,51,131392,1,8,0:0:0:0:
118,18,131558,2,0,P|149:62|159:115,1,108.8,8|0,0:0|0:0,0:0:0:0:
110,185,132058,86,0,P|80:190|57:200,1,54.4,10|0,0:1|0:0,0:0:0:0:
148,262,132392,2,0,P|176:285|258:284,1,108.8,8|0,0:0|0:0,0:0:0:0:
316,255,132892,1,8,0:0:0:0:
344,179,133058,1,10,0:2:0:0:
297,69,133392,1,0,0:0:0:0:
181,34,133725,1,0,0:0:0:0:
310,91,133975,21,0,0:0:0:0:
310,91,134058,2,0,P|336:85|360:71,1,54.4,8|0,0:0|0:0,0:0:0:0:
485,163,134392,2,0,P|462:148|435:141,1,54.4,8|0,0:0|0:0,0:0:0:0:
340,168,134725,1,2,0:2:0:0:
330,256,134892,1,8,0:0:0:0:
415,326,135058,2,0,P|449:322|477:305,1,54.4,10|0,0:1|0:0,0:0:0:0:
478,306,135308,1,0,0:0:0:0:
484,294,135392,1,8,0:0:0:0:
462,184,135558,2,0,P|420:166|349:159,1,108.8,8|0,0:0|0:0,0:0:0:0:
255,286,136058,70,0,P|207:344|144:338,1,139.400002127075,4|8,3:1|0:0,0:0:0:0:
76,371,136558,1,0,2:3:0:0:
3,323,136725,1,2,0:0:0:0:
14,222,136892,1,8,0:0:0:0:
114,160,137058,2,0,P|180:199|255:187,2,139.400002127075,10|0|0,2:1|0:0|0:0,0:0:0:0:
56,96,137892,1,0,0:0:0:0:
151,27,138058,38,0,P|219:23|277:60,1,139.400002127075,2|8,2:1|0:0,0:0:0:0:
308,134,138558,1,0,2:3:0:0:
391,186,138725,1,2,0:0:0:0:
488,157,138892,1,8,0:0:0:0:
509,55,139058,2,0,P|476:25|445:17,1,69.7000010635376,8|0,0:2|0:0,0:0:0:0:
325,111,139392,2,8,P|289:88|250:79,1,69.7000010635376,4|8,1:3|0:0,0:0:0:0:
187,109,139725,1,2,0:0:0:0:
169,188,139892,1,0,0:0:0:0:
308,236,140058,70,0,P|335:269|343:308,1,69.7000010635376,2|0,3:1|0:0,0:0:0:0:
274,384,140392,1,8,0:0:0:0:
157,323,140558,2,0,P|190:306|224:302,1,69.7000010635376,8|0,2:0|0:0,0:0:0:0:
333,207,140892,1,8,0:0:0:0:
436,332,141058,2,0,P|401:328|375:277,1,69.7000010635376,8|0,0:2|0:0,0:0:0:0:
317,187,141392,2,0,P|343:136|355:40,1,139.400002127075,2|0,0:0|0:0,0:0:0:0:
201,101,141892,37,0,0:0:0:0:
201,101,141975,1,0,0:0:0:0:
201,101,142058,2,0,P|142:68|53:62,2,139.400002127075,2|8|2,0:1|2:0|0:2,0:0:0:0:
243,184,142892,1,8,0:1:0:0:
166,252,143058,1,2,0:1:0:0:
78,213,143225,1,2,0:0:0:0:
171,213,143392,1,4,1:3:0:0:
230,291,143558,1,8,0:0:0:0:
148,361,143725,2,0,P|112:366|48:329,1,104.550001595306,2|0,0:3|0:0,0:0:0:0:
12,265,144058,70,0,P|56:180|54:122,1,139.400002127075,4|8,3:1|0:0,0:0:0:0:
130,239,144558,1,0,2:1:0:0:
220,276,144725,1,2,0:0:0:0:
313,240,144892,1,8,0:0:0:0:
369,126,145058,2,0,P|361:57|324:-1,2,139.400002127075,10|0|0,2:1|0:0|0:0,0:0:0:0:
309,212,145892,1,0,0:0:0:0:
387,334,146058,38,0,P|463:372|536:342,1,139.400002127075,2|8,0:1|0:0,0:0:0:0:
431,251,146558,1,0,2:0:0:0:
494,203,146725,1,2,0:0:0:0:
512,117,146892,1,8,0:0:0:0:
463,39,147058,2,0,P|435:19|395:10,1,69.7000010635376,8|0,0:0|0:0,0:0:0:0:
321,137,147392,2,8,P|279:146|248:175,1,69.7000010635376,4|8,1:3|0:0,0:0:0:0:
225,237,147725,1,2,0:0:0:0:
258,318,147892,1,0,0:0:0:0:
121,372,148058,70,0,P|153:338|150:294,1,69.7000010635376,2|0,3:1|0:0,0:0:0:0:
84,255,148392,2,0,P|75:205|41:176,1,69.7000010635376,8|8,0:0|2:2,0:0:0:0:
250,288,148725,2,0,P|274:251|268:209,1,69.7000010635376,2|8,0:0|0:0,0:0:0:0:
360,65,149058,2,0,P|371:97|399:116,1,69.7000010635376,8|0,0:2|0:0,0:0:0:0:
512,213,149392,2,0,P|472:158|390:165,1,139.400002127075,2|0,0:0|0:0,0:0:0:0:
342,205,149892,1,0,0:0:0:0:
208,131,150058,38,0,P|213:61|250:-7,1,139.400002127075,2|8,0:1|2:0,0:0:0:0:
339,186,150558,2,0,P|397:200|459:267,1,139.400002127075,8|8,0:0|0:1,0:0:0:0:
475,332,151058,1,2,1:1:0:0:
404,382,151225,1,2,0:0:0:0:
310,351,151392,1,4,1:3:0:0:
279,245,151558,1,8,0:0:0:0:
347,156,151725,1,8,2:3:0:0:
462,166,151892,1,8,0:2:0:0:
243,220,152058,6,0,P|222:166|244:49,1,170,4|8,3:1|0:1,0:0:0:0:
319,25,152558,1,8,2:2:0:0:
187,125,152725,2,0,P|147:140|105:140,1,85,2|0,0:2|0:0,0:0:0:0:
285,212,153058,2,0,P|313:236|338:294,1,85,10|0,1:1|0:0,0:0:0:0:
152,377,153392,2,0,P|142:296|205:208,1,170,8|8,0:3|1:2,0:0:0:0:
257,176,153892,1,8,0:3:0:0:
363,273,154058,102,0,P|464:278|501:193,1,170,2|8,3:1|0:1,0:0:0:0:
314,165,154558,2,0,P|350:105|292:8,1,170,8|4,1:2|0:3,0:0:0:0:
211,103,155058,1,10,1:1:0:0:
211,103,155392,1,8,0:3:0:0:
142,59,155558,1,2,2:3:0:0:
52,71,155725,1,8,1:2:0:0:
8,154,155892,1,8,0:3:0:0:
63,280,156058,6,0,P|145:312|231:288,1,170,2|8,3:1|0:1,0:0:0:0:
333,195,156558,1,8,2:2:0:0:
383,376,156725,2,0,P|346:357|313:305,1,85,2|0,0:2|0:0,0:0:0:0:
512,199,157058,2,0,P|479:240|435:238,1,85,10|0,1:1|0:3,0:0:0:0:
306,98,157392,1,8,0:3:0:0:
403,62,157558,1,2,0:0:0:0:
318,187,157725,1,8,1:2:0:0:
199,113,157892,1,8,0:3:0:0:
415,149,158058,102,0,P|456:204|432:323,1,170,2|8,3:1|0:1,0:0:0:0:
339,206,158558,2,0,P|299:179|241:173,1,85,8|0,1:2|0:0,0:0:0:0:
115,265,158892,1,4,0:3:0:0:
174,361,159058,2,0,P|209:370|253:318,1,85,10|8,1:1|0:1,0:0:0:0:
295,286,159308,1,8,0:1:0:0:
289,263,159392,1,8,0:3:0:0:
245,176,159558,1,2,2:3:0:0:
142,157,159725,1,8,1:2:0:0:
74,250,159892,1,8,0:3:0:0:
260,197,160058,6,0,P|300:124|277:42,1,170,2|8,3:1|0:1,0:0:0:0:
204,88,160558,1,8,2:2:0:0:
365,183,160725,2,0,P|411:177|442:134,1,85,2|0,0:2|0:0,0:0:0:0:
256,287,161058,2,0,P|246:239|203:207,1,85,10|0,1:1|0:0,0:0:0:0:
33,302,161392,2,0,P|111:328|174:277,1,170,8|8,0:3|1:2,0:0:0:0:
235,177,161892,1,8,0:3:0:0:
400,349,162058,102,0,P|320:371|263:307,1,170,2|8,3:1|0:1,0:0:0:0:
215,207,162558,1,8,1:2:0:0:
294,98,162725,2,0,P|334:82|382:79,1,85,2|4,0:2|0:3,0:0:0:0:
485,110,163058,1,10,1:1:0:0:
485,110,163392,1,8,2:3:0:0:
512,220,163558,1,4,0:3:0:0:
502,255,163642,1,4,0:3:0:0:
481,283,163725,1,8,1:2:0:0:
394,321,163892,1,8,0:3:0:0:
262,206,164058,6,0,P|291:128|261:9,1,170,2|8,3:1|0:1,0:0:0:0:
371,196,164558,2,0,P|408:230|463:223,1,85,10|0,2:2|0:2,0:0:0:0:
512,152,164892,1,4,0:3:0:0:
377,26,165058,2,0,P|331:23|296:44,1,85,10|8,1:1|0:1,0:0:0:0:
239,88,165308,1,8,0:1:0:0:
239,88,165392,2,0,P|203:62|162:65,1,85,8|0,0:3|0:0,0:0:0:0:
63,89,165725,1,8,1:2:0:0:
12,195,165892,1,8,0:3:0:0:
76,331,166058,102,0,P|151:342|237:270,1,170,2|8,3:1|0:1,0:0:0:0:
293,156,166558,2,0,P|300:114|324:78,1,85,8|2,1:2|0:2,0:0:0:0:
408,54,166892,1,4,0:3:0:0:
495,100,167058,1,10,1:1:0:0:
509,209,167225,1,2,0:0:0:0:
418,290,167392,1,10,1:1:0:0:
292,254,167558,1,8,0:3:0:0:
277,228,167642,1,8,0:3:0:0:
277,198,167725,1,2,0:3:0:0:
384,112,167892,1,4,0:3:0:0:
173,30,168058,38,0,P|262:59|276:202,1,203.999993774414,4|8,3:1|0:0,0:0:0:0:
330,260,168558,1,2,1:3:0:0:
270,357,168725,1,2,0:2:0:0:
152,369,168892,1,4,0:3:0:0:
50,288,169058,2,0,P|40:228|92:77,2,203.999993774414,10|8|8,1:1|0:3|1:2,0:0:0:0:
146,380,169892,1,8,0:3:0:0:
318,279,170058,102,0,P|339:201|312:109,1,152.999995330811,2|0,3:1|2:0,0:0:0:0:
253,96,170392,2,0,P|244:158|276:197,1,101.999996887207,8|2,0:0|1:3,0:0:0:0:
391,236,170725,1,2,2:2:0:0:
412,233,170808,1,0,0:0:0:0:
432,222,170892,1,4,0:3:0:0:
310,384,171058,2,0,P|296:329|251:291,1,101.999996887207,10|8,1:1|0:1,0:0:0:0:
196,260,171308,1,8,0:1:0:0:
174,277,171392,1,8,0:3:0:0:
77,282,171558,1,2,2:1:0:0:
2,217,171725,1,8,1:2:0:0:
26,100,171892,1,8,0:3:0:0:
163,30,172058,6,0,P|216:81|290:73,1,152.999995330811,2|0,3:1|0:0,0:0:0:0:
364,49,172392,2,0,P|367:31|381:-9,2,50.9999984436036,8|0|2,0:0|2:2|1:3,0:0:0:0:
512,199,172725,2,0,P|480:143|418:133,1,101.999996887207,2|4,2:2|0:3,0:0:0:0:
288,220,173058,1,10,1:1:0:0:
288,220,173392,1,8,0:3:0:0:
387,205,173558,1,2,2:1:0:0:
216,291,173725,1,8,1:2:0:0:
273,105,173892,1,8,0:3:0:0:
337,334,174058,102,0,P|378:362|517:307,1,203.999993774414,2|8,3:1|0:0,0:0:0:0:
396,163,174558,2,0,P|405:121|299:17,1,203.999993774414,2|4,1:3|2:3,0:0:0:0:
230,234,175058,2,0,P|180:230|140:200,1,101.999996887207,10|8,1:1|0:1,0:0:0:0:
95,137,175308,1,8,0:1:0:0:
84,125,175392,1,8,0:3:0:0:
164,86,175558,1,2,2:3:0:0:
243,178,175725,1,8,1:2:0:0:
152,300,175892,1,2,0:3:0:0:
9,199,176058,5,6,3:1:0:0:
9,199,176392,2,0,P|61:231|106:213,1,101.999996887207,8|2,0:0|1:3,0:0:0:0:
220,101,176725,2,0,P|233:53|276:27,1,101.999996887207,2|4,0:2|0:3,0:0:0:0:
348,212,177058,2,0,P|400:265|486:252,1,152.999995330811,10|0,1:1|0:1,0:0:0:0:
512,193,177392,2,0,P|494:145|451:124,1,101.999996887207,8|0,0:3|0:0,0:0:0:0:
369,57,177725,1,8,1:2:0:0:
264,111,177892,1,8,0:3:0:0:
278,275,178058,102,0,P|243:337|152:327,1,152.999995330811,2|0,3:1|0:0,0:0:0:0:
102,373,178392,2,0,P|79:363|51:355,2,50.9999984436036,8|0|2,0:0|0:0|1:3,0:0:0:0:
297,318,178725,2,0,P|336:278|351:227,1,101.999996887207,2|4,0:0|0:3,0:0:0:0:
64,176,179058,2,0,P|83:228|124:258,1,101.999996887207,10|0,1:1|0:1,0:0:0:0:
328,37,179392,2,0,P|220:55|222:135,1,203.999993774414,8|8,0:3|1:2,0:0:0:0:
306,196,179892,1,8,0:3:0:0:
119,114,180058,6,0,P|72:172|172:192,1,203.999993774414,2|8,3:1|0:0,0:0:0:0:
467,65,180558,2,0,P|513:123|414:143,1,203.999993774414,2|4,1:3|0:3,0:0:0:0:
382,68,181058,1,10,1:1:0:0:
502,200,181225,1,8,0:1:0:0:
419,351,181392,2,0,P|382:361|286:285,1,152.999995330811,8|0,0:3|0:0,0:0:0:0:
248,237,181725,1,8,1:2:0:0:
378,144,181892,1,8,0:3:0:0:
142,11,182058,102,0,P|244:42|267:164,1,220.999989883423,2|8,3:1|0:0,0:0:0:0:
231,269,182558,1,2,1:3:0:0:
139,188,182725,1,2,0:0:0:0:
13,235,182892,1,4,0:3:0:0:
229,361,183058,2,0,P|290:356|335:315,1,110.499994941712,10|0,1:1|0:3,0:0:0:0:
167,61,183392,2,0,P|126:99|154:173,1,110.499994941712,8|10,0:3|2:1,0:0:0:0:
419,334,183725,70,0,P|490:263|389:262,1,255.000009727478,8|4,1:2|3:1,0:0:0:0:
2,105,185392,5,4,3:1:0:0:
512,72,186058,1,4,3:1:0:0:
7,87,187392,101,2,3:2:0:0:
69,22,187725,1,2,3:1:0:0:
91,384,188058,1,4,3:1:0:0:
506,231,189392,5,4,3:1:0:0:
5,177,190058,1,4,3:1:0:0:
5,177,190558,102,0,P|64:184|167:120,1,170,2|4,1:3|2:3,0:0:0:0:
202,67,191058,1,10,1:1:0:0:
202,67,191392,1,8,0:3:0:0:
188,150,191558,1,2,2:3:0:0:
225,232,191725,1,8,1:2:0:0:
324,281,191892,1,2,0:3:0:0:
461,251,192058,5,4,3:1:0:0:
461,251,192392,2,0,P|468:168|438:89,1,170,2|0,3:1|0:0,0:0:0:0:
60,145,193058,101,2,3:2:0:0:
60,145,193392,2,0,P|52:229|82:308,1,170,2|0,3:1|0:0,0:0:0:0:
305,384,194058,6,0,P|300:326|285:279,1,85,2|8,3:1|2:1,0:0:0:0:
287,284,194308,1,8,2:1:0:0:
276,270,194392,1,8,0:0:0:0:
208,226,194558,1,2,2:3:0:0:
120,225,194725,1,2,0:2:0:0:
44,263,194892,1,4,0:3:0:0:
127,211,195058,2,0,P|143:172|132:107,1,85,10|0,3:1|0:1,0:0:0:0:
229,282,195392,2,0,P|262:327|302:342,1,85,8|2,1:3|2:1,0:0:0:0:
419,237,195725,2,0,P|479:221|490:139,1,127.5,8|0,1:2|0:0,0:0:0:0:
512,140,196058,102,0,P|481:73|347:66,1,187.000005706787,4|8,3:1|0:0,0:0:0:0:
225,164,196558,2,0,P|143:146|190:85,1,187.000005706787,2|4,1:3|2:3,0:0:0:0:
274,97,197058,1,10,1:1:0:0:
315,192,197225,1,2,0:0:0:0:
237,278,197392,1,8,0:3:0:0:
294,192,197558,1,2,2:1:0:0:
394,198,197725,1,8,1:2:0:0:
444,261,197892,1,8,0:3:0:0:
332,363,198058,6,0,P|239:374|149:296,1,203.999993774414,2|8,3:1|0:0,0:0:0:0:
98,90,198558,2,0,P|15:91|67:168,1,203.999993774414,2|4,1:3|0:3,0:0:0:0:
255,135,199058,2,0,P|265:80|301:31,1,101.999996887207,10|8,1:1|0:3,0:0:0:0:
361,6,199308,1,8,0:3:0:0:
391,8,199392,1,8,0:3:0:0:
498,126,199558,1,10,2:1:0:0:
384,265,199725,1,8,1:2:0:0:
227,103,199892,37,2,0:3:0:0:
198,85,199975,1,2,0:3:0:0:
162,79,200058,2,0,P|70:116|39:207,1,178.499994552612,4|0,3:1|0:0,0:0:0:0:
5,257,200392,1,8,0:2:0:0:
170,205,200558,1,2,1:3:0:0:
195,369,200725,2,0,P|119:358|104:309,1,118.999996368408,2|0,0:2|0:0,0:0:0:0:
260,221,201058,2,0,P|261:102|363:23,1,237.999992736817,10|8,1:1|0:3,0:0:0:0:
437,88,201558,1,2,2:1:0:0:
463,93,201642,1,2,0:1:0:0:
484,109,201725,1,8,1:2:0:0:
512,227,201892,1,8,0:3:0:0:
409,364,202058,86,0,P|298:362|208:262,1,237.999992736817,2|8,3:1|0:0,0:0:0:0:
315,27,202558,2,0,P|389:114|371:228,1,237.999992736817,2|4,1:3|0:3,0:0:0:0:
345,303,202975,1,4,0:3:0:0:
307,315,203058,1,10,1:1:0:0:
187,272,203225,1,8,2:1:0:0:
168,132,203392,1,8,0:3:0:0:
211,284,203558,1,2,2:1:0:0:
71,364,203725,2,0,P|13:300|43:203,1,178.499994552612,8|0,1:2|0:0,0:0:0:0:
87,147,204058,22,0,P|197:145|165:55,1,237.999992736817,2|8,3:1|0:0,0:0:0:0:
247,255,204558,1,2,1:3:0:0:
401,73,204725,2,0,P|359:99|337:170,1,118.999996368408,2|4,0:2|0:3,0:0:0:0:
480,371,205058,2,0,P|390:274|260:256,1,237.999992736817,10|8,1:1|0:3,0:0:0:0:
164,166,205558,1,2,2:1:0:0:
266,274,205725,1,8,1:2:0:0:
430,205,205892,85,8,0:3:0:0:
458,183,205975,1,8,0:3:0:0:
474,151,206058,2,0,P|480:95|418:24,1,118.999996368408,2|0,3:1|0:0,0:0:0:0:
310,7,206392,1,8,0:0:0:0:
192,63,206558,1,2,1:3:0:0:
163,178,206725,1,2,0:0:0:0:
198,279,206892,1,4,2:3:0:0:
286,312,207058,1,10,1:1:0:0:
286,312,207392,1,8,0:3:0:0:
209,247,207558,1,2,2:3:0:0:
102,236,207725,1,8,1:2:0:0:
272,359,207892,21,2,0:3:0:0:
308,360,207975,1,2,0:3:0:0:
339,342,208058,2,0,P|380:275|333:119,1,237.999992736817,4|8,3:1|0:0,0:0:0:0:
226,59,208558,1,2,1:3:0:0:
279,253,208725,2,0,P|245:286|163:279,1,118.999996368408,2|4,0:2|0:3,0:0:0:0:
106,121,209058,2,0,P|45:128|3:87,1,118.999996368408,10|8,1:1|0:1,0:0:0:0:
35,21,209308,1,8,0:1:0:0:
58,8,209392,1,8,0:3:0:0:
167,47,209558,1,2,2:1:0:0:
191,171,209725,1,8,1:2:0:0:
86,269,209892,1,8,0:3:0:0:
251,92,210058,86,0,P|366:78|460:175,1,237.999992736817,2|8,3:1|0:0,0:0:0:0:
124,264,210558,2,0,P|58:166|79:47,1,237.999992736817,2|4,1:3|0:3,0:0:0:0:
153,10,211058,1,10,1:1:0:0:
153,10,211392,1,8,0:3:0:0:
271,53,211558,1,2,2:1:0:0:
335,177,211725,1,8,1:2:0:0:
267,338,211892,1,8,0:3:0:0:
42,253,212058,22,0,P|14:328|119:293,1,237.999992736817,2|8,3:1|0:0,0:0:0:0:
472,157,212558,2,0,P|480:254|393:209,1,237.999992736817,2|4,1:3|0:3,0:0:0:0:
210,12,213058,2,0,P|262:49|268:131,1,118.999996368408,10|8,1:1|0:3,0:0:0:0:
272,176,213308,1,8,0:3:0:0:
257,202,213392,1,8,0:3:0:0:
132,275,213558,1,10,2:1:0:0:
0,167,213725,1,8,1:2:0:0:
78,0,213892,1,8,0:3:0:0:
266,115,214058,38,0,P|384:149|513:126,1,255.000009727478,4|0,3:1|0:0,0:0:0:0:
512,127,215058,2,0,P|394:187|330:290,1,255.000009727478,4|0,3:1|0:0,0:0:0:0:
177,364,215892,53,8,0:1:0:0:
177,364,215975,1,8,0:1:0:0:
177,364,216059,2,0,P|218:366|268:328,1,101.999996887207,4|0,3:1|0:0,0:0:0:0:
302,171,216392,1,8,0:0:0:0:
153,127,216558,2,0,P|123:218|198:277,1,203.999993774414,2|8,1:3|2:1,0:0:0:0:
317,132,217058,2,0,P|313:82|258:32,1,101.999996887207,10|0,0:0|0:0,0:0:0:0:
117,211,217392,2,0,P|187:178|174:93,1,152.999995330811,8|0,1:1|0:0,0:0:0:0:
131,49,217725,22,0,P|38:91|43:196,1,203.999993774414,2|8,3:1|0:0,0:0:0:0:
212,101,218225,2,0,P|306:67|424:87,1,203.999993774414,2|8,1:3|2:1,0:0:0:0:
490,135,218725,1,8,0:0:0:0:
512,250,218892,1,2,0:2:0:0:
450,350,219058,1,8,1:1:0:0:
325,372,219225,85,8,0:1:0:0:
303,361,219308,1,8,0:1:0:0:
288,343,219392,2,0,P|293:297|315:243,1,101.999996887207,4|0,3:2|0:0,0:0:0:0:
385,167,219725,1,8,0:0:0:0:
498,153,219892,1,2,1:3:0:0:
498,153,220225,1,8,2:1:0:0:
423,259,220392,2,0,P|466:289|525:274,1,101.999996887207,10|0,0:0|0:0,0:0:0:0:
354,136,220725,2,0,P|324:88|270:86,1,101.999996887207,8|0,1:1|0:0,0:0:0:0:
229,303,221059,22,0,P|166:368|54:295,1,203.999993774414,2|8,3:1|0:0,0:0:0:0:
221,190,221559,2,0,P|318:160|428:169,1,203.999993774414,2|0,1:3|1:0,0:0:0:0:
308,283,222059,1,10,0:0:0:0:
195,210,222226,1,8,0:3:0:0:
289,61,222393,1,2,0:3:0:0:
168,242,222559,85,8,0:3:0:0:
135,258,222643,1,8,0:3:0:0:
99,257,222726,2,0,P|52:246|1:190,1,101.999996887207,4|0,3:1|0:0,0:0:0:0:
62,71,223058,1,8,0:0:0:0:
205,95,223225,2,0,P|260:155|235:309,1,203.999993774414,2|8,1:3|2:1,0:0:0:0:
359,133,223725,2,0,P|404:101|457:125,1,101.999996887207,10|0,0:0|0:0,0:0:0:0:
251,295,224059,2,0,P|193:297|168:220,1,101.999996887207,8|0,1:1|0:0,0:0:0:0:
367,258,224392,22,0,P|430:364|539:364,1,203.999993774414,2|8,3:1|0:0,0:0:0:0:
426,187,224892,2,0,P|497:144|479:30,1,203.999993774414,2|8,1:3|2:1,0:0:0:0:
367,5,225392,1,8,0:0:0:0:
265,84,225558,1,2,0:2:0:0:
298,223,225725,1,8,1:1:0:0:
241,60,225892,85,8,0:1:0:0:
207,47,225975,1,8,0:1:0:0:
171,44,226059,2,0,P|108:62|76:104,1,101.999996887207,4|0,3:2|0:0,0:0:0:0:
30,181,226392,1,8,0:0:0:0:
73,299,226558,1,2,1:3:0:0:
73,299,226892,1,8,2:1:0:0:
0,149,227059,2,0,P|55:136|103:82,1,101.999996887207,10|0,0:0|0:0,0:0:0:0:
183,32,227392,1,2,0:3:0:0:
112,195,227559,1,8,0:3:0:0:
220,364,227725,6,0,P|339:368|405:269,1,237.999992736817,4|8,3:1|0:0,0:0:0:0:
387,44,228225,2,0,P|494:90|495:233,1,237.999992736817,2|8,1:3|0:1,0:0:0:0:
413,384,228725,85,6,1:0:0:0:
99,0,229059,1,6,1:0:0:0:
