osu file format v14

[General]
AudioFilename: audio.mp3
AudioLeadIn: 0
PreviewTime: 74836
Countdown: 0
SampleSet: Soft
StackLeniency: 0.2
Mode: 0
LetterboxInBreaks: 0
WidescreenStoryboard: 1

[Editor]
Bookmarks: 12645,25815,48497,75567,98254,101909,115079,137762,164835,188250,205811,216055,217518,228497,232153,243860
DistanceSpacing: 0.2
BeatDivisor: 8
GridSize: 8
TimelineZoom: 1.3

[Metadata]
Title:Mahiru no Tsuki
TitleUnicode:真昼の月
Artist:Shimotsuki Haruka
ArtistUnicode:霜月はるか
Creator:ImpurePug
Version:Moonlight
Source:木洩れ陽のノスタルジーカ
Tags:kowari komorebi no nostalgica raggio di sole nostalgico strega なないろスコア nanairo score ayachi 藤間 仁 hitoshi fujima elements garden japanese pop eroge visual novel ending ed
BeatmapID:2402658
BeatmapSetID:1114729

[Difficulty]
HPDrainRate:6
CircleSize:4.8
OverallDifficulty:8
ApproachRate:8.4
SliderMultiplier:3.2
SliderTickRate:1

[Events]
//Background and Video events
0,0,"e.jpg",0,0
//Break Periods
2,206011,215365
//Storyboard Layer 0 (Background)
//Storyboard Layer 1 (Fail)
//Storyboard Layer 2 (Pass)
//Storyboard Layer 3 (Foreground)
//Storyboard Layer 4 (Overlay)
//Storyboard Sound Samples

[TimingPoints]
12642,731.707317073171,4,2,1,60,1,0
22885,731.707317073171,4,2,1,40,1,0
22885,-200,4,2,1,40,0,0
40080,-153.846153846154,4,2,1,40,0,0
49226,-133.333333333333,4,2,1,45,0,0
49775,-153.846153846154,4,2,1,45,0,0
50689,-133.333333333333,4,2,1,45,0,0
51787,-153.846153846154,4,2,1,45,0,0
54348,-133.333333333333,4,2,1,45,0,0
60933,-200,4,2,1,45,0,0
61848,-153.846153846154,4,2,1,45,0,0
62397,-181.818181818182,4,2,1,45,0,0
63128,-153.846153846154,4,2,1,45,0,0
66787,-125,4,2,1,45,0,0
67061,-125,4,2,1,5,0,0
67153,-133.333333333333,4,2,1,40,0,0
69714,-133.333333333333,4,2,1,45,0,0
71543,-166.666666666667,4,2,1,45,0,0
72092,-133.333333333333,4,2,1,45,0,0
72641,-100,4,2,1,52,0,0
74104,-303.030303030303,4,2,1,52,0,0
74836,-153.846153846154,4,2,1,35,0,0
75568,-100,4,2,1,70,0,0
91665,-83.3333333333333,4,2,1,70,0,0
92031,-100,4,2,1,70,0,0
97519,-133.333333333333,4,2,1,70,0,0
98982,-153.846153846153,4,2,1,70,0,0
100445,-117.647058823529,4,2,1,70,0,0
100811,-200,4,2,1,70,0,0
101909,-100,4,2,1,70,0,0
102275,-125,4,2,1,60,0,0
102641,-100,4,2,1,60,0,0
112153,731.707317073171,4,2,1,40,1,0
112153,-200,4,2,1,40,0,0
115079,-166.666666666667,4,2,1,40,0,0
132640,-133.333333333333,4,2,1,40,0,0
138494,-117.647058823529,4,2,1,45,0,0
139043,-133.333333333333,4,2,1,45,0,0
139957,-117.647058823529,4,2,1,45,0,0
141055,-133.333333333333,4,2,1,45,0,0
143982,-117.647058823529,4,2,1,45,0,0
144348,-133.333333333333,4,2,1,45,0,0
148006,-117.647058823529,4,2,1,45,0,0
150201,-153.846153846154,4,2,1,45,0,0
150933,-117.647058823529,4,2,1,45,0,0
151665,-133.333333333333,4,2,1,45,0,0
153128,-117.647058823529,4,2,1,45,0,0
154957,-133.333333333333,4,2,1,45,0,0
156055,-117.647058823529,4,2,1,45,0,0
158982,-117.647058823529,4,2,1,45,0,0
161909,-100,4,2,1,45,0,0
164835,-90.9090909090909,4,2,1,70,0,0
173982,-71.4285714285714,4,2,1,70,0,0
174348,-90.9090909090909,4,2,1,70,0,0
180933,-76.9230769230769,4,2,1,70,0,0
181299,-90.9090909090909,4,2,1,70,0,0
186787,-200,4,2,1,70,0,0
187518,-100,4,2,1,70,0,0
187610,-100,4,2,2,70,0,0
187701,-100,4,2,2,55,0,0
187793,-100,4,2,2,43,0,0
188250,-90.9090909090909,4,2,1,70,0,0
188616,-100,4,2,1,70,0,0
193006,-83.3333333333333,4,2,1,70,0,0
193372,-100,4,2,1,70,0,0
196299,-83.3333333333333,4,2,1,70,0,0
198494,-71.4285714285714,4,2,1,70,0,0
198860,-83.3333333333333,4,2,1,70,0,0
201787,-100,4,2,1,70,0,0
203616,-100,4,2,1,60,0,0
204165,-100,4,2,1,55,0,0
204713,-200,4,2,1,50,0,0
205079,-250,4,2,1,40,0,0
205811,-100,4,2,2,30,0,0
216055,-100,4,2,1,50,0,0
217518,-83.3333333333333,4,2,1,70,0,0
227762,-133.333333333333,4,2,1,70,0,0
229225,-100,4,2,1,70,0,0
229226,-153.846153846153,4,2,1,70,0,0
230688,-100,4,2,1,70,0,0
230689,-117.647058823529,4,2,1,70,0,0
231054,-100,4,2,1,70,0,0
231055,-200,4,2,1,70,0,0
232152,-100,4,2,1,70,0,0
232153,-90.9090909090909,4,2,1,70,0,0
242031,-166.666666666667,4,2,1,50,0,0
243311,-333.333333333333,4,2,1,40,0,0
243768,-333.333333333333,4,2,1,5,0,0
243860,-333.333333333333,4,2,2,70,0,0
243951,-333.333333333333,4,2,1,20,0,0
252640,-333.333333333333,4,2,2,5,0,0

[Colours]
Combo1 : 176,176,217
Combo2 : 92,225,254
Combo3 : 99,82,254
Combo4 : 205,253,140
Combo5 : 80,254,184
Combo6 : 128,128,128
Combo7 : 192,192,192
Combo8 : 115,115,185

[HitObjects]
0,99,12642,38,0,P|64:108|86:53,1,120,12|0,0:1|0:0,0:0:0:0:
83,45,13007,2,0,B|85:17|115:15|115:15|98:26|95:44,1,80,2|0,0:0|0:0,0:0:0:0:
108,173,13373,2,0,P|175:143|158:71,1,160,8|2,0:0|0:0,0:0:0:0:
101,170,13922,1,2,0:0:0:0:
251,110,14105,2,0,P|293:124|300:205,1,120,8|0,0:1|0:0,0:0:0:0:
301,209,14471,2,0,P|304:162|356:139,1,80,10|0,0:1|0:0,0:0:0:0:
266,309,14837,2,0,B|237:359|181:335|181:335|177:301|149:283,1,160,8|2,0:0|0:0,0:0:0:0:
509,252,15568,6,0,P|432:257|380:269,1,120,8|0,0:1|0:0,0:0:0:0:
342,305,15934,2,0,P|365:324|356:295,1,80,2|0,0:0|0:0,0:0:0:0:
322,126,16300,2,0,P|379:126|408:176,1,120,8|0,0:0|0:0,0:0:0:0:
406,194,16666,1,2,0:0:0:0:
260,85,16849,1,8,0:1:0:0:
417,132,17032,2,0,P|445:112|443:55,1,80,8|0,0:1|0:0,0:0:0:0:
451,56,17398,2,0,P|401:116|419:215,2,160,2|10|0,0:3|0:0|0:0,0:0:0:0:
479,310,18495,101,4,0:0:0:0:
208,184,18861,2,0,P|219:227|264:253,1,80,2|0,0:0|0:0,0:0:0:0:
186,81,19227,2,0,P|154:112|154:163,1,80,8|0,0:0|0:0,0:0:0:0:
264,10,19593,2,0,P|221:-1|176:23,1,80,2|8,0:0|0:1,0:0:0:0:
35,151,19959,5,4,0:0:0:0:
192,289,20324,2,0,P|203:246|179:201,1,80,2|0,0:0|0:0,0:0:0:0:
29,145,20690,101,8,0:0:0:0:
191,214,20872,1,2,0:0:0:0:
23,141,21056,2,0,P|12:98|36:53,1,80,2|0,0:0|0:0,0:0:0:0:
73,329,21422,5,12,0:2:0:0:
172,26,21788,1,12,0:0:0:0:
172,26,22520,101,2,0:0:0:0:
180,48,22702,1,0,0:0:0:0:
197,63,22885,2,0,P|263:69|303:-5,1,160,8|2,0:1|0:0,0:0:0:0:
136,252,24166,1,0,3:0:0:0:
134,248,24257,1,0,3:0:0:0:
132,244,24349,2,0,B|97:229|80:258|80:258|62:291|29:280,1,120,2|8,3:0|0:1,0:0:0:0:
14,273,25081,21,0,1:0:0:0:
109,341,25263,1,0,1:0:0:0:
115,354,25446,1,0,0:0:0:0:
185,184,25811,6,0,P|203:240|281:240,1,120,4|0,0:0|0:0,0:0:0:0:
325,212,26543,1,0,1:0:0:0:
329,216,26909,2,0,P|337:233|339:252,1,40,2|0,0:0|3:0,0:0:0:0:
329,332,27275,102,0,B|338:364|369:371|369:371|356:360|353:347,1,80,8|0,0:1|0:0,0:0:0:0:
502,260,28006,2,0,P|462:265|421:218,1,80,0|0,1:0|0:0,0:0:0:0:
401,177,28555,1,0,0:0:0:0:
408,181,28738,6,0,P|422:166|419:117,1,40,8|0,0:1|0:0,0:0:0:0:
379,94,29104,2,0,P|365:78|368:29,1,40
422,6,29470,1,0,1:0:0:0:
331,151,29836,2,0,L|284:143,1,40,2|0,0:0|0:0,0:0:0:0:
243,89,30202,102,0,P|194:104|177:154,1,80,8|0,0:1|0:0,0:0:0:0:
297,193,30750,1,0,0:0:0:0:
303,194,30933,2,0,P|314:144|279:104,1,80,0|0,1:0|0:0,0:0:0:0:
248,236,31482,1,0,0:0:0:0:
246,228,31665,6,0,P|207:222|182:193,1,80,8|0,0:1|3:0,0:0:0:0:
94,84,32397,1,0,1:0:0:0:
90,91,32763,2,0,L|19:99,1,40,2|0,0:0|3:0,0:0:0:0:
228,30,33128,102,0,L|149:24,2,80,8|0|0,0:1|0:0|1:0,0:0:0:0:
19,12,34226,1,2,0:0:0:0:
12,16,34409,1,0,3:0:0:0:
4,19,34592,6,0,P|2:50|26:66,1,40,8|0,0:1|0:0,0:0:0:0:
27,141,34958,2,0,L|106:134,1,80,0|0,0:0|1:0,0:0:0:0:
49,265,35689,102,0,P|52:234|78:222,1,40,2|0,0:0|3:0,0:0:0:0:
120,123,36055,2,0,L|188:128,1,60,8|0,0:1|0:0,0:0:0:0:
196,121,36421,2,0,P|206:137|204:157,1,40,8|0,0:1|0:0,0:0:0:0:
118,54,36787,2,0,L|112:-9,2,40,0|0|0,1:0|3:0|3:0,0:0:0:0:
260,264,37519,6,0,B|262:337|205:297|210:364,1,120,8|0,0:1|0:0,0:0:0:0:
214,368,38250,1,0,1:0:0:0:
324,355,38616,2,0,L|374:349,1,40,2|0,0:0|3:0,0:0:0:0:
423,296,38982,2,0,L|506:285,1,80,8|0,0:1|0:0,0:0:0:0:
364,241,39714,1,0,1:0:0:0:
356,237,40080,2,0,P|348:211|369:191,1,51.999997619629,0|0,0:0|3:0,0:0:0:0:
415,125,40445,102,0,P|393:145|307:164,2,103.999995239258,8|0|0,0:1|0:0|1:0,0:0:0:0:
206,16,41543,2,0,L|195:78,1,51.999997619629,2|0,0:0|3:0,0:0:0:0:
288,57,41909,2,0,P|256:18|206:16,1,103.999995239258,8|0,0:1|0:0,0:0:0:0:
157,93,42458,1,0,0:0:0:0:
160,97,42641,2,0,P|138:125|113:131,1,51.999997619629,0|0,1:0|0:0,0:0:0:0:
103,5,43006,2,0,P|138:10|155:28,1,51.999997619629,2|0,0:0|3:0,0:0:0:0:
56,117,43372,6,0,P|36:83|41:45,1,77.9999964294435,8|0,0:1|0:0,0:0:0:0:
48,44,43738,2,0,P|65:104|63:154,1,103.999995239258,0|0,3:0|1:0,0:0:0:0:
30,341,44470,101,2,0:0:0:0:
16,274,44653,1,0,3:0:0:0:
72,236,44836,2,0,P|121:244|150:307,1,103.999995239258,8|0,0:1|0:0,0:0:0:0:
276,166,45567,2,0,B|291:153|290:142|290:142|260:153|262:205|271:217,1,103.999995239258,0|0,1:0|0:0,0:0:0:0:
314,255,46116,1,0,0:0:0:0:
376,229,46299,6,0,P|443:247|449:270,1,77.9999964294435,8|0,0:1|0:0,0:0:0:0:
447,259,46665,2,0,P|426:238|404:148,1,103.999995239258,0|0,3:0|1:0,0:0:0:0:
402,372,47397,101,2,0:0:0:0:
334,356,47580,1,0,3:0:0:0:
307,292,47763,2,0,P|324:250|379:229,1,103.999995239258,8|0,0:1|3:0,0:0:0:0:
499,100,48494,5,0,1:0:0:0:
476,96,48677,1,0,1:0:0:0:
464,116,48860,1,0,3:0:0:0:
481,134,49043,1,0,3:0:0:0:
501,124,49226,6,0,P|458:100|378:100,1,120.000004577637,10|0,0:1|0:0,0:0:0:0:
334,163,49775,2,0,P|310:159|306:135,1,51.999997619629,2|0,0:0|1:0,0:0:0:0:
306,134,50324,2,0,P|320:154|306:174,1,51.999997619629,2|0,0:0|3:0,0:0:0:0:
171,102,50689,6,0,P|189:68|262:79,2,120.000004577637,8|0|0,0:1|0:0|1:0,0:0:0:0:
192,210,51604,1,2,0:0:0:0:
195,214,51787,2,0,P|181:193|139:198,1,51.999997619629
29,251,52153,102,0,P|83:254|154:262,1,103.999995239258,10|0,0:1|0:0,0:0:0:0:
200,278,52702,2,0,B|199:294|191:306|191:306|204:302|204:283,1,51.999997619629,2|0,0:0|1:0,0:0:0:0:
203,290,53250,1,2,0:0:0:0:
107,174,53433,1,0,3:0:0:0:
110,178,53616,6,0,P|127:133|184:140,1,103.999995239258,8|2,0:1|0:0,0:0:0:0:
313,353,54348,2,0,B|318:364|330:363|330:363|339:329|316:283|265:288,1,120.000004577637,0|0,1:0|0:0,0:0:0:0:
223,317,54897,1,0,3:0:0:0:
292,284,55080,102,0,P|304:253|237:233,1,120.000004577637,10|0,0:1|0:0,0:0:0:0:
494,324,55811,2,0,P|464:365|383:355,1,120.000004577637,0|2,1:0|0:0,0:0:0:0:
382,276,56360,2,0,P|410:281|428:304,1,60.0000022888184,0|8,3:0|0:1,0:0:0:0:
428,304,56909,6,0,P|418:276|429:249,1,60.0000022888184,2|0,0:0|0:0,0:0:0:0:
501,196,57275,2,0,L|490:120,1,60.0000022888184,0|0,1:0|0:0,0:0:0:0:
406,45,57641,1,2,0:0:0:0:
423,170,57824,1,0,3:0:0:0:
483,61,58006,2,0,P|482:24|466:-5,1,60.0000022888184,8|0,0:1|0:0,0:0:0:0:
369,115,58372,101,2,0:0:0:0:
483,61,58555,1,2,0:0:0:0:
372,119,58738,2,0,P|325:117|283:62,1,120.000004577637,0|2,1:0|0:0,0:0:0:0:
310,198,59287,5,0,3:0:0:0:
282,62,59470,2,0,P|285:32|300:6,1,60.0000022888184,8|0,0:1|0:0,0:0:0:0:
313,202,59836,2,0,P|286:214|256:214,1,60.0000022888184,2|0,0:0|0:0,0:0:0:0:
95,204,60202,101,0,1:0:0:0:
14,239,60385,1,0,1:0:0:0:
28,309,60567,1,0,3:0:0:0:
72,331,60750,1,0,3:0:0:0:
92,315,60933,6,0,B|94:284|68:274|68:274|66:289|81:301,1,80,10|0,0:1|0:0,0:0:0:0:
95,319,61482,1,0,0:0:0:0:
232,232,61665,1,0,1:0:0:0:
235,236,61848,2,0,P|297:265|297:331,1,103.999995239258,2|2,0:0|0:0,0:0:0:0:
294,364,62397,2,0,P|254:344|238:305,1,88.000002685547,8|0,0:1|3:0,0:0:0:0:
477,355,63128,101,0,1:0:0:0:
481,332,63311,1,2,0:0:0:0:
461,320,63494,1,0,3:0:0:0:
443,337,63677,1,2,0:0:0:0:
453,357,63860,6,0,P|486:321|463:246,1,103.999995239258,8|0,0:1|0:0,0:0:0:0:
429,208,64409,2,0,P|410:220|419:247,1,51.999997619629,2|0,0:0|1:0,0:0:0:0:
416,245,64958,1,2,0:0:0:0:
506,137,65142,1,0,3:0:0:0:
510,133,65324,2,0,P|504:76|495:5,1,103.999995239258,8|0,0:1|0:0,0:0:0:0:
416,245,66055,101,0,1:0:0:0:
391,237,66238,1,0,3:0:0:0:
394,211,66421,2,0,B|416:213|424:231|424:231|412:230|409:223,1,51.999997619629,2|0,0:0|0:0,0:0:0:0:
291,183,66787,6,0,B|261:151|273:118|273:118|285:131|281:143,1,96,8|0,0:1|0:0,0:0:0:0:
281,140,67153,2,0,P|262:168|229:182,1,60.0000022888184,2|0,0:0|0:0,0:0:0:0:
126,151,67519,2,0,P|82:151|39:231,1,120.000004577637,0|0,1:0|0:0,0:0:0:0:
98,277,68067,1,0,3:0:0:0:
101,281,68250,102,0,P|144:268|164:180,1,120.000004577637,10|0,0:1|0:0,0:0:0:0:
118,58,68799,2,0,P|94:50|70:75,1,60.0000022888184,2|0,0:0|1:0,0:0:0:0:
71,72,69348,2,0,P|95:66|103:32,1,60.0000022888184,2|0,0:0|3:0,0:0:0:0:
250,155,69714,6,0,P|228:101|148:90,1,120.000004577637,10|0,0:1|0:0,0:0:0:0:
111,140,70263,2,0,B|100:142|98:153|98:153|115:157|131:132,1,60.0000022888184,2|0,0:0|1:0,0:0:0:0:
269,30,70628,1,0,0:0:0:0:
383,94,70811,101,2,0:0:0:0:
425,46,70994,1,0,3:0:0:0:
487,75,71177,2,0,B|489:133|456:99|456:154,1,90.0000034332277,8|0,0:1|0:0,0:0:0:0:
460,172,71543,2,0,P|484:150|480:128,1,47.9999985351563,2|0,0:0|0:0,0:0:0:0:
425,46,71909,1,0,1:0:0:0:
392,201,72092,2,0,P|427:154|484:136,1,120.000004577637,2|0,0:0|3:0,0:0:0:0:
401,311,72641,6,0,B|353:320|319:282|324:248|324:248|345:246|357:281,1,160,4|0,0:0|0:0,0:0:0:0:
300,378,73189,2,0,B|217:401|242:299|149:330,1,160,4|0,0:0|0:0,0:0:0:0:
73,358,73738,2,0,B|74:372|99:379|99:379|83:362|85:326,1,80,2|0,0:0|1:0,0:0:0:0:
72,223,74104,102,0,B|62:227|58:239|58:239|93:246|109:220,1,79.1999997583008,10|0,0:1|0:0,0:0:0:0:
108,221,74836,5,0,3:0:0:0:
113,230,75019,1,2,0:0:0:0:
117,239,75202,1,0,0:0:0:0:
255,193,75568,6,0,P|207:160|149:169,1,120,12|0,0:1|0:0,0:0:0:0:
109,220,75933,2,0,B|93:246|58:239|58:239|62:227|79:220,1,80,2|0,0:0|0:0,0:0:0:0:
255,193,76299,2,0,P|257:261|166:300,1,160,8|2,0:0|0:0,0:0:0:0:
327,177,76848,1,10,0:1:0:0:
174,295,77031,6,0,P|221:273|274:323,1,120,8|0,0:1|0:0,0:0:0:0:
307,377,77397,2,0,B|331:392|353:375|353:375|347:360|348:344,1,80,10|0,0:1|0:0,0:0:0:0:
397,187,77763,1,8,0:0:0:0:
418,346,77946,2,0,L|397:181,1,160,2|0,0:0|0:0,0:0:0:0:
447,80,78494,101,8,0:1:0:0:
370,7,78677,1,2,0:0:0:0:
463,149,78860,2,0,P|499:144|512:100,1,80
370,7,79226,2,0,B|320:5|296:36|296:36|264:14|213:31,1,160,8|2,0:0|0:0,0:0:0:0:
134,10,79775,1,10,0:1:0:0:
215,167,79958,6,0,B|237:167|237:167|228:100|143:95,1,120,8|0,0:1|0:0,0:0:0:0:
56,88,80324,2,0,P|99:85|66:72,1,120,2|0,0:3|0:0,0:0:0:0:
58,80,80690,1,10,0:2:0:0:
31,287,81055,101,2,0:0:0:0:
130,365,81421,5,8,0:1:0:0:
105,291,81604,2,0,B|78:238|19:255|0:275|0:275|19:298|49:281,1,160,2|0,0:0|0:0,0:0:0:0:
214,188,82153,2,0,B|251:161|236:102|236:102|206:72,1,120,8|0,0:0|0:0,0:0:0:0:
213,79,82519,1,2,0:0:0:0:
147,238,82702,1,10,0:1:0:0:
214,188,82885,102,0,P|246:163|307:164,1,80,8|0,0:1|0:0,0:0:0:0:
381,342,83251,2,0,P|413:367|474:366,1,80,2|0,0:0|0:0,0:0:0:0:
304,357,83616,1,8,0:0:0:0:
403,268,83799,2,0,P|328:285|305:358,1,160,2|0,0:0|0:0,0:0:0:0:
442,204,84348,6,0,P|411:167|360:173,1,80,10|0,0:1|0:0,0:0:0:0:
496,280,84714,2,0,B|522:294|522:294|493:218,1,80,2|0,0:0|0:0,0:0:0:0:
239,152,85080,2,0,B|215:163|219:193|219:193|273:208|307:153|294:99,1,160,10|2,0:0|0:0,0:0:0:0:
378,12,85629,1,10,0:1:0:0:
498,79,85812,102,0,B|478:99|442:95|429:61|429:61|450:41|447:8,1,120,8|0,0:1|0:0,0:0:0:0:
369,7,86177,2,0,B|328:-3|308:23|308:23|307:43,1,80,2|0,0:3|0:0,0:0:0:0:
223,210,86543,5,12,0:2:0:0:
362,87,86726,1,8,0:0:0:0:
106,5,86909,1,2,0:0:0:0:
106,5,87275,101,12,0:1:0:0:
143,95,87458,1,0,0:0:0:0:
254,18,87641,2,0,P|204:25|210:69,1,80,2|0,0:0|0:0,0:0:0:0:
159,213,88007,2,0,P|228:191|214:120,1,160,8|2,0:0|0:0,0:0:0:0:
145,284,88555,1,10,0:1:0:0:
182,108,88738,6,0,B|102:115|168:169|59:178,1,120,8|0,0:1|0:0,0:0:0:0:
26,150,89104,2,0,B|18:136|-7:139|-15:147|-15:147|0:144|22:159,1,80,10|0,0:1|0:0,0:0:0:0:
145,284,89470,1,8,0:0:0:0:
7,354,89653,2,0,P|68:303|145:284,1,160,2|0,0:0|0:0,0:0:0:0:
342,375,90202,102,0,B|352:384|364:384|364:384|387:354|351:319|316:325,1,120,8|0,0:1|0:0,0:0:0:0:
225,304,90568,6,0,P|252:358|279:349,1,80,2|0,0:0|0:0,0:0:0:0:
477,265,90933,102,0,B|493:244|493:244|469:179,1,80,8|0,0:0|0:0,0:0:0:0:
174,78,91299,6,0,B|195:60|217:70|217:70|230:90|249:90,1,80,2|8,0:0|0:1,0:0:0:0:
480,5,91665,102,0,P|423:14|381:119,1,143.999995605469,10|0,0:1|0:0,0:0:0:0:
335,222,92031,2,0,P|368:201|329:216,1,120,2|0,0:3|0:0,0:0:0:0:
331,217,92397,1,10,0:0:0:0:
464,101,92763,5,2,0:0:0:0:
247,16,93129,102,0,P|230:52|242:89,1,80,8|0,0:1|0:0,0:0:0:0:
257,205,93494,2,0,P|289:153|361:154,1,120,2|0,0:0|0:0,0:0:0:0:
364,160,93860,2,0,B|393:182|387:239|335:252|335:252|339:231|363:226,1,160,8|2,0:0|0:0,0:0:0:0:
453,224,94409,1,10,0:1:0:0:
370,372,94592,6,0,P|388:338|466:306,1,120,8|0,0:1|0:0,0:0:0:0:
476,310,94958,2,0,P|448:345|417:337,1,80,10|0,0:1|0:0,0:0:0:0:
287,220,95324,2,0,B|288:170|324:149|324:149|321:173|304:182,1,120,8|0,0:0|0:0,0:0:0:0:
260,283,95690,2,0,B|264:314|286:321|286:321|289:301|277:291,1,80,2|0,0:0|0:0,0:0:0:0:
167,126,96055,102,0,P|97:119|69:145,1,80,8|0,0:1|0:0,0:0:0:0:
63,282,96421,2,0,P|35:253|28:214,1,80,2|0,0:0|0:0,0:0:0:0:
199,332,96787,2,0,P|168:356|129:360,1,80,8|0,0:0|0:0,0:0:0:0:
167,126,97153,1,2,0:0:0:0:
260,283,97336,1,2,0:0:0:0:
298,56,97519,86,0,B|315:2|385:0|413:24|413:24|393:43|369:35,1,180.000006866455,4|0,0:0|0:0,0:0:0:0:
368,35,98251,1,2,0:0:0:0:
424,132,98433,1,0,0:0:0:0:
424,132,98982,6,0,L|543:118,2,103.999995239258,4|0|8,0:0|0:0|0:0,0:0:0:0:
297,240,100080,1,2,0:0:0:0:
291,231,100263,1,8,0:1:0:0:
285,222,100445,2,0,L|157:211,1,102.000001945496,8|0,0:1|0:0,0:0:0:0:
171,223,100811,2,0,P|144:207|154:170,1,60,2|0,0:3|0:0,0:0:0:0:
154,173,101177,101,8,0:0:0:0:
254,291,101360,1,8,0:0:0:0:
24,368,101543,1,0,3:0:0:0:
24,368,101909,54,0,P|7:325|77:289,1,120,12|0,0:1|0:0,0:0:0:0:
121,341,102275,2,0,P|127:357|90:354,1,64,2|0,0:0|0:0,0:0:0:0:
82,186,102641,2,0,B|136:177|167:223|155:255|155:255|132:242|134:221,1,160,8|2,0:0|0:0,0:0:0:0:
156,130,103189,1,10,0:1:0:0:
274,314,103372,2,0,P|306:278|254:217,1,120,8|0,0:1|0:0,0:0:0:0:
259,213,103738,2,0,P|289:242|330:216,1,80,2|0,0:0|0:0,0:0:0:0:
432,47,104104,2,0,P|366:50|277:93,1,160,8|2,0:0|0:0,0:0:0:0:
474,372,104836,6,0,P|474:303|423:355,2,160,8|2|8,0:1|0:0|0:0,0:0:0:0:
474,372,105933,1,2,0:0:0:0:
296,262,106116,1,8,0:1:0:0:
342,328,106299,2,0,P|390:307|382:269,1,80,8|0,0:1|0:0,0:0:0:0:
508,132,106665,2,0,P|485:169|398:195,1,120,2|0,0:3|0:0,0:0:0:0:
400,191,107031,2,0,P|411:154|449:148,1,80,8|0,0:0|0:0,0:0:0:0:
283,25,107397,2,0,B|254:27|238:59|238:59|249:96|217:134,1,120,2|0,0:0|0:0,0:0:0:0:
169,78,107763,101,4,0:0:0:0:
503,2,108128,2,0,P|442:24|427:67,1,80,2|0,0:0|0:0,0:0:0:0:
437,189,108494,2,0,P|397:137|351:136,1,80,8|0,0:0|0:0,0:0:0:0:
238,184,108860,2,0,P|274:130|261:86,1,80,2|8,0:0|0:1,0:0:0:0:
213,21,109226,5,4,0:0:0:0:
190,268,109592,2,0,P|173:315|120:329,1,80,2|0,0:0|0:0,0:0:0:0:
117,248,109958,101,8,0:0:0:0:
304,300,110141,1,2,0:0:0:0:
109,245,110324,2,0,P|90:210|39:189,1,80,2|0,0:0|0:0,0:0:0:0:
0,376,110689,5,12,0:0:0:0:
319,212,111055,1,12,0:0:0:0:
319,212,111787,5,2,0:0:0:0:
327,190,111969,1,0,0:0:0:0:
344,175,112153,2,0,P|410:169|450:243,1,160,8|2,0:1|0:0,0:0:0:0:
302,373,113433,5,0,3:0:0:0:
302,373,113525,1,0,3:0:0:0:
302,373,113616,2,0,B|247:372|262:314|312:285|365:323,1,160,2|0,0:3|1:0,0:0:0:0:
377,338,114531,1,0,1:0:0:0:
389,352,114713,2,0,P|416:367|436:363,1,40
506,311,115079,102,0,L|485:161,1,143.999995605469,4|0,0:0|0:0,0:0:0:0:
504,99,115811,1,0,1:0:0:0:
507,103,116177,2,0,P|484:76|460:70,1,47.9999985351563,2|0,0:0|3:0,0:0:0:0:
380,10,116543,6,0,P|369:39|309:57,2,95.9999970703126,8|2|0,0:1|0:0|1:0,0:0:0:0:
277,166,117640,2,0,P|269:133|278:114,1,47.9999985351563,2|0,0:0|0:0,0:0:0:0:
248,227,118006,102,0,P|214:224|198:209,1,47.9999985351563,8|0,0:1|0:0,0:0:0:0:
355,240,118372,2,0,P|380:261|384:282,1,47.9999985351563,2|0,0:0|0:0,0:0:0:0:
277,166,118738,1,0,1:0:0:0:
281,318,119104,2,0,P|270:358|229:359,1,71.9999978027344,2|0,0:0|0:0,0:0:0:0:
225,360,119470,6,0,P|184:314|145:319,1,95.9999970703126,8|0,0:1|0:0,0:0:0:0:
45,320,120018,1,2,0:0:0:0:
48,324,120201,2,0,P|52:356|72:369,1,47.9999985351563,0|0,1:0|0:0,0:0:0:0:
46,239,120567,2,0,P|16:226|-4:237,1,47.9999985351563,2|0,0:0|0:0,0:0:0:0:
121,281,120933,102,0,B|190:272|139:250|202:240,1,95.9999970703126,8|0,0:1|0:0,0:0:0:0:
2,231,121665,1,0,1:0:0:0:
220,138,122031,1,2,0:0:0:0:
213,130,122213,1,0,3:0:0:0:
206,122,122396,6,0,P|182:137|174:183,1,71.9999978027344,0|0,0:1|0:0,0:0:0:0:
179,188,122762,2,0,P|197:152|169:88,1,95.9999970703126,2|0,0:0|1:0,0:0:0:0:
23,36,123494,2,0,B|7:31|6:20|6:20|18:17|29:25,1,47.9999985351563,2|0,0:0|0:0,0:0:0:0:
82,70,123860,102,0,P|100:106|84:153,1,71.9999978027344,8|0,0:1|0:0,0:0:0:0:
79,158,124226,2,0,P|34:170|-3:144,1,95.9999970703126,2|0,0:0|1:0,0:0:0:0:
167,313,124957,1,2,0:0:0:0:
229,363,125140,1,0,3:0:0:0:
162,319,125323,6,0,P|196:287|239:282,1,71.9999978027344,8|0,0:1|0:0,0:0:0:0:
238,282,125689,2,0,P|268:310|286:304,1,47.9999985351563,8|0,0:1|0:0,0:0:0:0:
448,200,126055,1,0,1:0:0:0:
392,171,126238,1,0,3:0:0:0:
354,223,126421,2,0,P|362:254|388:274,1,47.9999985351563,0|0,3:0|0:0,0:0:0:0:
511,121,126787,102,0,B|521:41|435:81|445:2,1,143.999995605469,4|0,0:0|0:0,0:0:0:0:
451,0,127518,1,0,1:0:0:0:
352,146,127884,2,0,P|309:152|288:143,1,47.9999985351563,2|8,0:0|0:1,0:0:0:0:
239,125,128250,2,0,P|215:100|201:39,1,95.9999970703126,8|0,0:1|0:0,0:0:0:0:
246,197,128982,1,0,1:0:0:0:
200,41,129348,2,0,P|219:62|224:86,1,47.9999985351563,0|0,3:0|3:0,0:0:0:0:
113,131,129713,6,0,P|95:101|98:65,1,71.9999978027344,8|0,0:1|0:0,0:0:0:0:
98,65,130079,2,0,P|99:90|63:118,1,71.9999978027344,2|0,0:0|0:0,0:0:0:0:
0,138,130445,2,0,B|-10:107|6:83|6:83|-14:96|-7:127,1,95.9999970703126,0|0,1:0|3:0,0:0:0:0:
52,223,130994,1,8,0:1:0:0:
56,226,131177,2,0,L|158:207,1,95.9999970703126,8|0,0:1|0:0,0:0:0:0:
153,212,131726,1,2,0:0:0:0:
81,149,131909,2,0,L|142:137,1,47.9999985351563,0|0,1:0|0:0,0:0:0:0:
21,262,132274,2,0,L|82:250,1,47.9999985351563,2|0,0:0|3:0,0:0:0:0:
244,288,132640,102,0,P|249:331|214:356,1,90.0000034332277,4|0,0:0|0:0,0:0:0:0:
192,363,133006,2,0,P|238:344|322:357,1,120.000004577637,8|0,0:1|1:0,0:0:0:0:
473,146,133738,5,8,0:1:0:0:
407,133,133921,1,0,3:0:0:0:
361,182,134105,2,0,P|374:238|427:263,1,120.000004577637,2|0,0:0|3:0,0:0:0:0:
210,186,134835,2,0,B|187:194|184:227|201:241|201:241|203:210|226:191,1,120.000004577637,0|0,1:0|0:0,0:0:0:0:
251,114,135384,1,2,0:0:0:0:
276,244,135567,102,0,P|296:221|285:157,1,90.0000034332277,4|0,0:0|0:0,0:0:0:0:
282,156,135933,2,0,P|256:141|250:112,1,60.0000022888184,2|0,0:0|3:0,0:0:0:0:
306,45,136299,2,0,P|334:40|357:57,1,60.0000022888184,0|0,1:0|0:0,0:0:0:0:
497,235,136665,1,4,0:0:0:0:
507,211,136848,1,0,3:0:0:0:
492,190,137031,2,0,B|429:182|455:244|387:238,1,120.000004577637,8|8,0:1|0:1,0:0:0:0:
287,34,137762,5,0,1:0:0:0:
306,45,137945,1,0,1:0:0:0:
304,67,138128,1,0,3:0:0:0:
278,71,138311,1,0,3:0:0:0:
270,51,138494,6,0,P|317:59|408:59,1,136.000002593994,10|0,0:1|0:0,0:0:0:0:
512,10,139043,2,0,P|486:11|472:41,1,60.0000022888184,2|0,0:0|1:0,0:0:0:0:
472,38,139592,2,0,P|498:39|512:69,1,60.0000022888184,2|0,0:0|3:0,0:0:0:0:
352,142,139957,6,0,P|323:98|383:65,2,136.000002593994,0|0|0,0:0|0:0|1:0,0:0:0:0:
423,190,140872,1,0,0:0:0:0:
379,257,141055,2,0,P|351:242|314:247,1,60.0000022888184
127,188,141421,102,0,P|145:244|121:298,1,120.000004577637,8|0,0:1|0:0,0:0:0:0:
161,361,141970,2,0,B|172:377|186:373|186:373|186:360|170:349,1,60.0000022888184,0|0,0:0|1:0,0:0:0:0:
51,275,142335,2,0,B|-6:273|-22:311|-22:311|-5:316|11:304,1,120.000004577637,2|8,0:0|0:1,0:0:0:0:
60,272,142884,6,0,P|45:232|8:234,1,60.0000022888184,8|0,0:1|0:0,0:0:0:0:
32,227,143250,2,0,P|75:291|124:326,1,120.000004577637,2|0,0:0|1:0,0:0:0:0:
90,100,143982,2,0,P|112:59|155:78,1,102.000001945496,2|0,0:0|0:0,0:0:0:0:
159,88,144348,102,0,P|155:137|74:170,1,120.000004577637,8|0,0:1|0:0,0:0:0:0:
354,59,145079,2,0,B|370:65|370:65|378:44|356:-3|306:6,1,120.000004577637,0|2,1:0|0:0,0:0:0:0:
228,101,145628,2,0,P|257:103|279:73,1,60.0000022888184,0|8,3:0|0:1,0:0:0:0:
430,374,146177,6,0,P|451:338|445:297,1,60.0000022888184
372,254,146543,2,0,L|441:240,1,60.0000022888184,0|0,1:0|0:0,0:0:0:0:
288,213,146909,101,2,0:0:0:0:
351,338,147092,1,0,0:0:0:0:
393,200,147274,2,0,P|372:236|378:277,1,60.0000022888184,8|0,0:1|0:0,0:0:0:0:
472,179,147640,1,2,0:0:0:0:
475,183,147823,2,0,P|475:141|449:108,1,60.0000022888184,2|0,0:0|1:0,0:0:0:0:
304,26,148189,6,0,P|320:79|408:72,1,136.000002593994,2|0,0:0|0:0,0:0:0:0:
486,29,148738,2,0,B|494:25|493:17|493:17|463:17|460:59,1,68.0000012969971,0|0,3:0|0:0,0:0:0:0:
316,208,149104,2,0,B|297:224|297:224|247:208,1,68.0000012969971,8|0,0:1|0:0,0:0:0:0:
76,30,149470,101,0,1:0:0:0:
23,82,149653,1,0,1:0:0:0:
55,148,149835,1,0,3:0:0:0:
129,138,150018,1,0,3:0:0:0:
144,67,150201,6,0,B|132:38|104:39|104:39|109:54|128:58,1,77.9999964294435,10|0,0:1|0:0,0:0:0:0:
144,67,150567,1,0,0:0:0:0:
229,70,150750,1,2,0:0:0:0:
204,242,150933,1,0,1:0:0:0:
202,251,151116,2,0,P|188:211|239:245,1,136.000002593994,2|0,0:0|3:0,0:0:0:0:
198,332,151665,102,0,P|124:297|64:298,2,120.000004577637,8|0|0,0:1|0:0|1:0,0:0:0:0:
208,353,152579,1,2,0:0:0:0:
232,350,152762,1,0,3:0:0:0:
237,328,152945,1,2,0:0:0:0:
215,316,153128,6,0,B|177:306|149:334|160:341|136:371|93:356,1,136.000002593994,8|0,0:1|0:0,0:0:0:0:
49,269,153677,1,0,0:0:0:0:
0,319,153860,2,0,P|-19:256|32:203,1,136.000002593994,0|2,1:0|0:0,0:0:0:0:
6,324,154409,1,8,0:1:0:0:
21,206,154592,2,0,P|54:199|86:210,1,68.0000012969971,8|0,0:1|0:0,0:0:0:0:
195,286,154957,2,0,P|164:271|144:244,1,60.0000022888184,2|0,0:0|0:0,0:0:0:0:
267,116,155323,101,0,1:0:0:0:
369,185,155506,1,0,0:0:0:0:
451,98,155689,2,0,B|459:87|452:73|452:73|436:88|441:111,1,60.0000022888184
372,302,156055,6,0,P|423:328|468:314,1,102.000001945496,8|0,0:1|0:0,0:0:0:0:
485,235,156421,2,0,P|452:235|425:255,1,68.0000012969971,2|0,0:0|0:0,0:0:0:0:
376,370,156787,2,0,P|380:318|302:266,1,136.000002593994,0|0,1:0|0:0,0:0:0:0:
241,319,157335,1,0,3:0:0:0:
244,323,157518,102,0,P|252:371|278:394,1,68.0000012969971,8|0,0:1|0:0,0:0:0:0:
184,238,157884,2,0,P|192:189|218:166,1,68.0000012969971,2|0,0:0|0:0,0:0:0:0:
98,341,158250,2,0,B|65:375|18:363|18:363|36:333,1,102.000001945496,0|0,1:0|0:0,0:0:0:0:
112,330,158616,2,0,P|149:334|166:367,1,68.0000012969971,0|0,3:0|0:0,0:0:0:0:
43,220,158982,6,0,B|24:160|76:193|63:119,1,102.000001945496,8|0,0:1|0:0,0:0:0:0:
55,108,159348,1,0,3:0:0:0:
49,236,159531,1,2,0:0:0:0:
165,34,159713,2,0,P|126:39|110:67,1,68.0000012969971,0|0,1:0|0:0,0:0:0:0:
249,215,160079,101,8,0:1:0:0:
303,252,160262,1,0,3:0:0:0:
360,221,160445,2,0,P|405:217|435:236,1,68.0000012969971,0|0,3:0|0:0,0:0:0:0:
424,227,160811,2,0,P|362:201|307:132,1,136.000002593994,2|0,0:0|1:0,0:0:0:0:
221,331,161360,1,0,0:0:0:0:
358,374,161543,2,0,P|344:343|321:318,1,68.0000012969971,2|0,0:0|0:0,0:0:0:0:
182,235,161909,6,0,B|134:233|105:269|100:305|100:305|121:300|134:280,1,160,4|0,0:0|0:0,0:0:0:0:
243,174,162457,2,0,P|218:124|140:143,1,120,4|0,0:0|0:0,0:0:0:0:
144,139,162823,2,0,P|119:144|90:92,1,80,2|0,0:0|1:0,0:0:0:0:
51,24,163189,1,0,3:0:0:0:
13,174,163372,2,0,P|18:87|73:-1,2,160,10|8|0,0:1|0:1|1:0,0:0:0:0:
16,178,164287,1,2,0:0:0:0:
19,182,164470,1,0,0:0:0:0:
304,36,164835,6,0,P|351:5|430:55,1,132.00000402832,12|0,0:1|0:0,0:0:0:0:
503,92,165201,2,0,B|512:95|524:84|524:84|506:72|476:78|460:104,1,88.000002685547,2|0,0:0|0:0,0:0:0:0:
293,267,165567,2,0,P|243:232|295:131,1,176.000005371094,8|2,0:0|0:0,0:0:0:0:
363,76,166116,1,10,0:1:0:0:
296,256,166299,6,0,P|346:241|390:318,1,132.00000402832,8|0,0:1|0:0,0:0:0:0:
451,351,166665,2,0,B|452:365|464:372|464:372|449:339|463:302,1,88.000002685547,2|0,0:0|0:0,0:0:0:0:
489,98,167031,1,8,0:0:0:0:
404,226,167213,2,0,B|377:270|324:276|295:255|295:255|301:228|326:216,1,176.000005371094,2|0,0:0|0:0,0:0:0:0:
476,190,167762,101,8,0:1:0:0:
387,19,167945,1,2,0:0:0:0:
252,163,168128,2,0,P|210:133|206:69,1,88.000002685547,2|0,0:0|0:0,0:0:0:0:
387,19,168494,2,0,P|430:54|368:106,1,132.00000402832,8|0,0:0|0:0,0:0:0:0:
378,119,168860,2,0,B|352:106|345:88|345:88|336:71|312:63,1,88.000002685547,2|10,0:0|0:1,0:0:0:0:
181,269,169226,6,0,B|99:287|150:324|74:340,1,132.00000402832,8|0,0:1|0:0,0:0:0:0:
5,263,169592,2,0,P|22:223|21:273,1,132.00000402832,2|0,0:3|0:0,0:0:0:0:
12,269,169958,1,10,0:2:0:0:
278,142,170323,101,2,0:0:0:0:
176,30,170689,5,8,0:1:0:0:
283,146,170872,2,0,B|328:137|330:79|252:48|212:112,1,176.000005371094,2|0,0:0|0:0,0:0:0:0:
86,235,171421,2,0,B|25:243|6:189|6:189|24:153,1,132.00000402832,8|0,0:0|0:0,0:0:0:0:
19,161,171787,1,2,0:0:0:0:
50,325,171970,1,10,0:1:0:0:
175,218,172153,102,0,P|222:217|270:267,1,88.000002685547,8|0,0:1|0:0,0:0:0:0:
395,359,172518,2,0,B|407:375|407:375|457:337|512:360,1,132.00000402832,2|0,0:0|0:0,0:0:0:0:
512,360,172884,1,8,0:0:0:0:
363,258,173067,2,0,B|316:238|275:266|264:297|264:297|283:324|312:316,1,176.000005371094,2|0,0:0|0:0,0:0:0:0:
507,274,173616,6,0,B|510:252|510:252|448:216,1,88.000002685547,10|0,0:1|0:0,0:0:0:0:
240,109,173982,2,0,B|195:118|199:172|271:198|311:136,1,167.999994873047,2|0,0:0|0:0,0:0:0:0:
287,41,174348,2,0,P|242:25|182:49,1,88.000002685547,8|0,0:0|0:0,0:0:0:0:
189,229,174713,101,2,0:0:0:0:
294,38,174896,1,10,0:1:0:0:
64,101,175079,2,0,B|36:80|0:88|0:88|14:58|58:65,1,132.00000402832,8|0,0:1|0:0,0:0:0:0:
138,115,175445,2,0,P|113:159|50:171,1,88.000002685547,2|0,0:3|0:0,0:0:0:0:
54,64,175811,5,12,0:0:0:0:
299,204,175994,1,8,0:0:0:0:
55,346,176177,1,2,0:0:0:0:
55,346,176543,101,12,0:1:0:0:
28,281,176726,1,2,0:0:0:0:
129,364,176909,2,0,P|172:352|173:286,1,88.000002685547,2|0,0:0|0:0,0:0:0:0:
110,138,177274,2,0,P|68:188|151:247,1,176.000005371094,8|2,0:0|0:0,0:0:0:0:
276,107,177823,1,10,0:1:0:0:
128,136,178006,6,0,P|70:116|64:34,1,132.00000402832,8|0,0:1|0:0,0:0:0:0:
71,31,178372,2,0,P|106:24|122:66,1,88.000002685547,2|0,0:0|0:0,0:0:0:0:
18,242,178738,1,8,0:0:0:0:
196,212,178921,2,0,P|108:214|26:245,1,176.000005371094,2|0,0:0|0:0,0:0:0:0:
317,353,179470,102,0,B|341:377|377:338|342:271|280:278,1,132.00000402832,8|0,0:1|0:0,0:0:0:0:
197,300,179836,6,0,P|205:341|251:345,1,88.000002685547,2|0,0:0|0:0,0:0:0:0:
512,303,180201,102,0,P|491:269|482:212,1,88.000002685547,8|0,0:0|0:0,0:0:0:0:
205,91,180567,6,0,B|239:118|239:118|312:95,1,88.000002685547,2|0,0:0|0:0,0:0:0:0:
491,0,180933,102,0,P|403:51|399:123,1,155.999992858887,10|0,0:1|0:0,0:0:0:0:
385,240,181299,2,0,P|420:213|371:225,1,132.00000402832,2|0,0:3|0:0,0:0:0:0:
377,234,181665,1,10,0:2:0:0:
490,98,182031,5,2,0:0:0:0:
351,319,182396,101,8,0:1:0:0:
273,351,182579,1,0,0:0:0:0:
424,320,182762,2,0,P|431:357|371:367,1,88.000002685547,2|0,0:0|0:0,0:0:0:0:
245,280,183128,2,0,P|235:223|125:255,1,176.000005371094,8|2,0:0|0:0,0:0:0:0:
70,352,183677,2,0,P|74:369|104:369,1,44.0000013427735,10|0,0:1|0:0,0:0:0:0:
113,301,183860,6,0,P|40:285|5:360,1,132.00000402832,8|0,0:1|0:0,0:0:0:0:
7,336,184226,2,0,P|18:263|-8:233,1,88.000002685547,2|0,0:0|0:0,0:0:0:0:
64,88,184592,2,0,B|80:35|125:18|163:34|163:34|148:67|107:60,1,176.000005371094,8|2,0:0|0:0,0:0:0:0:
5,16,185140,1,0,0:0:0:0:
56,182,185323,102,0,B|64:235|123:245|123:245|122:224|108:213,1,132.00000402832,8|0,0:1|0:0,0:0:0:0:
42,175,185689,2,0,P|3:201|1:265,1,88.000002685547,2|0,0:0|0:0,0:0:0:0:
205,73,186055,2,0,P|163:50|107:80,1,88.000002685547,10|0,0:0|0:0,0:0:0:0:
272,191,186421,5,2,0:0:0:0:
466,53,186604,1,2,0:0:0:0:
176,188,186787,102,0,L|57:182,1,120,4|0,0:0|0:0,0:0:0:0:
56,198,187518,5,10,0:0:0:0:
102,248,187610,1,2,0:0:0:0:
172,231,187701,1,2,0:0:0:0:
200,172,187793,1,2,0:0:0:0:
246,125,187884,1,0,3:0:0:0:
296,124,187976,1,0,3:0:0:0:
336,152,188067,1,0,3:0:0:0:
344,178,188159,1,0,3:0:0:0:
345,194,188250,6,0,B|345:245|297:260|297:260|305:240|329:232,1,132.00000402832,12|0,0:1|0:0,0:0:0:0:
431,293,188616,2,0,B|448:307|468:301|468:301|456:280|431:278,1,80,8|0,0:3|0:0,0:0:0:0:
214,377,188982,2,0,B|310:386|259:318|354:322,1,160,8|8,0:0|0:3,0:0:0:0:
425,371,189531,1,0,0:3:0:0:
477,167,189713,6,0,P|427:149|391:219,1,120,8|0,0:1|0:0,0:0:0:0:
392,205,190079,2,0,P|421:185|413:134,1,80,8|0,0:3|0:0,0:0:0:0:
362,27,190445,1,8,0:0:0:0:
419,143,190628,2,0,P|366:119|348:64,1,120,2|0,0:0|0:0,0:0:0:0:
362,27,190994,101,0,3:0:0:0:
395,5,191085,1,0,3:0:0:0:
435,3,191177,2,0,P|469:21|488:56,1,80,10|0,0:1|0:0,0:0:0:0:
420,143,191543,2,0,P|421:182|400:215,1,80,8|0,0:3|2:0,2:2:0:0:
78,199,191909,2,0,P|96:164|131:145,1,80,8|0,0:0|0:0,0:0:0:0:
234,108,192274,1,8,0:3:0:0:
237,112,192457,1,8,0:1:0:0:
192,193,192640,5,0,3:0:0:0:
165,41,192823,1,2,0:0:0:0:
319,106,193006,2,0,B|339:147|395:130|395:130|385:98|412:67,1,143.999995605469,10|0,0:3|0:0,0:0:0:0:
512,57,193372,2,0,B|521:67|521:67|527:112|482:136,1,80,8|0,0:0|0:0,0:0:0:0:
274,272,193738,2,0,P|219:275|135:287,1,120,8|0,0:3|0:0,0:0:0:0:
154,283,194104,101,4,0:2:0:0:
190,188,194287,1,2,0:0:0:0:
159,384,194470,5,8,0:3:0:0:
255,371,194653,2,0,P|260:331|199:324,1,80,0|8,0:0|0:0,0:0:0:0:
0,212,195018,2,0,P|13:268|66:291,1,120,2|0,0:0|0:0,0:0:0:0:
84,288,195384,1,8,0:1:0:0:
158,139,195567,102,0,P|196:86|256:124,1,120,10|0,0:1|0:0,0:0:0:0:
289,180,195933,2,0,B|291:193|283:202|283:202|266:173|285:147,1,80,8|0,0:3|0:0,0:0:0:0:
512,2,196299,2,0,P|488:93|387:95,1,191.999994140625,10|8,0:0|0:3,0:0:0:0:
158,139,196848,5,0,3:0:0:0:
165,148,196939,1,0,3:0:0:0:
172,157,197031,2,0,P|242:131|349:128,1,143.999995605469,12|0,0:1|0:0,0:0:0:0:
367,200,197396,2,0,B|367:212|393:219|393:219|367:188|367:159,1,95.9999970703126,8|0,0:3|0:0,0:0:0:0:
312,16,197762,102,0,P|244:4|223:72,1,143.999995605469,8|0,0:0|0:0,0:0:0:0:
264,116,198128,2,0,B|280:146|280:146|242:227,1,95.9999970703126,8|8,0:3|0:1,0:0:0:0:
19,364,198494,6,0,P|25:276|110:302,1,167.999994873047,10|0,0:1|0:0,0:0:0:0:
141,350,198860,2,0,B|141:362|115:369|115:369|141:338|141:309,1,95.9999970703126,8|0,0:3|0:0,0:0:0:0:
102,110,199226,1,10,0:0:0:0:
141,350,199409,102,0,P|168:296|131:171,1,191.999994140625,4|0,0:0|0:0,0:0:0:0:
29,101,199957,5,12,0:1:0:0:
99,118,200323,1,8,0:3:0:0:
168,97,200689,1,8,0:0:0:0:
234,127,201055,1,8,0:3:0:0:
240,132,201238,1,8,0:1:0:0:
308,79,201421,101,8,3:1:0:0:
139,27,201604,1,2,0:0:0:0:
220,210,201787,2,0,B|232:218|232:218|253:195|291:193,1,80,2|0,0:3|0:0,0:0:0:0:
365,201,202153,5,10,0:0:0:0:
166,342,202335,2,0,B|154:350|152:367|152:367|163:355|165:275|100:254,1,160,2|0,0:0|0:0,0:0:0:0:
18,366,202884,37,4,0:0:0:0:
79,329,203616,1,0,1:0:0:0:
102,260,204165,1,2,0:0:0:0:
99,256,204348,1,8,0:1:0:0:
78,191,204713,1,2,0:3:0:0:
17,143,205079,2,0,L|7:103,2,32,8|0|0,0:0|3:0|0:0,0:0:0:0:
20,147,205811,5,10,0:1:0:0:
439,290,216055,70,0,B|398:301|382:338|391:365|391:365|407:360|413:341,1,120,2|0,0:0|0:0,0:0:0:0:
455,285,216421,2,0,P|447:247|392:246,1,80,2|0,0:0|0:0,0:0:0:0:
311,107,216787,1,2,1:2:0:0:
296,169,216970,1,2,0:0:0:0:
281,231,217153,1,0,0:0:0:0:
284,235,217518,53,12,0:1:0:0:
311,107,217701,1,0,0:0:0:0:
209,263,217884,2,0,P|174:264|132:208,1,95.9999970703126,2|0,0:0|0:0,0:0:0:0:
83,22,218250,2,0,P|117:85|32:147,1,191.999994140625,8|2,0:0|0:0,0:0:0:0:
167,10,218799,1,10,0:1:0:0:
23,142,218982,6,0,B|-3:176|13:211|42:197|61:235|31:278,1,143.999995605469,8|0,0:1|0:0,0:0:0:0:
19,366,219348,2,0,B|12:378|-3:375|-3:375|6:339|55:338,1,95.9999970703126,10|0,0:1|0:0,0:0:0:0:
275,308,219713,1,8,0:0:0:0:
133,159,219896,2,0,P|147:245|234:237,1,191.999994140625,2|0,0:0|0:0,0:0:0:0:
255,43,220445,102,0,B|240:28|240:28|275:126,1,95.9999970703126,8|0,0:1|0:0,0:0:0:0:
369,323,220811,6,0,B|385:294|385:294|358:221,1,95.9999970703126,2|0,0:0|0:0,0:0:0:0:
106,189,221177,102,0,B|48:206|91:227|34:249,1,95.9999970703126,8|0,0:0|0:0,0:0:0:0:
347,22,221543,6,0,P|384:18|482:91,1,143.999995605469,2|0,0:0|0:0,0:0:0:0:
512,137,221909,102,0,P|474:179|438:159,1,95.9999970703126,10|0,0:1|0:0,0:0:0:0:
247,17,222274,6,0,P|282:44|233:28,1,143.999995605469,2|0,0:3|0:0,0:0:0:0:
239,23,222640,1,10,0:0:0:0:
379,122,223006,101,2,0:0:0:0:
148,265,223372,5,8,0:1:0:0:
119,331,223555,1,0,0:0:0:0:
181,196,223738,2,0,P|218:189|228:249,1,95.9999970703126,2|0,0:0|0:0,0:0:0:0:
119,331,224104,2,0,P|64:325|94:211,1,191.999994140625,8|2,0:0|0:0,0:0:0:0:
134,90,224653,2,0,P|130:123|164:130,1,47.9999985351563,2|0,0:0|0:0,0:0:0:0:
185,40,224835,102,0,P|131:16|60:75,1,143.999995605469,8|0,0:1|0:0,0:0:0:0:
27,153,225201,2,0,B|22:169|8:175|8:175|2:137|49:121,1,95.9999970703126,10|0,0:1|0:0,0:0:0:0:
185,40,225567,2,0,B|270:50|212:100|298:118,1,143.999995605469,8|0,0:0|0:0,0:0:0:0:
362,140,225933,2,0,B|370:123|363:100|363:100|392:121|374:163,1,95.9999970703126,2|0,0:0|0:0,0:0:0:0:
298,311,226299,6,0,B|256:350|208:329|208:329|218:308|251:308,1,143.999995605469,8|0,0:1|0:0,0:0:0:0:
368,275,226665,2,0,B|395:276|411:295|411:295|386:304|363:284,1,95.9999970703126,2|0,0:0|0:0,0:0:0:0:
271,171,227031,2,0,P|318:96|387:121,1,143.999995605469,8|0,0:0|0:0,0:0:0:0:
363,100,227396,101,2,0:0:0:0:
259,12,227579,1,2,0:0:0:0:
124,282,227762,6,0,B|67:289|36:226|46:191|46:191|72:201|74:226,1,180.000006866455,4|0,0:0|0:0,0:0:0:0:
75,227,228494,1,2,0:0:0:0:
26,313,228677,1,0,0:0:0:0:
26,313,229226,70,0,P|52:361|120:332,2,103.999995239258,4|0|8,0:0|0:0|0:0,0:0:0:0:
235,292,230323,1,2,0:0:0:0:
241,299,230506,1,8,0:1:0:0:
247,306,230689,2,0,L|359:292,1,102.000001945496,8|0,0:1|0:0,0:0:0:0:
360,300,231055,2,0,P|378:319|367:353,1,60,2|0,0:3|0:0,0:0:0:0:
370,349,231421,5,8,0:0:0:0:
307,149,231604,1,8,0:0:0:0:
512,244,231787,1,0,3:0:0:0:
512,244,232153,38,0,P|448:253|426:198,1,132.00000402832,12|0,0:1|0:0,0:0:0:0:
431,186,232518,2,0,B|435:167|414:150|399:153|399:153|416:167|419:185,1,88.000002685547,2|0,0:0|0:0,0:0:0:0:
338,366,232884,2,0,P|312:324|382:197,1,176.000005371094,8|2,0:0|0:0,0:0:0:0:
418,181,233433,1,10,0:1:0:0:
418,12,233616,2,0,P|472:43|472:106,1,132.00000402832,8|0,0:1|0:0,0:0:0:0:
463,112,233982,2,0,P|416:109|388:75,1,88.000002685547,2|0,0:0|0:0,0:0:0:0:
215,33,234348,2,0,B|180:7|126:27|123:70|123:70|132:102|109:124,1,176.000005371094,8|2,0:0|0:0,0:0:0:0:
42,363,235079,6,0,P|82:286|153:297,1,132.00000402832,8|0,0:1|0:0,0:0:0:0:
201,327,235445,2,0,P|188:353|186:317,1,88.000002685547,2|0,0:0|0:0,0:0:0:0:
236,145,235811,2,0,P|293:145|318:219,1,132.00000402832,8|0,0:0|0:0,0:0:0:0:
316,221,236177,1,2,0:0:0:0:
162,149,236360,1,8,0:1:0:0:
177,320,236543,102,0,P|172:247|89:243,1,132.00000402832,8|0,0:1|0:0,0:0:0:0:
45,240,236909,2,0,B|41:250|46:263|46:263|-3:240|10:170,1,132.00000402832,2|0,0:3|0:0,0:0:0:0:
9,170,237274,1,8,0:0:0:0:
242,33,237640,1,2,0:0:0:0:
171,54,237823,1,0,0:0:0:0:
328,134,238006,6,0,P|387:150|443:48,1,176.000005371094,4|2,0:0|0:0,0:0:0:0:
261,105,238555,2,0,P|255:152|307:205,1,88.000002685547,0|8,0:0|0:0,0:0:0:0:
357,329,238921,2,0,P|402:290|513:262,1,176.000005371094,2|8,0:0|0:1,0:0:0:0:
304,381,239470,102,0,P|285:343|304:285,1,88.000002685547,12|0,0:1|0:0,0:0:0:0:
395,156,239835,2,0,P|362:127|319:124,1,88.000002685547,2|0,0:0|0:0,0:0:0:0:
229,263,240201,1,10,0:0:0:0:
232,266,240384,2,0,B|247:218|297:216|297:216|317:259|292:299,1,176.000005371094,2|0,0:0|0:0,0:0:0:0:
63,202,240933,54,0,B|-6:162|18:85|18:85|20:110|36:140,1,176.000005371094,12|2,0:1|0:0,0:0:0:0:
13,361,241482,1,4,0:0:0:0:
217,229,242031,5,2,0:0:0:0:
196,219,242213,1,0,0:0:0:0:
174,221,242396,2,0,P|123:263|128:306,1,95.9999970703126,8|2,0:1|0:0,0:0:0:0:
153,22,243128,85,0,1:0:0:0:
197,81,243311,2,0,P|226:76|248:57,1,59.9999981689454,0|0,1:0|0:0,0:0:0:0:
255,45,243860,22,0,B|298:-11|373:30|372:102|321:133|286:124|282:121|276:120|234:87|177:151|195:252|277:236|280:236|283:235|500:276|151:103|370:143|541:151|508:291|431:361|431:361|424:278|335:370|262:112|429:113|434:114|459:167|540:39|472:12|472:12|484:30|483:47,1,1151.99996484375,4|0,1:2|0:0,0:0:0:0:
