osu file format v14

[General]
AudioFilename: audio.mp3
AudioLeadIn: 0
PreviewTime: 82484
Countdown: 0
SampleSet: Soft
StackLeniency: 0.7
Mode: 0
LetterboxInBreaks: 0
WidescreenStoryboard: 1

[Editor]
DistanceSpacing: 1
BeatDivisor: 6
GridSize: 8
TimelineZoom: 1.600002

[Metadata]
Title:Magenta Tear
TitleUnicode:Magenta Tear
Artist:Shimotsuki Haruka
ArtistUnicode:霜月はるか
Creator:Lasse
Version:Normal
Source:働くオトナの恋愛事情2
Tags:Hataraku Otona no Ren'ai Jijou 2 eroge visual novel opening short version Akabei Soft3 Mir
BeatmapID:1498827
BeatmapSetID:701258

[Difficulty]
HPDrainRate:3
CircleSize:3.2
OverallDifficulty:4
ApproachRate:5.5
SliderMultiplier:1.2
SliderTickRate:1

[Events]
//Background and Video events
0,0,"a.jpg",0,0
//Break Periods
//Storyboard Layer 0 (Background)
//Storyboard Layer 1 (Fail)
//Storyboard Layer 2 (Pass)
//Storyboard Layer 3 (Foreground)
//Storyboard Sound Samples

[TimingPoints]
1933,472.44094488189,4,2,22,40,1,0
9492,-125,4,2,22,40,0,0
15161,-125,4,2,22,40,0,0
15870,-125,4,2,22,20,0,0
16342,-100,4,2,22,40,0,0
17051,-90.9090909090909,4,2,22,50,0,0
29807,-90.9090909090909,4,2,22,50,0,0
34058,-111.111111111111,4,2,22,40,0,0
49177,-100,4,2,22,50,0,0
64295,-90.9090909090909,4,2,22,60,0,0
65240,-90.9090909090909,4,2,22,55,0,0
66184,-90.9090909090909,4,2,22,60,0,0
68074,-90.9090909090909,4,2,22,50,0,0
71854,-90.9090909090909,4,2,22,60,0,0
72799,-90.9090909090909,4,2,22,55,0,0
73744,-90.9090909090909,4,2,22,60,0,0
75633,-90.9090909090909,4,2,22,50,0,0
77523,-90.9090909090909,4,2,22,50,0,0
79413,-90.9090909090909,4,2,22,50,0,0
83192,-83.3333333333333,4,2,22,60,0,1
96421,-83.3333333333333,4,2,22,60,0,1
97602,-83.3333333333333,4,2,22,60,0,0
98310,-83.3333333333333,4,2,22,60,0,1
111539,-83.3333333333333,4,2,22,60,0,1
112720,-83.3333333333333,4,2,22,60,0,0
113350,-83.3333333333333,4,2,22,60,0,0
113429,-83.3333333333333,4,2,22,60,0,1
114846,-83.3333333333333,4,2,22,60,0,1
115318,-90.9090909090909,4,2,22,55,0,0
128074,-90.9090909090909,4,2,22,55,0,0
130436,-90.9090909090909,4,2,22,30,0,0
130909,-90.9090909090909,4,2,22,55,0,0

[Colours]
Combo1 : 255,150,220
Combo2 : 130,200,230
Combo3 : 170,170,255
Combo4 : 255,160,120

[HitObjects]
48,25,9492,6,0,L|57:135,1,96,12|8,0:3|0:3,0:0:0:0:
121,190,10436,2,0,P|164:203|222:179,1,96,8|8,0:3|0:3,0:0:0:0:
295,142,11381,2,0,P|339:127|385:140,1,96,8|8,0:3|0:3,0:0:0:0:
456,204,12326,2,0,L|463:299,1,96,8|8,0:3|0:3,0:0:0:0:
381,349,13271,5,12,0:3:0:0:
284,341,13744,1,8,0:3:0:0:
188,333,14216,1,8,0:3:0:0:
93,324,14688,1,8,0:0:0:0:
41,243,15161,6,0,B|16:199|54:153|54:153|13:117,1,144,14|2,0:3|0:0,0:0:0:0:
364,48,17051,6,0,B|403:63|446:47|446:47|479:52|511:81,1,132.00000402832,14|8,0:3|0:2,0:0:0:0:
510,127,17759,1,10,0:2:0:0:
477,255,18232,1,10,0:3:0:0:
382,163,18704,2,0,P|330:138|254:172,1,132.00000402832,10|8,0:3|0:3,0:0:0:0:
223,214,19413,2,0,P|152:244|58:109,1,264.000008056641,8|8,0:2|0:2,0:0:0:0:
174,59,20830,6,0,B|320:52,1,132.00000402832,14|8,0:3|0:2,0:0:0:0:
362,19,21539,1,10,0:3:0:0:
470,93,22011,1,10,0:3:0:0:
422,216,22484,2,0,B|409:262|409:262|421:297|421:297|410:344,1,132.00000402832,10|8,0:3|0:3,0:0:0:0:
347,363,23192,1,8,0:2:0:0:
222,319,23665,1,8,0:2:0:0:
98,366,24137,1,8,0:2:0:0:
32,251,24610,6,0,B|44:203|28:160|28:160|37:136|35:103,1,132.00000402832,14|12,0:3|0:2,0:0:0:0:
23,56,25318,1,2,0:2:0:0:
150,20,25791,1,10,0:3:0:0:
219,131,26263,2,0,L|225:269,1,132.00000402832,10|8,0:3|0:3,0:0:0:0:
259,319,26972,2,0,B|345:378|444:348|444:348|464:324|470:284,1,264.000008056641,8|10,0:2|0:2,0:0:0:0:
463,218,28153,1,10,0:3:0:0:
423,165,28389,6,0,B|387:151|333:171|333:171|312:168|280:149,1,132.00000402832,14|8,0:3|0:2,0:0:0:0:
244,115,29098,2,0,B|227:104|206:101|206:101|152:121|116:107,1,132.00000402832,10|8,0:2|0:3,0:0:0:0:
57,136,29807,1,2,0:2:0:0:
37,266,30279,1,14,0:3:0:0:
256,192,30436,12,0,32169,0:0:0:0:
32,61,34058,6,0,P|83:48|132:68,1,107.999996704102,14|8,0:3|0:0,0:0:0:0:
197,155,35003,1,10,0:3:0:0:
203,262,35476,1,8,0:0:0:0:
283,334,35948,2,0,P|334:346|383:326,1,107.999996704102,10|8,0:3|0:0,0:0:0:0:
420,286,36657,1,2,0:0:0:0:
444,237,36893,2,0,L|445:102,1,107.999996704102,10|8,0:3|0:0,0:0:0:0:
368,51,37838,6,0,P|325:32|252:44,2,107.999996704102,14|8|10,0:3|0:0|0:3,0:0:0:0:
444,129,39255,1,8,0:0:0:0:
376,213,39728,2,0,P|333:232|260:220,1,107.999996704102,10|8,0:3|0:0,0:0:0:0:
249,178,40436,2,0,P|213:125|100:127,1,161.999995056153,2|8,0:0|0:0,0:0:0:0:
45,192,41618,6,0,L|37:304,1,107.999996704102,14|8,0:3|0:0,0:0:0:0:
113,376,42563,1,10,0:3:0:0:
212,333,43036,1,8,0:0:0:0:
316,358,43508,2,0,L|428:356,1,107.999996704102,10|8,0:3|0:0,0:0:0:0:
470,328,44217,1,2,0:0:0:0:
494,278,44453,2,0,L|495:143,1,107.999996704102,10|8,0:3|0:0,0:0:0:0:
429,83,45398,6,0,B|394:78|368:58|368:58|348:57|319:74,2,107.999996704102,14|8|10,0:3|0:2|0:3,0:0:0:0:
494,170,46814,1,8,0:0:0:0:
428,255,47287,2,0,B|408:266|388:265|388:265|362:245|327:240,1,107.999996704102,10|8,0:3|0:2,0:0:0:0:
283,271,47996,2,0,P|229:311|132:273,1,161.999995056153,10|8,0:2|0:2,0:0:0:0:
64,196,49177,6,0,B|60:155|60:155|65:130|65:130|52:69,1,120,14|8,0:3|0:0,0:0:0:0:
160,22,50122,1,2,0:0:0:0:
253,97,50595,1,8,0:0:0:0:
364,52,51067,2,0,P|413:37|479:63,1,120,10|8,0:3|0:2,0:0:0:0:
496,116,51776,1,2,0:3:0:0:
467,168,52012,2,0,L|454:288,1,120,10|8,0:3|0:0,0:0:0:0:
351,350,52956,6,0,B|318:352|318:352|262:338|262:338|229:344,2,120,14|8|10,0:3|0:0|0:3,0:0:0:0:
454,287,54374,1,8,0:0:0:0:
380,192,54846,2,0,B|378:158|378:158|393:103|393:103|388:70,1,120,10|8,0:3|0:2,0:0:0:0:
338,41,55555,2,0,B|292:34|292:34|206:63|206:63|161:56,1,180,10|8,0:3|0:0,0:0:0:0:
50,97,56737,6,0,B|63:126|63:126|51:232,1,120,14|8,0:3|0:2,0:0:0:0:
73,332,57682,1,10,0:3:0:0:
192,339,58153,1,8,0:0:0:0:
221,223,58625,2,0,B|234:135|234:135|254:111,1,120,10|8,0:3|0:2,0:0:0:0:
303,76,59334,1,10,0:3:0:0:
357,101,59570,2,0,B|396:107|396:107|434:94|434:94|480:104,1,120,10|8,0:3|0:0,0:0:0:0:
502,219,60515,6,0,B|497:266|479:294|479:294|494:338,2,120,10|8|10,0:3|0:2|0:3,0:0:0:0:
473,102,61933,1,10,0:0:0:0:
362,56,62405,2,0,B|315:61|287:79|287:79|248:65,1,120,10|8,0:3|0:0,0:0:0:0:
190,47,63115,2,0,P|108:42|60:132,1,180,10|8,0:0|0:2,0:0:0:0:
165,194,64295,6,0,L|281:188,1,110.000003356934,14|14,0:0|0:2,0:0:0:0:
346,239,65003,1,12,0:0:0:0:
455,169,65476,2,0,P|482:125|449:50,1,132.00000402832,8|0,3:2|0:0,0:0:0:0:
389,52,66184,2,0,B|349:44|349:44|320:53|320:53|276:44,1,110.000003356934,14|14,0:0|0:2,0:0:0:0:
199,12,66893,1,14,0:0:0:0:
73,52,67366,2,0,P|44:98|54:154,1,110.000003356934,14|14,0:3|0:0,0:0:0:0:
135,181,68074,6,0,L|279:177,1,132.00000402832,14|10,0:3|0:3,0:0:0:0:
369,220,68940,2,0,P|383:260|374:303,1,88.000002685547,10|10,0:3|0:0,0:0:0:0:
327,349,69492,1,10,0:3:0:0:
200,312,69964,2,0,B|156:306|121:326|121:326|89:333|58:303,1,132.00000402832,10|8,0:3|0:3,0:0:0:0:
9,225,70830,2,0,L|0:138,1,88.000002685547,10|10,0:3|0:0,0:0:0:0:
17,73,71381,1,8,0:0:0:0:
146,46,71854,6,0,B|170:44|192:61|192:61|230:65|265:48,1,110.000003356934,14|12,0:0|0:2,0:0:0:0:
333,21,72562,1,12,0:0:0:0:
425,115,73035,2,0,B|430:165|408:205|408:205|419:226|420:251,1,132.00000402832,8|8,3:2|0:3,0:0:0:0:
401,304,73743,2,0,B|361:312|361:312|332:303|332:303|288:312,1,110.000003356934,14|14,0:0|0:2,0:0:0:0:
225,365,74452,1,14,0:0:0:0:
114,292,74925,2,0,B|97:264|97:264|88:226|115:182,1,110.000003356934,14|14,0:3|0:0,0:0:0:0:
166,121,75633,6,0,B|213:113|213:113|237:128|237:128|312:119,1,132.00000402832,14|8,0:3|0:3,0:0:0:0:
355,100,76342,1,10,0:0:0:0:
405,142,76578,2,0,B|428:181|428:181|417:278,1,132.00000402832,10|8,0:3|0:3,0:0:0:0:
312,347,77523,2,0,B|199:342,1,110.000003356934,6|14,0:2|0:2,0:0:0:0:
137,281,78232,2,0,B|126:244|126:244|132:210|132:210|120:174,1,110.000003356934,6|14,0:0|0:0,0:0:0:0:
52,119,78940,1,8,3:2:0:0:
128,11,79413,5,14,0:0:0:0:
252,218,80279,2,0,B|281:249|289:239|313:280|313:280|371:249|365:274|429:257,1,198.000006042481,14|14,0:0|0:0,0:0:0:0:
490,206,81303,2,0,B|491:170|502:153|502:153|495:134|495:134|505:114|499:64,1,132.00000402832,10|10,0:2|0:3,0:0:0:0:
450,34,82011,2,0,L|402:23,1,44.0000013427735,10|10,0:0|0:3,0:0:0:0:
280,309,83192,6,0,P|224:329|161:313,1,119.999996337891,12|10,2:3|0:3,0:0:0:0:
86,262,83901,1,10,0:2:0:0:
54,201,84137,2,0,B|53:82|53:82|92:42|141:62,1,215.999993408203,2|10,0:2|0:2,0:0:0:0:
187,115,85082,2,0,L|201:239,1,119.999996337891,10|10,0:3|0:3,0:0:0:0:
252,316,85791,1,10,0:2:0:0:
351,212,86263,2,0,L|360:138,2,71.9999978027344,10|10|10,0:2|0:3|0:2,0:0:0:0:
380,274,86972,6,0,P|436:294|497:267,1,119.999996337891,6|10,0:2|0:3,0:0:0:0:
508,178,87681,1,10,0:2:0:0:
499,109,87917,2,0,B|451:77|399:104|399:104|336:111|289:58,1,215.999993408203,2|10,0:0|0:2,0:0:0:0:
239,32,88862,2,0,L|113:24,1,119.999996337891,10|10,0:3|0:3,0:0:0:0:
37,74,89570,2,0,B|16:109|16:109|21:200,1,119.999996337891,10|12,0:2|0:2,0:0:0:0:
35,284,90279,1,12,0:0:0:0:
178,297,90751,6,0,B|317:276|317:276|385:319,1,215.999993408203,14|8,0:3|0:2,0:0:0:0:
430,369,91696,1,2,0:0:0:0:
489,264,92090,2,0,L|496:165,1,95.9999970703126,2|10,0:0|0:2,0:0:0:0:
476,101,92641,2,0,B|341:80|341:80|273:126,1,215.999993408203,10|8,0:3|0:2,0:0:0:0:
229,175,93586,1,2,0:0:0:0:
128,277,94058,1,10,0:3:0:0:
23,177,94531,6,0,L|32:45,1,119.999996337891,14|10,0:3|0:3,0:0:0:0:
117,13,95240,1,10,0:2:0:0:
167,61,95476,2,0,B|203:92|203:92|374:62,1,215.999993408203,2|10,0:0|0:2,0:0:0:0:
414,116,96421,2,0,L|408:247,1,119.999996337891,10|2,0:3|0:2,0:0:0:0:
374,325,97129,1,10,0:3:0:0:
270,225,97602,2,0,L|266:144,2,71.9999978027344,2|10|10,0:0|3:2|3:3,0:0:0:0:
243,288,98310,6,0,B|212:356|212:356|171:356|150:344,1,119.999996337891,12|10,2:3|0:3,0:0:0:0:
82,305,99019,1,10,0:2:0:0:
46,247,99255,2,0,B|62:196|45:128|45:128|47:69|97:40,1,215.999993408203,2|10,0:2|0:2,0:0:0:0:
156,58,100200,2,0,L|278:57,1,119.999996337891,10|10,0:3|0:3,0:0:0:0:
357,5,100909,1,10,0:2:0:0:
440,121,101381,2,0,L|521:128,2,71.9999978027344,10|10|10,0:2|0:3|0:2,0:0:0:0:
381,157,102090,6,0,B|363:177|361:205|361:205|374:241|363:277,1,119.999996337891,6|10,0:2|0:3,0:0:0:0:
298,341,102799,1,10,0:2:0:0:
239,304,103035,2,0,B|187:278|139:312|139:312|75:322|43:266,1,215.999993408203,2|10,0:0|0:2,0:0:0:0:
37,200,103980,2,0,L|53:74,1,119.999996337891,10|10,0:3|0:3,0:0:0:0:
141,44,104688,2,0,B|178:60|178:60|273:48,1,119.999996337891,10|12,0:2|0:2,0:0:0:0:
350,27,105397,1,12,0:0:0:0:
444,135,105869,6,0,B|466:206|430:274|430:274|391:266|361:223,1,215.999993408203,14|8,0:3|0:2,0:0:0:0:
326,182,106814,1,2,0:0:0:0:
249,89,107208,2,0,P|205:72|146:86,1,95.9999970703126,2|10,0:0|0:2,0:0:0:0:
107,127,107759,2,0,B|75:222|81:280|81:280|130:321,1,215.999993408203,10|8,0:3|0:2,0:0:0:0:
184,359,108704,1,2,0:0:0:0:
316,303,109176,1,10,0:3:0:0:
452,349,109649,6,0,B|474:328|474:328|479:226,1,119.999996337891,14|10,0:3|0:3,0:0:0:0:
444,148,110358,1,10,0:2:0:0:
383,183,110594,2,0,B|322:216|322:216|166:200,1,215.999993408203,2|10,0:0|0:2,0:0:0:0:
116,165,111539,2,0,L|110:34,1,119.999996337891,10|2,0:3|0:2,0:0:0:0:
201,13,112247,1,10,0:3:0:0:
342,40,112720,2,0,L|423:32,2,71.9999978027344,2|10|10,0:0|3:2|3:3,0:0:0:0:
287,83,113429,6,0,P|268:156|303:202,1,119.999996337891,14|14,0:2|0:0,0:0:0:0:
373,235,114137,2,0,P|392:308|357:354,1,119.999996337891,10|14,0:0|0:0,0:0:0:0:
279,372,114846,1,10,3:2:0:0:
167,301,115318,6,0,B|128:286|85:302|85:302|52:297|32:262,1,132.00000402832,14|8,0:3|0:2,0:0:0:0:
8,223,116026,1,10,0:2:0:0:
25,92,116499,1,10,0:3:0:0:
150,49,116972,2,0,B|191:44|228:71|228:71|262:74|290:46,1,132.00000402832,10|8,0:3|0:3,0:0:0:0:
332,27,117680,2,0,P|416:23|405:177,1,264.000008056641,8|8,0:2|0:2,0:0:0:0:
292,189,119097,6,0,B|146:182,1,132.00000402832,14|8,0:3|0:2,0:0:0:0:
93,180,119806,1,10,0:3:0:0:
8,280,120278,1,10,0:3:0:0:
111,361,120751,2,0,B|257:354,1,132.00000402832,10|8,0:3|0:3,0:0:0:0:
308,352,121459,1,8,0:2:0:0:
439,367,121932,1,8,0:2:0:0:
494,247,122404,1,8,0:2:0:0:
385,172,122877,6,0,B|343:163|343:163|296:178|296:178|237:169,1,132.00000402832,14|12,0:3|0:2,0:0:0:0:
198,203,123585,1,2,0:2:0:0:
97,117,124058,1,10,0:3:0:0:
190,24,124531,2,0,B|232:15|232:15|279:30|279:30|338:21,1,132.00000402832,10|8,0:3|0:3,0:0:0:0:
381,44,125240,2,0,B|405:96|373:171|373:171|375:236|411:225|404:311,1,264.000008056641,8|10,0:2|0:2,0:0:0:0:
377,358,126420,1,10,0:3:0:0:
311,350,126656,6,0,B|275:336|221:356|221:356|200:353|168:334,1,132.00000402832,14|8,0:3|0:2,0:0:0:0:
133,298,127366,2,0,L|124:160,1,132.00000402832,10|8,0:2|0:3,0:0:0:0:
88,110,128074,1,2,0:2:0:0:
177,13,128546,1,14,0:3:0:0:
256,192,128703,12,10,130436,0:3:0:0:
241,244,131381,6,0,B|245:208|245:208|266:177|266:177|269:141,1,110.000003356934,12|4,0:2|0:0,0:0:0:0:
