osu file format v14

[General]
AudioFilename: audio.mp3
AudioLeadIn: 0
PreviewTime: 82484
Countdown: 0
SampleSet: Soft
StackLeniency: 0.4
Mode: 0
LetterboxInBreaks: 0
WidescreenStoryboard: 1

[Editor]
Bookmarks: 9519,15188,17078,30306,34085,49204,64295,64322,68101,68180,71881,75660,79440,83219,97156,98337,115318,126684,131881
DistanceSpacing: 0.5
BeatDivisor: 4
GridSize: 32
TimelineZoom: 2.400002

[Metadata]
Title:Magenta Tear
TitleUnicode:Magenta Tear
Artist:Shimotsuki Haruka
ArtistUnicode:霜月はるか
Creator:Lasse
Version:Mir's Insane
Source:働くオトナの恋愛事情2
Tags:Hataraku Otona no Ren'ai Jijou 2 eroge visual novel opening short version Akabei Soft3 Mir
BeatmapID:1506427
BeatmapSetID:701258

[Difficulty]
HPDrainRate:5
CircleSize:4
OverallDifficulty:7
ApproachRate:9
SliderMultiplier:2.4
SliderTickRate:1

[Events]
//Background and Video events
0,0,"a.jpg",0,0
//Break Periods
//Storyboard Layer 0 (Background)
//Storyboard Layer 1 (Fail)
//Storyboard Layer 2 (Pass)
//Storyboard Layer 3 (Foreground)
//Storyboard Sound Samples

[TimingPoints]
1933,472.44094488189,4,2,22,35,1,0
9019,-100,4,2,22,40,0,0
15870,-100,4,2,22,20,0,0
16342,-100,4,2,22,40,0,0
17051,-83.3333333333333,4,2,22,50,0,0
33822,-83.3333333333333,4,2,22,30,0,0
34058,-100,4,2,22,40,0,0
49177,-90.9090909090909,4,2,22,50,0,0
64295,-66.6666666666667,4,2,22,60,0,0
65240,-66.6666666666667,4,2,22,55,0,0
66184,-66.6666666666667,4,2,22,60,0,0
68074,-66.6666666666667,4,2,22,50,0,0
71854,-66.6666666666667,4,2,22,60,0,0
72799,-66.6666666666667,4,2,22,55,0,0
73744,-66.6666666666667,4,2,22,60,0,0
75633,-66.6666666666667,4,2,22,50,0,0
79413,-100,4,2,22,50,0,0
83192,-66.6666666666667,4,2,22,60,0,1
98232,-66.6666666666667,4,2,22,60,0,0
98310,-66.6666666666667,4,2,22,60,0,1
115318,-83.3333333333333,4,2,22,55,0,0
130436,-83.3333333333333,4,2,22,30,0,0
130909,-83.3333333333333,4,2,22,55,0,0

[Colours]
Combo1 : 255,150,220
Combo2 : 130,200,230
Combo3 : 170,170,255
Combo4 : 255,160,120

[HitObjects]
283,142,1933,6,0,P|221:142|175:192,1,120,12|0,0:3|0:0,0:0:0:0:
102,214,2287,2,0,P|164:214|206:295,1,120,2|0,0:0|0:0,0:0:0:0:
201,351,2641,6,0,B|169:285|169:285|180:179,1,180,2|2,0:0|0:0,0:0:0:0:
192,37,3232,1,2,0:0:0:0:
207,62,3350,2,0,P|282:80|330:44,1,120,2|0,0:0|0:0,0:0:0:0:
384,7,3704,1,2,0:0:0:0:
316,60,3822,6,0,L|323:166,1,60,2|0,0:0|0:0,0:0:0:0:
407,124,4058,2,0,L|400:230,1,60,2|0,0:0|0:0,0:0:0:0:
267,192,4295,2,0,L|274:298,2,60,2|0|0,0:0|0:0|0:0,0:0:0:0:
191,136,4649,1,2,0:0:0:0:
143,210,4767,5,2,0:0:0:0:
118,192,4885,2,0,L|128:287,1,60,2|0,0:0|0:0,0:0:0:0:
75,117,5121,2,0,B|103:110|103:110|190:135,1,120,2|0,0:0|0:0,0:0:0:0:
190,135,5476,2,0,L|186:60,1,60,2|0,0:0|0:0,0:0:0:0:
75,117,5712,6,0,B|49:83|50:54|66:34|66:34|74:61|68:89,1,120,2|0,0:0|0:0,0:0:0:0:
118,192,6066,2,0,B|144:226|142:254|127:275|127:275|119:248|125:220,1,120,2|0,0:0|0:0,0:0:0:0:
190,134,6421,2,0,P|288:134|316:157,1,120,2|0,0:0|0:0,0:0:0:0:
235,236,6775,2,0,P|180:258|122:245,1,120,2|0,0:0|0:0,0:0:0:0:
26,221,7129,6,0,L|35:309,1,60,2|0,0:0|0:0,0:0:0:0:
33,281,7484,2,0,B|122:245|122:245|95:279,1,120,2|0,0:0|0:0,0:0:0:0:
113,323,7838,2,0,L|104:244,1,60,2|0,0:0|0:0,0:0:0:0:
200,359,8074,2,0,L|191:280,1,60,2|0,0:0|0:0,0:0:0:0:
270,248,8310,1,2,0:0:0:0:
270,248,8429,1,2,0:0:0:0:
349,288,8547,6,0,L|342:347,2,60,2|0|0,0:0|0:0|0:0,0:0:0:0:
363,156,8901,1,2,0:0:0:0:
345,131,9019,6,0,P|260:106|241:108,1,80,10|8,0:0|0:0,0:0:0:0:
270,106,9255,2,0,P|230:113|195:131,1,80,8|8,0:3|0:3,0:0:0:0:
186,149,9492,6,0,L|177:37,1,80,12|0,0:3|0:0,0:0:0:0:
44,37,9846,1,2,0:0:0:0:
58,62,9964,2,0,P|70:96|66:148,1,60,10|0,0:3|0:0,0:0:0:0:
72,153,10200,6,0,P|133:134|199:157,1,120,2|8,0:0|0:3,0:0:0:0:
184,248,10555,2,0,P|126:261|70:243,1,120,2|0,0:0|0:0,0:0:0:0:
0,193,10909,2,0,P|33:255|-3:306,1,120,10|0,0:3|0:0,0:0:0:0:
0,193,11263,6,0,P|68:157|135:182,1,120,2|0,0:0|0:0,0:0:0:0:
185,148,11618,2,0,L|201:74,1,60,2|0,0:0|0:0,0:0:0:0:
115,82,11854,2,0,L|99:8,2,60,10|0|0,0:3|0:0|0:0,0:0:0:0:
185,148,12208,1,2,0:0:0:0:
273,132,12326,1,10,0:3:0:0:
302,127,12444,1,2,0:0:0:0:
331,123,12562,1,2,0:0:0:0:
361,119,12681,6,0,L|351:225,1,60,2|8,0:0|0:3,0:0:0:0:
277,218,12917,2,0,L|292:370,1,120,2|0,0:0|0:0,0:0:0:0:
361,291,13271,6,0,B|399:260|436:270|436:270|438:291|413:298,1,120,14|0,0:3|0:0,0:0:0:0:
238,344,13625,2,0,B|213:337|214:316|214:316|251:306|289:337,1,120,2|0,0:0|0:0,0:0:0:0:
135,359,13980,2,0,P|137:268|170:234,1,120,2|8,0:0|0:3,0:0:0:0:
223,117,14334,2,0,P|249:169|240:227,1,120,2|0,0:0|0:0,0:0:0:0:
107,36,14688,6,0,L|212:37,1,80,10|8,0:0|0:0,0:0:0:0:
186,36,14925,2,0,L|291:37,1,80,8|8,0:3|0:3,0:0:0:0:
265,36,15161,5,14,0:3:0:0:
395,195,16460,6,0,L|409:146,1,30,8|8,0:3|0:3,0:0:0:0:
389,212,16578,1,8,0:0:0:0:
403,324,16736,2,0,P|413:264|375:199,1,120,10|0,0:3|0:0,0:0:0:0:
197,250,17051,6,0,P|157:208|107:306,1,191.999994140625,14|0,0:3|0:0,0:0:0:0:
113,317,17444,1,10,0:3:0:0:
148,321,17523,2,0,P|187:296|197:251,1,95.9999970703126,8|0,0:2|0:2,0:0:0:0:
138,112,17759,6,0,P|91:179|213:241,1,239.999992675781,10|0,0:2|0:0,0:0:0:0:
223,135,18232,2,0,P|184:109|137:110,1,95.9999970703126,10|0,0:3|0:2,0:0:0:0:
224,225,18468,2,0,P|238:180|223:135,1,95.9999970703126,10|0,0:2|0:2,0:0:0:0:
53,245,18704,6,0,L|196:250,1,143.999995605469,10|0,0:3|0:2,0:0:0:0:
361,131,19177,2,0,P|386:178|361:245,1,95.9999970703126,8|0,0:3|0:2,0:0:0:0:
299,357,19413,2,0,P|294:310|318:269,1,95.9999970703126,8|0,0:2|0:2,0:0:0:0:
380,218,19649,1,10,0:3:0:0:
209,285,19807,5,8,0:2:0:0:
200,262,19885,1,8,0:3:0:0:
268,130,20043,1,0,0:3:0:0:
259,153,20121,1,8,0:2:0:0:
168,184,20280,1,8,0:3:0:0:
157,162,20358,6,0,L|42:149,1,95.9999970703126,8|0,0:2|0:0,0:0:0:0:
38,143,20594,1,10,0:3:0:0:
43,119,20673,1,2,0:2:0:0:
65,125,20751,1,2,0:2:0:0:
60,151,20830,6,0,P|26:234|99:288,1,191.999994140625,14|0,0:3|0:0,0:0:0:0:
206,305,21224,1,10,0:3:0:0:
186,289,21303,2,0,P|141:273|96:288,1,95.9999970703126,8|0,0:2|0:2,0:0:0:0:
305,315,21539,6,0,P|350:223|248:215,1,239.999992675781,10|0,0:3|0:0,0:0:0:0:
177,167,22011,2,0,P|201:206|247:214,1,95.9999970703126,10|0,0:3|0:2,0:0:0:0:
233,103,22247,2,0,P|190:122|176:166,1,95.9999970703126,10|0,0:2|0:2,0:0:0:0:
230,357,22484,6,0,L|251:184,1,143.999995605469,10|0,0:3|0:2,0:0:0:0:
289,14,22956,2,0,L|193:21,1,95.9999970703126,8|0,0:3|0:2,0:0:0:0:
60,128,23192,2,0,P|54:70|93:33,1,95.9999970703126,8|0,0:2|0:2,0:0:0:0:
123,175,23429,2,0,P|75:209|24:193,1,95.9999970703126,8|0,0:3|0:2,0:0:0:0:
135,93,23665,2,0,P|188:116|200:169,1,95.9999970703126,8|0,0:2|0:2,0:0:0:0:
208,292,23901,1,8,0:3:0:0:
185,282,23980,1,8,0:3:0:0:
175,260,24058,1,8,0:3:0:0:
183,237,24137,6,0,L|292:229,1,95.9999970703126,8|8,0:2|0:3,0:0:0:0:
302,227,24373,1,10,0:3:0:0:
300,202,24452,1,2,0:2:0:0:
276,205,24531,1,2,0:2:0:0:
278,229,24610,6,0,P|347:264|408:158,1,191.999994140625,14|0,0:3|0:0,0:0:0:0:
256,68,25003,1,10,0:3:0:0:
271,88,25082,2,0,P|349:88|391:48,1,95.9999970703126,12|0,0:2|0:2,0:0:0:0:
481,75,25318,6,0,P|436:58|418:191,1,239.999992675781,2|0,0:2|0:0,0:0:0:0:
505,198,25791,2,0,P|460:181|413:190,1,95.9999970703126,10|0,0:3|0:2,0:0:0:0:
397,348,26027,2,0,P|433:317|449:272,1,95.9999970703126,10|0,0:2|0:2,0:0:0:0:
220,251,26263,6,0,B|286:232|292:303|394:246,1,143.999995605469,10|0,0:3|0:2,0:0:0:0:
135,287,26736,2,0,P|132:226|166:182,1,95.9999970703126,8|0,0:3|0:2,0:0:0:0:
211,71,26972,2,0,P|230:113|224:160,1,95.9999970703126,8|0,0:2|0:2,0:0:0:0:
148,197,27208,1,10,0:3:0:0:
107,68,27366,5,8,0:2:0:0:
130,62,27445,1,8,0:3:0:0:
128,192,27602,1,8,0:3:0:0:
105,186,27681,1,8,0:2:0:0:
15,111,27838,1,8,0:3:0:0:
38,118,27917,6,0,L|26:185,1,47.9999985351563,10|0,0:2|0:0,0:0:0:0:
40,246,28074,1,0,0:2:0:0:
17,253,28153,2,0,L|34:358,1,95.9999970703126,10|0,0:3|0:2,0:0:0:0:
267,247,28389,6,0,P|227:205|177:303,1,191.999994140625,14|0,0:3|0:0,0:0:0:0:
185,312,28782,1,10,0:3:0:0:
218,318,28861,2,0,P|257:293|267:248,1,95.9999970703126,8|0,0:2|0:2,0:0:0:0:
217,179,29098,1,10,0:2:0:0:
427,149,29255,1,0,0:0:0:0:
410,131,29334,5,14,0:2:0:0:
257,92,29492,2,0,P|322:96|363:65,1,95.9999970703126,2|0,0:2|0:0,0:0:0:0:
207,27,29728,1,8,0:2:0:0:
191,45,29807,1,2,0:2:0:0:
49,93,29964,1,8,0:3:0:0:
33,75,30043,1,8,0:2:0:0:
139,216,30279,5,14,0:3:0:0:
94,272,30515,1,0,0:0:0:0:
23,258,30751,1,0,0:0:0:0:
4,188,30988,1,0,0:0:0:0:
46,129,31224,1,0,0:0:0:0:
139,216,31460,5,0,0:0:0:0:
210,212,31696,1,0,0:0:0:0:
282,208,31933,1,0,0:0:0:0:
428,230,32169,5,10,0:3:0:0:
359,208,32405,1,0,0:0:0:0:
359,136,32641,1,0,0:0:0:0:
428,114,32877,1,0,0:0:0:0:
470,172,33114,1,0,0:0:0:0:
133,40,33350,5,10,0:3:0:0:
273,259,33507,1,10,0:0:0:0:
273,259,33822,5,2,0:0:0:0:
203,155,34058,6,0,P|149:178|90:168,1,120,14|0,0:3|0:0,0:0:0:0:
277,263,34452,1,10,0:3:0:0:
291,249,34531,2,0,P|350:227|413:242,1,120,8|0,0:0|0:0,0:0:0:0:
512,231,34925,1,8,0:0:0:0:
506,249,35003,2,0,P|450:270|391:266,1,120,10|8,0:3|0:3,0:0:0:0:
337,188,35397,1,2,0:0:0:0:
347,170,35476,1,8,0:0:0:0:
472,357,35712,1,10,0:3:0:0:
337,188,35948,6,0,L|198:198,1,120,10|8,0:3|0:3,0:0:0:0:
251,308,36342,1,2,0:0:0:0:
271,308,36421,2,0,L|396:317,1,120,8|0,0:0|0:0,0:0:0:0:
476,219,36814,1,8,0:0:0:0:
462,203,36893,2,0,P|442:146|457:79,2,120,10|8|8,0:3|0:3|0:0,0:0:0:0:
271,308,37602,1,2,0:3:0:0:
365,63,37838,6,0,P|297:85|244:65,1,120,14|0,0:3|0:0,0:0:0:0:
139,185,38232,1,10,0:3:0:0:
155,195,38310,2,0,P|217:202|274:171,1,120,8|0,0:0|0:0,0:0:0:0:
61,112,38704,1,8,0:0:0:0:
51,129,38783,2,0,L|46:255,1,120,10|8,0:3|0:3,0:0:0:0:
85,355,39177,1,2,0:0:0:0:
99,340,39255,1,8,0:0:0:0:
192,164,39492,1,10,0:3:0:0:
307,319,39728,6,0,P|372:337|438:313,1,120,10|8,0:3|0:3,0:0:0:0:
504,226,40121,1,2,0:0:0:0:
490,211,40200,2,0,L|495:80,1,120,8|0,0:0|0:0,0:0:0:0:
391,31,40594,1,8,0:0:0:0:
379,47,40673,1,8,0:3:0:0:
490,211,40909,1,8,0:3:0:0:
310,290,41145,1,8,0:0:0:0:
269,191,41303,1,8,0:2:0:0:
259,173,41381,1,10,0:3:0:0:
162,232,41539,1,8,0:3:0:0:
146,253,41618,6,0,P|123:308|133:366,1,120,14|0,0:3|0:0,0:0:0:0:
18,255,42011,1,10,0:3:0:0:
33,241,42090,2,0,P|56:173|45:123,1,120,8|0,0:0|0:0,0:0:0:0:
125,53,42484,1,8,0:0:0:0:
134,70,42562,2,0,P|191:96|260:91,1,120,10|8,0:3|0:3,0:0:0:0:
358,33,42956,1,2,0:0:0:0:
349,51,43035,1,8,0:0:0:0:
207,6,43271,1,10,0:3:0:0:
448,152,43507,6,0,P|395:171|310:167,1,120,10|8,0:3|0:3,0:0:0:0:
166,253,43901,1,2,0:0:0:0:
165,232,43980,2,0,L|157:107,1,120,8|0,0:0|0:0,0:0:0:0:
33,86,44373,1,8,0:0:0:0:
31,106,44452,2,0,L|27:233,2,120,10|8|8,0:3|0:3|0:0,0:0:0:0:
193,27,45161,1,10,0:3:0:0:
193,27,45279,1,2,0:0:0:0:
193,27,45397,6,0,P|259:54|319:41,1,120,14|0,0:3|0:0,0:0:0:0:
457,137,45791,1,8,0:3:0:0:
441,123,45870,2,0,P|382:118|329:144,1,120,8|0,0:2|0:0,0:0:0:0:
206,177,46263,1,8,0:0:0:0:
219,191,46342,2,0,P|279:197|332:171,1,120,10|8,0:3|0:3,0:0:0:0:
441,123,46736,1,2,0:0:0:0:
439,103,46814,1,8,0:0:0:0:
328,276,47051,1,10,0:3:0:0:
115,113,47287,6,0,P|58:100|5:129,1,120,10|8,0:3|0:3,0:0:0:0:
114,260,47681,1,2,0:0:0:0:
125,275,47759,2,0,P|179:286|224:263,1,80,8|0,0:2|0:2,0:0:0:0:
274,217,47995,1,10,0:2:0:0:
262,200,48074,1,8,0:0:0:0:
279,190,48153,1,8,0:0:0:0:
287,208,48232,5,8,0:2:0:0:
441,256,48468,1,8,0:3:0:0:
201,367,48704,1,8,0:0:0:0:
324,300,48862,1,8,0:3:0:0:
321,319,48940,1,10,0:3:0:0:
462,364,49098,1,8,0:3:0:0:
455,384,49177,6,0,P|436:322|441:256,1,132.00000402832,14|0,0:3|0:0,0:0:0:0:
501,129,49570,1,10,0:3:0:0:
492,147,49649,2,0,P|434:174|358:157,1,132.00000402832,8|8,0:0|0:3,0:0:0:0:
254,76,50043,1,8,0:0:0:0:
242,59,50121,2,0,P|184:32|108:49,1,132.00000402832,2|8,0:0|0:3,0:0:0:0:
15,139,50515,1,2,0:0:0:0:
29,153,50594,1,8,0:0:0:0:
118,42,50830,1,10,0:3:0:0:
224,196,51066,6,0,P|270:187|351:221,1,132.00000402832,10|8,0:3|0:3,0:0:0:0:
476,251,51460,1,2,0:3:0:0:
460,263,51539,2,0,P|414:272|333:238,1,132.00000402832,8|0,0:2|0:3,0:0:0:0:
129,233,51933,1,8,0:0:0:0:
142,247,52011,2,0,L|129:383,2,132.00000402832,10|8|8,0:3|0:3|0:0,0:0:0:0:
336,241,52720,1,2,0:3:0:0:
170,32,52956,6,0,P|229:63|296:56,1,132.00000402832,14|0,0:3|0:0,0:0:0:0:
424,8,53350,1,10,0:3:0:0:
437,25,53429,2,0,L|443:164,1,132.00000402832,8|0,0:0|0:0,0:0:0:0:
207,195,53822,1,8,0:0:0:0:
224,179,53901,2,0,P|288:164|347:200,1,132.00000402832,10|8,0:3|0:3,0:0:0:0:
418,307,54295,1,2,0:0:0:0:
417,285,54373,1,8,0:0:0:0:
289,138,54610,1,10,0:3:0:0:
217,361,54846,6,0,P|268:315|269:243,1,132.00000402832,10|8,0:3|0:3,0:0:0:0:
76,199,55240,1,2,0:0:0:0:
83,219,55318,2,0,P|126:268|190:274,1,132.00000402832,8|8,0:2|0:3,0:0:0:0:
289,138,55712,1,8,0:0:0:0:
282,159,55791,1,8,0:3:0:0:
333,331,56027,1,8,0:3:0:0:
423,131,56263,1,8,0:0:0:0:
299,119,56421,1,8,0:0:0:0:
286,101,56499,1,8,3:0:0:0:
394,26,56657,1,8,0:0:0:0:
416,12,56736,6,0,P|444:70|423:131,1,132.00000402832,14|0,0:3|0:0,0:0:0:0:
319,224,57129,1,10,0:3:0:0:
299,234,57208,2,0,P|279:296|307:354,1,132.00000402832,8|8,0:2|0:3,0:0:0:0:
401,250,57602,1,8,0:0:0:0:
409,229,57681,2,0,P|389:167|333:136,1,132.00000402832,10|8,0:3|0:3,0:0:0:0:
216,164,58074,1,2,0:0:0:0:
232,179,58153,1,8,0:0:0:0:
306,353,58389,1,10,0:3:0:0:
91,291,58625,6,0,L|112:138,1,132.00000402832,10|8,0:3|0:3,0:0:0:0:
342,117,59019,1,2,0:0:0:0:
332,136,59098,2,0,P|279:172|215:162,1,132.00000402832,8|8,0:2|0:3,0:0:0:0:
207,41,59492,1,8,0:0:0:0:
185,40,59570,2,0,L|44:35,2,132.00000402832,10|8|8,0:3|0:3|0:0,0:0:0:0:
206,191,60279,1,10,0:3:0:0:
206,191,60397,1,2,0:0:0:0:
206,191,60515,6,0,P|188:254|198:319,1,132.00000402832,10|0,0:3|0:0,0:0:0:0:
331,366,60909,1,8,0:3:0:0:
343,347,60988,2,0,L|487:359,1,132.00000402832,8|0,0:2|0:0,0:0:0:0:
492,240,61381,1,8,0:2:0:0:
478,222,61460,2,0,L|334:234,1,132.00000402832,10|0,0:3|0:0,0:0:0:0:
191,125,61933,1,10,0:0:0:0:
225,321,62169,1,10,0:3:0:0:
119,187,62405,6,0,P|188:219|267:192,1,132.00000402832,10|8,0:3|0:3,0:0:0:0:
308,117,62799,1,2,0:3:0:0:
325,103,62877,2,0,L|424:120,1,88.000002685547,8|0,0:0|0:0,0:0:0:0:
196,60,63114,1,10,0:0:0:0:
194,81,63192,1,8,0:0:0:0:
193,103,63271,1,8,0:0:0:0:
191,125,63350,5,8,0:0:0:0:
411,117,63586,1,8,0:0:0:0:
403,290,63822,6,0,P|391:241|411:192,1,88.000002685547,8|0,0:0|0:0,0:0:0:0:
491,259,64058,2,0,P|501:301|489:343,1,88.000002685547,8|0,0:0|0:0,0:0:0:0:
339,360,64295,6,0,B|230:399|232:294|78:366,1,240.000009155274,14|0,0:0|0:0,0:0:0:0:
29,353,64688,2,0,P|106:325|107:211,1,180.000006866455,14|8,0:2|0:3,0:0:0:0:
113,213,65003,2,0,L|133:325,1,60.0000022888184,12|0,0:0|0:0,0:0:0:0:
20,160,65397,6,0,L|9:101,1,60.0000022888184,8|8,3:2|3:2,0:0:0:0:
105,84,65555,2,0,L|116:25,1,60.0000022888184,8|8,3:2|3:2,0:0:0:0:
184,145,65712,5,10,0:0:0:0:
276,90,65870,1,2,0:3:0:0:
337,173,66027,1,2,0:0:0:0:
450,199,66184,6,0,P|371:174|367:310,1,240.000009155274,14|0,0:0|0:0,0:0:0:0:
425,308,66578,2,0,B|381:255|307:266|307:266|325:296|386:308,1,180.000006866455,14|8,0:2|0:3,0:0:0:0:
435,323,66893,1,14,0:0:0:0:
232,243,67129,5,8,3:3:0:0:
88,343,67366,2,0,L|67:117,1,180.000006866455,14|0,0:3|0:0,0:0:0:0:
66,103,67759,2,0,L|74:206,1,60.0000022888184,14|0,0:0|0:0,0:0:0:0:
158,197,68074,6,0,L|366:182,1,180.000006866455,14|8,0:3|0:0,0:0:0:0:
455,178,68547,2,0,P|462:302|416:348,1,180.000006866455,10|8,0:3|0:0,0:0:0:0:
381,277,68940,6,0,B|418:201|328:190|394:50,1,180.000006866455,10|8,0:3|0:3,0:0:0:0:
425,38,69255,2,0,P|390:53|291:39,1,120.000004577637,10|0,0:0|0:0,0:0:0:0:
277,119,69492,2,0,P|239:114|160:52,1,120.000004577637,10|0,0:3|0:0,0:0:0:0:
114,133,69728,2,0,P|83:110|46:17,1,120.000004577637,10|0,0:0|0:0,0:0:0:0:
16,153,69964,6,0,L|0:288,1,120.000004577637,10|0,0:3|0:0,0:0:0:0:
0,302,70200,1,8,0:0:0:0:
104,275,70358,2,0,P|150:263|213:274,1,60.0000022888184,2|8,0:3|0:3,0:0:0:0:
320,357,70594,2,0,P|275:360|242:353,1,60.0000022888184,0|10,0:0|0:0,0:0:0:0:
352,185,70830,6,0,B|373:289|288:264|329:393,1,180.000006866455,10|8,0:3|0:3,0:0:0:0:
400,339,71145,2,0,P|466:353|523:320,1,120.000004577637,10|8,0:0|0:3,0:0:0:0:
512,243,71381,6,0,L|509:132,1,60.0000022888184,8|0,0:0|0:0,0:0:0:0:
452,91,71539,1,8,0:0:0:0:
455,120,71618,1,10,0:3:0:0:
383,192,71775,1,8,0:3:0:0:
370,165,71854,6,0,B|306:201|226:129|226:129|178:109|111:148,1,240.000009155274,14|0,0:0|0:0,0:0:0:0:
39,183,72247,2,0,P|116:167|84:50,1,180.000006866455,12|8,0:2|0:3,0:0:0:0:
101,45,72562,2,0,L|105:139,1,60.0000022888184,12|0,0:0|0:0,0:0:0:0:
95,280,72956,6,0,L|86:360,1,60.0000022888184,8|8,3:2|3:2,0:0:0:0:
197,303,73114,2,0,L|206:383,1,60.0000022888184,8|8,3:2|3:2,0:0:0:0:
248,202,73271,5,10,0:0:0:0:
320,277,73429,1,2,0:3:0:0:
418,230,73586,1,2,0:0:0:0:
335,181,73744,6,0,P|354:109|503:58,1,240.000009155274,14|0,0:0|2:3,0:0:0:0:
497,56,74137,2,0,P|434:99|341:42,1,180.000006866455,8|8,0:0|0:3,0:0:0:0:
334,30,74452,1,14,0:0:0:0:
165,175,74688,5,8,3:3:0:0:
289,355,74925,2,0,L|276:160,1,180.000006866455,14|0,0:3|0:0,0:0:0:0:
273,115,75318,2,0,L|276:174,1,60.0000022888184,14|0,0:0|0:0,0:0:0:0:
43,83,75633,6,0,P|108:69|166:109,1,120.000004577637,14|0,0:3|0:0,0:0:0:0:
152,168,75870,2,0,L|146:297,1,120.000004577637,8|0,0:0|0:0,0:0:0:0:
132,314,76106,1,8,0:3:0:0:
197,377,76263,1,8,0:3:0:0:
217,355,76342,2,0,L|341:340,1,120.000004577637,10|8,0:0|0:3,0:0:0:0:
446,354,76578,6,0,B|471:298|471:298|464:194,1,120.000004577637,10|8,0:3|0:3,0:0:0:0:
452,213,76814,2,0,L|318:193,1,120.000004577637,8|0,0:0|0:0,0:0:0:0:
308,213,77051,1,8,0:3:0:0:
212,47,77287,2,0,P|226:115|201:185,1,120.000004577637,10|8,0:0|0:3,0:0:0:0:
143,291,77523,6,0,P|67:241|154:212,1,180.000006866455,6|8,0:2|0:3,0:0:0:0:
243,271,77917,2,0,P|284:337|211:365,1,180.000006866455,12|0,0:2|0:0,0:0:0:0:
195,193,78232,2,0,B|157:104|255:105|194:-1,1,180.000006866455,6|8,0:0|0:3,0:0:0:0:
243,271,78625,2,0,P|294:231|429:285,1,180.000006866455,14|8,0:0|0:3,0:0:0:0:
461,317,78940,6,0,L|455:386,2,60.0000022888184,8|8|8,3:2|3:2|3:2,0:0:0:0:
471,198,79177,1,8,3:3:0:0:
473,186,79255,1,8,3:3:0:0:
473,173,79334,1,8,3:3:0:0:
474,159,79413,5,14,0:0:0:0:
422,85,79570,1,2,0:0:0:0:
415,103,79649,1,2,0:0:0:0:
259,53,79807,2,0,P|306:40|370:54,1,80,2|0,0:0|0:0,0:0:0:0:
193,71,80043,2,0,P|233:69|271:82,1,80,2|0,0:0|0:0,0:0:0:0:
210,162,80279,6,0,P|233:112|171:71,1,120,14|8,0:0|0:3,0:0:0:0:
136,125,80594,1,14,0:3:0:0:
322,214,80751,6,0,L|265:201,1,40,2|8,0:0|0:3,0:0:0:0:
174,304,80988,2,0,L|231:291,1,40,14|0,0:0|0:0,0:0:0:0:
395,289,81224,2,0,L|392:322,1,20,10|10,0:3|0:3,0:0:0:0:
390,325,81303,6,0,P|446:310|485:319,1,80,10|0,0:2|0:0,0:0:0:0:
510,296,81539,2,0,P|454:281|415:290,1,80,10|0,0:3|0:0,0:0:0:0:
396,273,81775,2,0,P|452:258|491:267,1,80,10|8,0:3|0:3,0:0:0:0:
510,296,82011,1,10,0:0:0:0:
428,155,82169,5,10,0:3:0:0:
224,176,83192,6,0,P|144:160|153:68,1,180.000006866455,12|8,2:3|0:2,0:0:0:0:
297,123,83586,2,0,P|319:178|231:269,1,180.000006866455,10|0,0:3|0:0,0:0:0:0:
252,266,83901,2,0,P|326:230|397:274,1,120.000004577637,10|8,0:2|0:3,0:0:0:0:
315,366,84137,6,0,P|286:300|388:246,1,180.000006866455,2|8,0:2|0:0,0:0:0:0:
465,210,84452,2,0,P|391:246|320:202,1,120.000004577637,2|8,0:0|2:3,0:0:0:0:
134,321,84767,1,8,0:3:0:0:
145,293,84846,2,0,P|219:257|290:301,1,120.000004577637,10|0,0:2|0:0,0:0:0:0:
315,366,85082,6,0,L|295:138,1,180.000006866455,10|8,0:3|0:2,0:0:0:0:
199,138,85476,2,0,P|271:154|335:72,1,180.000006866455,10|8,0:3|0:3,0:0:0:0:
334,80,85791,2,0,P|295:142|310:210,1,120.000004577637,10|8,0:2|0:3,0:0:0:0:
418,195,86027,6,0,L|268:183,1,120.000004577637,2|8,0:3|0:3,0:0:0:0:
251,265,86263,1,10,0:2:0:0:
131,274,86499,6,0,P|161:329|114:400,1,120.000004577637,10|0,0:3|0:0,0:0:0:0:
131,274,86736,2,0,P|113:218|143:168,1,120.000004577637,10|0,0:2|0:0,0:0:0:0:
251,265,86972,6,0,B|335:297|338:201|454:277,1,180.000006866455,6|8,0:2|0:0,0:0:0:0:
282,183,87366,2,0,P|249:88|335:39,1,180.000006866455,10|8,0:3|0:3,0:0:0:0:
299,41,87681,2,0,L|163:34,1,120.000004577637,10|8,0:2|0:3,0:0:0:0:
329,117,87917,6,0,B|386:137|386:137|514:105,1,180.000006866455,2|8,0:0|0:0,0:0:0:0:
325,22,88310,1,2,0:0:0:0:
299,41,88389,2,0,L|163:34,1,120.000004577637,8|0,0:3|0:0,0:0:0:0:
94,27,88625,1,10,0:2:0:0:
189,168,88862,6,0,B|227:99|179:35|179:35|157:86,1,180.000006866455,10|8,0:3|0:0,0:0:0:0:
189,168,89255,2,0,B|151:237|199:301|199:301|221:250,1,180.000006866455,10|8,0:3|0:3,0:0:0:0:
189,168,89570,2,0,B|143:181|101:159|101:159|77:165|54:192,1,120.000004577637,10|8,0:2|0:3,0:0:0:0:
47,244,89807,1,2,0:3:0:0:
213,266,89964,6,0,B|252:240|284:251|284:251|328:293|394:262,1,180.000006866455,12|8,0:2|0:3,0:0:0:0:
351,190,90279,2,0,P|302:248|320:323,1,120.000004577637,12|8,0:0|0:3,0:0:0:0:
364,351,90515,1,10,0:2:0:0:
436,202,90673,1,8,0:0:0:0:
434,172,90751,6,0,B|436:40|436:40|401:108,1,180.000006866455,14|8,0:3|0:0,0:0:0:0:
334,143,91145,2,0,P|236:140|197:69,1,180.000006866455,10|8,0:3|0:3,0:0:0:0:
197,76,91460,2,0,P|232:147|218:197,1,120.000004577637,8|8,0:2|0:3,0:0:0:0:
182,255,91696,6,0,P|140:264|52:248,1,120.000004577637,2|0,0:0|0:0,0:0:0:0:
0,212,91933,1,8,0:0:0:0:
165,177,92090,2,0,P|195:176|224:183,1,60.0000022888184,2|8,0:0|0:3,0:0:0:0:
233,376,92326,1,0,0:0:0:0:
205,364,92405,2,0,P|173:285|190:240,1,120.000004577637,10|0,0:2|0:0,0:0:0:0:
224,183,92641,6,0,B|315:157|315:249|425:180,1,180.000006866455,10|8,0:3|0:0,0:0:0:0:
379,45,93035,2,0,P|346:103|405:198,1,180.000006866455,10|10,0:3|0:3,0:0:0:0:
426,117,93350,1,8,0:2:0:0:
265,48,93507,1,8,0:3:0:0:
246,71,93586,6,0,P|139:73|128:64,1,120.000004577637,2|0,0:0|0:0,0:0:0:0:
76,22,93822,1,8,0:0:0:0:
133,282,94058,6,0,P|140:182|117:157,1,120.000004577637,10|0,0:3|0:0,0:0:0:0:
132,171,94295,2,0,P|111:226|131:281,1,120.000004577637,10|0,0:2|0:0,0:0:0:0:
213,325,94531,6,0,B|316:285|316:285|388:303,1,180.000006866455,14|8,0:3|0:0,0:0:0:0:
462,192,94925,2,0,P|386:212|407:321,1,180.000006866455,10|8,0:3|0:3,0:0:0:0:
383,301,95240,2,0,P|397:240|369:182,1,120.000004577637,10|8,0:2|0:3,0:0:0:0:
382,76,95476,6,0,P|360:130|374:188,1,120.000004577637,2|0,0:0|0:0,0:0:0:0:
462,192,95712,1,8,0:0:0:0:
277,124,95870,1,2,0:0:0:0:
249,111,95948,2,0,P|151:105|120:114,1,120.000004577637,8|0,0:3|0:0,0:0:0:0:
54,138,96184,1,10,0:2:0:0:
143,289,96342,1,8,0:3:0:0:
143,289,96421,6,0,L|128:75,1,180.000006866455,10|8,0:3|0:0,0:0:0:0:
54,138,96814,1,2,0:2:0:0:
56,168,96893,1,8,0:3:0:0:
225,211,97051,1,8,0:3:0:0:
227,241,97130,1,10,0:3:0:0:
65,295,97287,1,8,0:0:0:0:
67,325,97366,1,8,0:3:0:0:
146,285,97523,6,0,B|147:227|147:227|128:176|128:176|129:108,1,180.000006866455,12|8,0:2|0:3,0:0:0:0:
209,51,97838,2,0,L|210:-16,2,60.0000022888184,10|8|8,3:2|3:2|3:3,0:0:0:0:
281,116,98074,1,10,3:3:0:0:
310,120,98153,1,8,3:3:0:0:
340,117,98232,1,8,3:3:0:0:
368,107,98310,6,0,P|446:97|489:197,1,180.000006866455,12|8,2:3|0:2,0:0:0:0:
430,357,98704,2,0,L|412:146,1,180.000006866455,10|0,0:3|0:0,0:0:0:0:
414,177,99019,2,0,P|345:187|297:153,1,120.000004577637,10|8,0:2|0:3,0:0:0:0:
235,100,99255,6,0,B|270:160|270:160|266:289,1,180.000006866455,2|8,0:2|0:0,0:0:0:0:
79,321,99649,1,2,0:0:0:0:
96,307,99728,2,0,B|153:281|190:299|190:299|200:335|239:350|250:348,1,180.000006866455,8|10,2:3|0:2,0:0:0:0:
87,127,100200,6,0,L|97:331,1,180.000006866455,10|8,0:3|0:2,0:0:0:0:
5,106,100594,2,0,P|57:49|167:97,1,180.000006866455,10|8,0:3|0:3,0:0:0:0:
149,69,100909,2,0,L|278:61,1,120.000004577637,10|8,0:2|0:3,0:0:0:0:
328,121,101145,2,0,L|447:128,1,120.000004577637,2|8,0:3|0:3,0:0:0:0:
480,25,101381,6,0,P|439:87|466:152,1,120.000004577637,10|0,0:2|0:0,0:0:0:0:
414,231,101618,2,0,P|451:186|447:128,1,120.000004577637,10|0,0:3|0:0,0:0:0:0:
328,121,101854,2,0,L|447:128,1,120.000004577637,10|0,0:2|0:0,0:0:0:0:
414,231,102090,6,0,B|326:186|325:288|212:216,1,180.000006866455,6|8,0:2|0:0,0:0:0:0:
75,86,102484,2,0,P|149:78|180:194,1,180.000006866455,10|8,0:3|0:3,0:0:0:0:
194,161,102799,2,0,P|151:114|161:41,1,120.000004577637,10|8,0:2|0:3,0:0:0:0:
283,34,103035,6,0,P|174:86|142:35,1,180.000006866455,2|8,0:0|0:0,0:0:0:0:
361,9,103429,1,2,0:0:0:0:
373,35,103507,2,0,L|361:168,1,120.000004577637,8|0,0:3|0:0,0:0:0:0:
351,274,103744,2,0,L|361:154,1,120.000004577637,10|0,0:2|0:0,0:0:0:0:
471,227,103980,6,0,P|387:233|361:153,1,180.000006866455,10|8,0:3|0:0,0:0:0:0:
487,48,104373,2,0,L|470:227,1,180.000006866455,10|8,0:3|0:3,0:0:0:0:
508,335,104688,2,0,P|439:305|367:341,1,120.000004577637,10|8,0:2|0:3,0:0:0:0:
330,372,104925,1,2,0:3:0:0:
313,259,105082,6,0,B|335:176|255:169|319:60,1,180.000006866455,12|8,0:2|0:3,0:0:0:0:
359,22,105397,1,12,0:0:0:0:
233,218,105555,1,8,0:3:0:0:
201,208,105633,1,10,0:2:0:0:
342,274,105791,1,8,0:0:0:0:
313,259,105870,6,0,B|202:229|202:229|119:266,1,180.000006866455,14|8,0:3|0:0,0:0:0:0:
195,365,106263,2,0,B|206:340|206:340|202:294,1,60.0000022888184,10|0,0:3|0:0,0:0:0:0:
3,248,106499,1,10,0:3:0:0:
27,266,106578,2,0,P|113:269|161:240,1,120.000004577637,8|8,0:2|0:3,0:0:0:0:
168,172,106814,6,0,L|166:-20,1,180.000006866455,2|8,0:0|0:0,0:0:0:0:
256,124,107208,1,2,0:0:0:0:
275,146,107287,2,0,P|348:164|411:139,1,120.000004577637,8|0,0:3|0:0,0:0:0:0:
504,145,107523,2,0,P|445:133|389:151,1,120.000004577637,10|0,0:2|0:0,0:0:0:0:
365,236,107759,6,0,P|363:333|427:278,1,180.000006866455,10|8,0:3|0:0,0:0:0:0:
365,236,108074,2,0,L|169:237,1,180.000006866455,2|0,0:3|0:3,0:0:0:0:
130,50,108468,2,0,P|164:120|138:170,1,120.000004577637,8|8,0:2|0:3,0:0:0:0:
76,230,108704,6,0,B|60:163|60:163|83:88,1,120.000004577637,2|0,0:0|0:0,0:0:0:0:
74,114,108940,2,0,B|88:162|88:162|72:229,1,120.000004577637,8|0,0:0|0:0,0:0:0:0:
20,318,109177,6,0,L|172:311,1,120.000004577637,10|0,0:3|0:0,0:0:0:0:
185,236,109413,2,0,L|304:241,1,120.000004577637,10|0,0:2|0:0,0:0:0:0:
478,197,109649,6,0,P|411:238|498:311,1,180.000006866455,14|8,0:3|0:0,0:0:0:0:
502,117,110043,2,0,P|434:116|345:198,1,180.000006866455,10|8,0:3|0:3,0:0:0:0:
350,184,110358,2,0,P|387:120|382:55,1,120.000004577637,10|8,0:2|0:3,0:0:0:0:
265,75,110594,6,0,B|410:51|410:51|381:80,1,180.000006866455,2|8,0:0|0:0,0:0:0:0:
222,142,110988,2,0,P|186:65|246:-2,1,180.000006866455,2|0,0:0|0:0,0:0:0:0:
265,75,111303,1,10,0:2:0:0:
234,237,111460,1,8,0:3:0:0:
216,221,111539,6,0,B|144:174|133:258|45:215,1,180.000006866455,10|8,0:3|0:0,0:0:0:0:
163,290,111933,1,2,0:2:0:0:
188,304,112011,1,8,0:3:0:0:
334,233,112169,1,8,0:3:0:0:
309,247,112247,1,10,0:3:0:0:
113,357,112405,1,8,0:0:0:0:
138,371,112483,1,8,0:3:0:0:
18,384,112641,6,0,B|1:314|1:314|53:199,1,180.000006866455,12|8,0:2|0:3,0:0:0:0:
108,141,112956,2,0,P|91:128|26:128,2,60.0000022888184,10|8|8,3:2|3:2|3:2,0:0:0:0:
181,198,113192,1,10,3:3:0:0:
209,206,113271,1,8,3:3:0:0:
238,202,113350,1,8,3:3:0:0:
262,185,113429,6,0,P|336:147|395:279,1,240.000009155274,14|0,0:2|0:0,0:0:0:0:
333,310,113822,2,0,P|258:269|260:184,1,180.000006866455,14|0,0:0|0:3,0:0:0:0:
184,91,114137,6,0,P|78:61|38:163,1,240.000009155274,10|0,0:0|0:0,0:0:0:0:
112,219,114531,2,0,P|186:177|184:92,1,180.000006866455,14|0,0:0|0:3,0:0:0:0:
117,134,114846,1,10,3:2:0:0:
268,99,115003,1,0,3:3:0:0:
290,119,115082,1,0,3:2:0:0:
278,225,115240,1,0,3:0:0:0:
308,252,115318,6,0,B|447:240|447:240|396:300,1,191.999994140625,14|0,0:3|0:0,0:0:0:0:
335,364,115712,1,10,0:3:0:0:
315,340,115791,2,0,P|296:282|331:228,1,95.9999970703126,8|0,0:2|0:2,0:0:0:0:
241,129,116027,6,0,P|124:181|185:248,1,239.999992675781,10|0,0:2|0:0,0:0:0:0:
182,327,116499,2,0,P|189:280|163:241,1,95.9999970703126,10|0,0:3|0:2,0:0:0:0:
108,374,116736,2,0,P|153:364|181:326,1,95.9999970703126,10|0,0:2|0:2,0:0:0:0:
307,251,116972,6,0,B|148:240,1,143.999995605469,10|0,0:3|0:2,0:0:0:0:
67,146,117444,2,0,P|81:83|63:25,1,95.9999970703126,8|0,0:3|0:2,0:0:0:0:
26,227,117681,2,0,P|11:284|25:342,1,95.9999970703126,8|0,0:2|0:2,0:0:0:0:
35,334,117917,1,10,0:3:0:0:
203,337,118074,5,8,0:2:0:0:
181,326,118153,1,8,0:3:0:0:
248,214,118310,1,0,0:3:0:0:
270,203,118389,1,8,0:2:0:0:
124,49,118547,1,8,0:3:0:0:
146,66,118625,6,0,P|161:109|126:185,1,95.9999970703126,8|0,0:2|0:0,0:0:0:0:
141,184,118862,1,10,0:3:0:0:
117,180,118940,1,2,0:2:0:0:
122,156,119019,1,2,0:2:0:0:
147,161,119098,6,0,P|181:244|108:298,1,191.999994140625,14|0,0:3|0:0,0:0:0:0:
0,315,119492,1,10,0:3:0:0:
21,299,119571,2,0,P|66:283|111:298,1,95.9999970703126,8|0,0:2|0:2,0:0:0:0:
326,303,119807,6,0,P|371:211|269:203,1,239.999992675781,10|0,0:3|0:0,0:0:0:0:
198,155,120279,2,0,P|222:194|268:202,1,95.9999970703126,10|0,0:3|0:2,0:0:0:0:
254,91,120515,2,0,P|211:110|197:154,1,95.9999970703126,10|0,0:2|0:2,0:0:0:0:
251,345,120752,6,0,L|272:172,1,143.999995605469,10|0,0:3|0:2,0:0:0:0:
352,113,121224,2,0,P|400:104|448:120,1,95.9999970703126,8|0,0:3|0:2,0:0:0:0:
439,242,121460,2,0,P|392:251|346:237,1,95.9999970703126,8|0,0:2|0:2,0:0:0:0:
185,150,121696,1,8,0:3:0:0:
186,126,121775,1,8,0:3:0:0:
188,102,121854,1,8,0:3:0:0:
189,77,121933,2,0,B|140:62|140:62|24:88,1,143.999995605469,8|8,0:2|0:3,0:0:0:0:
43,286,122405,6,0,L|152:278,1,95.9999970703126,8|8,0:2|0:3,0:0:0:0:
162,276,122641,1,10,0:3:0:0:
160,251,122720,1,2,0:2:0:0:
136,254,122799,1,2,0:2:0:0:
138,278,122878,6,0,P|207:313|268:207,1,191.999994140625,14|0,0:3|0:0,0:0:0:0:
205,128,123271,1,10,0:3:0:0:
220,148,123350,2,0,P|298:148|340:108,1,95.9999970703126,12|0,0:2|0:2,0:0:0:0:
451,86,123586,6,0,P|406:69|369:217,1,239.999992675781,2|0,0:2|0:0,0:0:0:0:
476,171,124058,2,0,P|477:124|451:85,1,95.9999970703126,10|0,0:3|0:2,0:0:0:0:
403,223,124295,2,0,P|448:209|476:170,1,95.9999970703126,10|0,0:2|0:2,0:0:0:0:
260,141,124531,6,0,B|415:148,1,143.999995605469,10|0,0:3|0:2,0:0:0:0:
178,181,125004,2,0,P|175:120|209:76,1,95.9999970703126,8|0,0:3|0:2,0:0:0:0:
249,227,125240,2,0,P|268:269|262:316,1,95.9999970703126,8|0,0:2|0:2,0:0:0:0:
250,338,125476,1,10,0:3:0:0:
260,141,125634,5,8,0:2:0:0:
283,135,125713,1,8,0:3:0:0:
371,233,125870,1,8,0:3:0:0:
348,227,125949,1,8,0:2:0:0:
439,131,126106,1,8,0:3:0:0:
462,138,126185,6,0,L|450:205,1,47.9999985351563,10|0,0:2|0:0,0:0:0:0:
469,269,126342,1,0,0:2:0:0:
492,276,126421,2,0,L|475:381,1,95.9999970703126,10|0,0:3|0:2,0:0:0:0:
267,247,126657,6,0,P|228:187|127:227,1,191.999994140625,14|0,0:3|0:0,0:0:0:0:
48,286,127050,1,10,0:3:0:0:
80,294,127129,2,0,P|118:267|128:221,1,95.9999970703126,8|0,0:2|0:2,0:0:0:0:
74,158,127366,1,10,0:2:0:0:
197,307,127523,1,0,0:0:0:0:
214,325,127602,5,14,0:2:0:0:
357,236,127760,2,0,P|313:254|266:246,1,95.9999970703126,2|0,0:2|0:0,0:0:0:0:
403,157,127996,1,8,0:2:0:0:
419,139,128075,1,2,0:2:0:0:
461,48,128232,1,8,0:3:0:0:
445,30,128311,1,8,0:2:0:0:
312,180,128547,5,14,0:3:0:0:
357,236,128783,1,0,0:0:0:0:
428,222,129019,1,0,0:0:0:0:
447,152,129256,1,0,0:0:0:0:
405,93,129492,1,0,0:0:0:0:
312,180,129728,5,0,0:0:0:0:
241,176,129964,1,0,0:0:0:0:
169,172,130201,1,0,0:0:0:0:
23,194,130436,5,10,0:3:0:0:
92,172,130673,1,0,0:0:0:0:
192,257,130909,6,0,L|181:324,2,47.9999985351563,8|8|8,0:2|0:2|0:2,0:0:0:0:
206,157,131145,1,8,0:3:0:0:
210,133,131224,1,8,0:3:0:0:
214,109,131303,1,8,0:3:0:0:
218,85,131381,1,12,0:2:0:0:
92,172,131618,5,8,0:2:0:0:
381,143,131775,1,4,0:0:0:0:
