osu file format v14

[General]
AudioFilename: audio.mp3
AudioLeadIn: 0
PreviewTime: 82484
Countdown: 0
SampleSet: Soft
StackLeniency: 0.7
Mode: 0
LetterboxInBreaks: 0
WidescreenStoryboard: 1

[Editor]
DistanceSpacing: 1.4
BeatDivisor: 6
GridSize: 32
TimelineZoom: 1.700002

[Metadata]
Title:Magenta Tear
TitleUnicode:Magenta Tear
Artist:Shimotsuki Haruka
ArtistUnicode:霜月はるか
Creator:Lasse
Version:Hard
Source:働くオトナの恋愛事情2
Tags:Hataraku Otona no Ren'ai Jijou 2 eroge visual novel opening short version Akabei Soft3 Mir
BeatmapID:1494335
BeatmapSetID:701258

[Difficulty]
HPDrainRate:5
CircleSize:3.8
OverallDifficulty:6.5
ApproachRate:7.5
SliderMultiplier:2
SliderTickRate:1

[Events]
//Background and Video events
0,0,"a.jpg",0,0
//Break Periods
//Storyboard Layer 0 (Background)
//Storyboard Layer 1 (Fail)
//Storyboard Layer 2 (Pass)
//Storyboard Layer 3 (Foreground)
//Storyboard Sound Samples

[TimingPoints]
1933,472.44094488189,4,2,22,40,1,0
9492,-142.857142857143,4,2,22,40,0,0
15161,-142.857142857143,4,2,22,40,0,0
15870,-142.857142857143,4,2,22,20,0,0
16342,-100,4,2,22,40,0,0
17051,-90.9090909090909,4,2,22,50,0,0
29807,-90.9090909090909,4,2,22,50,0,0
34058,-111.111111111111,4,2,22,40,0,0
49177,-100,4,2,22,50,0,0
64295,-76.9230769230769,4,2,22,60,0,0
65240,-90.9090909090909,4,2,22,55,0,0
66184,-76.9230769230769,4,2,22,60,0,0
68074,-100,4,2,22,50,0,0
71854,-76.9230769230769,4,2,22,60,0,0
72799,-90.9090909090909,4,2,22,55,0,0
73744,-76.9230769230769,4,2,22,60,0,0
75633,-90.9090909090909,4,2,22,50,0,0
77523,-76.9230769230769,4,2,22,50,0,0
79413,-90.9090909090909,4,2,22,50,0,0
83192,-83.3333333333333,4,2,22,60,0,1
96421,-76.9230769230769,4,2,22,60,0,1
97602,-83.3333333333333,4,2,22,60,0,0
98310,-83.3333333333333,4,2,22,60,0,1
111539,-76.9230769230769,4,2,22,60,0,1
112720,-83.3333333333333,4,2,22,60,0,0
113350,-83.3333333333333,4,2,22,60,0,0
113429,-76.9230769230769,4,2,22,60,0,1
114846,-83.3333333333333,4,2,22,60,0,1
115318,-90.9090909090909,4,2,22,55,0,0
128074,-90.9090909090909,4,2,22,55,0,0
130436,-90.9090909090909,4,2,22,30,0,0
130909,-90.9090909090909,4,2,22,55,0,0

[Colours]
Combo1 : 255,150,220
Combo2 : 130,200,230
Combo3 : 170,170,255
Combo4 : 255,160,120

[HitObjects]
80,46,9492,6,0,L|72:191,1,139.999995727539,12|8,0:3|0:3,0:0:0:0:
179,275,10436,2,0,L|186:135,1,139.999995727539,8|8,0:3|0:3,0:0:0:0:
325,135,11381,2,0,L|333:275,1,139.999995727539,8|8,0:3|0:3,0:0:0:0:
439,185,12326,2,0,L|432:46,1,139.999995727539,8|8,0:3|0:3,0:0:0:0:
294,18,13271,5,12,0:3:0:0:
232,143,13744,1,8,0:3:0:0:
116,64,14216,2,0,P|49:50|1:69,1,104.999996795654,8|0,0:3|0:0,0:0:0:0:
10,94,14688,2,0,L|1:194,1,69.9999978637696,8|8,0:0|0:3,0:0:0:0:
50,239,15161,6,0,B|128:251|190:236|190:236|146:257|119:291,1,209.999993591309,14|2,0:3|0:0,0:0:0:0:
377,359,16460,5,8,0:3:0:0:
387,349,16578,2,0,L|390:261,1,66.6666666666667,8|8,0:0|0:3,0:0:0:0:
415,251,16814,2,0,L|474:249,2,33.3333333333333,2|2|2,0:0|0:0|0:0,0:0:0:0:
374,232,17051,6,0,P|365:179|377:116,1,110.000003356934,14|0,0:3|0:0,0:0:0:0:
324,40,17444,1,10,0:3:0:0:
324,40,17523,2,0,P|270:33|234:20,1,73.3333355712891,8|0,0:2|0:2,0:0:0:0:
207,53,17759,2,0,P|148:43|76:47,1,110.000003356934,10|0,0:2|0:2,0:0:0:0:
19,176,18232,6,0,P|67:173|93:184,1,73.3333355712891,10|0,0:3|0:2,0:0:0:0:
139,169,18468,2,0,P|167:191|183:223,1,73.3333355712891,10|0,0:2|0:2,0:0:0:0:
227,247,18704,2,0,P|229:302|203:350,1,110.000003356934,10|0,0:3|0:2,0:0:0:0:
60,283,19177,2,0,P|61:229|89:183,1,110.000003356934,8|8,0:3|0:2,0:0:0:0:
216,97,19649,6,0,L|297:91,1,73.3333355712891,10|8,0:3|0:2,0:0:0:0:
336,110,19885,2,0,L|417:104,1,73.3333355712891,8|0,0:3|0:3,0:0:0:0:
456,125,20121,2,0,P|480:174|466:226,1,110.000003356934,8|8,0:2|0:2,0:0:0:0:
349,326,20594,2,0,L|349:369,2,36.6666677856446,10|2|2,0:3|0:2|0:2,0:0:0:0:
313,288,20830,6,0,P|266:261|213:270,1,110.000003356934,14|0,0:3|0:2,0:0:0:0:
134,335,21224,1,10,0:3:0:0:
134,335,21303,2,0,P|94:341|48:325,1,73.3333355712891,8|0,0:2|0:2,0:0:0:0:
30,292,21539,2,0,L|18:181,1,110.000003356934,10|0,0:3|0:2,0:0:0:0:
86,43,22011,6,0,P|127:33|168:41,1,73.3333355712891,10|0,0:3|0:2,0:0:0:0:
188,78,22247,2,0,P|151:99|128:134,1,73.3333355712891,10|0,0:2|0:2,0:0:0:0:
135,174,22484,2,0,P|191:171|238:197,1,110.000003356934,10|0,0:3|0:2,0:0:0:0:
333,317,22956,2,0,P|380:342|435:339,1,110.000003356934,8|8,0:3|0:2,0:0:0:0:
489,194,23429,6,0,L|496:113,1,73.3333355712891,8|0,0:3|0:2,0:0:0:0:
474,74,23665,2,0,P|440:63|393:68,1,73.3333355712891,8|0,0:2|0:2,0:0:0:0:
366,101,23901,2,0,P|319:109|248:81,1,110.000003356934,8|8,0:3|0:2,0:0:0:0:
117,32,24373,2,0,L|68:25,2,36.6666677856446,10|2|2,0:3|0:2|0:2,0:0:0:0:
154,67,24610,6,0,P|168:119|152:170,1,110.000003356934,14|0,0:3|0:2,0:0:0:0:
70,234,25003,1,10,0:3:0:0:
69,234,25082,2,0,P|58:268|61:304,1,73.3333355712891,12|0,0:2|0:2,0:0:0:0:
102,336,25318,2,0,L|184:330,1,73.3333355712891,2|8,0:2|0:3,0:0:0:0:
380,312,25791,6,0,P|386:276|379:240,1,73.3333355712891,10|0,0:3|0:2,0:0:0:0:
422,212,26027,2,0,P|401:181|371:161,1,73.3333355712891,10|0,0:2|0:2,0:0:0:0:
380,111,26263,2,0,P|343:103|267:134,1,110.000003356934,10|0,0:3|0:2,0:0:0:0:
214,268,26736,2,0,P|163:289|109:283,1,110.000003356934,8|8,0:3|0:2,0:0:0:0:
8,167,27208,6,0,L|1:87,1,73.3333355712891,10|8,0:3|0:2,0:0:0:0:
32,52,27444,2,0,P|67:42|103:49,1,73.3333355712891,8|8,0:3|0:3,0:0:0:0:
148,73,27681,2,0,P|182:82|218:76,1,73.3333355712891,8|8,0:2|0:3,0:0:0:0:
264,51,27917,2,0,P|320:45|375:63,1,110.000003356934,10|10,0:2|0:3,0:0:0:0:
480,168,28389,6,0,B|463:192|463:192|463:285,1,110.000003356934,14|0,0:3|0:2,0:0:0:0:
383,337,28783,1,10,0:3:0:0:
383,337,28862,2,0,L|368:242,1,73.3333355712891,8|0,0:2|0:2,0:0:0:0:
335,227,29098,2,0,P|280:212|218:233,1,110.000003356934,10|14,0:2|0:2,0:0:0:0:
146,285,29492,1,2,0:2:0:0:
146,285,29570,2,0,P|91:292|54:273,1,73.3333355712891,8|8,0:3|0:2,0:0:0:0:
35,252,29807,6,0,L|27:151,1,73.3333355712891,2|8,0:2|0:3,0:0:0:0:
63,140,30043,2,0,L|71:39,1,73.3333355712891,8|0,0:2|0:2,0:0:0:0:
45,21,30279,1,14,0:3:0:0:
256,192,30358,12,10,32169,0:3:0:0:
213,48,33350,5,10,0:3:0:0:
202,149,33507,1,10,0:0:0:0:
413,314,34058,6,0,P|459:304|511:313,2,89.9999972534181,14|0|8,0:3|0:0|0:0,0:0:0:0:
294,358,34767,2,0,L|226:352,1,59.9999981689454,2|8,0:0|0:0,0:0:0:0:
194,337,35003,2,0,P|179:297|200:239,1,89.9999972534181,10|8,0:3|0:3,0:0:0:0:
281,165,35476,1,8,0:0:0:0:
226,50,35712,1,10,0:3:0:0:
99,65,35948,6,0,P|54:64|14:44,1,89.9999972534181,10|8,0:3|0:3,0:0:0:0:
6,132,36342,1,2,0:0:0:0:
6,132,36421,2,0,L|-2:239,1,89.9999972534181,8|0,0:0|0:0,0:0:0:0:
58,289,36814,1,8,0:0:0:0:
58,289,36893,2,0,P|99:273|144:279,2,89.9999972534181,10|8|8,0:3|0:3|0:0,0:0:0:0:
3,174,37602,1,2,0:3:0:0:
98,91,37838,6,0,L|102:-2,2,89.9999972534181,14|0|8,0:3|0:0|0:0,0:0:0:0:
204,159,38547,2,0,P|233:163|261:155,1,59.9999981689454,2|8,0:0|0:0,0:0:0:0:
291,125,38783,2,0,P|335:113|388:135,1,89.9999972534181,10|8,0:3|0:3,0:0:0:0:
473,207,39255,1,8,0:0:0:0:
449,331,39492,1,10,0:3:0:0:
329,372,39728,6,0,L|232:361,1,89.9999972534181,10|8,0:3|0:3,0:0:0:0:
179,303,40121,1,2,0:0:0:0:
179,303,40200,2,0,P|179:248|174:199,1,89.9999972534181,8|0,0:0|0:0,0:0:0:0:
107,165,40594,1,8,0:0:0:0:
107,165,40673,2,0,P|103:120|103:75,1,89.9999972534181,8|8,0:3|0:3,0:0:0:0:
219,27,41145,2,0,P|249:27|282:23,1,59.9999981689454,8|8,0:0|0:0,0:0:0:0:
318,38,41381,2,0,P|348:38|381:42,1,59.9999981689454,10|8,0:3|0:3,0:0:0:0:
409,70,41618,6,0,P|413:115|413:160,2,89.9999972534181,14|0|8,0:3|0:0|0:0,0:0:0:0:
287,34,42326,2,0,P|251:31|217:24,1,59.9999981689454,2|8,0:0|0:0,0:0:0:0:
189,44,42562,2,0,P|141:33|80:34,1,89.9999972534181,10|8,0:3|0:3,0:0:0:0:
8,118,43035,1,8,0:0:0:0:
63,233,43271,1,10,0:3:0:0:
189,216,43507,6,0,P|237:205|298:206,1,89.9999972534181,10|8,0:3|0:3,0:0:0:0:
350,257,43901,1,2,0:0:0:0:
350,257,43980,2,0,L|361:364,1,89.9999972534181,8|0,0:0|0:0,0:0:0:0:
445,367,44373,1,8,0:0:0:0:
445,367,44452,2,0,L|456:260,2,89.9999972534181,10|8|8,0:3|0:3|0:0,0:0:0:0:
323,331,45161,1,10,0:3:0:0:
201,364,45397,6,0,L|107:359,2,89.9999972534181,14|0|8,0:3|0:0|0:2,0:0:0:0:
322,331,46106,2,0,P|328:301|329:271,1,59.9999981689454,2|8,0:0|0:0,0:0:0:0:
314,232,46342,2,0,P|313:189|323:135,1,89.9999972534181,10|8,0:3|0:3,0:0:0:0:
419,63,46814,1,8,0:0:0:0:
301,16,47051,1,10,0:3:0:0:
201,94,47287,6,0,L|104:83,1,89.9999972534181,10|8,0:3|0:3,0:0:0:0:
36,121,47681,1,2,0:0:0:0:
36,121,47759,2,0,L|31:225,1,89.9999972534181,8|10,0:2|0:2,0:0:0:0:
29,225,48074,1,8,0:0:0:0:
27,240,48153,1,8,0:0:0:0:
25,254,48232,2,0,L|21:344,1,89.9999972534181,8|8,0:2|0:3,0:0:0:0:
142,375,48704,2,0,L|202:371,1,59.9999981689454,8|8,0:2|0:3,0:0:0:0:
238,351,48940,2,0,L|243:284,1,59.9999981689454,10|0,0:3|0:3,0:0:0:0:
271,253,49177,6,0,P|317:243|368:257,2,100,14|0|8,0:3|0:0|0:0,0:0:0:0:
144,191,49885,2,0,L|133:115,1,66.6666666666667,10|8,0:3|0:0,0:0:0:0:
114,83,50121,2,0,P|66:69|17:79,1,100,2|8,0:0|0:3,0:0:0:0:
8,219,50594,1,8,0:0:0:0:
144,191,50830,1,10,0:3:0:0:
234,296,51066,6,0,P|282:305|330:291,1,100,10|8,0:3|0:3,0:0:0:0:
411,241,51460,1,2,0:3:0:0:
411,241,51539,2,0,L|417:138,1,100,8|0,0:2|0:3,0:0:0:0:
370,67,51933,1,8,0:0:0:0:
370,67,52011,2,0,P|324:47|275:50,2,100,10|8|8,0:3|0:3|0:0,0:0:0:0:
414,200,52720,1,2,0:3:0:0:
362,329,52956,6,0,P|316:348|267:346,2,100,14|0|8,0:3|0:0|0:0,0:0:0:0:
414,200,53665,2,0,L|418:127,1,66.6666666666667,2|8,0:0|0:0,0:0:0:0:
393,94,53901,2,0,P|347:74|298:76,1,100,10|8,0:3|0:3,0:0:0:0:
174,143,54373,1,8,0:0:0:0:
41,98,54610,1,10,0:3:0:0:
1,232,54846,6,0,L|5:344,1,100,10|8,0:3|0:3,0:0:0:0:
96,368,55240,1,2,0:0:0:0:
96,368,55318,2,0,P|153:354|204:357,1,100,8|8,0:2|0:3,0:0:0:0:
285,373,55712,1,8,0:0:0:0:
285,373,55791,2,0,L|289:261,1,100,8|8,0:3|0:3,0:0:0:0:
197,166,56263,2,0,P|161:155|119:154,1,66.6666666666667,8|8,0:0|0:0,0:0:0:0:
88,135,56499,2,0,L|83:65,1,66.6666666666667,10|8,0:3|0:3,0:0:0:0:
115,34,56736,6,0,P|152:23|217:24,2,100,14|0|8,0:3|0:0|0:2,0:0:0:0:
39,152,57444,2,0,L|32:231,1,66.6666666666667,10|8,0:3|0:0,0:0:0:0:
67,249,57681,2,0,P|116:247|164:259,1,100,10|8,0:3|0:3,0:0:0:0:
273,349,58153,1,8,0:0:0:0:
404,300,58389,1,10,0:3:0:0:
427,162,58625,6,0,L|432:61,1,100,10|8,0:3|0:3,0:0:0:0:
352,22,59019,1,2,0:0:0:0:
352,22,59098,2,0,P|304:24|250:11,1,100,8|8,0:2|0:3,0:0:0:0:
175,58,59492,1,8,0:0:0:0:
175,58,59570,2,0,P|127:56|73:69,2,100,10|8|8,0:3|0:3|0:0,0:0:0:0:
242,181,60279,1,10,0:3:0:0:
366,118,60515,6,0,L|372:19,2,100,10|0|8,0:3|0:0|0:2,0:0:0:0:
412,250,61224,2,0,L|414:320,1,66.6666666666667,2|8,0:0|0:2,0:0:0:0:
382,351,61460,2,0,P|334:336|284:335,1,100,10|0,0:3|0:0,0:0:0:0:
147,369,61933,1,10,0:0:0:0:
73,250,62169,1,10,0:3:0:0:
163,142,62405,6,0,P|210:127|260:126,1,100,10|8,0:3|0:3,0:0:0:0:
348,175,62799,1,2,0:3:0:0:
348,175,62877,2,0,L|355:277,1,100,8|8,0:0|0:0,0:0:0:0:
359,290,63192,1,8,0:0:0:0:
362,306,63271,1,8,0:0:0:0:
366,321,63350,2,0,P|415:319|463:305,1,100,8|8,0:0|0:0,0:0:0:0:
507,170,63822,2,0,L|511:97,1,66.6666666666667,8|0,0:2|0:0,0:0:0:0:
489,62,64058,2,0,P|456:53|413:57,1,66.6666666666667,10|0,0:3|0:0,0:0:0:0:
371,87,64295,6,0,P|314:99|237:78,1,129.999994049073,14|8,0:0|0:3,0:0:0:0:
119,78,64688,2,0,P|176:66|253:87,1,129.999994049073,14|8,0:2|0:3,0:0:0:0:
272,136,65003,2,0,L|266:240,1,86.6666626993817,12|0,0:0|0:0,0:0:0:0:
295,271,65240,2,0,L|345:267,2,36.6666677856446,8|8|8,3:3|3:3|3:3,0:0:0:0:
255,311,65476,2,0,L|206:313,2,36.6666677856446,8|8|8,3:2|3:2|3:2,0:0:0:0:
293,351,65712,2,0,B|354:362|354:362|409:332,1,110.000003356934,10|8,0:0|0:3,0:0:0:0:
484,179,66184,6,0,B|470:138|492:101|492:101|494:75|483:53,1,129.999994049073,14|8,0:0|0:3,0:0:0:0:
357,53,66578,2,0,B|398:67|435:45|435:45|461:43|482:53,1,129.999994049073,14|8,0:2|0:3,0:0:0:0:
443,100,66893,2,0,P|428:169|456:222,1,129.999994049073,14|8,0:0|3:3,0:0:0:0:
461,239,67208,1,8,3:3:0:0:
466,260,67287,1,8,3:3:0:0:
464,281,67366,2,0,B|417:311|351:286|376:273|305:249|256:285,1,216.666656748454,14|14,0:3|0:0,0:0:0:0:
89,367,68074,6,0,P|36:378|-18:359,1,100,14|8,0:3|0:0,0:0:0:0:
0,225,68547,2,0,P|58:216|101:229,1,100,10|8,0:3|0:0,0:0:0:0:
183,261,68940,2,0,P|231:266|280:245,1,100,10|8,0:3|0:3,0:0:0:0:
298,204,69255,2,0,P|289:160|311:104,2,100,10|10|10,0:0|0:3|0:0,0:0:0:0:
210,313,69964,6,0,L|84:308,1,100,10|8,0:3|0:0,0:0:0:0:
31,258,70358,1,2,0:3:0:0:
31,258,70436,2,0,P|18:205|36:163,1,100,8|10,0:3|0:0,0:0:0:0:
114,114,70830,2,0,L|218:113,1,100,10|8,0:3|0:3,0:0:0:0:
254,136,71145,2,0,L|374:135,1,100,10|8,0:0|0:0,0:0:0:0:
425,195,71539,1,8,0:0:0:0:
425,195,71618,2,0,P|432:233|423:271,1,66.6666666666667,10|8,0:3|0:3,0:0:0:0:
387,306,71854,6,0,P|324:288|253:320,1,129.999994049073,14|8,0:0|0:3,0:0:0:0:
143,312,72247,2,0,P|206:330|277:298,1,129.999994049073,12|8,0:2|0:3,0:0:0:0:
297,257,72562,2,0,L|294:159,1,86.6666626993817,12|0,0:0|0:0,0:0:0:0:
316,118,72799,2,0,L|324:71,2,36.6666677856446,8|8|8,3:3|3:3|3:3,0:0:0:0:
285,72,73035,2,0,L|277:25,2,36.6666677856446,8|8|8,3:2|3:2|3:2,0:0:0:0:
231,87,73271,2,0,L|112:75,1,110.000003356934,10|8,0:0|0:3,0:0:0:0:
11,222,73744,6,0,B|18:258|0:286|0:286|-8:314|4:352,1,129.999994049073,14|8,0:0|2:3,0:0:0:0:
129,339,74137,2,0,B|93:332|65:350|65:350|37:358|2:348,1,129.999994049073,14|8,0:2|0:3,0:0:0:0:
48,308,74452,2,0,P|108:291|171:308,1,129.999994049073,14|8,0:0|3:3,0:0:0:0:
192,316,74767,1,8,3:3:0:0:
213,321,74846,1,8,3:3:0:0:
234,325,74925,2,0,P|304:312|288:171,1,216.666656748454,14|14,0:3|0:0,0:0:0:0:
150,59,75633,6,0,L|20:50,2,110.000003356934,14|8|8,0:3|0:0|0:3,0:0:0:0:
260,166,76342,2,0,L|341:154,1,73.3333355712891,10|8,0:0|0:3,0:0:0:0:
372,122,76578,2,0,L|500:128,2,110.000003356934,10|8|8,0:3|0:0|0:3,0:0:0:0:
219,144,77287,2,0,L|138:132,1,73.3333355712891,10|8,0:0|0:3,0:0:0:0:
88,150,77523,6,0,P|60:204|80:271,1,129.999994049073,6|8,0:2|0:3,0:0:0:0:
165,351,77917,2,0,L|307:358,1,129.999994049073,14|0,0:2|0:3,0:0:0:0:
341,317,78232,2,0,P|366:258|347:198,1,129.999994049073,6|8,0:0|0:3,0:0:0:0:
236,147,78625,2,0,L|94:140,1,129.999994049073,14|8,0:0|0:3,0:0:0:0:
49,163,78940,2,0,L|3:158,2,43.3333313496908,8|8|8,3:2|3:2|3:2,0:0:0:0:
84,214,79177,2,0,L|130:219,2,43.3333313496908,8|8|8,3:3|3:3|3:3,0:0:0:0:
40,257,79413,5,14,0:0:0:0:
296,345,80279,6,0,B|337:337|337:337|361:345|361:345|406:338,1,110.000003356934,14|8,0:0|0:3,0:0:0:0:
439,301,80594,2,0,B|446:259|446:259|439:236|439:236|446:191,1,110.000003356934,14|8,0:3|0:3,0:0:0:0:
488,99,80988,1,14,0:0:0:0:
344,44,81224,1,8,0:3:0:0:
344,44,81303,2,0,B|303:36|303:36|279:44|279:44|234:37,2,110.000003356934,10|10|10,0:2|0:3|0:3,0:0:0:0:
422,176,82011,5,10,0:0:0:0:
488,99,82169,1,10,0:3:0:0:
15,87,83192,6,0,P|72:72|127:92,1,119.999996337891,12|8,2:3|0:2,0:0:0:0:
180,198,83586,1,10,0:3:0:0:
180,198,83665,2,0,L|168:285,1,79.9999975585938,8|0,0:3|0:0,0:0:0:0:
184,331,83901,2,0,P|220:343|273:337,1,79.9999975585938,10|8,0:2|0:3,0:0:0:0:
307,309,84137,2,0,P|364:294|434:329,1,119.999996337891,2|8,0:2|0:0,0:0:0:0:
505,242,84531,1,2,0:0:0:0:
505,242,84610,2,0,P|490:185|525:115,1,119.999996337891,8|10,2:3|0:2,0:0:0:0:
375,30,85082,6,0,P|318:45|248:10,1,119.999996337891,10|8,0:3|0:2,0:0:0:0:
157,63,85476,1,10,0:3:0:0:
157,63,85555,2,0,L|150:148,1,79.9999975585938,8|8,0:3|0:3,0:0:0:0:
176,192,85791,2,0,P|191:264|165:304,1,119.999996337891,10|2,0:2|0:3,0:0:0:0:
61,319,86184,1,8,0:3:0:0:
61,319,86263,2,0,P|22:274|25:215,2,119.999996337891,10|10|10,0:2|0:3|0:2,0:0:0:0:
229,324,86972,6,0,P|285:305|343:316,1,119.999996337891,6|8,0:2|0:0,0:0:0:0:
449,371,87366,1,10,0:3:0:0:
449,371,87444,2,0,L|454:284,1,79.9999975585938,8|8,0:3|0:3,0:0:0:0:
479,240,87681,2,0,L|474:153,1,79.9999975585938,10|8,0:2|0:3,0:0:0:0:
442,113,87917,2,0,P|385:93|327:104,1,119.999996337891,2|8,0:0|0:0,0:0:0:0:
250,184,88310,1,2,0:0:0:0:
250,184,88389,2,0,P|191:194|135:174,1,119.999996337891,8|10,0:3|0:2,0:0:0:0:
25,46,88862,6,0,P|82:60|137:40,1,119.999996337891,10|8,0:3|0:0,0:0:0:0:
252,52,89255,1,10,0:3:0:0:
252,52,89334,2,0,P|296:40|339:44,1,79.9999975585938,8|8,0:3|0:3,0:0:0:0:
365,85,89570,2,0,L|496:92,1,119.999996337891,10|2,0:2|0:3,0:0:0:0:
512,204,89964,1,12,0:2:0:0:
511,204,90043,2,0,P|494:242|493:283,1,79.9999975585938,8|8,0:3|0:3,0:0:0:0:
450,324,90279,2,0,L|349:317,1,79.9999975585938,12|8,0:0|0:3,0:0:0:0:
318,340,90515,2,0,L|217:333,1,79.9999975585938,10|8,0:2|0:0,0:0:0:0:
186,308,90751,6,0,P|173:251|194:196,1,119.999996337891,14|8,0:3|0:0,0:0:0:0:
296,147,91145,1,8,0:3:0:0:
296,147,91224,2,0,P|317:91|304:34,1,119.999996337891,0|8,0:3|0:2,0:0:0:0:
194,58,91618,1,8,0:3:0:0:
194,58,91696,2,0,L|58:47,1,119.999996337891,2|8,0:0|0:0,0:0:0:0:
1,133,92090,1,2,0:0:0:0:
1,133,92169,1,8,0:3:0:0:
30,298,92405,1,10,0:2:0:0:
159,191,92641,6,0,L|295:180,1,119.999996337891,10|8,0:3|0:0,0:0:0:0:
392,211,93035,1,8,0:3:0:0:
392,211,93114,2,0,P|419:262|402:318,1,119.999996337891,0|8,0:0|0:2,0:0:0:0:
301,363,93507,1,8,0:3:0:0:
301,363,93586,2,0,L|165:352,1,119.999996337891,2|8,0:0|0:0,0:0:0:0:
74,375,93980,1,0,0:0:0:0:
74,375,94058,1,10,0:3:0:0:
4,221,94295,1,10,0:2:0:0:
107,89,94531,6,0,L|243:78,1,119.999996337891,14|8,0:3|0:0,0:0:0:0:
316,156,94925,1,10,0:3:0:0:
316,156,95003,2,0,L|333:242,1,79.9999975585938,8|8,0:3|0:3,0:0:0:0:
368,278,95240,2,0,P|403:286|452:260,1,79.9999975585938,10|8,0:2|0:3,0:0:0:0:
483,231,95476,2,0,L|485:111,1,119.999996337891,2|8,0:0|0:0,0:0:0:0:
410,36,95870,1,2,0:0:0:0:
410,36,95948,2,0,P|371:25|317:32,1,79.9999975585938,8|0,0:3|0:0,0:0:0:0:
295,69,96184,2,0,P|255:71|216:60,1,79.9999975585938,10|8,0:2|0:3,0:0:0:0:
164,37,96421,6,0,P|90:20|40:61,1,129.999994049073,10|8,0:3|0:0,0:0:0:0:
15,164,96814,1,2,0:2:0:0:
15,164,96893,2,0,L|24:261,1,86.6666626993817,8|8,0:3|0:3,0:0:0:0:
65,293,97129,2,0,P|132:257|190:284,1,129.999994049073,10|8,0:3|0:3,0:0:0:0:
286,331,97523,1,12,0:2:0:0:
286,331,97602,6,0,P|316:334|382:315,1,79.9999975585938,2|8,0:0|0:3,0:0:0:0:
402,282,97838,2,0,L|402:229,2,39.9999987792969,10|8|8,3:2|3:2|3:2,0:0:0:0:
442,321,98074,2,0,L|446:374,2,39.9999987792969,10|8|8,3:3|3:3|3:3,0:0:0:0:
486,285,98310,6,0,P|500:228|476:175,1,119.999996337891,12|8,2:3|0:2,0:0:0:0:
379,127,98704,1,10,0:3:0:0:
379,127,98783,2,0,P|329:127|295:110,1,79.9999975585938,0|0,0:3|0:0,0:0:0:0:
256,82,99019,2,0,P|218:67|179:70,1,79.9999975585938,10|8,0:2|0:3,0:0:0:0:
132,100,99255,2,0,L|0:86,1,119.999996337891,2|8,0:2|0:0,0:0:0:0:
74,188,99649,1,2,0:0:0:0:
74,188,99728,2,0,P|94:243|79:300,1,119.999996337891,8|10,2:3|0:2,0:0:0:0:
229,373,100200,6,0,P|276:338|335:338,1,119.999996337891,10|8,0:3|0:2,0:0:0:0:
451,361,100594,1,10,0:3:0:0:
451,361,100673,2,0,L|458:276,1,79.9999975585938,8|8,0:3|0:3,0:0:0:0:
451,225,100909,2,0,P|403:189|343:187,1,119.999996337891,10|2,0:2|0:3,0:0:0:0:
247,237,101303,1,8,0:3:0:0:
247,237,101381,2,0,P|188:244|136:216,2,119.999996337891,10|10|10,0:2|0:3|0:2,0:0:0:0:
328,89,102090,6,0,P|382:66|440:80,1,119.999996337891,6|8,0:2|0:0,0:0:0:0:
490,187,102484,1,10,0:3:0:0:
490,187,102562,2,0,L|484:273,1,79.9999975585938,8|8,0:3|0:3,0:0:0:0:
444,306,102799,2,0,P|405:296|352:300,1,79.9999975585938,10|8,0:2|0:3,0:0:0:0:
329,340,103035,2,0,P|272:359|214:335,1,119.999996337891,2|8,0:0|0:0,0:0:0:0:
142,264,103429,1,2,0:0:0:0:
142,264,103507,2,0,L|134:132,1,119.999996337891,8|10,0:3|0:2,0:0:0:0:
254,26,103980,6,0,P|311:39|366:19,1,119.999996337891,10|8,0:3|0:0,0:0:0:0:
477,56,104373,1,10,0:3:0:0:
477,56,104452,2,0,P|490:97|482:149,1,79.9999975585938,8|8,0:3|0:3,0:0:0:0:
451,177,104688,2,0,L|440:301,1,119.999996337891,10|2,0:2|0:3,0:0:0:0:
335,323,105082,1,12,0:2:0:0:
335,323,105161,2,0,L|325:220,1,79.9999975585938,8|8,0:3|0:3,0:0:0:0:
298,195,105397,2,0,P|254:182|203:197,1,79.9999975585938,12|8,0:0|0:3,0:0:0:0:
188,233,105633,2,0,L|170:311,1,79.9999975585938,10|8,0:2|0:0,0:0:0:0:
132,353,105870,6,0,P|71:365|7:325,1,119.999996337891,14|8,0:3|0:0,0:0:0:0:
6,234,106263,1,8,0:3:0:0:
6,234,106342,2,0,L|15:109,1,119.999996337891,0|8,0:0|0:2,0:0:0:0:
120,77,106736,1,8,0:3:0:0:
120,77,106814,2,0,P|181:89|245:49,1,119.999996337891,2|8,0:0|0:0,0:0:0:0:
324,1,107208,1,2,0:0:0:0:
324,1,107287,1,8,0:3:0:0:
488,36,107523,1,10,0:2:0:0:
480,203,107759,6,0,L|471:328,1,119.999996337891,10|8,0:3|0:0,0:0:0:0:
365,359,108153,1,8,0:3:0:0:
365,359,108232,2,0,L|356:234,1,119.999996337891,0|8,0:0|0:2,0:0:0:0:
303,147,108625,1,8,0:3:0:0:
303,147,108704,2,0,P|258:129|173:152,1,119.999996337891,2|8,0:0|0:0,0:0:0:0:
117,227,109098,1,0,0:0:0:0:
117,227,109177,1,10,0:3:0:0:
263,310,109413,1,10,0:2:0:0:
303,147,109649,6,0,L|310:12,1,119.999996337891,14|8,0:3|0:0,0:0:0:0:
199,51,110043,1,10,0:3:0:0:
199,51,110121,2,0,P|147:49|107:31,1,79.9999975585938,8|8,0:3|0:3,0:0:0:0:
70,65,110358,2,0,L|58:158,1,79.9999975585938,10|8,0:2|0:3,0:0:0:0:
31,193,110594,2,0,L|33:313,1,119.999996337891,2|8,0:0|0:0,0:0:0:0:
138,365,110988,1,2,0:0:0:0:
138,365,111066,2,0,P|175:352|215:353,1,79.9999975585938,8|0,0:3|0:0,0:0:0:0:
269,369,111303,2,0,P|308:370|346:357,1,79.9999975585938,10|8,0:2|0:3,0:0:0:0:
398,326,111539,6,0,L|406:179,1,129.999994049073,10|8,0:3|0:0,0:0:0:0:
450,87,111933,1,2,0:2:0:0:
450,87,112011,2,0,P|413:95|352:69,1,86.6666626993817,8|8,0:3|0:3,0:0:0:0:
316,46,112247,2,0,P|249:19|191:37,1,129.999994049073,10|8,0:3|0:3,0:0:0:0:
116,126,112641,1,12,0:2:0:0:
116,126,112720,6,0,L|108:208,1,79.9999975585938,2|8,0:0|0:3,0:0:0:0:
65,241,112956,2,0,L|0:234,2,39.9999987792969,10|8|8,3:2|3:2|3:2,0:0:0:0:
101,284,113192,2,0,L|94:349,2,39.9999987792969,10|8|8,3:3|3:3|3:3,0:0:0:0:
144,248,113429,6,0,P|201:230|279:286,1,129.999994049073,14|8,0:2|0:3,0:0:0:0:
353,337,113822,2,0,P|409:365|470:347,1,129.999994049073,14|0,0:0|0:3,0:0:0:0:
502,295,114137,2,0,L|511:156,1,129.999994049073,10|8,0:0|0:3,0:0:0:0:
476,48,114531,2,0,P|419:19|358:37,1,129.999994049073,14|0,0:0|0:3,0:0:0:0:
321,79,114846,2,0,L|320:127,2,39.9999987792969,10|0|0,3:2|3:3|3:3,0:0:0:0:
280,40,115082,2,0,L|278:-11,2,39.9999987792969,0|0|0,3:2|3:0|3:0,0:0:0:0:
242,74,115318,6,0,P|188:91|122:58,1,110.000003356934,14|0,0:3|0:0,0:0:0:0:
45,116,115712,1,10,0:3:0:0:
45,116,115791,2,0,P|57:157|55:203,1,73.3333355712891,8|0,0:2|0:2,0:0:0:0:
30,230,116027,2,0,P|11:281|22:334,1,110.000003356934,10|0,0:2|0:2,0:0:0:0:
173,365,116499,6,0,P|207:354|243:358,1,73.3333355712891,10|0,0:3|0:2,0:0:0:0:
295,368,116736,2,0,P|323:346|339:314,1,73.3333355712891,10|0,0:2|0:2,0:0:0:0:
390,303,116972,2,0,P|397:245|370:193,1,110.000003356934,10|0,0:3|0:2,0:0:0:0:
222,186,117444,2,0,P|164:193|112:166,1,110.000003356934,8|8,0:3|0:2,0:0:0:0:
75,23,117917,6,0,L|156:17,1,73.3333355712891,10|8,0:3|0:2,0:0:0:0:
195,38,118153,2,0,L|276:32,1,73.3333355712891,8|0,0:3|0:3,0:0:0:0:
316,50,118389,2,0,L|427:41,1,110.000003356934,8|8,0:2|0:2,0:0:0:0:
497,177,118862,2,0,L|507:221,2,36.6666677856446,10|2|2,0:3|0:2|0:2,0:0:0:0:
457,144,119098,6,0,P|419:132|340:149,1,110.000003356934,14|0,0:3|0:2,0:0:0:0:
282,220,119492,1,10,0:3:0:0:
282,220,119570,2,0,P|242:226|196:210,1,73.3333355712891,8|0,0:2|0:2,0:0:0:0:
168,187,119807,2,0,P|115:173|61:185,1,110.000003356934,10|0,0:3|0:2,0:0:0:0:
8,328,120279,6,0,P|49:318|90:326,1,73.3333355712891,10|0,0:3|0:2,0:0:0:0:
125,344,120515,2,0,P|162:323|185:288,1,73.3333355712891,10|0,0:2|0:2,0:0:0:0:
230,310,120751,2,0,P|287:305|333:333,1,110.000003356934,10|0,0:3|0:2,0:0:0:0:
476,277,121224,2,0,L|486:139,1,110.000003356934,8|8,0:3|0:2,0:0:0:0:
398,38,121696,6,0,P|364:27|327:27,1,73.3333355712891,8|0,0:3|0:2,0:0:0:0:
295,70,121933,2,0,L|282:147,1,73.3333355712891,8|0,0:2|0:2,0:0:0:0:
255,186,122169,2,0,P|208:194|140:157,1,110.000003356934,8|8,0:3|0:2,0:0:0:0:
40,54,122641,2,0,L|1:44,2,36.6666677856446,10|2|2,0:3|0:2|0:2,0:0:0:0:
73,93,122877,6,0,P|80:146|60:197,1,110.000003356934,14|0,0:3|0:2,0:0:0:0:
8,293,123271,1,10,0:3:0:0:
7,293,123350,2,0,P|-4:327|-1:363,1,73.3333355712891,12|0,0:2|0:2,0:0:0:0:
50,369,123586,2,0,P|82:355|134:360,1,73.3333355712891,2|8,0:2|0:3,0:0:0:0:
322,322,124058,6,0,P|335:288|335:251,1,73.3333355712891,10|0,0:3|0:2,0:0:0:0:
383,232,124295,2,0,P|368:197|343:171,1,73.3333355712891,10|0,0:2|0:2,0:0:0:0:
363,125,124531,2,0,P|333:101|251:94,1,110.000003356934,10|0,0:3|0:2,0:0:0:0:
120,146,125003,2,0,P|66:156|15:138,1,110.000003356934,8|8,0:3|0:2,0:0:0:0:
0,291,125476,6,0,P|32:281|86:287,1,73.3333355712891,10|8,0:3|0:2,0:0:0:0:
116,306,125712,2,0,P|148:316|202:310,1,73.3333355712891,8|8,0:3|0:3,0:0:0:0:
227,282,125948,2,0,P|259:272|313:278,1,73.3333355712891,8|8,0:2|0:3,0:0:0:0:
339,304,126184,2,0,P|395:310|450:292,1,110.000003356934,10|10,0:2|0:3,0:0:0:0:
502,150,126657,6,0,B|479:123|479:123|477:36,1,110.000003356934,14|0,0:3|0:2,0:0:0:0:
377,24,127051,1,10,0:3:0:0:
377,24,127129,2,0,P|331:27|286:15,1,73.3333355712891,8|0,0:2|0:2,0:0:0:0:
256,42,127366,2,0,P|201:27|139:48,1,110.000003356934,10|14,0:2|0:2,0:0:0:0:
89,122,127759,1,2,0:2:0:0:
89,122,127838,2,0,L|89:206,1,73.3333355712891,8|8,0:3|0:2,0:0:0:0:
117,238,128074,6,0,P|152:246|187:236,1,73.3333355712891,2|8,0:2|0:3,0:0:0:0:
232,211,128310,2,0,P|267:202|302:212,1,73.3333355712891,8|0,0:2|0:2,0:0:0:0:
342,246,128547,1,14,0:3:0:0:
256,192,128625,12,10,130436,0:3:0:0:
137,201,130909,6,0,L|133:246,2,36.6666677856446,8|8|8,0:2|0:2|0:2,0:0:0:0:
166,151,131145,2,0,L|162:106,2,36.6666677856446,8|8|8,0:3|0:3|0:3,0:0:0:0:
217,180,131381,1,12,0:2:0:0:
377,107,131618,5,8,0:2:0:0:
402,221,131775,1,4,0:0:0:0:
