osu file format v14

[General]
AudioFilename: audio.mp3
AudioLeadIn: 0
PreviewTime: 82484
Countdown: 0
SampleSet: Soft
StackLeniency: 0.4
Mode: 0
LetterboxInBreaks: 0
WidescreenStoryboard: 1

[Editor]
DistanceSpacing: 0.5
BeatDivisor: 6
GridSize: 32
TimelineZoom: 2.300002

[Metadata]
Title:Magenta Tear
TitleUnicode:Magenta Tear
Artist:Shimotsuki Haruka
ArtistUnicode:霜月はるか
Creator:Lasse
Version:Expert
Source:働くオトナの恋愛事情2
Tags:Hataraku Otona no Ren'ai Jijou 2 eroge visual novel opening short version Akabei Soft3 Mir
BeatmapID:1484261
BeatmapSetID:701258

[Difficulty]
HPDrainRate:6
CircleSize:4
OverallDifficulty:8.6
ApproachRate:9.2
SliderMultiplier:2.4
SliderTickRate:1

[Events]
//Background and Video events
0,0,"a.jpg",0,0
//Break Periods
//Storyboard Layer 0 (Background)
//Storyboard Layer 1 (Fail)
//Storyboard Layer 2 (Pass)
//Storyboard Layer 3 (Foreground)
//Storyboard Sound Samples

[TimingPoints]
1933,472.44094488189,4,2,22,35,1,0
1933,-111.111111111111,4,2,22,35,0,0
9019,-100,4,2,22,40,0,0
15161,-142.857142857143,4,2,22,40,0,0
15870,-142.857142857143,4,2,22,20,0,0
16342,-100,4,2,22,40,0,0
17051,-83.3333333333333,4,2,22,50,0,0
29807,-71.4285714285714,4,2,22,50,0,0
34058,-100,4,2,22,40,0,0
49177,-90.9090909090909,4,2,22,50,0,0
64295,-55.5555555555556,4,2,22,60,0,0
65240,-83.3333333333333,4,2,22,55,0,0
66184,-55.5555555555556,4,2,22,60,0,0
68074,-86.9565217391304,4,2,22,50,0,0
71854,-55.5555555555556,4,2,22,60,0,0
72799,-83.3333333333333,4,2,22,55,0,0
73744,-55.5555555555556,4,2,22,60,0,0
75633,-86.9565217391304,4,2,22,50,0,0
77523,-58.8235294117647,4,2,22,50,0,0
79413,-66.6666666666667,4,2,22,50,0,0
83192,-66.6666666666667,4,2,22,60,0,1
96421,-58.8235294117647,4,2,22,60,0,1
97602,-66.6666666666667,4,2,22,60,0,0
98310,-66.6666666666667,4,2,22,60,0,1
111539,-58.8235294117647,4,2,22,60,0,1
112720,-66.6666666666667,4,2,22,60,0,0
113350,-66.6666666666667,4,2,22,60,0,0
113429,-58.8235294117647,4,2,22,60,0,1
115318,-76.9230769230769,4,2,22,55,0,0
128074,-66.6666666666667,4,2,22,55,0,0
130436,-66.6666666666667,4,2,22,30,0,0
130909,-66.6666666666667,4,2,22,55,0,0

[Colours]
Combo1 : 255,150,220
Combo2 : 130,200,230
Combo3 : 170,170,255
Combo4 : 255,160,120

[HitObjects]
92,49,1933,6,0,P|168:55|195:126,1,161.999995056153,12|2,0:3|0:0,0:0:0:0:
181,256,2523,1,2,0:0:0:0:
181,256,2641,2,0,P|147:187|195:127,1,161.999995056153,2|2,0:0|0:0,0:0:0:0:
315,76,3232,1,2,0:0:0:0:
315,76,3350,2,0,P|272:139|196:128,1,161.999995056153,2|2,0:0|0:0,0:0:0:0:
196,128,4058,6,0,L|112:119,1,53.9999983520508,2|0,0:0|0:0,0:0:0:0:
254,186,4295,2,0,L|288:263,2,53.9999983520508,2|0|0,0:0|0:0|0:0,0:0:0:0:
276,107,4649,1,2,0:0:0:0:
276,107,4767,2,0,L|325:38,1,53.9999983520508,2|0,0:0|0:0,0:0:0:0:
200,132,5003,1,2,0:0:0:0:
200,132,5121,2,0,L|116:123,1,53.9999983520508,2|0,0:0|0:0,0:0:0:0:
148,253,5358,1,2,0:0:0:0:
148,253,5476,2,0,L|180:210,1,53.9999983520508,2|0,0:0|0:0,0:0:0:0:
289,296,5712,6,0,P|241:253|127:265,1,161.999995056153,2|2,0:0|0:0,0:0:0:0:
337,220,6303,1,2,0:0:0:0:
337,220,6421,2,0,P|316:158|212:112,1,161.999995056153,2|2,0:0|0:0,0:0:0:0:
420,183,7011,1,2,0:0:0:0:
420,183,7129,2,0,P|433:119|408:60,1,107.999996704102,2|2,0:0|0:0,0:0:0:0:
326,12,7484,6,0,P|281:33|206:16,1,107.999996704102,2|0,0:0|0:0,0:0:0:0:
421,79,7838,2,0,L|492:64,1,53.9999983520508,2|0,0:0|0:0,0:0:0:0:
341,131,8074,2,0,L|270:116,1,53.9999983520508,2|0,0:0|0:0,0:0:0:0:
420,183,8310,2,0,L|499:186,1,53.9999983520508,2|0,0:0|0:0,0:0:0:0:
258,195,8547,5,2,0:0:0:0:
207,131,8665,2,0,P|209:99|228:56,1,53.9999983520508,2|0,0:0|0:0,0:0:0:0:
108,223,8901,1,2,0:0:0:0:
90,148,9019,6,0,L|93:59,1,80,10|8,0:0|0:0,0:0:0:0:
137,42,9255,2,0,P|175:53|214:45,1,80,8|8,0:3|0:3,0:0:0:0:
292,8,9492,5,12,0:3:0:0:
295,23,9964,1,8,0:3:0:0:
298,38,10436,1,8,0:3:0:0:
301,53,10909,1,8,0:3:0:0:
406,78,11381,5,8,0:3:0:0:
403,93,11854,1,8,0:3:0:0:
400,108,12326,1,8,0:3:0:0:
397,123,12799,1,8,0:3:0:0:
335,199,13271,5,12,0:3:0:0:
338,214,13744,1,8,0:3:0:0:
341,229,14216,1,8,0:3:0:0:
295,366,14570,1,0,0:0:0:0:
230,323,14688,6,0,P|182:307|139:313,1,80,8|8,0:0|0:0,0:0:0:0:
110,331,14925,2,0,L|102:240,1,80,8|8,0:3|0:3,0:0:0:0:
45,175,15161,6,0,B|71:223|154:224|191:179|191:179|147:164|133:122,1,251.999992309571,14|2,0:3|0:0,0:0:0:0:
133,123,16460,5,8,0:3:0:0:
137,127,16519,1,8,0:3:0:0:
141,131,16578,2,0,P|179:138|222:108,1,80,8|8,0:0|0:3,0:0:0:0:
268,56,16814,5,2,0:0:0:0:
310,34,16893,1,2,0:0:0:0:
357,41,16972,1,2,0:0:0:0:
390,78,17051,6,0,B|406:117|394:154|394:154|395:187|436:201,1,143.999995605469,14|0,0:3|0:0,0:0:0:0:
501,359,17444,1,10,0:3:0:0:
488,322,17523,2,0,P|423:301|381:318,1,95.9999970703126,8|0,0:2|0:2,0:0:0:0:
266,322,17759,2,0,P|334:338|399:308,1,143.999995605469,10|0,0:2|0:2,0:0:0:0:
399,308,18232,6,0,P|420:265|424:212,1,95.9999970703126,10|0,0:3|0:2,0:0:0:0:
450,127,18468,2,0,P|429:170|425:223,1,95.9999970703126,10|0,0:2|0:2,0:0:0:0:
499,291,18704,2,0,P|490:224|423:219,1,143.999995605469,10|0,0:3|0:2,0:0:0:0:
424,218,19177,2,0,P|383:240|337:229,1,95.9999970703126,8|0,0:3|0:2,0:0:0:0:
269,273,19413,2,0,P|227:250|182:260,1,95.9999970703126,8|0,0:2|0:2,0:0:0:0:
138,329,19649,5,10,0:3:0:0:
61,188,19807,1,8,0:2:0:0:
44,178,19885,1,8,0:3:0:0:
219,194,20043,1,0,0:3:0:0:
236,184,20121,1,8,0:2:0:0:
138,329,20279,1,8,0:3:0:0:
138,348,20358,1,8,0:2:0:0:
144,115,20594,5,10,0:3:0:0:
169,74,20673,1,2,0:2:0:0:
213,57,20751,1,2,0:2:0:0:
258,71,20830,6,0,P|325:84|381:42,1,143.999995605469,14|0,0:3|0:2,0:0:0:0:
497,186,21224,1,10,0:3:0:0:
494,147,21303,2,0,P|465:133|379:143,1,95.9999970703126,8|0,0:2|0:2,0:0:0:0:
372,257,21539,2,0,P|415:201|402:133,1,143.999995605469,10|0,0:3|0:2,0:0:0:0:
402,133,22011,6,0,P|355:136|310:120,1,95.9999970703126,10|0,0:3|0:2,0:0:0:0:
322,21,22247,2,0,P|369:18|414:34,1,95.9999970703126,10|0,0:2|0:2,0:0:0:0:
419,147,22484,2,0,P|350:158|287:126,1,143.999995605469,10|0,0:3|0:2,0:0:0:0:
286,125,22956,6,0,P|241:108|193:112,1,95.9999970703126,8|0,0:3|0:2,0:0:0:0:
120,147,23192,2,0,P|73:150|28:134,1,95.9999970703126,8|0,0:2|0:2,0:0:0:0:
86,60,23429,6,0,P|109:93|118:168,1,95.9999970703126,8|0,0:3|0:2,0:0:0:0:
62,220,23665,2,0,P|79:183|139:138,1,95.9999970703126,8|0,0:2|0:2,0:0:0:0:
155,234,23901,6,0,P|114:237|45:207,1,95.9999970703126,8|0,0:3|0:2,0:0:0:0:
189,320,24137,2,0,P|181:273|155:234,1,95.9999970703126,8|8,0:2|0:3,0:0:0:0:
120,147,24373,5,10,0:3:0:0:
121,97,24452,1,2,0:2:0:0:
160,70,24531,1,2,0:2:0:0:
207,76,24610,6,0,P|272:81|335:21,1,143.999995605469,14|0,0:3|0:2,0:0:0:0:
479,87,25003,1,10,0:3:0:0:
451,13,25082,2,0,P|413:40|401:86,1,95.9999970703126,12|0,0:2|0:2,0:0:0:0:
429,160,25318,2,0,P|467:132|479:86,1,95.9999970703126,2|8,0:2|0:3,0:0:0:0:
429,160,25791,6,0,P|405:200|412:247,1,95.9999970703126,10|0,0:3|0:2,0:0:0:0:
396,335,26027,2,0,P|419:294|412:247,1,95.9999970703126,10|0,0:2|0:2,0:0:0:0:
305,221,26263,2,0,P|348:272|411:248,1,143.999995605469,10|0,0:3|0:2,0:0:0:0:
411,247,26736,6,0,P|418:200|388:164,1,95.9999970703126,8|0,0:3|0:2,0:0:0:0:
305,221,26972,2,0,P|269:191|223:197,1,95.9999970703126,8|0,0:2|0:2,0:0:0:0:
147,259,27208,5,10,0:3:0:0:
84,100,27366,1,8,0:2:0:0:
79,81,27444,1,8,0:3:0:0:
56,250,27602,1,8,0:3:0:0:
51,269,27681,1,8,0:2:0:0:
172,125,27838,1,8,0:3:0:0:
186,112,27917,2,0,P|232:94|283:105,1,95.9999970703126,10|0,0:2|0:2,0:0:0:0:
370,146,28153,2,0,P|416:153|463:131,1,95.9999970703126,10|0,0:3|0:2,0:0:0:0:
489,0,28389,6,0,P|422:0|405:64,1,143.999995605469,14|0,0:3|0:2,0:0:0:0:
316,236,28783,1,10,0:3:0:0:
301,198,28862,2,0,P|260:175|213:177,1,95.9999970703126,8|0,0:2|0:2,0:0:0:0:
134,237,29098,2,0,P|89:241|47:214,1,71.9999978027344,10|8,0:2|0:3,0:0:0:0:
61,226,29275,1,8,0:3:0:0:
57,222,29334,6,0,L|50:141,1,47.9999985351563,14|0,0:2|0:2,0:0:0:0:
66,62,29492,1,2,0:2:0:0:
93,88,29570,2,0,P|146:101|192:81,1,95.9999970703126,8|8,0:3|0:2,0:0:0:0:
286,97,29807,6,0,P|236:73|183:87,1,111.999996582031,2|8,0:2|0:3,0:0:0:0:
221,206,30043,2,0,P|270:229|323:215,1,111.999996582031,8|0,0:2|0:2,0:0:0:0:
404,121,30279,5,14,0:3:0:0:
256,192,30358,12,10,32169,0:3:0:0:
339,21,33350,5,10,0:3:0:0:
309,229,33507,1,10,0:0:0:0:
309,229,34058,6,0,P|363:206|422:216,1,120,14|0,0:3|0:0,0:0:0:0:
441,349,34452,1,10,0:3:0:0:
441,349,34531,2,0,P|382:371|319:356,1,120,8|0,0:0|0:0,0:0:0:0:
226,290,34925,1,8,0:0:0:0:
226,290,35003,2,0,P|167:268|98:277,1,120,10|8,0:3|0:3,0:0:0:0:
9,352,35397,1,2,0:0:0:0:
9,352,35476,1,8,0:0:0:0:
31,161,35712,1,10,0:3:0:0:
217,207,35948,6,0,L|356:197,1,120,10|8,0:3|0:3,0:0:0:0:
235,75,36342,1,2,0:0:0:0:
235,75,36421,2,0,L|110:66,1,120,8|0,0:0|0:0,0:0:0:0:
36,165,36814,1,8,0:0:0:0:
36,165,36893,2,0,P|56:222|41:289,2,120,10|8|8,0:3|0:3|0:0,0:0:0:0:
36,165,37602,1,2,0:3:0:0:
147,321,37838,6,0,P|215:299|268:319,1,120,14|0,0:3|0:0,0:0:0:0:
376,379,38232,1,10,0:3:0:0:
376,379,38310,2,0,P|438:386|495:355,1,120,8|0,0:0|0:0,0:0:0:0:
471,238,38704,1,8,0:0:0:0:
471,238,38783,2,0,L|476:112,1,120,10|8,0:3|0:3,0:0:0:0:
382,37,39177,1,2,0:0:0:0:
382,37,39255,1,8,0:0:0:0:
320,220,39492,1,10,0:3:0:0:
205,65,39728,6,0,P|140:47|74:71,1,120,10|8,0:3|0:3,0:0:0:0:
8,158,40121,1,2,0:0:0:0:
8,158,40200,2,0,L|3:289,1,120,8|0,0:0|0:0,0:0:0:0:
121,353,40594,1,8,0:0:0:0:
121,353,40673,1,8,0:3:0:0:
291,264,40909,1,8,0:3:0:0:
202,94,41145,2,0,L|94:84,1,80,8|8,0:0|0:0,0:0:0:0:
210,182,41381,2,0,L|315:172,1,80,10|8,0:3|0:3,0:0:0:0:
366,131,41618,6,0,P|389:76|379:18,1,120,14|0,0:3|0:0,0:0:0:0:
494,129,42011,1,10,0:3:0:0:
494,129,42090,2,0,P|471:197|482:247,1,120,8|0,0:0|0:0,0:0:0:0:
387,331,42484,1,8,0:0:0:0:
387,331,42562,2,0,P|330:305|261:310,1,120,10|8,0:3|0:3,0:0:0:0:
154,351,42956,1,2,0:0:0:0:
154,351,43035,1,8,0:0:0:0:
3,232,43271,1,10,0:3:0:0:
118,78,43507,6,0,P|171:59|256:63,1,120,10|8,0:3|0:3,0:0:0:0:
346,131,43901,1,2,0:0:0:0:
346,131,43980,2,0,L|354:256,1,120,8|0,0:0|0:0,0:0:0:0:
479,298,44373,1,8,0:0:0:0:
479,298,44452,2,0,L|483:171,2,120,10|8|8,0:3|0:3|0:0,0:0:0:0:
479,298,45161,1,10,0:3:0:0:
422,359,45279,1,2,0:0:0:0:
338,343,45397,6,0,P|272:316|212:329,1,120,14|0,0:3|0:0,0:0:0:0:
74,266,45791,1,8,0:3:0:0:
74,266,45870,2,0,P|133:271|186:245,1,120,8|0,0:2|0:0,0:0:0:0:
160,110,46263,1,8,0:0:0:0:
160,110,46342,2,0,P|100:104|47:130,1,120,10|8,0:3|0:3,0:0:0:0:
78,270,46736,1,2,0:0:0:0:
78,270,46814,1,8,0:0:0:0:
238,167,47051,1,10,0:3:0:0:
397,271,47287,6,0,P|454:284|507:255,1,120,10|8,0:3|0:3,0:0:0:0:
376,116,47681,1,2,0:0:0:0:
376,116,47759,2,0,P|322:105|277:128,1,80,8|0,0:2|0:2,0:0:0:0:
238,167,47995,1,10,0:2:0:0:
231,188,48074,1,8,0:0:0:0:
228,209,48153,1,8,0:0:0:0:
229,231,48232,5,8,0:2:0:0:
71,128,48468,1,8,0:3:0:0:
240,33,48704,2,0,P|286:16|339:22,1,80,8|8,0:2|0:3,0:0:0:0:
198,98,48940,2,0,P|158:88|125:66,1,80,10|0,0:3|0:3,0:0:0:0:
57,0,49177,6,0,P|76:62|71:128,1,132.00000402832,14|0,0:3|0:0,0:0:0:0:
11,255,49570,1,10,0:3:0:0:
11,255,49649,2,0,P|69:228|145:245,1,132.00000402832,8|8,0:0|0:3,0:0:0:0:
258,308,50043,1,8,0:0:0:0:
258,308,50121,2,0,P|316:335|392:318,1,132.00000402832,2|8,0:0|0:3,0:0:0:0:
497,245,50515,1,2,0:0:0:0:
497,245,50594,1,8,0:0:0:0:
440,41,50830,1,10,0:3:0:0:
288,188,51066,6,0,P|242:197|161:163,1,132.00000402832,10|8,0:3|0:3,0:0:0:0:
258,302,51460,1,2,0:3:0:0:
258,302,51539,2,0,P|304:293|385:327,1,132.00000402832,8|0,0:2|0:3,0:0:0:0:
501,249,51933,1,8,0:0:0:0:
501,249,52011,2,0,L|510:112,2,132.00000402832,10|8|8,0:3|0:3|0:0,0:0:0:0:
501,249,52720,1,2,0:3:0:0:
342,352,52956,6,0,P|283:321|216:328,1,132.00000402832,14|0,0:3|0:0,0:0:0:0:
88,376,53350,1,10,0:3:0:0:
88,376,53429,2,0,L|82:237,1,132.00000402832,8|0,0:0|0:0,0:0:0:0:
25,112,53822,1,8,0:0:0:0:
25,112,53901,2,0,P|89:127|148:91,1,132.00000402832,10|8,0:3|0:3,0:0:0:0:
261,18,54295,1,2,0:0:0:0:
261,18,54373,1,8,0:0:0:0:
377,240,54610,1,10,0:3:0:0:
495,30,54846,6,0,P|444:76|443:148,1,132.00000402832,10|8,0:3|0:3,0:0:0:0:
484,296,55240,1,2,0:0:0:0:
484,296,55318,2,0,P|441:247|377:241,1,132.00000402832,8|8,0:2|0:3,0:0:0:0:
253,313,55712,1,8,0:0:0:0:
253,313,55791,1,8,0:3:0:0:
217,104,56027,1,8,0:3:0:0:
89,253,56263,2,0,L|-14:242,1,88.000002685547,8|8,0:0|0:0,0:0:0:0:
165,303,56499,2,0,L|268:314,1,88.000002685547,10|8,0:3|0:3,0:3:0:0:
96,372,56736,6,0,P|68:314|89:253,1,132.00000402832,14|0,0:3|0:0,0:0:0:0:
193,160,57129,1,10,0:3:0:0:
193,160,57208,2,0,P|213:98|185:40,1,132.00000402832,8|8,0:2|0:3,0:0:0:0:
280,205,57602,1,8,0:0:0:0:
280,205,57681,2,0,P|323:157|387:151,1,132.00000402832,10|8,0:3|0:3,0:0:0:0:
507,225,58074,1,2,0:0:0:0:
507,225,58153,1,8,0:0:0:0:
441,24,58389,1,10,0:3:0:0:
280,205,58625,6,0,P|213:214|157:171,1,132.00000402832,10|8,0:3|0:3,0:0:0:0:
52,332,59019,1,2,0:0:0:0:
52,332,59098,2,0,P|105:296|169:306,1,132.00000402832,8|8,0:2|0:3,0:0:0:0:
305,343,59492,1,8,0:0:0:0:
305,343,59570,2,0,L|446:348,2,132.00000402832,10|8|8,0:3|0:3|0:0,0:0:0:0:
305,343,60279,1,10,0:3:0:0:
251,267,60397,1,2,0:0:0:0:
306,193,60515,6,0,P|324:130|314:65,1,132.00000402832,10|0,0:3|0:0,0:0:0:0:
181,18,60909,1,8,0:3:0:0:
181,18,60988,2,0,L|37:6,1,132.00000402832,8|0,0:2|0:0,0:0:0:0:
20,144,61381,1,8,0:2:0:0:
20,144,61460,2,0,L|164:132,1,132.00000402832,10|0,0:3|0:0,0:0:0:0:
321,259,61933,1,10,0:0:0:0:
385,58,62169,1,10,0:3:0:0:
443,281,62405,6,0,P|374:249|297:273,1,132.00000402832,10|8,0:3|0:3,0:0:0:0:
180,277,62799,1,2,0:3:0:0:
180,277,62877,2,0,L|81:260,1,88.000002685547,8|0,0:0|0:0,0:0:0:0:
48,183,63114,1,10,0:0:0:0:
65,152,63192,1,8,0:0:0:0:
68,116,63271,1,8,0:0:0:0:
53,83,63350,5,8,0:0:0:0:
0,349,63586,1,8,0:0:0:0:
149,101,63822,6,0,P|189:85|230:98,1,88.000002685547,8|0,0:2|0:0,0:0:0:0:
293,161,64058,2,0,P|334:171|374:155,1,88.000002685547,10|0,0:3|0:0,0:0:0:0:
483,27,64295,6,0,P|383:56|380:162,1,215.999993408203,14|8,0:0|0:3,0:0:0:0:
470,370,64688,2,0,P|509:277|432:212,1,215.999993408203,14|8,0:2|0:3,0:0:0:0:
305,313,65003,2,0,P|371:333|430:295,1,143.999995605469,12|0,0:0|0:0,0:0:0:0:
366,130,65240,5,8,3:3:0:0:
357,108,65318,1,8,3:3:0:0:
348,86,65397,1,8,3:2:0:0:
379,50,65476,1,8,3:2:0:0:
426,46,65555,1,8,3:2:0:0:
463,74,65633,1,8,3:2:0:0:
471,120,65712,6,0,L|522:126,1,47.9999985351563,10|0,0:0|0:0,0:0:0:0:
359,15,65870,2,0,L|308:4,1,47.9999985351563,2|0,0:3|0:0,0:0:0:0:
219,97,66027,2,0,L|172:102,1,47.9999985351563,2|0,0:0|0:0,0:0:0:0:
366,271,66184,6,0,P|373:147|285:132,1,215.999993408203,14|8,0:0|0:3,0:0:0:0:
61,178,66578,2,0,P|152:228|241:176,1,215.999993408203,14|8,0:2|0:3,0:0:0:0:
136,21,66893,2,0,P|68:0|2:66,1,143.999995605469,14|0,0:0|0:0,0:0:0:0:
172,102,67129,5,8,3:3:0:0:
213,74,67208,1,8,3:3:0:0:
263,76,67287,1,8,3:3:0:0:
298,110,67366,6,0,B|348:136|412:104|385:93|452:63|506:97,1,215.999993408203,14|0,0:3|0:0,0:0:0:0:
512,353,67759,1,14,0:0:0:0:
512,353,68074,6,0,P|428:322|366:340,1,138.000002632141,14|8,0:3|0:0,0:0:0:0:
253,353,68468,1,8,0:3:0:0:
253,353,68547,2,0,P|321:360|383:331,1,138.000002632141,10|8,0:3|0:0,0:0:0:0:
169,224,68940,6,0,P|120:201|32:234,1,138.000002632141,10|8,0:3|0:3,0:0:0:0:
108,289,69255,2,0,P|146:263|169:224,1,92.0000017547608,10|0,0:0|0:0,0:0:0:0:
190,138,69492,2,0,P|169:178|169:224,1,92.0000017547608,10|0,0:3|0:0,0:0:0:0:
254,200,69728,2,0,P|228:161|189:138,1,92.0000017547608,10|0,0:0|0:0,0:0:0:0:
254,200,69964,6,0,P|315:171|343:110,1,138.000002632141,10|8,0:3|0:0,0:0:0:0:
166,291,70358,1,2,0:3:0:0:
166,291,70436,2,0,P|193:229|255:200,1,138.000002632141,8|10,0:3|0:0,0:0:0:0:
432,19,70830,6,0,P|404:80|342:109,1,138.000002632141,10|8,0:3|0:3,0:0:0:0:
254,104,71145,2,0,P|209:89|148:86,1,92.0000017547608,10|8,0:0|0:3,0:0:0:0:
88,128,71381,2,0,P|68:171|59:231,1,92.0000017547608,8|8,0:0|0:0,0:0:0:0:
163,340,71618,2,0,P|120:324|81:298,1,92.0000017547608,10|8,0:3|0:3,0:0:0:0:
301,250,71854,6,0,P|199:246|163:340,1,215.999993408203,14|8,0:0|0:3,0:0:0:0:
355,329,72247,2,0,P|395:235|328:157,1,215.999993408203,12|8,0:2|0:3,0:0:0:0:
179,212,72562,2,0,P|231:258|301:250,1,143.999995605469,12|0,0:0|0:0,0:0:0:0:
334,82,72799,5,8,3:3:0:0:
341,59,72877,1,8,3:3:0:0:
348,36,72956,1,8,3:2:0:0:
395,33,73035,1,8,3:2:0:0:
431,63,73114,1,8,3:2:0:0:
437,109,73192,1,8,3:2:0:0:
411,147,73271,6,0,P|406:171|400:201,1,47.9999985351563,10|0,0:0|0:0,0:0:0:0:
311,297,73429,2,0,P|306:273|301:249,1,47.9999985351563,2|0,0:3|0:0,0:0:0:0:
199,145,73586,2,0,P|194:169|190:193,1,47.9999985351563,2|0,0:0|0:0,0:0:0:0:
40,277,73744,6,0,P|141:284|190:194,1,215.999993408203,14|8,0:0|2:3,0:0:0:0:
101,8,74137,2,0,P|54:101|96:198,1,215.999993408203,14|8,0:2|0:3,0:0:0:0:
286,148,74452,2,0,P|304:79|271:12,1,143.999995605469,14|0,0:0|0:0,0:0:0:0:
172,258,74688,5,8,3:3:0:0:
214,232,74767,1,8,3:3:0:0:
264,236,74846,1,8,3:3:0:0:
296,274,74925,6,0,P|387:322|461:212,1,215.999993408203,14|0,0:3|0:0,0:0:0:0:
482,15,75318,1,14,0:0:0:0:
482,15,75633,6,0,P|401:31|353:-2,2,138.000002632141,14|8|8,0:3|0:0|0:3,0:0:0:0:
512,141,76263,1,8,0:3:0:0:
512,141,76342,2,0,P|480:125|419:115,1,92.0000017547608,10|8,0:0|0:3,0:0:0:0:
353,155,76578,2,0,P|272:161|243:101,2,138.000002632141,10|8|8,0:3|0:0|0:3,0:0:0:0:
473,318,77208,1,8,0:3:0:0:
473,318,77287,2,0,P|489:275|478:231,1,92.0000017547608,10|8,0:0|0:3,0:0:0:0:
371,345,77523,6,0,B|271:301|277:398|177:355,1,204.000003890991,6|8,0:2|0:3,0:0:0:0:
147,133,77917,2,0,P|230:185|224:282,1,204.000003890991,14|0,0:2|0:3,0:0:0:0:
146,230,78232,6,0,B|245:186|239:283|339:240,1,204.000003890991,6|8,0:0|0:3,0:0:0:0:
340,239,78625,2,0,B|246:185|240:282|147:231,1,204.000003890991,14|8,0:0|0:3,0:0:0:0:
88,175,78940,5,8,3:2:0:0:
67,132,79019,1,8,3:2:0:0:
85,86,79098,1,8,3:3:0:0:
131,70,79177,1,8,3:3:0:0:
172,94,79255,1,8,3:3:0:0:
216,78,79334,1,8,3:3:0:0:
232,34,79413,5,14,0:0:0:0:
232,34,80279,6,0,B|298:22|298:22|338:45|338:45|404:36,1,180.000006866455,14|8,0:0|0:3,0:0:0:0:
298,135,80594,2,0,B|232:123|232:123|192:146|192:146|125:137,1,180.000006866455,14|8,0:3|0:3,0:0:0:0:
13,21,80988,1,14,0:0:0:0:
13,21,81224,6,0,L|5:67,2,30.0000011444092,8|8|10,0:3|0:3|0:2,0:0:0:0:
141,279,81539,1,10,0:3:0:0:
355,87,81775,2,0,P|413:74|472:77,1,120.000004577637,10|8,0:3|0:3,0:0:0:0:
511,152,82011,5,10,0:0:0:0:
289,34,82169,1,10,0:3:0:0:
0,247,83192,6,0,P|68:178|175:237,1,180.000006866455,12|8,2:3|0:2,0:0:0:0:
298,297,83586,1,10,0:3:0:0:
317,320,83665,2,0,P|374:334|427:310,1,120.000004577637,8|0,0:3|0:0,0:0:0:0:
413,202,83901,2,0,P|355:187|302:211,1,120.000004577637,10|8,0:2|0:3,0:0:0:0:
290,325,84137,6,0,P|376:354|453:312,1,180.000006866455,2|8,0:2|0:0,0:0:0:0:
458,80,84531,1,2,0:0:0:0:
444,106,84610,2,0,P|374:109|323:65,1,120.000004577637,8|0,2:3|0:0,0:0:0:0:
193,187,84846,2,0,P|263:184|314:228,1,120.000004577637,10|0,0:2|0:0,0:0:0:0:
114,260,85082,6,0,P|85:168|132:99,1,180.000006866455,10|8,0:3|0:2,0:0:0:0:
318,185,85476,1,10,0:3:0:0:
302,211,85555,2,0,P|244:218|191:184,1,120.000004577637,8|8,0:3|0:3,0:0:0:0:
395,266,85791,2,0,P|465:263|516:307,1,120.000004577637,10|8,0:2|0:3,0:0:0:0:
434,354,86027,5,2,0:3:0:0:
508,110,86184,1,8,0:3:0:0:
486,130,86263,2,0,P|416:133|365:89,1,120.000004577637,10|0,0:2|0:0,0:0:0:0:
246,0,86499,2,0,P|283:59|270:125,1,120.000004577637,10|0,0:3|0:0,0:0:0:0:
254,273,86736,2,0,P|286:210|350:188,1,120.000004577637,10|0,0:2|0:0,0:0:0:0:
319,342,86972,6,0,P|236:366|168:313,1,180.000006866455,6|8,0:2|0:0,0:0:0:0:
232,139,87366,1,10,0:3:0:0:
251,161,87444,2,0,P|271:228|241:288,1,120.000004577637,8|8,0:3|0:3,0:0:0:0:
232,139,87681,2,0,P|269:94|327:80,1,120.000004577637,10|8,0:2|0:3,0:0:0:0:
251,161,87917,6,0,P|166:176|104:115,1,180.000006866455,2|8,0:0|0:0,0:0:0:0:
0,292,88310,1,2,0:0:0:0:
16,266,88389,2,0,P|26:207|0:155,1,120.000004577637,8|0,0:3|0:0,0:0:0:0:
103,374,88625,2,0,P|107:316|146:271,1,120.000004577637,10|0,0:2|0:0,0:0:0:0:
300,301,88862,6,0,P|215:323|145:271,1,180.000006866455,10|8,0:3|0:0,0:0:0:0:
143,42,89255,1,10,0:3:0:0:
164,61,89334,2,0,P|220:77|275:55,1,120.000004577637,8|8,0:3|0:3,0:0:0:0:
143,42,89570,2,0,P|86:25|32:48,1,120.000004577637,10|8,0:2|0:3,0:0:0:0:
0,131,89807,5,2,0:3:0:0:
224,181,89964,1,12,0:2:0:0:
230,151,90043,1,8,0:3:0:0:
65,322,90200,1,8,0:3:0:0:
56,293,90279,1,12,0:0:0:0:
313,328,90436,1,8,0:3:0:0:
330,304,90515,2,0,P|342:246|324:181,1,120.000004577637,10|8,0:2|0:0,0:0:0:0:
176,145,90751,6,0,P|241:202|327:188,1,180.000006866455,14|8,0:3|0:0,0:0:0:0:
280,23,91066,1,2,0:3:0:0:
279,54,91145,2,0,L|267:123,1,60.0000022888184,8|0,0:3|0:3,0:0:0:0:
107,282,91381,1,10,0:3:0:0:
126,258,91460,2,0,P|191:272|224:337,1,120.000004577637,8|8,0:2|0:3,0:0:0:0:
350,378,91696,6,0,P|423:331|427:243,1,180.000006866455,2|8,0:0|0:0,0:0:0:0:
382,56,92090,1,2,0:0:0:0:
362,78,92169,2,0,P|298:85|230:46,1,120.000004577637,8|0,0:3|0:0,0:0:0:0:
377,167,92405,2,0,P|435:160|490:182,1,120.000004577637,10|0,0:2|0:0,0:0:0:0:
321,243,92641,6,0,P|255:185|169:199,1,180.000006866455,10|8,0:3|0:0,0:0:0:0:
199,357,92956,1,2,0:3:0:0:
218,334,93035,2,0,L|230:265,1,60.0000022888184,8|0,0:3|0:0,0:0:0:0:
126,66,93271,1,10,0:3:0:0:
145,87,93350,2,0,P|202:99|248:63,1,120.000004577637,8|8,0:2|0:3,0:0:0:0:
404,72,93586,6,0,P|328:29|248:63,1,180.000006866455,2|8,0:0|0:0,0:0:0:0:
248,63,94058,2,0,P|276:114|262:171,1,120.000004577637,10|0,0:3|0:0,0:0:0:0:
123,174,94295,2,0,P|103:118|127:65,1,120.000004577637,10|0,0:2|0:0,0:0:0:0:
270,42,94531,6,0,P|310:120|275:199,1,180.000006866455,14|8,0:3|0:0,0:0:0:0:
85,309,94925,1,10,0:3:0:0:
107,289,95003,2,0,P|161:284|221:318,1,120.000004577637,8|8,0:3|0:3,0:0:0:0:
355,358,95240,2,0,P|414:361|465:332,1,120.000004577637,10|8,0:2|0:3,0:0:0:0:
502,180,95476,6,0,P|446:247|465:332,1,180.000006866455,2|8,0:0|0:0,0:0:0:0:
316,109,95870,1,2,0:0:0:0:
339,129,95948,2,0,P|362:167|350:262,1,120.000004577637,8|0,0:3|0:0,0:0:0:0:
217,314,96184,2,0,P|190:261|195:202,1,120.000004577637,10|8,0:2|0:3,0:0:0:0:
316,109,96421,6,0,P|405:40|337:6,1,204.000003890991,10|8,0:3|0:0,0:0:0:0:
195,202,96814,1,2,0:2:0:0:
193,167,96893,2,0,P|152:117|97:177,1,136.000002593994,8|8,0:3|0:3,0:0:0:0:
123,293,97129,2,0,P|164:343|219:283,1,136.000002593994,10|8,0:3|0:0,0:0:0:0:
286,189,97366,1,8,0:3:0:0:
465,357,97523,1,12,0:2:0:0:
458,326,97602,6,0,P|396:295|312:319,1,120.000004577637,2|8,0:0|0:3,0:0:0:0:
277,342,97838,1,10,3:2:0:0:
218,348,97917,1,8,3:2:0:0:
165,321,97995,1,8,3:3:0:0:
136,269,98074,1,10,3:3:0:0:
141,210,98153,1,8,3:3:0:0:
177,163,98232,1,8,3:3:0:0:
233,145,98310,6,0,P|266:83|194:-1,1,180.000006866455,12|8,2:3|0:2,0:0:0:0:
14,235,98704,1,10,0:3:0:0:
30,210,98783,2,0,P|85:191|140:210,1,120.000004577637,0|0,0:3|0:0,0:0:0:0:
136,319,99019,2,0,P|79:338|24:319,1,120.000004577637,10|8,0:2|0:3,0:0:0:0:
3,207,99255,6,0,P|86:170|166:205,1,180.000006866455,2|8,0:2|0:0,0:0:0:0:
288,339,99649,1,2,0:0:0:0:
312,356,99728,2,0,P|382:359|433:315,1,120.000004577637,8|0,2:3|0:0,0:0:0:0:
312,177,99964,2,0,P|266:214|252:271,1,120.000004577637,10|0,0:2|0:0,0:0:0:0:
421,332,100200,6,0,P|443:240|387:174,1,180.000006866455,10|8,0:3|0:2,0:0:0:0:
179,335,100594,1,10,0:3:0:0:
157,356,100673,2,0,P|99:362|48:332,1,120.000004577637,8|8,0:3|0:3,0:0:0:0:
142,247,100909,2,0,P|200:241|251:271,1,120.000004577637,10|8,0:2|0:3,0:0:0:0:
326,367,101145,5,2,0:3:0:0:
465,72,101303,1,8,0:3:0:0:
436,75,101381,2,0,P|397:118|394:177,1,120.000004577637,10|0,0:2|0:0,0:0:0:0:
424,348,101618,2,0,P|406:291|356:260,1,120.000004577637,10|0,0:3|0:0,0:0:0:0:
193,200,101854,2,0,P|250:212|302:185,1,120.000004577637,10|0,0:2|0:0,0:0:0:0:
128,267,102090,6,0,P|99:185|148:114,1,180.000006866455,6|8,0:2|0:0,0:0:0:0:
302,184,102484,1,10,0:3:0:0:
303,215,102562,2,0,P|245:227|193:200,1,120.000004577637,8|8,0:3|0:3,0:0:0:0:
302,184,102799,2,0,P|360:172|412:199,1,120.000004577637,10|8,0:2|0:3,0:0:0:0:
309,339,103035,6,0,P|266:263|302:184,1,180.000006866455,2|8,0:0|0:0,0:0:0:0:
462,38,103429,1,2,0:0:0:0:
453,66,103507,2,0,P|401:76|330:48,1,120.000004577637,8|0,0:3|0:0,0:0:0:0:
224,43,103744,2,0,P|276:33|347:61,1,120.000004577637,10|0,0:2|0:0,0:0:0:0:
301,184,103980,6,0,P|232:130|225:41,1,180.000006866455,10|8,0:3|0:0,0:0:0:0:
118,251,104373,1,10,0:3:0:0:
114,221,104452,2,0,P|74:192|-1:189,1,120.000004577637,8|8,0:3|0:3,0:0:0:0:
196,314,104688,2,0,P|236:285|311:282,1,120.000004577637,10|8,0:2|0:3,0:0:0:0:
378,352,104925,5,2,0:3:0:0:
196,176,105082,1,12,0:2:0:0:
189,146,105161,1,8,0:3:0:0:
32,333,105318,1,8,0:3:0:0:
26,362,105397,1,12,0:0:0:0:
1,133,105555,1,8,0:3:0:0:
23,112,105633,2,0,P|48:65|6:16,1,120.000004577637,10|8,0:2|0:0,0:0:0:0:
42,207,105870,6,0,P|130:209|190:146,1,180.000006866455,14|8,0:3|0:0,0:0:0:0:
194,4,106184,1,2,0:3:0:0:
166,16,106263,2,0,P|150:46|154:85,1,60.0000022888184,8|0,0:3|0:0,0:0:0:0:
248,239,106499,1,10,0:3:0:0:
274,224,106578,2,0,P|336:223|388:280,1,120.000004577637,8|8,0:2|0:3,0:0:0:0:
316,369,106814,6,0,P|255:307|275:223,1,180.000006866455,2|8,0:0|0:0,0:0:0:0:
478,119,107208,1,2,0:0:0:0:
452,134,107287,2,0,P|390:135|338:78,1,120.000004577637,8|0,0:3|0:0,0:0:0:0:
169,189,107523,2,0,P|231:188|283:245,1,120.000004577637,10|0,0:2|0:0,0:0:0:0:
183,346,107759,6,0,P|95:348|35:285,1,180.000006866455,10|8,0:3|0:0,0:0:0:0:
30,144,108074,1,2,0:3:0:0:
58,156,108153,2,0,P|74:186|70:225,1,60.0000022888184,8|0,0:3|0:0,0:0:0:0:
253,26,108389,1,10,0:3:0:0:
224,33,108468,2,0,P|179:76|182:153,1,120.000004577637,8|8,0:2|0:3,0:0:0:0:
298,166,108704,6,0,P|297:79|223:33,1,180.000006866455,2|8,0:0|0:0,0:0:0:0:
224,33,109177,2,0,P|173:61|116:48,1,120.000004577637,10|0,0:3|0:0,0:0:0:0:
0,177,109413,2,0,P|43:138|102:140,1,120.000004577637,10|0,0:2|0:0,0:0:0:0:
312,252,109649,6,0,P|247:196|141:233,1,180.000006866455,14|8,0:3|0:0,0:0:0:0:
364,344,110043,1,10,0:3:0:0:
389,328,110121,2,0,P|418:276|412:217,1,120.000004577637,8|8,0:3|0:3,0:0:0:0:
437,108,110358,2,0,P|407:159|413:218,1,120.000004577637,10|8,0:2|0:3,0:0:0:0:
509,299,110594,6,0,P|495:217|412:218,1,180.000006866455,2|8,0:0|0:0,0:0:0:0:
246,335,110988,1,2,0:0:0:0:
224,355,111066,2,0,P|154:372|100:320,1,120.000004577637,8|0,0:3|0:0,0:0:0:0:
204,245,111303,2,0,P|274:228|328:280,1,120.000004577637,10|8,0:2|0:3,0:0:0:0:
434,139,111539,6,0,P|476:66|391:61,1,204.000003890991,10|8,0:3|0:0,0:0:0:0:
210,214,111933,1,2,0:2:0:0:
204,245,112011,2,0,P|148:274|127:220,1,136.000002593994,8|8,0:3|0:3,0:0:0:0:
201,66,112247,2,0,P|256:36|281:92,1,136.000002593994,10|8,0:3|0:0,0:0:0:0:
306,223,112484,1,8,0:3:0:0:
486,17,112641,1,12,0:2:0:0:
461,34,112720,6,0,P|426:80|433:138,1,120.000004577637,2|8,0:0|0:3,0:0:0:0:
484,222,112956,1,10,3:2:0:0:
485,281,113035,1,8,3:2:0:0:
451,329,113114,1,8,3:3:0:0:
395,348,113192,1,10,3:3:0:0:
339,329,113271,1,8,3:3:0:0:
305,281,113350,1,8,3:3:0:0:
306,223,113429,6,0,P|232:158|139:188,1,204.000003890991,14|8,0:2|0:3,0:0:0:0:
474,48,113822,2,0,P|381:77|307:13,1,204.000003890991,14|0,0:0|0:3,0:0:0:0:
154,7,114137,6,0,P|235:61|231:159,1,204.000003890991,10|8,0:0|0:3,0:0:0:0:
512,318,114531,2,0,P|435:256|344:290,1,204.000003890991,14|0,0:0|0:3,0:0:0:0:
261,348,114846,5,10,3:2:0:0:
211,374,114925,1,0,3:3:0:0:
155,372,115003,1,0,3:3:0:0:
107,342,115082,1,0,3:2:0:0:
80,293,115161,1,0,3:0:0:0:
81,237,115240,1,0,3:0:0:0:
109,189,115318,6,0,B|135:157|121:114|121:114|86:83|88:32,1,155.999992858887,14|0,0:3|0:0,0:0:0:0:
270,24,115712,1,10,0:3:0:0:
262,57,115791,2,0,P|212:69|166:48,1,103.999995239258,8|0,0:2|0:2,0:0:0:0:
270,24,116027,2,0,P|340:18|412:78,1,155.999992858887,10|0,0:2|0:2,0:0:0:0:
406,67,116499,6,0,P|385:110|387:167,1,103.999995239258,10|0,0:3|0:2,0:0:0:0:
367,263,116736,2,0,P|388:220|386:163,1,103.999995239258,10|0,0:2|0:2,0:0:0:0:
302,97,116972,2,0,P|311:164|398:150,1,155.999992858887,10|0,0:3|0:2,0:0:0:0:
387,165,117444,2,0,P|437:156|482:179,1,103.999995239258,8|0,0:3|0:2,0:0:0:0:
462,277,117681,2,0,P|411:285|366:262,1,103.999995239258,8|0,0:2|0:2,0:0:0:0:
387,165,117917,5,10,0:3:0:0:
239,114,118074,1,8,0:2:0:0:
223,98,118153,1,8,0:3:0:0:
387,165,118310,1,0,0:3:0:0:
406,159,118389,1,8,0:2:0:0:
269,269,118547,1,8,0:3:0:0:
263,288,118625,1,8,0:2:0:0:
60,198,118862,5,10,0:3:0:0:
94,164,118940,1,2,0:2:0:0:
141,159,119019,1,2,0:2:0:0:
181,185,119098,6,0,P|242:214|317:173,1,155.999992858887,14|0,0:3|0:2,0:0:0:0:
277,7,119492,1,10,0:3:0:0:
248,35,119570,2,0,P|231:83|244:133,1,103.999995239258,8|0,0:2|0:2,0:0:0:0:
378,124,119807,2,0,P|316:94|242:136,1,155.999992858887,10|0,0:3|0:2,0:0:0:0:
244,133,120279,6,0,P|194:150|131:125,1,103.999995239258,10|0,0:3|0:2,0:0:0:0:
48,140,120515,2,0,P|98:123|161:148,1,103.999995239258,10|0,0:2|0:2,0:0:0:0:
138,270,120751,2,0,P|108:208|150:134,1,155.999992858887,10|0,0:3|0:2,0:0:0:0:
146,136,121224,6,0,P|195:149|244:133,1,103.999995239258,8|0,0:3|0:2,0:0:0:0:
316,77,121460,2,0,P|367:66|416:81,1,103.999995239258,8|0,0:2|0:2,0:0:0:0:
364,164,121696,6,0,P|328:128|316:76,1,103.999995239258,8|0,0:3|0:2,0:0:0:0:
416,81,121933,2,0,P|403:130|363:165,1,103.999995239258,8|0,0:2|0:2,0:0:0:0:
318,251,122169,6,0,P|328:200|365:164,1,103.999995239258,8|0,0:3|0:2,0:0:0:0:
417,249,122405,2,0,P|368:264|318:251,1,103.999995239258,8|8,0:2|0:3,0:0:0:0:
248,187,122641,5,10,0:3:0:0:
211,157,122720,1,2,0:2:0:0:
164,157,122799,1,2,0:2:0:0:
131,191,122877,6,0,P|50:179|49:95,1,155.999992858887,14|0,0:3|0:2,0:0:0:0:
210,10,123271,1,10,0:3:0:0:
288,48,123350,2,0,P|338:55|389:29,1,103.999995239258,12|0,0:2|0:2,0:0:0:0:
210,10,123586,2,0,P|160:3|109:29,1,103.999995239258,2|8,0:2|0:3,0:0:0:0:
210,10,124058,6,0,P|206:61|174:101,1,103.999995239258,10|0,0:3|0:2,0:0:0:0:
139,193,124295,2,0,P|142:141|174:101,1,103.999995239258,10|0,0:2|0:2,0:0:0:0:
235,181,124531,2,0,P|193:237|139:192,1,155.999992858887,10|0,0:3|0:2,0:0:0:0:
139,193,125003,2,0,P|142:141|174:101,1,103.999995239258,8|0,0:3|0:2,0:0:0:0:
235,181,125240,2,0,P|232:232|200:272,1,103.999995239258,8|0,0:2|0:2,0:0:0:0:
102,286,125476,5,10,0:3:0:0:
69,101,125633,1,8,0:2:0:0:
64,82,125712,1,8,0:3:0:0:
16,223,125870,1,8,0:3:0:0:
11,242,125948,1,8,0:2:0:0:
159,114,126106,1,8,0:3:0:0:
173,101,126184,2,0,P|220:84|279:111,1,103.999995239258,10|0,0:2|0:2,0:0:0:0:
365,142,126421,2,0,P|413:159|461:142,1,103.999995239258,10|0,0:3|0:2,0:0:0:0:
512,15,126657,6,0,P|458:64|476:163,1,155.999992858887,14|0,0:3|0:2,0:0:0:0:
431,344,127051,1,10,0:3:0:0:
415,305,127129,2,0,P|374:282|310:297,1,103.999995239258,8|0,0:2|0:2,0:0:0:0:
247,339,127366,2,0,P|208:342|172:327,1,77.9999964294435,10|8,0:2|0:3,0:0:0:0:
168,323,127543,1,8,0:3:0:0:
164,318,127602,6,0,L|155:218,1,51.999997619629,14|0,0:2|0:2,0:0:0:0:
242,172,127759,1,2,0:2:0:0:
272,144,127838,2,0,P|286:95|248:31,1,103.999995239258,8|8,0:3|0:2,0:0:0:0:
161,59,128074,6,0,P|229:74|277:30,1,120.000004577637,2|8,0:2|0:3,0:0:0:0:
373,37,128310,2,0,P|304:21|257:66,1,120.000004577637,8|0,0:2|0:2,0:0:0:0:
242,172,128547,5,14,0:3:0:0:
256,192,128625,12,10,130436,0:3:0:0:
59,326,130909,5,8,0:2:0:0:
52,271,130988,1,8,0:2:0:0:
90,233,131066,1,8,0:3:0:0:
144,239,131145,1,8,0:3:0:0:
173,284,131224,1,8,0:3:0:0:
156,336,131303,1,8,0:3:0:0:
105,353,131381,1,12,0:2:0:0:
162,21,131618,5,8,0:2:0:0:
105,353,131775,1,4,0:0:0:0:
