osu file format v14

[General]
AudioFilename: audio.mp3
AudioLeadIn: 0
PreviewTime: 82484
Countdown: 0
SampleSet: Soft
StackLeniency: 0.7
Mode: 0
LetterboxInBreaks: 0
WidescreenStoryboard: 1

[Editor]
DistanceSpacing: 1.1
BeatDivisor: 6
GridSize: 32
TimelineZoom: 1.900002

[Metadata]
Title:Magenta Tear
TitleUnicode:Magenta Tear
Artist:Shimotsuki Haruka
ArtistUnicode:霜月はるか
Creator:Lasse
Version:Advanced
Source:働くオトナの恋愛事情2
Tags:Hataraku Otona no Ren'ai Jijou 2 eroge visual novel opening short version Akabei Soft3 Mir
BeatmapID:1496427
BeatmapSetID:701258

[Difficulty]
HPDrainRate:4
CircleSize:3.6
OverallDifficulty:5
ApproachRate:6.5
SliderMultiplier:1.6
SliderTickRate:1

[Events]
//Background and Video events
0,0,"a.jpg",0,0
//Break Periods
//Storyboard Layer 0 (Background)
//Storyboard Layer 1 (Fail)
//Storyboard Layer 2 (Pass)
//Storyboard Layer 3 (Foreground)
//Storyboard Sound Samples

[TimingPoints]
1933,472.44094488189,4,2,22,40,1,0
9492,-142.857142857143,4,2,22,40,0,0
15161,-142.857142857143,4,2,22,40,0,0
15870,-142.857142857143,4,2,22,20,0,0
16342,-100,4,2,22,40,0,0
17051,-90.9090909090909,4,2,22,50,0,0
29807,-90.9090909090909,4,2,22,50,0,0
34058,-111.111111111111,4,2,22,40,0,0
49177,-100,4,2,22,50,0,0
64295,-83.3333333333333,4,2,22,60,0,0
65240,-83.3333333333333,4,2,22,55,0,0
66184,-83.3333333333333,4,2,22,60,0,0
68074,-100,4,2,22,50,0,0
71854,-83.3333333333333,4,2,22,60,0,0
72799,-90.9090909090909,4,2,22,55,0,0
73744,-83.3333333333333,4,2,22,60,0,0
75633,-90.9090909090909,4,2,22,50,0,0
77523,-83.3333333333333,4,2,22,50,0,0
79413,-90.9090909090909,4,2,22,50,0,0
83192,-83.3333333333333,4,2,22,60,0,1
96421,-83.3333333333333,4,2,22,60,0,1
97602,-83.3333333333333,4,2,22,60,0,0
98310,-83.3333333333333,4,2,22,60,0,1
111539,-83.3333333333333,4,2,22,60,0,1
112720,-83.3333333333333,4,2,22,60,0,0
113350,-83.3333333333333,4,2,22,60,0,0
113429,-83.3333333333333,4,2,22,60,0,1
114846,-83.3333333333333,4,2,22,60,0,1
115318,-90.9090909090909,4,2,22,55,0,0
128074,-90.9090909090909,4,2,22,55,0,0
130436,-90.9090909090909,4,2,22,30,0,0
130909,-90.9090909090909,4,2,22,55,0,0

[Colours]
Combo1 : 255,150,220
Combo2 : 130,200,230
Combo3 : 170,170,255
Combo4 : 255,160,120

[HitObjects]
49,71,9492,6,0,L|173:61,1,111.999996582031,12|8,0:3|0:3,0:0:0:0:
268,92,10436,2,0,L|392:82,1,111.999996582031,8|8,0:3|0:3,0:0:0:0:
477,137,11381,2,0,P|504:193|483:248,1,111.999996582031,8|8,0:3|0:3,0:0:0:0:
392,292,12326,2,0,L|268:302,1,111.999996582031,8|8,0:3|0:3,0:0:0:0:
180,352,13271,5,12,0:3:0:0:
85,290,13744,1,8,0:3:0:0:
91,176,14216,1,8,0:3:0:0:
192,124,14688,2,0,L|255:115,1,55.9999982910157,8|8,0:0|0:3,0:0:0:0:
298,139,15161,6,0,B|362:139|385:83|385:83|330:35,1,167.999994873047,14|2,0:3|0:0,0:0:0:0:
141,48,16460,2,0,L|99:44,1,40,8|8,0:3|0:0,0:0:0:0:
11,195,17051,6,0,B|28:246|6:292|6:292|20:340|71:336,1,176.000005371094,14|8,0:3|0:2,0:0:0:0:
146,316,17759,2,0,P|181:309|237:319,1,88.000002685547,10|0,0:2|0:2,0:0:0:0:
310,357,18232,1,10,0:3:0:0:
385,311,18468,1,10,0:2:0:0:
377,221,18704,6,0,L|373:130,1,88.000002685547,10|0,0:3|0:2,0:0:0:0:
336,52,19177,2,0,P|295:37|247:42,1,88.000002685547,8|8,0:3|0:2,0:0:0:0:
193,106,19649,2,0,B|178:165|199:220|199:220|183:257|156:267,1,176.000005371094,10|8,0:3|0:2,0:0:0:0:
81,302,20358,1,8,0:2:0:0:
9,253,20594,1,10,0:3:0:0:
16,167,20830,6,0,B|30:118|32:50|32:50|52:27|85:20,1,176.000005371094,14|8,0:3|0:2,0:0:0:0:
154,68,21539,2,0,P|192:81|257:71,1,88.000002685547,10|0,0:3|0:2,0:0:0:0:
317,37,22011,1,10,0:3:0:0:
400,63,22247,1,10,0:2:0:0:
439,139,22484,6,0,L|442:245,1,88.000002685547,10|0,0:3|0:2,0:0:0:0:
402,306,22956,2,0,P|366:317|302:300,1,88.000002685547,8|8,0:3|0:2,0:0:0:0:
233,280,23429,2,0,P|191:266|148:272,2,88.000002685547,8|8|8,0:3|0:2|0:3,0:0:0:0:
251,366,24137,1,8,0:2:0:0:
317,308,24373,1,10,0:3:0:0:
299,222,24610,6,0,B|287:174|304:125|304:125|286:81|239:81,1,176.000005371094,14|12,0:3|0:2,0:0:0:0:
173,131,25318,2,0,L|80:120,1,88.000002685547,2|0,0:2|0:0,0:0:0:0:
11,167,25791,1,10,0:3:0:0:
15,255,26027,1,10,0:2:0:0:
93,296,26263,6,0,L|186:307,1,88.000002685547,10|0,0:3|0:2,0:0:0:0:
261,340,26736,2,0,L|354:351,1,88.000002685547,8|8,0:3|0:2,0:0:0:0:
432,324,27208,2,0,B|452:283|435:231|435:231|432:187|454:150,1,176.000005371094,10|8,0:3|0:2,0:0:0:0:
510,87,27917,1,10,0:2:0:0:
465,12,28153,1,10,0:3:0:0:
380,31,28389,6,0,B|323:32|281:45|281:45|240:43|197:21,1,176.000005371094,14|8,0:3|0:2,0:0:0:0:
121,42,29098,2,0,B|101:83|118:135|118:135|121:179|100:212,1,176.000005371094,10|8,0:2|0:3,0:0:0:0:
50,284,29807,1,2,0:2:0:0:
103,355,30043,1,8,0:2:0:0:
186,326,30279,5,14,0:3:0:0:
256,192,30358,12,10,32169,0:3:0:0:
172,113,33350,6,0,L|166:50,1,58.6666684570313,10|10,0:3|0:0,0:0:0:0:
69,191,34058,6,0,P|34:180|0:185,2,71.9999978027344,14|0|8,0:3|0:0|0:0,0:0:0:0:
129,252,34767,1,2,0:0:0:0:
197,304,35003,2,0,P|231:314|266:309,1,71.9999978027344,10|8,0:3|0:3,0:0:0:0:
342,267,35476,2,0,P|376:256|411:261,1,71.9999978027344,8|10,0:0|0:3,0:0:0:0:
481,209,35948,6,0,L|485:56,1,143.999995605469,10|8,0:3|0:0,0:0:0:0:
410,20,36657,1,2,0:0:0:0:
337,67,36893,2,0,B|247:83|247:83|180:58,1,143.999995605469,10|8,0:3|0:0,0:0:0:0:
117,32,37602,1,2,0:3:0:0:
50,86,37838,6,0,L|-26:79,2,71.9999978027344,14|0|8,0:3|0:0|0:0,0:0:0:0:
130,118,38547,1,2,0:0:0:0:
197,64,38783,2,0,L|268:42,1,71.9999978027344,10|8,0:3|0:3,0:0:0:0:
342,82,39255,2,0,L|420:87,1,71.9999978027344,8|10,0:0|0:3,0:0:0:0:
470,152,39728,6,0,L|455:297,1,143.999995605469,10|8,0:3|0:0,0:0:0:0:
389,351,40436,2,0,P|337:328|230:336,1,143.999995605469,2|8,0:0|0:3,0:0:0:0:
169,358,41145,1,8,0:0:0:0:
103,302,41381,1,10,0:3:0:0:
118,216,41618,6,0,L|115:123,2,71.9999978027344,14|0|8,0:3|0:0|0:0,0:0:0:0:
185,272,42326,1,2,0:0:0:0:
266,241,42562,2,0,P|300:231|335:236,1,71.9999978027344,10|8,0:3|0:3,0:0:0:0:
415,269,43035,2,0,P|449:279|484:274,1,71.9999978027344,8|10,0:0|0:3,0:0:0:0:
508,190,43507,6,0,B|500:164|513:126|513:126|515:72|465:45,1,143.999995605469,10|8,0:3|0:0,0:0:0:0:
396,49,44216,1,2,0:0:0:0:
316,81,44452,2,0,B|260:79|260:79|218:68|218:68|174:89,1,143.999995605469,10|8,0:3|0:0,0:0:0:0:
122,154,45161,1,10,0:3:0:0:
55,99,45397,6,0,L|48:28,2,71.9999978027344,14|0|8,0:3|0:0|0:2,0:0:0:0:
0,166,46106,1,2,0:0:0:0:
67,221,46342,2,0,L|74:292,1,71.9999978027344,10|8,0:3|0:3,0:0:0:0:
135,353,46814,2,0,P|174:358|212:345,1,71.9999978027344,8|10,0:0|0:3,0:0:0:0:
257,279,47287,6,0,L|268:133,1,143.999995605469,10|8,0:3|0:2,0:0:0:0:
316,64,47995,2,0,P|382:39|449:61,1,143.999995605469,10|8,0:2|0:3,0:0:0:0:
503,129,48704,1,8,0:2:0:0:
461,204,48940,1,10,0:3:0:0:
504,280,49177,6,0,L|504:360,2,80,14|0|8,0:3|0:0|0:0,0:0:0:0:
461,204,49885,1,10,0:3:0:0:
398,266,50121,2,0,P|359:276|321:266,1,80,2|8,0:0|0:3,0:0:0:0:
250,214,50594,2,0,L|246:131,1,80,8|10,0:0|0:3,0:0:0:0:
207,54,51066,6,0,P|135:19|64:75,1,160,10|8,0:3|0:2,0:0:0:0:
22,129,51775,1,2,0:3:0:0:
65,205,52011,2,0,B|76:230|72:268|72:268|47:322|84:359,1,160,10|8,0:3|0:0,0:0:0:0:
162,320,52720,1,2,0:3:0:0:
242,355,52956,6,0,L|337:361,2,80,14|0|8,0:3|0:0|0:0,0:0:0:0:
162,320,53665,1,2,0:0:0:0:
123,240,53901,2,0,L|136:154,1,80,10|8,0:3|0:3,0:0:0:0:
183,87,54373,2,0,L|275:80,1,80,8|10,0:0|0:3,0:0:0:0:
344,113,54846,6,0,B|361:120|390:112|390:112|412:125|412:125|458:106|503:131,1,160,10|8,0:3|0:2,0:0:0:0:
501,215,55555,2,0,B|494:337|494:337|458:306,1,160,10|8,0:3|0:3,0:0:0:0:
396,256,56263,1,8,0:0:0:0:
340,325,56499,1,10,0:3:0:0:
271,269,56736,6,0,L|186:270,2,80,14|0|8,0:3|0:0|0:2,0:0:0:0:
327,200,57444,1,10,0:3:0:0:
383,130,57681,2,0,P|389:91|381:52,1,80,10|8,0:3|0:3,0:0:0:0:
297,26,58153,2,0,L|208:19,1,80,8|10,0:0|0:3,0:0:0:0:
138,59,58625,6,0,B|122:107|141:154|141:154|139:186|106:214,1,160,10|8,0:3|0:2,0:0:0:0:
47,268,59334,1,10,0:3:0:0:
102,336,59570,2,0,B|156:343|156:343|197:323|197:323|256:328,1,160,10|8,0:3|0:0,0:0:0:0:
344,337,60279,1,10,0:3:0:0:
426,367,60515,6,0,L|518:362,2,80,10|0|8,0:3|0:0|0:2,0:0:0:0:
344,337,61224,1,2,0:0:0:0:
256,328,61460,2,0,L|165:318,1,80,10|0,0:3|0:0,0:0:0:0:
99,276,61933,2,0,P|87:238|96:199,1,80,10|10,0:0|0:3,0:0:0:0:
170,151,62405,6,0,B|215:144|215:144|269:156|269:156|330:149,1,160,10|8,0:3|0:0,0:0:0:0:
406,189,63114,2,0,B|448:168|448:168|468:112|429:61,1,160,10|8,0:0|0:0,0:0:0:0:
354,14,63822,1,8,0:2:0:0:
283,65,64058,1,10,0:3:0:0:
183,33,64295,6,0,B|148:29|119:46|119:46|65:30,1,95.9999970703126,14|8,0:0|0:3,0:0:0:0:
45,82,64688,1,14,0:2:0:0:
122,183,65003,2,0,L|224:178,1,95.9999970703126,12|8,0:0|3:3,0:0:0:0:
309,208,65476,2,0,L|406:207,2,95.9999970703126,8|10|0,3:2|0:0|0:0,0:0:0:0:
237,271,66184,6,0,B|225:301|231:340|231:340|190:361,1,95.9999970703126,14|8,0:0|0:3,0:0:0:0:
146,367,66578,1,14,0:2:0:0:
46,286,66893,2,0,L|36:181,1,95.9999970703126,14|8,0:0|3:3,0:0:0:0:
52,94,67366,2,0,P|100:57|202:89,1,159.999995117188,14|14,0:3|0:0,0:0:0:0:
300,132,68074,6,0,L|392:127,1,80,14|8,0:3|0:0,0:0:0:0:
451,179,68547,2,0,P|462:221|447:265,1,80,10|8,0:3|0:0,0:0:0:0:
416,301,68940,1,10,0:3:0:0:
301,276,69255,2,0,L|217:273,2,80,10|10|10,0:0|0:3|0:0,0:0:0:0:
369,220,69964,6,0,P|380:174|373:133,1,80,10|8,0:3|0:0,0:0:0:0:
340,94,70358,2,0,L|233:85,1,106.666666666667,2|10,0:3|0:0,0:0:0:0:
175,96,70830,2,0,L|68:87,1,106.666666666667,10|10,0:3|0:0,0:0:0:0:
7,150,71381,1,8,0:0:0:0:
31,234,71618,1,10,0:3:0:0:
128,194,71854,6,0,B|161:189|161:189|186:195|186:195|246:193,1,95.9999970703126,14|8,0:0|0:3,0:0:0:0:
272,233,72247,1,12,0:2:0:0:
382,167,72562,2,0,P|397:129|374:63,1,95.9999970703126,12|8,0:0|3:3,0:0:0:0:
305,37,73035,2,0,L|205:29,2,88.000002685547,8|10|8,3:2|0:0|0:3,0:0:0:0:
393,74,73744,6,0,B|422:68|422:68|454:74|454:74|499:72,1,95.9999970703126,14|8,0:0|2:3,0:0:0:0:
508,133,74137,1,14,0:2:0:0:
410,213,74452,2,0,L|400:318,1,95.9999970703126,14|8,0:0|3:3,0:0:0:0:
310,343,74925,2,0,B|259:333|259:333|203:346|203:346|153:336,1,159.999995117188,14|14,0:3|0:0,0:0:0:0:
48,261,75633,6,0,L|43:172,2,88.000002685547,14|8|8,0:3|0:0|0:3,0:0:0:0:
63,356,76342,1,10,0:0:0:0:
139,297,76578,2,0,L|236:297,2,88.000002685547,10|8|8,0:3|0:0|0:3,0:0:0:0:
48,261,77287,1,10,0:0:0:0:
13,171,77523,6,0,B|23:135|23:135|14:100|24:58,1,95.9999970703126,6|8,0:2|0:3,0:0:0:0:
76,45,77917,1,14,0:2:0:0:
194,94,78232,2,0,B|233:95|233:95|256:85|256:85|294:88,1,95.9999970703126,6|8,0:0|0:3,0:0:0:0:
346,63,78625,2,0,B|327:87|327:87|324:189,1,127.99999609375,14|8,0:0|3:2,0:0:0:0:
476,315,79413,5,14,0:0:0:0:
226,342,80279,6,0,B|185:334|185:334|161:342|161:342|110:332,1,117.333336914063,14|14,0:0|0:3,0:0:0:0:
29,209,80988,1,14,0:0:0:0:
109,124,81303,2,0,B|138:117|138:117|164:122|164:122|196:116,2,88.000002685547,10|10|10,0:2|0:3|0:3,0:0:0:0:
30,83,82011,2,0,L|12:6,1,58.6666684570313,10|10,0:0|0:3,0:0:0:0:
21,329,83192,6,0,P|61:308|131:321,1,95.9999970703126,12|8,2:3|0:2,0:0:0:0:
164,345,83586,2,0,L|303:341,1,127.99999609375,10|10,0:3|0:2,0:0:0:0:
371,286,84137,2,0,P|387:261|378:196,1,95.9999970703126,2|8,0:2|0:0,0:0:0:0:
318,176,84531,2,0,L|179:172,1,127.99999609375,2|10,0:0|0:2,0:0:0:0:
98,141,85082,6,0,P|80:96|108:42,1,95.9999970703126,10|8,0:3|0:2,0:0:0:0:
142,9,85476,1,10,0:3:0:0:
234,97,85791,1,10,0:2:0:0:
411,25,86263,2,0,P|454:15|508:33,2,95.9999970703126,10|10|10,0:2|0:3|0:2,0:0:0:0:
366,110,86972,6,0,L|360:221,1,95.9999970703126,6|8,0:2|0:0,0:0:0:0:
330,262,87366,2,0,P|262:279|200:249,1,127.99999609375,10|10,0:3|0:2,0:0:0:0:
153,180,87917,2,0,P|108:163|54:174,1,95.9999970703126,2|8,0:0|0:0,0:0:0:0:
14,212,88310,1,2,0:0:0:0:
7,339,88625,1,10,0:2:0:0:
85,283,88862,6,0,P|136:269|195:288,1,95.9999970703126,10|8,0:3|0:0,0:0:0:0:
216,328,89255,2,0,P|275:348|334:325,1,127.99999609375,10|10,0:3|0:2,0:0:0:0:
429,197,89964,1,12,0:2:0:0:
361,88,90279,2,0,P|324:70|254:87,1,95.9999970703126,12|10,0:0|0:2,0:0:0:0:
215,154,90751,6,0,L|203:264,1,95.9999970703126,14|8,0:3|0:0,0:0:0:0:
168,302,91145,2,0,P|108:317|43:274,1,127.99999609375,8|8,0:3|0:2,0:0:0:0:
1,205,91696,2,0,L|-1:97,1,95.9999970703126,2|8,0:0|0:0,0:0:0:0:
25,50,92090,1,2,0:0:0:0:
131,121,92405,1,10,0:2:0:0:
205,59,92641,6,0,P|252:51|311:70,1,95.9999970703126,10|8,0:3|0:0,0:0:0:0:
325,120,93035,2,0,L|329:254,1,127.99999609375,8|8,0:3|0:2,0:0:0:0:
387,324,93586,2,0,P|433:334|484:318,1,95.9999970703126,2|8,0:0|0:0,0:0:0:0:
512,232,94058,1,10,0:3:0:0:
493,137,94295,1,10,0:2:0:0:
407,93,94531,6,0,L|309:82,1,95.9999970703126,14|8,0:3|0:0,0:0:0:0:
252,106,94925,2,0,L|111:104,1,127.99999609375,10|10,0:3|0:2,0:0:0:0:
39,149,95476,2,0,P|23:203|39:258,1,95.9999970703126,2|8,0:0|0:0,0:0:0:0:
80,281,95870,2,0,L|220:281,1,127.99999609375,2|10,0:0|0:2,0:0:0:0:
290,330,96421,6,0,L|395:338,1,95.9999970703126,10|8,0:3|0:0,0:0:0:0:
445,314,96814,2,0,P|453:282|451:238,1,63.9999980468751,2|0,0:2|0:0,0:0:0:0:
411,202,97129,2,0,L|308:187,1,95.9999970703126,10|8,0:3|0:3,0:0:0:0:
235,135,97602,2,0,L|234:34,2,95.9999970703126,2|10|10,0:0|3:2|3:3,0:0:0:0:
194,221,98310,6,0,L|193:322,1,95.9999970703126,12|8,2:3|0:2,0:0:0:0:
149,364,98704,2,0,P|88:379|31:352,1,127.99999609375,10|10,0:3|0:2,0:0:0:0:
10,258,99255,2,0,L|11:158,1,95.9999970703126,2|8,0:2|0:0,0:0:0:0:
36,102,99649,2,0,P|92:75|153:90,1,127.99999609375,2|10,0:0|0:2,0:0:0:0:
237,138,100200,6,0,P|283:147|329:135,1,95.9999970703126,10|8,0:3|0:2,0:0:0:0:
377,91,100594,1,10,0:3:0:0:
502,115,100909,1,10,0:2:0:0:
415,286,101381,2,0,L|411:386,2,95.9999970703126,10|10|10,0:2|0:3|0:2,0:0:0:0:
487,222,102090,6,0,L|492:111,1,95.9999970703126,6|8,0:2|0:0,0:0:0:0:
473,64,102484,2,0,P|416:36|354:47,1,127.99999609375,10|10,0:3|0:2,0:0:0:0:
300,127,103035,2,0,L|296:230,1,95.9999970703126,2|8,0:0|0:0,0:0:0:0:
265,278,103428,1,2,0:0:0:0:
162,354,103743,1,10,0:2:0:0:
93,285,103980,6,0,L|89:185,1,95.9999970703126,10|8,0:3|0:0,0:0:0:0:
130,140,104373,2,0,B|144:101|133:63|133:63|146:33|168:31,1,127.99999609375,10|10,0:3|0:2,0:0:0:0:
280,146,105082,1,12,0:2:0:0:
384,72,105397,2,0,P|426:61|474:83,1,95.9999970703126,12|10,0:0|0:2,0:0:0:0:
495,174,105869,6,0,L|483:284,1,95.9999970703126,14|8,0:3|0:0,0:0:0:0:
450,323,106263,2,0,P|391:344|328:312,1,127.99999609375,8|8,0:3|0:2,0:0:0:0:
270,246,106814,2,0,L|268:138,1,95.9999970703126,2|8,0:0|0:0,0:0:0:0:
254,87,107208,1,2,0:0:0:0:
131,48,107523,1,10,0:2:0:0:
68,120,107759,6,0,L|60:223,1,95.9999970703126,10|8,0:3|0:0,0:0:0:0:
73,278,108153,2,0,P|132:298|200:282,1,127.99999609375,8|8,0:3|0:2,0:0:0:0:
275,232,108704,2,0,P|320:220|373:238,1,95.9999970703126,2|8,0:0|0:0,0:0:0:0:
428,306,109176,1,10,0:3:0:0:
501,244,109413,1,10,0:2:0:0:
439,171,109649,6,0,B|431:138|431:138|441:108|432:63,1,95.9999970703126,14|8,0:3|0:0,0:0:0:0:
383,37,110043,2,0,L|245:21,1,127.99999609375,10|10,0:3|0:2,0:0:0:0:
173,72,110594,2,0,L|61:71,1,95.9999970703126,2|8,0:0|0:0,0:0:0:0:
25,109,110988,2,0,P|6:175|17:240,1,127.99999609375,2|10,0:0|0:2,0:0:0:0:
82,300,111539,6,0,L|189:296,1,95.9999970703126,10|8,0:3|0:0,0:0:0:0:
235,324,111932,2,0,L|307:327,1,63.9999980468751,2|0,0:2|0:0,0:0:0:0:
360,309,112247,2,0,P|378:262|362:206,1,95.9999970703126,10|8,0:3|0:3,0:0:0:0:
282,176,112720,2,0,L|186:167,2,95.9999970703126,2|10|10,0:0|3:2|3:3,0:0:0:0:
360,120,113429,6,0,P|379:47|302:43,1,159.999995117188,14|14,0:2|0:0,0:0:0:0:
189,68,114137,2,0,B|168:66|148:59|148:59|129:68|129:68|81:37|22:73,1,159.999995117188,10|14,0:0|0:0,0:0:0:0:
3,188,114846,1,10,3:2:0:0:
34,268,115082,1,0,3:2:0:0:
88,201,115318,6,0,B|139:184|185:205|185:205|232:204|253:170,1,176.000005371094,14|8,0:3|0:2,0:0:0:0:
306,105,116026,2,0,P|340:94|397:100,1,88.000002685547,10|0,0:2|0:2,0:0:0:0:
467,143,116499,1,10,0:3:0:0:
488,228,116735,1,10,0:2:0:0:
442,302,116972,6,0,P|408:313|351:307,1,88.000002685547,10|0,0:3|0:2,0:0:0:0:
288,252,117444,2,0,P|245:240|202:245,1,88.000002685547,8|8,0:3|0:2,0:0:0:0:
135,303,117917,2,0,P|72:324|28:235,1,176.000005371094,10|8,0:3|0:2,0:0:0:0:
48,157,118625,1,8,0:2:0:0:
132,135,118861,1,10,0:3:0:0:
193,196,119097,6,0,B|250:203|250:203|296:181|296:181|363:188,1,176.000005371094,14|8,0:3|0:2,0:0:0:0:
442,149,119806,2,0,P|462:112|439:61,1,88.000002685547,10|0,0:3|0:2,0:0:0:0:
376,20,120278,1,10,0:3:0:0:
304,71,120514,1,10,0:2:0:0:
225,31,120751,6,0,L|133:27,1,88.000002685547,10|0,0:3|0:2,0:0:0:0:
59,69,121223,2,0,P|41:108|49:152,1,88.000002685547,8|8,0:3|0:2,0:0:0:0:
124,196,121696,2,0,L|215:202,2,88.000002685547,8|8|8,0:3|0:2|0:3,0:0:0:0:
48,240,122404,1,8,0:2:0:0:
68,326,122641,1,10,0:3:0:0:
155,333,122877,6,0,B|200:329|200:329|271:346|271:346|340:338,1,176.000005371094,14|12,0:3|0:2,0:0:0:0:
405,297,123585,2,0,P|422:257|409:205,1,88.000002685547,2|0,0:2|0:0,0:0:0:0:
350,152,124058,1,10,0:3:0:0:
273,194,124294,1,10,0:2:0:0:
195,150,124531,6,0,P|178:110|191:58,1,88.000002685547,10|0,0:3|0:2,0:0:0:0:
260,22,125003,2,0,L|349:19,1,88.000002685547,8|8,0:3|0:2,0:0:0:0:
424,61,125475,2,0,B|446:102|424:146|424:146|416:198|443:241,1,176.000005371094,10|8,0:3|0:2,0:0:0:0:
497,295,126184,1,10,0:2:0:0:
454,373,126421,1,10,0:3:0:0:
366,356,126657,6,0,B|326:344|326:344|245:360|245:360|183:346,1,176.000005371094,14|8,0:3|0:2,0:0:0:0:
122,298,127365,2,0,B|91:239|118:184|118:184|182:173,1,176.000005371094,10|8,0:2|0:3,0:0:0:0:
249,220,128074,1,2,0:2:0:0:
316,163,128310,1,8,0:2:0:0:
282,81,128547,5,14,0:3:0:0:
256,192,128625,12,10,130436,0:3:0:0:
112,61,131381,5,12,0:2:0:0:
204,89,131618,2,0,L|275:78,1,58.6666684570313,8|4,0:2|0:0,0:0:0:0:
