osu file format v14

[General]
AudioFilename: audio.mp3
AudioLeadIn: 0
PreviewTime: 181962
Countdown: 0
SampleSet: Soft
StackLeniency: 0.2
Mode: 0
LetterboxInBreaks: 0
WidescreenStoryboard: 0

[Editor]
Bookmarks: 34270,63808,93347,122885,152424,181962,211501,241039,300116,329655
DistanceSpacing: 1.6
BeatDivisor: 16
GridSize: 4
TimelineZoom: 1.9

[Metadata]
Title:MARIA
TitleUnicode:MARIA
Artist:Shimotsuki Haruka
ArtistUnicode:霜月はるか
Creator:Gust
Version:Neverending Dusk
Source:アーシャのアトリエ~黄昏の大地の錬金術士~
Tags:Atelier Ayesha: The Alchemist of Dusk Tasogare no Daichi no Renkinjutsushi video game gust conlang Twilight Hour トワイライトアワー ボーカルアルバム vocal album classical orchestral
BeatmapID:2351893
BeatmapSetID:1125621

[Difficulty]
HPDrainRate:6
CircleSize:6
OverallDifficulty:6
ApproachRate:7
SliderMultiplier:1
SliderTickRate:1

[Events]
//Background and Video events
0,0,"58145878.jpg",0,0
//Break Periods
2,126737,151483
//Storyboard Layer 0 (Background)
//Storyboard Layer 1 (Fail)
//Storyboard Layer 2 (Pass)
//Storyboard Layer 3 (Foreground)
//Storyboard Layer 4 (Overlay)
//Storyboard Sound Samples

[TimingPoints]
4691,923.076923076923,4,2,1,50,1,0
37921,-100,4,2,1,15,0,0
38844,-100,4,2,1,30,0,0
45306,-100,4,2,1,15,0,0
46229,-100,4,2,1,30,0,0
52690,-100,4,2,1,15,0,0
53614,-100,4,2,1,30,0,0
60075,-100,4,2,1,20,0,0
63767,-66.6666666666667,4,2,1,40,0,0
67460,-66.6666666666667,4,2,1,20,0,0
68383,-66.6666666666667,4,2,1,30,0,0
82229,-66.6666666666667,4,2,1,20,0,0
83152,-66.6666666666667,4,2,1,30,0,0
91460,-50,4,2,1,40,0,0
93306,-40,4,2,1,50,0,1
95960,-40,4,2,1,10,0,1
96075,-66.6666666666667,4,2,1,50,0,1
96883,-66.6666666666667,4,2,1,10,0,1
96998,-40,4,2,1,30,0,1
98844,-40,4,2,1,50,0,1
99767,-100,4,2,1,50,0,1
100575,-100,4,2,1,10,0,1
100691,-28.5714285714286,4,2,1,50,0,1
104267,-28.5714285714286,4,2,1,10,0,1
104383,-71.4285714285714,4,2,1,30,0,1
105191,-71.4285714285714,4,2,1,10,0,1
105306,-71.4285714285714,4,2,1,30,0,1
105652,-71.4285714285714,4,2,1,10,0,1
105767,-71.4285714285714,4,2,1,30,0,1
106114,-71.4285714285714,4,2,1,10,0,1
106229,-71.4285714285714,4,2,1,30,0,1
106575,-71.4285714285714,4,2,1,10,0,1
106691,-55.5555555555556,4,2,1,40,0,1
107037,-55.5555555555556,4,2,1,10,0,1
107152,-45.4545454545455,4,2,1,40,0,1
107498,-45.4545454545455,4,2,1,10,0,1
107614,-38.4615384615385,4,2,1,40,0,1
107960,-38.4615384615385,4,2,1,10,0,0
108075,-40,4,2,1,50,0,1
110729,-40,4,2,1,10,0,1
110844,-66.6666666666667,4,2,1,50,0,1
111652,-66.6666666666667,4,2,1,10,0,1
111767,-40,4,2,1,30,0,1
113614,-40,4,2,1,50,0,1
114537,-100,4,2,1,50,0,1
115344,-100,4,2,1,10,0,1
115460,-28.5714285714286,4,2,1,50,0,1
119037,-28.5714285714286,4,2,1,10,0,1
119152,-71.4285714285714,4,2,1,50,0,1
119960,-71.4285714285714,4,2,1,10,0,1
120075,-71.4285714285714,4,2,1,50,0,1
120421,-71.4285714285714,4,2,1,10,0,1
120537,-71.4285714285714,4,2,1,50,0,1
120883,-71.4285714285714,4,2,1,10,0,1
120998,-71.4285714285714,4,2,1,50,0,1
121806,-71.4285714285714,4,2,1,10,0,1
121921,-71.4285714285714,4,2,1,50,0,1
122729,-71.4285714285714,4,2,1,10,0,1
122844,-100,4,2,1,50,0,0
152383,-66.6666666666667,4,2,1,40,0,0
156076,-66.6666666666667,4,2,1,20,0,0
156999,-66.6666666666667,4,2,1,30,0,0
170845,-66.6666666666667,4,2,1,20,0,0
171768,-66.6666666666667,4,2,1,30,0,0
180076,-50,4,2,1,40,0,0
181921,-40,4,2,1,50,0,1
184576,-40,4,2,1,10,0,1
184691,-66.6666666666667,4,2,1,50,0,1
185499,-66.6666666666667,4,2,1,10,0,1
185614,-33.3333333333333,4,2,1,30,0,1
186537,-33.3333333333333,4,2,1,50,0,1
187460,-40,4,2,1,50,0,1
188383,-100,4,2,1,50,0,1
189191,-100,4,2,1,10,0,1
189306,-28.5714285714286,4,2,1,50,0,1
192883,-28.5714285714286,4,2,1,10,0,1
192998,-71.4285714285714,4,2,1,30,0,1
193807,-71.4285714285714,4,2,1,10,0,1
193922,-71.4285714285714,4,2,1,30,0,1
194268,-71.4285714285714,4,2,1,10,0,1
194383,-71.4285714285714,4,2,1,30,0,1
194730,-71.4285714285714,4,2,1,10,0,1
194845,-71.4285714285714,4,2,1,30,0,1
195191,-71.4285714285714,4,2,1,10,0,1
195307,-55.5555555555556,4,2,1,40,0,1
196575,-38.4615384615385,4,2,1,10,0,0
196691,-40,4,2,1,50,0,1
199345,-40,4,2,1,10,0,1
199460,-66.6666666666667,4,2,1,50,0,1
200268,-66.6666666666667,4,2,1,10,0,1
200383,-33.3333333333333,4,2,1,30,0,1
201306,-33.3333333333333,4,2,1,50,0,1
202230,-40,4,2,1,50,0,1
203153,-100,4,2,1,50,0,1
203960,-100,4,2,1,10,0,1
204075,-28.5714285714286,4,2,1,50,0,1
207653,-28.5714285714286,4,2,1,10,0,1
207767,-40,4,2,1,50,0,1
208576,-71.4285714285714,4,2,1,10,0,1
208691,-71.4285714285714,4,2,1,50,0,1
209037,-71.4285714285714,4,2,1,10,0,1
209153,-71.4285714285714,4,2,1,50,0,1
209499,-71.4285714285714,4,2,1,10,0,1
209614,-71.4285714285714,4,2,1,50,0,1
210422,-71.4285714285714,4,2,1,10,0,1
210537,-71.4285714285714,4,2,1,50,0,1
211345,-71.4285714285714,4,2,1,10,0,1
211460,-40,4,2,1,50,0,0
212267,-40,4,2,1,10,0,0
212383,-28.5714285714286,4,2,1,40,0,1
212729,-28.5714285714286,4,2,1,10,0,1
212844,-40,4,2,1,30,0,1
213190,-40,4,2,1,10,0,1
213306,-66.6666666666667,4,2,1,30,0,1
213652,-66.6666666666667,4,2,1,10,0,1
213767,-66.6666666666667,4,2,1,30,0,1
214114,-66.6666666666667,4,2,1,10,0,1
214229,-66.6666666666667,4,2,1,50,0,1
215152,-33.3333333333333,4,2,1,30,0,1
216075,-33.3333333333333,4,2,1,50,0,1
217460,-71.4285714285714,4,2,1,50,0,1
217921,-100,4,2,1,50,0,1
218729,-100,4,2,1,10,0,1
218844,-28.5714285714286,4,2,1,50,0,1
219652,-28.5714285714286,4,2,1,10,0,1
219767,-28.5714285714286,4,2,1,50,0,1
220114,-28.5714285714286,4,2,1,10,0,1
220229,-28.5714285714286,4,2,1,50,0,1
220575,-28.5714285714286,4,2,1,10,0,1
220690,-40,4,2,1,30,0,1
221037,-40,4,2,1,10,0,1
221152,-66.6666666666667,4,2,1,50,0,1
221498,-66.6666666666667,4,2,1,10,0,1
221614,-28.5714285714286,4,2,1,50,0,1
222421,-28.5714285714286,4,2,1,10,0,1
222537,-71.4285714285714,4,2,1,50,0,1
223344,-71.4285714285714,4,2,1,10,0,1
223460,-71.4285714285714,4,2,1,50,0,1
226229,-40,4,2,1,50,0,1
227037,-40,4,2,1,10,0,1
227152,-28.5714285714286,4,2,1,40,0,1
227498,-28.5714285714286,4,2,1,10,0,1
227614,-40,4,2,1,30,0,1
227960,-40,4,2,1,10,0,1
228075,-66.6666666666667,4,2,1,30,0,1
228421,-66.6666666666667,4,2,1,10,0,1
228537,-66.6666666666667,4,2,1,30,0,1
228883,-66.6666666666667,4,2,1,10,0,1
228998,-66.6666666666667,4,2,1,50,0,1
229921,-33.3333333333333,4,2,1,30,0,1
230844,-33.3333333333333,4,2,1,50,0,1
232229,-71.4285714285714,4,2,1,50,0,1
232690,-100,4,2,1,50,0,1
233498,-100,4,2,1,10,0,1
233614,-28.5714285714286,4,2,1,50,0,1
234421,-28.5714285714286,4,2,1,10,0,1
234537,-28.5714285714286,4,2,1,50,0,1
234883,-28.5714285714286,4,2,1,10,0,1
234998,-28.5714285714286,4,2,1,50,0,1
235344,-28.5714285714286,4,2,1,10,0,1
235460,-40,4,2,1,30,0,1
235806,-40,4,2,1,10,0,1
235921,-66.6666666666667,4,2,1,30,0,1
236267,-66.6666666666667,4,2,1,10,0,1
236383,-28.5714285714286,4,2,1,50,0,1
237190,-28.5714285714286,4,2,1,10,0,1
237306,-71.4285714285714,4,2,1,50,0,1
238114,-71.4285714285714,4,2,1,10,0,1
238229,-71.4285714285714,4,2,1,50,0,1
238575,-71.4285714285714,4,2,1,10,0,1
238690,-71.4285714285714,4,2,1,50,0,1
239037,-71.4285714285714,4,2,1,10,0,1
239152,-71.4285714285714,4,2,1,50,0,1
239960,-71.4285714285714,4,2,1,10,0,1
240075,-71.4285714285714,4,2,1,50,0,1
240883,-71.4285714285714,4,2,1,10,0,1
240998,-100,4,2,1,50,0,0
244690,-66.6666666666667,4,2,1,35,0,0
297306,-50,4,2,1,35,0,0
298229,-40,4,2,1,35,0,0
299152,-33.3333333333333,4,2,1,35,0,0
300075,-33.3333333333333,4,2,1,50,0,0

[Colours]
Combo1 : 255,125,125
Combo2 : 128,255,255
Combo3 : 94,255,174
Combo4 : 255,128,255
Combo5 : 255,255,128

[HitObjects]
256,192,4691,5,6,0:0:0:0:
256,192,4806,12,2,7460,0:0:0:0:
256,192,8383,5,2,0:0:0:0:
256,192,8498,12,2,11152,0:0:0:0:
256,192,12075,5,2,0:0:0:0:
256,192,12190,12,2,14844,0:0:0:0:
256,192,15767,5,2,0:0:0:0:
256,192,15882,12,0,18998,0:0:0:0:
256,192,19460,12,2,22229,0:0:0:0:
256,192,23152,5,2,0:0:0:0:
256,192,23267,12,2,25921,0:0:0:0:
256,192,26844,5,2,0:0:0:0:
256,192,26960,12,2,29614,0:0:0:0:
256,192,30537,5,2,0:0:0:0:
256,192,30652,12,0,33306,0:0:0:0:
97,54,34229,6,0,P|59:56|23:112,2,100,6|8|2,0:0|0:0|0:0,0:0:0:0:
97,54,36537,2,0,L|127:59,1,25
256,123,36998,2,0,L|180:135,1,75,10|0,0:0|0:0,0:0:0:0:
112,130,37921,2,0,P|150:139|147:194,2,100,6|8|2,0:0|0:0|0:0,0:0:0:0:
112,130,40229,1,0,0:0:0:0:
41,258,40690,6,0,L|92:251,1,50,10|0,0:0|0:0,0:0:0:0:
90,251,41383,1,0,0:0:0:0:
148,190,41614,2,0,P|174:232|222:238,2,100,4|8|2,0:0|0:0|0:0,0:0:0:0:
256,104,43921,2,0,L|252:72,1,25
144,48,44383,6,0,L|156:-8,1,50,10|0,0:0|0:0,0:0:0:0:
154,0,45076,1,0,0:0:0:0:
176,100,45306,2,0,P|144:128|88:112,2,100,6|8|2,0:0|0:0|0:0,0:0:0:0:
176,100,47614,2,0,L|224:108,1,25
330,184,48075,2,0,L|256:192,1,75,10|0,0:0|0:0,0:0:0:0:
415,54,48998,38,0,P|453:56|489:112,2,100,6|8|2,0:0|0:0|0:0,0:0:0:0:
415,54,51306,2,0,L|385:59,1,25
256,123,51767,2,0,L|330:134,1,75,8|0,0:0|0:0,0:0:0:0:
400,130,52690,2,0,P|362:139|365:194,2,100,6|8|2,0:0|0:0|0:0,0:0:0:0:
400,130,54998,5,0,0:0:0:0:
471,258,55460,2,0,L|420:251,1,50,10|0,0:0|0:0,0:0:0:0:
422,251,56153,1,0,0:0:0:0:
364,190,56384,2,0,P|338:232|290:238,2,100,6|8|2,0:0|0:0|0:0,0:0:0:0:
440,316,58690,1,0,0:0:0:0:
512,167,59152,6,0,L|430:179,1,75,10|0,0:0|0:0,0:0:0:0:
364,190,60075,2,0,P|424:164|432:56,1,175,6|0,0:0|0:0,0:0:0:0:
437,64,61921,2,0,P|377:122|296:101,1,175,2|0,0:0|0:0,0:0:0:0:
72,251,63767,6,0,P|209:199|199:65,1,300.000011444092,6|2,0:0|0:0,0:0:0:0:
146,37,65844,2,0,L|152:-6,2,37.5000014305115,2|0|0,0:0|0:0|0:0,0:0:0:0:
282,126,66537,6,0,P|229:111|199:65,1,112.500004291535,10|0,0:0|0:0,0:0:0:0:
235,0,67460,2,0,P|284:52|282:126,2,150.000005722046,6|8|2,0:0|0:0|0:0,0:0:0:0:
148,97,69767,5,0,0:0:0:0:
293,201,70229,2,0,L|368:192,1,75.0000028610231,8|0,0:0|0:0,0:0:0:0:
368,192,70921,1,0,0:0:0:0:
307,277,71152,6,0,P|223:277|187:333,2,150.000005722046,6|8|2,0:0|0:0|0:0,0:0:0:0:
359,321,73229,2,0,L|353:364,2,37.5000014305115
307,277,73921,2,0,P|319:233|387:197,1,112.500004291535,10|0,0:0|0:0,0:0:0:0:
440,251,74844,2,0,P|378:290|306:276,2,150.000005722046,6|8|2,0:0|0:0|0:0,0:0:0:0:
472,155,76921,1,0,0:0:0:0:
472,155,77152,2,0,L|479:191,1,37.5000014305115,2|0,0:0|0:0,0:0:0:0:
424,88,77614,1,8,0:0:0:0:
424,88,77844,2,0,L|416:124,2,37.5000014305115,0|2|0,0:0|0:0|0:0,0:0:0:0:
440,251,78537,6,0,P|303:199|313:65,1,300.000011444092,6|2,0:0|0:0,0:0:0:0:
366,37,80614,2,0,L|360:-6,2,37.5000014305115,2|0|0,0:0|0:0|0:0,0:0:0:0:
230,126,81306,6,0,P|283:111|313:65,1,112.500004291535,10|0,0:0|0:0,0:0:0:0:
277,0,82230,2,0,P|228:52|230:126,2,150.000005722046,6|8|2,0:0|0:0|0:0,0:0:0:0:
364,97,84536,5,0,0:0:0:0:
219,201,84998,2,0,L|144:192,1,75.0000028610231,8|0,0:0|0:0,0:0:0:0:
144,192,85690,1,0,0:0:0:0:
256,312,85921,6,0,P|340:312|376:256,2,150.000005722046,6|8|2,0:0|0:0|0:0,0:0:0:0:
204,268,87998,2,0,L|136:276,2,37.5000014305115,0|2|0,0:0|0:0|0:0,0:0:0:0:
301,190,88691,6,0,P|323:240|374:263,1,112.500004291535,10|0,0:0|0:0,0:0:0:0:
500,143,89614,2,0,B|468:96|408:116|408:116|432:196|373:263,1,262.500010013581,6|0,0:0|0:0,0:0:0:0:
336,312,91460,1,2,0:0:0:0:
336,312,91691,2,0,L|348:364,2,50
278,294,92383,1,8,0:0:0:0:
380,192,92844,1,2,0:0:0:0:
88,60,93306,6,0,B|126:28|234:-35|225:66|259:76|319:88|409:93|409:93|335:120|323:190|277:205|239:207|161:180|186:97|135:90|100:78,1,718.75,6|0,0:0|0:0,0:0:0:0:
103,79,96075,2,0,B|150:99|169:141|153:185,1,131.25000500679,10|0,0:0|0:0,0:0:0:0:
205,253,96998,2,0,B|228:262|263:312|231:376|185:406|117:390|26:334|84:216|175:263|217:123|98:77,1,500,6|2,0:0|0:0,0:0:0:0:
327,129,99306,1,0,0:0:0:0:
170,299,99767,6,0,P|200:255|230:239,1,87.5,10|0,0:0|0:0,0:0:0:0:
367,88,100691,2,0,P|241:200|251:368,2,350.00000333786,6|8|2,0:0|0:0|0:0,0:0:0:0:
497,335,102998,1,0,0:0:0:0:
228,256,103460,2,0,P|180:114|47:48,1,306.250002920628,10|0,0:0|0:0,0:0:0:0:
16,116,104383,6,0,P|83:105|124:65,1,122.499996261597,6|0,0:0|0:0,0:0:0:0:
87,20,105306,2,0,P|111:10|137:12,1,52.4999983978272,8|0,0:0|0:0,0:0:0:0:
179,63,105767,2,0,P|175:88|161:110,1,52.4999983978272
96,121,106229,2,0,P|75:105|63:82,1,52.4999983978272,2|0,0:0|0:0,0:0:0:0:
161,110,106691,6,0,P|204:107|244:86,1,67.4999979400635
235,193,107152,2,0,P|266:166|285:130,1,82.5000025177003,8|0,0:0|0:0,0:0:0:0:
369,208,107614,2,0,P|372:166|348:108,1,97.4999955368044,2|0,0:0|0:0,0:0:0:0:
424,60,108075,6,0,B|386:28|278:-35|287:66|253:76|193:88|103:93|103:93|177:120|189:190|235:205|273:207|351:180|326:97|377:90|412:78,1,718.75,6|0,0:0|0:0,0:0:0:0:
409,79,110844,2,0,B|362:99|343:141|359:185,1,131.25000500679,8|0,0:0|0:0,0:0:0:0:
307,253,111767,2,0,B|284:262|249:312|281:376|327:406|395:390|486:334|428:216|337:263|295:123|414:77,1,500,6|2,0:0|0:0,0:0:0:0:
185,129,114075,1,0,0:0:0:0:
342,299,114537,6,0,P|312:255|282:239,1,87.5,10|0,0:0|0:0,0:0:0:0:
145,88,115460,2,0,P|271:200|261:368,2,350.00000333786,6|8|2,0:0|0:0|0:0,0:0:0:0:
15,335,117767,1,0,0:0:0:0:
284,256,118229,2,0,P|332:114|465:48,1,306.250002920628,10|0,0:0|0:0,0:0:0:0:
496,116,119152,6,0,P|429:105|388:65,1,122.499996261597,6|0,0:0|0:0,0:0:0:0:
425,20,120075,2,0,P|400:10|374:12,1,52.4999983978272,8|0,0:0|0:0,0:0:0:0:
416,121,120537,2,0,P|436:105|448:82,1,52.4999983978272
333,63,120998,6,0,B|329:96|361:120|361:120|371:145|341:179,1,122.499996261597,2|0,0:0|0:0,0:0:0:0:
284,214,121921,2,0,B|328:268|396:233,1,122.499996261597,2|0,0:0|0:0,0:0:0:0:
440,176,122844,1,6,0:0:0:0:
256,192,122960,12,2,126537,0:0:0:0:
208,24,152383,6,0,P|75:72|46:214,1,300.000011444092,6|2,0:0|0:0,0:0:0:0:
101,191,154460,1,0,0:0:0:0:
156,214,154691,1,0,0:0:0:0:
179,270,154921,1,0,0:0:0:0:
259,317,155152,6,0,P|253:262|216:222,1,112.500004291535,10|0,0:0|0:0,0:0:0:0:
131,266,156075,2,0,P|185:316|258:317,2,150.000005722046,6|8|2,0:0|0:0|0:0,0:0:0:0:
138,206,158152,1,0,0:0:0:0:
138,206,158383,2,0,L|86:214,1,37.5000014305115,2|0,0:0|0:0,0:0:0:0:
218,159,158844,1,10,0:0:0:0:
218,159,159306,2,0,L|168:153,1,37.5000014305115,2|0,0:0|0:0,0:0:0:0:
355,96,159767,6,0,P|403:131|412:230,2,150.000005722046,6|8|2,0:0|0:0|0:0,0:0:0:0:
334,152,161844,1,0,0:0:0:0:
279,174,162075,1,2,0:0:0:0:
223,151,162305,1,0,0:0:0:0:
136,254,162537,6,0,P|191:248|231:211,1,112.500004291535,10|0,0:0|0:0,0:0:0:0:
187,126,163460,2,0,P|137:180|136:253,2,150.000005722046,6|8|2,0:0|0:0|0:0,0:0:0:0:
235,90,165537,1,0,0:0:0:0:
235,90,165767,2,0,L|281:86,1,37.5000014305115,2|0,0:0|0:0,0:0:0:0:
154,42,166229,1,10,0:0:0:0:
154,42,166460,2,0,L|196:49,2,37.5000014305115,0|2|0,0:0|0:0|0:0,0:0:0:0:
304,24,167152,6,0,P|437:72|466:214,1,300.000011444092,6|2,0:0|0:0,0:0:0:0:
411,191,169229,1,0,0:0:0:0:
356,214,169460,1,2,0:0:0:0:
333,270,169690,1,0,0:0:0:0:
253,317,169921,6,0,P|259:262|296:222,1,112.500004291535,10|0,0:0|0:0,0:0:0:0:
381,266,170844,2,0,P|327:316|254:317,2,150.000005722046,6|10|2,0:0|0:0|0:0,0:0:0:0:
374,206,172921,1,0,0:0:0:0:
374,206,173152,2,0,L|426:214,1,37.5000014305115,2|0,0:0|0:0,0:0:0:0:
294,159,173614,1,10,0:0:0:0:
294,159,174075,2,0,L|344:153,1,37.5000014305115,2|0,0:0|0:0,0:0:0:0:
157,96,174537,6,0,P|109:131|100:230,2,150.000005722046,6|10|2,0:0|0:0|0:0,0:0:0:0:
178,152,176613,1,0,0:0:0:0:
233,174,176844,1,0,0:0:0:0:
289,151,177074,1,0,0:0:0:0:
376,254,177306,6,0,P|321:248|281:211,1,112.500004291535,10|0,0:0|0:0,0:0:0:0:
311,118,178229,2,0,B|391:174|376:252|376:252|397:199|451:184,1,262.500010013581,4|0,0:0|0:0,0:0:0:0:
491,227,180075,1,2,0:0:0:0:
505,168,180306,1,0,0:0:0:0:
474,117,180537,1,2,0:0:0:0:
417,103,180767,1,0,0:0:0:0:
461,41,180998,5,10,0:0:0:0:
154,113,181460,1,2,0:0:0:0:
385,285,181921,6,0,B|354:311|297:252|330:185|383:188|423:190|456:210|504:228|524:294|477:377|438:467|337:468|245:314|259:233|199:194|129:225|68:256|60:270,1,718.75,6|0,0:0|0:0,0:0:0:0:
170,345,184691,2,0,P|183:285|243:285,1,131.25000500679,8|0,0:0|0:0,0:0:0:0:
243,285,185614,2,0,P|227:148|352:159,2,300.000011444092,6|8|2,0:0|0:0|0:0,0:0:0:0:
90,384,187921,1,0,0:0:0:0:
25,125,188383,6,0,P|67:118|102:92,1,87.5,10|0,0:0|0:0,0:0:0:0:
201,31,189306,2,0,P|70:139|66:309,2,350.00000333786,6|10|2,0:0|0:0|0:0,0:0:0:0:
308,251,191614,1,0,0:0:0:0:
102,92,192075,2,0,P|202:31|397:96,1,306.250002920628,10|0,0:0|0:0,0:0:0:0:
316,148,192998,6,0,P|293:91|294:30,1,122.499996261597,6|0,0:0|0:0,0:0:0:0:
347,107,193921,2,0,P|329:137|309:152,1,52.4999983978272,10|0,0:0|0:0,0:0:0:0:
282,231,194383,2,0,P|268:209|263:184,1,52.4999983978272
206,113,194844,2,0,P|232:111|257:119,1,52.4999983978272,2|0,0:0|0:0,0:0:0:0:
342,205,195306,5,0,0:0:0:0:
74,136,195767,1,10,0:0:0:0:
288,56,196229,1,2,0:0:0:0:
128,285,196691,6,0,B|158:311|215:252|182:185|129:188|89:190|56:210|8:228|-12:294|35:377|74:467|175:468|267:314|253:233|313:194|383:225|444:256|442:261,1,718.75,6|0,0:0|0:0,0:0:0:0:
341,345,199461,2,0,P|329:285|268:285,1,131.25000500679,10|0,0:0|0:0,0:0:0:0:
269,284,200383,2,0,P|292:155|161:157,2,300.000011444092,6|8|2,0:0|0:0|0:0,0:0:0:0:
422,384,202691,1,0,0:0:0:0:
487,125,203153,6,0,P|445:118|410:92,1,87.5,10|0,0:0|0:0,0:0:0:0:
311,31,204075,2,0,P|442:139|446:309,2,350.00000333786,6|8|2,0:0|0:0|0:0,0:0:0:0:
204,251,206384,1,0,0:0:0:0:
410,92,206845,2,0,P|310:31|115:96,1,306.250002920628,10|0,0:0|0:0,0:0:0:0:
197,145,207767,6,0,P|225:89|230:27,1,125,2|0,0:0|0:0,0:0:0:0:
230,27,208460,1,0,0:0:0:0:
165,104,208690,6,0,P|183:134|203:149,1,52.4999983978272,8|0,0:0|0:0,0:0:0:0:
306,110,209152,2,0,P|280:108|255:116,1,52.4999983978272
230,228,209614,6,0,B|249:205|250:179|250:179|246:221|284:252,1,122.499996261597,2|0,0:0|0:0,0:0:0:0:
347,252,210537,2,0,P|326:295|253:317,1,122.499996261597,10|0,0:0|0:0,0:0:0:0:
430,364,211460,6,0,P|351:268|355:152,1,218.75,6|0,0:0|0:0,0:0:0:0:
439,259,212383,6,0,P|391:241|344:161,1,131.250001251698,10|0,0:0|0:0,0:0:0:0:
346,177,212844,2,0,P|304:204|245:200,1,93.75,2|0,0:0|0:0,0:0:0:0:
261,205,213306,2,0,P|236:246|220:254,1,56.2500021457673,2|0,0:0|0:0,0:0:0:0:
231,250,213767,2,0,P|251:270|262:302,1,56.2500021457673
140,352,214229,6,0,P|159:320|193:306,1,75.0000028610231,10|2,0:0|0:0,0:0:0:0:
192,306,214921,1,0,0:0:0:0:
287,350,215152,6,0,P|208:323|253:138,2,300.000011444092,6|8|2,0:0|0:0|0:0,0:0:0:0:
23,196,217460,2,0,L|67:192,1,34.9999989318848
117,220,217921,6,0,P|92:183|86:130,1,87.5,10|0,0:0|0:0,0:0:0:0:
8,111,218844,2,0,P|56:136|241:-4,1,306.250002920628,6|0,0:0|0:0,0:0:0:0:
128,65,219767,6,0,P|192:57|240:14,1,131.250001251698,10|0,0:0|0:0,0:0:0:0:
240,13,220229,2,0,P|291:72|347:83,1,131.250001251698,2|0,0:0|0:0,0:0:0:0:
340,83,220690,2,0,P|331:140|371:181,1,93.75,2|0,0:0|0:0,0:0:0:0:
349,168,221152,2,0,P|327:180|308:217,1,56.2500021457673
475,192,221614,6,0,P|332:216|240:103,1,306.250002920628,10|0,0:0|0:0,0:0:0:0:
156,176,222537,2,0,P|204:160|240:96,1,122.499996261597,6|0,0:0|0:0,0:0:0:0:
325,29,223460,6,0,L|256:36,1,69.9999978637696,10|0,0:0|0:0,0:0:0:0:
256,36,224152,1,0,0:0:0:0:
142,20,224383,5,2,0:0:0:0:
348,112,224844,1,0,0:0:0:0:
112,192,225306,1,10,0:0:0:0:
359,302,225767,1,2,0:0:0:0:
82,364,226229,6,0,P|161:268|157:152,1,218.75,6|0,0:0|0:0,0:0:0:0:
73,259,227152,6,0,P|121:241|168:161,1,131.250001251698,10|0,0:0|0:0,0:0:0:0:
165,177,227614,2,0,P|207:204|266:200,1,93.75,2|0,0:0|0:0,0:0:0:0:
249,205,228075,2,0,P|274:246|290:254,1,56.2500021457673,2|0,0:0|0:0,0:0:0:0:
279,249,228536,2,0,P|259:269|248:301,1,56.2500021457673
372,352,228998,6,0,P|353:320|319:306,1,75.0000028610231,10|2,0:0|0:0,0:0:0:0:
319,306,229690,1,0,0:0:0:0:
225,350,229921,6,0,P|304:323|259:138,2,300.000011444092,6|10|2,0:0|0:0|0:0,0:0:0:0:
489,196,232229,2,0,L|445:192,1,34.9999989318848
395,220,232690,6,0,P|420:183|426:130,1,87.5,10|0,0:0|0:0,0:0:0:0:
504,111,233614,2,0,P|456:136|271:-4,1,306.250002920628,6|0,0:0|0:0,0:0:0:0:
384,65,234536,6,0,P|320:57|272:14,1,131.250001251698,10|0,0:0|0:0,0:0:0:0:
272,13,234998,2,0,P|221:72|165:83,1,131.250001251698,2|0,0:0|0:0,0:0:0:0:
172,83,235460,2,0,P|181:140|141:181,1,93.75,2|0,0:0|0:0,0:0:0:0:
163,168,235921,2,0,P|185:180|204:217,1,56.2500021457673
37,192,236383,6,0,P|180:216|272:103,1,306.250002920628,10|0,0:0|0:0,0:0:0:0:
355,176,237306,2,0,P|299:154|272:101,1,122.499996261597,6|0,0:0|0:0,0:0:0:0:
296,41,238229,6,0,P|319:55|332:77,1,52.4999983978272,10|0,0:0|0:0,0:0:0:0:
209,109,238690,2,0,P|209:83|222:60,1,52.4999983978272,2|0,0:0|0:0,0:0:0:0:
311,152,239152,6,0,B|292:170|262:164|262:164|288:186|289:242,1,122.499996261597,2|0,0:0|0:0,0:0:0:0:
262,292,240075,2,0,P|316:293|358:241,1,122.499996261597,10|0,0:0|0:0,0:0:0:0:
416,205,240998,1,6,0:0:0:0:
256,192,241114,12,0,243767,0:0:0:0:
108,134,244690,6,0,P|93:148|67:156,2,46.8750017881394,2|0|2,0:0|0:0|0:0,0:0:0:0:
75,65,245556,2,0,P|70:45|76:18,2,46.8750017881394,2|0|2,0:0|0:0|0:0,0:0:0:0:
133,80,246364,6,0,B|158:82|174:105|174:105|201:123|229:106,1,103.125003933907,2|2,0:0|0:0,0:0:0:0:
397,51,247460,6,0,L|393:88,2,37.5000014305115,10|0|0,0:0|0:0|0:0,0:0:0:0:
397,51,248152,1,0,0:0:0:0:
324,132,248383,2,0,P|389:107|431:163,2,150.000005722046,6|8|2,0:0|0:0|0:0,0:0:0:0:
324,132,250690,2,0,L|275:124,1,37.5000014305115
142,154,251152,6,0,L|151:240,1,75.0000028610231,10|2,0:0|0:0,0:0:0:0:
149,228,251844,1,0,0:0:0:0:
156,287,252075,6,0,P|126:283|105:268,2,50.0000019073487,2|2|2,0:0|0:0|0:0,0:0:0:0:
250,237,252998,2,0,P|225:239|203:251,2,50.0000019073487,10|2|2,0:0|0:0|0:0,0:0:0:0:
209,309,253921,2,0,P|209:334|199:357,2,50.0000019073487,2|2|2,0:0|0:0|0:0,0:0:0:0:
292,192,254844,2,0,B|340:196|340:196|356:208|356:208|400:212,1,112.500004291535,10|0,0:0|0:0,0:0:0:0:
492,179,255767,6,0,P|468:171|444:172,2,50.0000019073487,6|2|2,0:0|0:0|0:0,0:0:0:0:
369,250,256690,2,0,P|387:233|399:211,2,50.0000019073487,10|2|2,0:0|0:0|0:0,0:0:0:0:
386,153,257614,2,0,P|373:132|369:108,2,50.0000019073487,2|2|2,0:0|0:0|0:0,0:0:0:0:
256,244,258537,6,0,L|180:240,1,75.0000028610231,10|0,0:0|0:0,0:0:0:0:
181,240,259229,1,0,0:0:0:0:
88,272,259460,6,0,P|111:280|136:279,2,50.0000019073487,2|2|2,0:0|0:0|0:0,0:0:0:0:
210,344,260383,2,0,P|205:319|193:298,2,50.0000019073487,10|2|2,0:0|0:0|0:0,0:0:0:0:
210,202,261306,2,0,P|191:218|180:239,2,50.0000019073487,2|2|2,0:0|0:0|0:0,0:0:0:0:
56,74,262229,2,0,L|64:149,1,75.0000028610231,10|0,0:0|0:0,0:0:0:0:
63,148,262921,1,0,0:0:0:0:
136,191,263152,6,0,P|70:167|29:223,2,150.000005722046,6|10|2,0:0|0:0|0:0,0:0:0:0:
136,191,265460,1,2,0:0:0:0:
136,191,265690,1,0,0:0:0:0:
136,191,265921,2,0,L|208:184,2,56.2500021457673,10|2|2,0:0|0:0|0:0,0:0:0:0:
301,213,266844,6,0,P|270:233|234:231,1,75.0000028610231,6|0,0:0|0:0,0:0:0:0:
191,185,267537,1,2,0:0:0:0:
191,185,267767,2,0,L|97:195,2,75.0000028610231,10|0|2,0:0|0:0|0:0,0:0:0:0:
242,155,268844,6,0,L|251:185,1,25.0000009536744,2|2,0:0|0:0,0:0:0:0:
295,213,269152,2,0,L|302:189,2,25.0000009536744,2|2|2,0:0|0:0|0:0,0:0:0:0:
348,132,269614,2,0,L|357:162,2,25.0000009536744,10|2|2,0:0|0:0|0:0,0:0:0:0:
404,248,270075,2,0,L|411:224,2,25.0000009536744,2|2|0,0:0|0:0|0:0,0:0:0:0:
504,96,270537,6,0,P|462:112|412:28,1,150.000005722046,6|10,0:0|0:0,0:0:0:0:
407,39,271921,5,2,0:0:0:0:
407,39,272152,1,2,0:0:0:0:
407,39,272383,2,0,L|324:48,2,75.0000028610231,2|0|10,0:0|0:0|0:0,0:0:0:0:
304,112,273614,5,2,0:0:0:0:
212,4,273921,1,2,0:0:0:0:
122,147,274229,2,0,P|191:155|218:90,1,150.000005722046,6|10,0:0|0:0,0:0:0:0:
218,90,275614,5,2,0:0:0:0:
218,90,275845,1,2,0:0:0:0:
218,90,276075,2,0,L|292:81,2,75.0000028610231,2|0|10,0:0|0:0|0:0,0:0:0:0:
93,6,277460,1,2,0:0:0:0:
42,147,277921,6,0,P|78:195|87:199,2,50.0000019073487,6|0|0,0:0|0:0|0:0,0:0:0:0:
49,277,278690,1,2,0:0:0:0:
49,277,278844,2,0,P|97:241|101:232,2,50.0000019073487,10|0|0,0:0|0:0|0:0,0:0:0:0:
179,270,279614,1,2,0:0:0:0:
179,270,279767,2,0,P|143:221|134:218,2,50.0000019073487,2|0|0,0:0|0:0|0:0,0:0:0:0:
172,140,280537,1,2,0:0:0:0:
172,140,280690,2,0,P|124:176|120:185,2,50.0000019073487,10|0|0,0:0|0:0|0:0,0:0:0:0:
293,241,281614,6,0,L|209:237,1,75.0000028610231,6|2,0:0|0:0,0:0:0:0:
218,237,282306,1,0,0:0:0:0:
328,192,282537,6,0,P|348:216|352:264,2,75.0000028610231,10|0|2,0:0|0:0|0:0,0:0:0:0:
204,168,283921,1,0,0:0:0:0:
92,268,284383,1,10,0:0:0:0:
264,284,284844,1,0,0:0:0:0:
372,112,285306,6,0,B|452:96|440:176|508:156,1,150.000005722046,6|10,0:0|0:0,0:0:0:0:
506,156,286690,1,2,0:0:0:0:
506,156,286921,1,0,0:0:0:0:
506,156,287152,2,0,L|496:232,2,75.0000028610231,2|0|10,0:0|0:0|0:0,0:0:0:0:
400,56,288383,5,2,0:0:0:0:
320,160,288690,1,2,0:0:0:0:
208,32,288998,2,0,P|144:40|168:112,1,150.000005722046,6|10,0:0|0:0,0:0:0:0:
64,192,290229,5,2,0:0:0:0:
128,216,290537,2,0,L|132:191,2,25.0000009536744,2|2|2,0:0|0:0|0:0,0:0:0:0:
204,148,291152,1,2,0:0:0:0:
256,248,291460,1,2,0:0:0:0:
364,112,291767,2,0,L|372:186,1,75.0000028610231,10|2,0:0|0:0,0:0:0:0:
372,186,292460,1,0,0:0:0:0:
352,256,292690,6,0,B|432:272|420:192|488:212,2,150.000005722046,6|10|2,0:0|0:0|0:0,0:0:0:0:
352,256,294998,1,2,0:0:0:0:
352,256,295229,1,0,0:0:0:0:
352,256,295460,2,0,L|300:268,1,37.5000014305115,10|0,0:0|0:0,0:0:0:0:
272,308,295921,2,0,L|268:340,2,25.0000009536744,2|0|0,0:0|0:0|0:0,0:0:0:0:
255,247,296383,6,0,P|216:268|168:260,1,75.0000028610231,6|2,0:0|0:0,0:0:0:0:
132,240,297075,1,0,0:0:0:0:
186,267,297306,6,0,P|204:212|240:172,1,100,10|2,0:0|0:0,0:0:0:0:
300,148,297998,1,0,0:0:0:0:
230,179,298229,6,0,P|160:172|92:116,1,125,6|2,0:0|0:0,0:0:0:0:
64,64,298921,1,0,0:0:0:0:
114,143,299152,6,0,P|186:75|363:53,1,262.500010013581,10|0,0:0|0:0,0:0:0:0:
444,100,300075,5,6,0:0:0:0:
256,192,300190,12,2,302844,0:0:0:0:
256,192,303767,5,2,0:0:0:0:
256,192,303883,12,2,306537,0:0:0:0:
256,192,307460,5,2,0:0:0:0:
256,192,307575,12,2,310229,0:0:0:0:
256,192,311152,5,2,0:0:0:0:
256,192,311267,12,0,314383,0:0:0:0:
256,192,314844,12,2,317614,0:0:0:0:
256,192,318537,5,2,0:0:0:0:
256,192,318652,12,2,321306,0:0:0:0:
256,192,322229,5,2,0:0:0:0:
256,192,322344,12,2,324998,0:0:0:0:
256,192,325921,5,2,0:0:0:0:
256,192,326037,12,2,328690,0:0:0:0:
256,192,329614,5,6,0:0:0:0:
256,192,329729,12,0,334229,0:0:0:0:
256,192,334575,12,0,341614,0:0:0:0:
