osu file format v14

[General]
AudioFilename: audio.mp3
AudioLeadIn: 0
PreviewTime: 144044
Countdown: 0
SampleSet: Soft
StackLeniency: 0.7
Mode: 2
LetterboxInBreaks: 0
WidescreenStoryboard: 1

[Editor]
DistanceSpacing: 2.1
BeatDivisor: 4
GridSize: 8
TimelineZoom: 2.5

[Metadata]
Title:Loop Breaker
TitleUnicode:Loop Breaker
Artist:Shimotsuki Haruka
ArtistUnicode:霜月はるか
Creator:-Luminate
Version:Rain
Source:
Tags:japanese pop shimotsukin 10th anniversary best pc game songs original Shinji Orito Yuichiro Tsukagoshi
BeatmapID:3131173
BeatmapSetID:1277327

[Difficulty]
HPDrainRate:5
CircleSize:4
OverallDifficulty:8.9
ApproachRate:8.9
SliderMultiplier:2.3
SliderTickRate:2

[Events]
//Background and Video events
0,0,"asdasd.jpg",0,0
//Break Periods
2,169264,180002
2,228319,235716
//Storyboard Layer 0 (Background)
//Storyboard Layer 1 (Fail)
//Storyboard Layer 2 (Pass)
//Storyboard Layer 3 (Foreground)
//Storyboard Layer 4 (Overlay)
//Storyboard Sound Samples

[TimingPoints]
245,372.670807453416,4,2,1,30,1,0
7139,-100,4,2,1,50,0,0
7698,-100,4,2,1,65,0,0
29965,-100,4,2,1,30,0,0
43474,-100,4,2,1,40,0,0
66953,-100,4,2,1,50,0,0
67325,-100,4,2,1,60,0,0
70307,-100,4,2,1,75,0,1
94158,-100,4,2,1,70,0,0
97139,-66.6666666666667,4,2,1,70,0,0
97418,-100,4,2,1,70,0,0
100120,-100,4,2,1,65,0,0
106083,-100,4,2,1,40,0,0
129934,-100,4,2,1,50,0,0
141859,-100,4,2,1,60,0,0
144841,-100,4,2,1,75,0,1
167294,-100,4,2,1,40,0,0
180617,-100,4,2,1,40,0,0
185835,-100,4,2,1,55,0,0
186580,-100,4,2,1,70,0,1
198599,-100,4,2,1,65,0,0
211735,-113.636363636364,4,2,1,65,0,0
211828,-100,4,2,1,35,0,0
224872,-100,4,2,1,55,0,0
226642,-100,4,2,1,65,0,0
240244,-100,4,2,1,75,0,1
250679,-100,4,2,1,75,0,0
252170,-100,4,2,1,75,0,1
267077,-66.6666666666667,4,2,1,75,0,1
267356,-100,4,2,1,75,0,1
270058,-100,4,2,1,65,0,0
274437,-100,4,2,1,40,0,0
276766,-100,4,2,1,60,0,0
277512,-100,4,2,1,10,0,0

[Colours]
Combo1 : 72,72,255
Combo2 : 124,106,90
Combo3 : 141,141,141
Combo4 : 128,128,255

[HitObjects]
152,320,1176,6,0,L|48:224,2,115,0|0|0,0:0|0:0|0:0,0:0:0:0:
328,312,1735,6,0,L|336:176,1,115,2|0,0:0|0:0,0:0:0:0:
224,200,2108,2,0,L|216:80,1,115,0|2,0:0|0:0,0:0:0:0:
416,88,2667,1,0,0:0:0:0:
192,336,3040,6,0,P|128:264|208:176,1,230,2|0,0:0|0:0,0:0:0:0:
320,120,3599,2,0,L|192:120,1,115,0|2,0:0|0:0,0:0:0:0:
408,328,4158,2,0,L|512:240,2,115,0|0|0,0:0|0:0|0:0,0:0:0:0:
256,336,4717,6,0,P|168:288|144:144,1,230,2|0,0:0|0:0,0:0:0:0:
304,240,5276,2,0,P|368:176|280:72,1,230,2|0,0:0|0:0,0:0:0:0:
184,168,5835,2,0,L|176:48,1,115,0|0,0:0|0:0,0:0:0:0:
360,48,6207,5,2,0:0:0:0:
160,56,6766,1,0,0:0:0:0:
296,56,6953,2,0,L|448:56,1,115,2|8,0:0|0:0,0:0:0:0:
352,104,7232,1,8,0:0:0:0:
160,104,7325,2,0,L|24:104,1,115,8|0,0:1|0:0,0:0:0:0:
336,344,7698,6,0,P|400:280|312:168,1,230,14|8,0:1|0:0,0:0:0:0:
240,176,8164,1,0,0:0:0:0:
144,288,8257,2,0,P|80:232|160:120,1,230,14|8,0:1|0:0,0:0:0:0:
392,120,8816,2,0,L|496:40,2,115,14|8|8,0:1|0:0|0:0,0:0:0:0:
128,120,9375,6,0,P|56:200|160:280,1,230,14|8,0:1|0:0,0:0:0:0:
400,336,9934,2,0,P|416:248|384:200,1,115,12|8,0:1|0:0,0:0:0:0:
272,200,10307,2,0,L|160:176,1,115,12|8,0:1|0:0,0:0:0:0:
407,227,10679,6,0,L|192:48,1,230,14|10,0:1|0:0,0:0:0:0:
312,64,11145,1,10,0:0:0:0:
392,48,11238,2,0,P|456:144|376:224,1,230,14|8,0:1|0:0,0:0:0:0:
136,56,11797,2,0,L|40:128,2,115,14|2|8,0:1|0:0|0:0,0:0:0:0:
393,54,12356,6,0,P|457:118|369:222,1,230,14|8,0:1|0:0,0:0:0:0:
256,256,12915,2,0,L|400:256,1,115,12|2,0:1|0:0,0:0:0:0:
121,323,13288,2,0,L|116:189,1,115,12|10,0:1|0:0,0:0:0:0:
368,320,13661,6,0,P|456:272|488:128,1,230,14|2,0:1|0:0,0:0:0:0:
432,152,14126,1,2,0:0:0:0:
208,216,14220,2,0,P|136:144|232:64,1,230,14|8,0:1|0:0,0:0:0:0:
344,56,14779,2,0,L|72:56,1,230,12|8,0:1|0:0,0:0:0:0:
400,336,15338,6,0,P|464:272|376:176,1,230,14|8,0:1|0:0,0:0:0:0:
128,288,15897,1,14,0:1:0:0:
40,240,16021,1,2,0:0:0:0:
128,192,16145,1,2,0:0:0:0:
240,168,16269,1,14,0:1:0:0:
176,112,16394,1,2,0:0:0:0:
240,64,16518,1,2,0:0:0:0:
440,296,16642,6,0,P|496:240|400:120,1,230,14|8,0:1|0:0,0:0:0:0:
176,296,17201,2,0,P|112:216|184:128,1,230,14|8,0:1|0:0,0:0:0:0:
320,128,17760,1,14,0:1:0:0:
180,128,17946,2,0,L|92:128,1,57.5,2|2,0:0|0:0,0:0:0:0:
320,248,18133,5,10,0:0:0:0:
448,304,18319,1,14,0:1:0:0:
200,304,18505,1,12,0:1:0:0:
320,248,18692,2,0,L|256:248,1,57.5,2|2,0:0|0:0,0:0:0:0:
72,64,18878,5,8,0:1:0:0:
232,112,19126,1,2,0:0:0:0:
72,176,19375,1,10,0:0:0:0:
384,336,19623,6,0,P|448:264|368:176,1,230,14|2,0:0|0:0,0:0:0:0:
289,177,20089,1,2,0:0:0:0:
375,177,20182,2,0,P|441:97|361:9,1,230,8|8,0:1|0:0,0:0:0:0:
209,241,20741,2,0,L|321:169,2,115,8|0|8,0:1|0:0|0:0,0:0:0:0:
496,344,21300,6,0,P|464:224|344:184,1,230,10|8,0:1|0:0,0:0:0:0:
224,232,21859,2,0,L|216:152,1,57.5,10|2,0:1|0:0,0:0:0:0:
296,184,22046,2,0,L|304:104,1,57.5,10|2,0:0|0:0,0:0:0:0:
152,88,22232,2,0,L|72:88,1,57.5,10|2,0:1|0:0,0:0:0:0:
248,32,22418,2,0,L|312:32,1,57.5,10|2,0:0|0:0,0:0:0:0:
104,336,22605,6,0,P|80:288|120:216,1,115,14|8,0:1|0:2,0:0:0:0:
168,200,22884,2,0,L|8:200,1,115,10|0,0:1|0:0,0:0:0:0:
304,328,23164,2,0,P|368:216|280:176,1,230,10|8,0:1|0:0,0:0:0:0:
128,160,23723,2,0,L|32:80,2,115,8|2|8,0:1|0:0|0:0,0:0:0:0:
384,160,24282,5,8,0:1:0:0:
248,264,24468,2,0,L|240:112,1,115,10|0,0:1|0:0,0:0:0:0:
488,336,24841,2,0,L|496:200,1,115,14|0,0:1|0:0,0:0:0:0:
352,240,25213,1,8,0:1:0:0:
296,216,25307,1,8,0:1:0:0:
296,152,25400,1,4,0:3:0:0:
352,128,25493,1,8,0:0:0:0:
184,96,25586,6,0,L|40:96,1,115,14|0,0:0|0:0,0:0:0:0:
224,216,25959,1,8,0:1:0:0:
80,216,26145,2,0,L|16:216,2,57.5,8|8|10,0:0|0:1|0:0,0:0:0:0:
224,216,26518,1,8,0:0:0:0:
80,216,26704,1,8,0:1:0:0:
368,328,26890,6,0,P|432:272|368:160,1,230,14|8,0:0|0:0,0:0:0:0:
232,120,27449,1,8,0:1:0:0:
376,88,27636,2,0,L|456:88,2,57.5,8|8|10,0:0|0:1|0:0,0:0:0:0:
232,64,28008,1,8,0:0:0:0:
376,32,28195,1,8,0:1:0:0:
120,336,28381,6,0,P|56:256|136:176,1,230,14|8,0:0|0:0,0:0:0:0:
272,168,28940,1,8,0:1:0:0:
128,152,29126,2,0,L|120:80,1,57.5,10|8,0:0|0:0,0:0:0:0:
288,304,29313,2,0,L|368:304,1,57.5,8|8,0:1|0:0,0:0:0:0:
288,240,29499,2,0,L|208:240,1,57.5,8|8,0:3|0:3,0:0:0:0:
400,120,29685,2,0,L|472:120,1,57.5,4|8,0:3|0:0,0:0:0:0:
232,48,29872,6,0,P|136:304|288:48,1,920,14|0,0:0|0:0,0:0:0:0:
184,56,31549,5,2,0:0:0:0:
368,224,32108,1,0,0:0:0:0:
248,224,32294,2,0,L|104:112,2,172.5,2|0|0,0:0|0:0|0:0,0:0:0:0:
96,336,33040,6,0,L|88:144,1,172.5,2|0,0:0|0:0,0:0:0:0:
312,336,33599,2,0,P|376:256|304:168,1,230,2|0,0:0|0:0,0:0:0:0:
176,168,34158,2,0,L|168:32,1,115,0|0,0:0|0:0,0:0:0:0:
304,48,34530,5,2,0:0:0:0:
80,320,35089,1,0,0:0:0:0:
200,320,35276,2,0,L|360:192,2,172.5,2|0|0,0:0|0:0|0:0,0:0:0:0:
352,336,36021,6,0,L|360:152,1,172.5,2|0,0:0|0:0,0:0:0:0:
176,248,36580,2,0,P|72:160|208:32,1,345,2|0,0:0|0:0,0:0:0:0:
464,32,37512,5,2,0:0:0:0:
200,272,38071,1,0,0:0:0:0:
320,256,38257,2,0,L|328:72,1,172.5,2|0,0:0|0:0,0:0:0:0:
128,160,38816,5,0,0:0:0:0:
112,48,39002,1,2,0:0:0:0:
272,104,39282,1,0,0:0:0:0:
112,192,39561,1,2,0:0:0:0:
368,312,40307,1,0,0:0:0:0:
224,320,40493,6,0,P|184:232|248:176,1,172.5,2|0,0:0|0:0,0:0:0:0:
440,216,41052,2,0,P|496:152|408:40,1,230,2|0,0:0|0:0,0:0:0:0:
176,48,41797,5,2,0:0:0:0:
368,168,42170,2,0,L|464:88,2,115,0|2|0,0:0|0:0|0:0,0:0:0:0:
72,176,43102,1,0,0:0:0:0:
384,344,43474,6,0,L|392:200,1,115,14|0,0:0|0:0,0:0:0:0:
264,240,43847,2,0,L|256:120,1,115,8|0,0:0|0:0,0:0:0:0:
128,192,44220,2,0,L|136:56,1,115,10|0,0:0|0:0,0:0:0:0:
256,72,44592,2,0,L|112:72,1,115,8|0,0:0|0:0,0:0:0:0:
312,320,44965,6,0,L|320:176,1,115,10|0,0:0|0:0,0:0:0:0:
192,216,45338,2,0,L|176:88,1,115,8|2,0:0|0:0,0:0:0:0:
320,144,45710,2,0,L|304:24,1,115,8|0,0:0|0:0,0:0:0:0:
456,216,46083,2,0,L|440:96,1,115,8|0,0:0|0:0,0:0:0:0:
272,320,46456,6,0,L|280:184,1,115,8|0,0:0|0:0,0:0:0:0:
408,152,46828,2,0,L|288:88,1,115,8|0,0:0|0:0,0:0:0:0:
168,112,47201,2,0,L|288:56,1,115,10|0,0:0|0:0,0:0:0:0:
160,336,47574,2,0,L|152:176,1,115,8|0,0:0|0:0,0:0:0:0:
312,232,47946,6,0,L|320:104,1,115,10|0,0:0|0:0,0:0:0:0:
184,168,48319,2,0,L|200:40,1,115,8|2,0:0|0:0,0:0:0:0:
48,128,48692,2,0,L|64:0,1,115,8|2,0:0|0:0,0:0:0:0:
176,200,49064,1,8,0:0:0:0:
48,264,49251,1,0,0:0:0:0:
240,336,49437,6,0,L|248:176,1,115,10|0,0:0|0:0,0:0:0:0:
112,216,49810,2,0,L|104:96,1,115,8|0,0:0|0:0,0:0:0:0:
248,152,50182,2,0,L|240:32,1,115,10|0,0:0|0:0,0:0:0:0:
384,216,50555,2,0,L|376:88,1,115,8|0,0:0|0:0,0:0:0:0:
296,96,50835,1,0,0:0:0:0:
376,80,50928,6,0,P|440:160|352:240,1,230,10|8,0:0|0:0,0:0:0:0:
232,288,51487,1,2,0:0:0:0:
368,240,51673,2,0,L|376:120,1,115,8|2,0:0|0:0,0:0:0:0:
232,168,52046,2,0,L|224:40,1,115,8|0,0:0|0:0,0:0:0:0:
304,48,52325,1,0,0:0:0:0:
224,40,52418,6,0,P|120:80|120:208,1,230,10|8,0:0|0:0,0:0:0:0:
232,224,52977,1,0,0:0:0:0:
112,296,53164,1,8,0:3:0:0:
320,288,53443,1,8,3:2:0:0:
384,280,53536,1,8,3:1:0:0:
112,224,53723,6,0,P|48:160|152:56,1,230,14|8,0:0|0:3,0:0:0:0:
248,56,54282,2,0,L|352:144,1,115,8|0,0:3|0:0,0:0:0:0:
192,192,54654,1,4,0:3:0:0:
336,304,54903,1,8,0:0:0:0:
408,248,55027,1,4,0:3:0:0:
408,168,55151,1,8,0:0:0:0:
336,120,55276,1,8,0:0:0:0:
152,128,55400,6,0,L|144:0,1,115,14|0,0:0|0:0,0:0:0:0:
408,168,55772,2,0,L|416:40,1,115,14|0,0:0|0:0,0:0:0:0:
272,48,56145,1,8,0:1:0:0:
416,48,56331,2,0,P|472:96|376:208,1,230,10|0,0:0|0:0,0:0:0:0:
264,312,56890,6,0,L|144:272,2,115,8|8|10,0:0|0:1|0:0,0:0:0:0:
120,336,57449,1,8,0:0:0:0:
264,312,57636,2,0,L|272:168,1,115,10|0,0:1|0:0,0:0:0:0:
128,208,58008,2,0,L|120:72,1,115,10|8,0:0|0:1,0:0:0:0:
392,296,58381,6,0,L|400:144,1,115,10|0,0:0|0:0,0:0:0:0:
121,93,58754,2,0,L|377:61,1,230,14|8,0:2|0:1,0:0:0:0:
216,312,59313,2,0,P|144:240|240:152,1,230,2|2,0:0|0:0,0:0:0:0:
360,144,59872,6,0,L|456:64,2,115,8|8|10,0:0|0:1|0:0,0:0:0:0:
224,144,60431,1,8,0:0:0:0:
360,144,60617,2,0,L|368:280,1,115,8|0,0:1|0:0,0:0:0:0:
224,144,60990,2,0,L|232:280,1,115,8|8,0:0|0:1,0:0:0:0:
480,336,61363,6,0,L|288:176,2,230,14|8|8,0:0|0:0|0:0,0:0:0:0:
368,344,62294,2,0,P|304:240|384:192,1,230,10|0,0:0|0:0,0:0:0:0:
232,344,62853,6,0,P|144:320|120:184,1,230,10|0,0:0|0:0,0:0:0:0:
240,192,63412,2,0,L|248:64,1,115,2|8,0:0|0:0,0:0:0:0:
112,184,63785,2,0,L|104:32,1,115,2|8,0:0|0:0,0:0:0:0:
248,64,64158,1,2,0:0:0:0:
112,272,64344,6,0,L|344:256,1,230,8|8,0:0|0:0,0:0:0:0:
200,88,64903,1,2,0:0:0:0:
344,80,65089,2,0,P|408:168|320:256,1,230,8|0,0:0|0:0,0:0:0:0:
264,256,65555,1,2,0:0:0:0:
184,256,65648,6,0,P|152:184|280:88,1,230,2|2,0:0|0:0,0:0:0:0:
384,88,66207,1,8,0:0:0:0:
251,198,66394,2,0,L|243:78,1,115,2|0,0:0|0:0,0:0:0:0:
384,88,66766,1,2,0:0:0:0:
243,83,66953,2,0,L|99:83,1,115,10|2,0:0|0:0,0:0:0:0:
384,288,67325,6,0,L|456:288,1,57.5,8|8,0:1|0:1,0:0:0:0:
272,184,67605,2,0,L|184:184,1,57.5,8|8,0:1|0:1,0:0:0:0:
384,112,67884,1,8,0:3:0:0:
248,168,68071,2,0,L|240:32,1,115,4|10,0:3|0:0,0:0:0:0:
312,40,68350,1,2,0:0:0:0:
384,32,68443,1,4,0:3:0:0:
120,40,68630,5,14,0:0:0:0:
360,320,69561,1,8,0:1:0:0:
216,320,69748,1,8,3:2:0:0:
152,288,69841,1,8,3:2:0:0:
128,224,69934,1,8,3:1:0:0:
152,152,70027,1,8,3:2:0:0:
216,120,70120,1,10,3:2:0:0:
480,72,70307,6,0,L|240:72,1,230,14|8,0:0|0:1,0:0:0:0:
376,160,70866,2,0,L|440:160,2,57.5,8|8|10,0:0|0:1|0:0,0:0:0:0:
248,200,71238,1,8,0:0:0:0:
376,248,71425,1,8,0:1:0:0:
104,344,71611,6,0,P|40:272|120:176,1,230,10|8,0:0|0:0,0:0:0:0:
256,160,72170,1,8,0:1:0:0:
104,112,72356,2,0,L|192:112,2,57.5,8|8|10,0:0|0:1|0:0,0:0:0:0:
256,64,72729,1,8,0:0:0:0:
104,112,72915,2,0,L|96:264,1,115,8|0,0:1|0:0,0:0:0:0:
384,352,73288,6,0,P|440:288|360:176,1,230,10|8,0:0|0:1,0:0:0:0:
240,136,73847,2,0,L|312:136,2,57.5,8|8|8,0:0|0:1|0:0,0:0:0:0:
88,304,74220,2,0,L|80:168,1,115,8|8,0:0|0:1,0:0:0:0:
368,336,74592,6,0,L|376:192,1,115,10|0,0:0|0:0,0:0:0:0:
240,216,74965,1,8,0:0:0:0:
376,160,75151,2,0,L|232:160,1,115,8|8,0:1|0:0,0:0:0:0:
192,160,75431,1,8,0:1:0:0:
256,128,75524,1,8,0:0:0:0:
256,72,75617,1,8,0:1:0:0:
192,48,75710,1,8,0:0:0:0:
344,48,75897,1,8,0:1:0:0:
192,48,76083,2,0,L|120:48,1,57.5,8|8,0:0|0:1,0:0:0:0:
320,312,76269,6,0,L|456:312,2,115,14|0|8,0:0|0:0|0:1,0:0:0:0:
168,312,76828,2,0,L|96:312,1,57.5,10|8,0:0|0:1,0:0:0:0:
176,232,77015,2,0,L|312:232,2,115,10|8|8,0:0|0:0|0:1,0:0:0:0:
424,168,77574,1,2,0:0:0:0:
176,168,77760,6,0,L|32:168,2,115,8|2|8,0:0|0:0|0:1,0:0:0:0:
336,240,78319,2,0,P|400:168|328:72,1,230,2|8,0:0|0:1,0:0:0:0:
272,72,78785,1,8,0:1:0:0:
112,304,78878,2,0,L|208:304,1,57.5,8|8,0:1|0:3,0:0:0:0:
328,304,79064,2,0,L|400:304,1,57.5,4|4,0:3|0:3,0:0:0:0:
168,232,79251,6,0,P|104:176|176:64,1,230,14|8,0:0|0:1,0:0:0:0:
416,64,79810,2,0,P|480:120|400:232,1,230,14|8,0:0|0:0,0:0:0:0:
160,304,80369,1,8,0:1:0:0:
419,229,80555,6,0,L|179:229,1,230,14|8,0:0|0:0,0:0:0:0:
312,176,81114,1,8,0:1:0:0:
56,104,81300,1,8,0:0:0:0:
304,32,81487,2,0,L|312:160,1,115,8|10,0:1|0:0,0:0:0:0:
64,304,81859,2,0,L|56:152,1,115,12|0,0:1|0:0,0:0:0:0:
320,344,82232,6,0,P|376:296|304:184,1,230,14|8,0:0|0:1,0:0:0:0:
168,136,82791,2,0,L|408:136,1,230,2|2,0:0|0:0,0:0:0:0:
264,224,83350,1,8,0:1:0:0:
416,336,83536,6,0,L|424:200,1,115,2|8,0:0|0:0,0:0:0:0:
304,176,83909,1,2,0:0:0:0:
472,136,84095,1,8,0:1:0:0:
304,112,84282,2,0,L|176:40,1,115,2|0,0:0|0:0,0:0:0:0:
344,256,84654,1,2,0:0:0:0:
96,328,84841,2,0,L|88:184,1,115,8|0,0:1|0:0,0:0:0:0:
368,192,85213,6,0,L|376:56,1,115,10|0,0:0|0:0,0:0:0:0:
80,64,85586,1,8,0:1:0:0:
216,64,85772,2,0,L|224:208,1,115,2|8,0:0|0:0,0:0:0:0:
80,192,86145,2,0,L|200:192,1,115,2|8,0:0|0:1,0:0:0:0:
440,336,86518,6,0,L|296:336,1,115,10|0,0:0|0:0,0:0:0:0:
152,320,86890,1,8,0:0:0:0:
312,152,87077,2,0,P|376:224|288:320,1,230,10|10,0:1|0:0,0:0:0:0:
144,320,87636,2,0,L|136:240,1,57.5,8|8,3:1|3:1,0:0:0:0:
288,200,87822,1,8,3:1:0:0:
352,168,87915,1,8,3:2:0:0:
352,96,88008,1,8,0:3:0:0:
88,168,88195,5,14,0:1:0:0:
80,56,88381,1,8,0:0:0:0:
208,160,88567,1,8,0:0:0:0:
216,56,88754,1,8,0:0:0:0:
80,56,88940,1,8,0:0:0:0:
208,160,89126,1,8,0:0:0:0:
80,240,89313,1,8,0:0:0:0:
208,312,89499,1,8,0:0:0:0:
464,272,89685,5,8,0:1:0:0:
336,232,89872,1,8,0:0:0:0:
80,240,90058,1,8,0:1:0:0:
216,192,90244,1,8,0:0:0:0:
80,176,90431,1,8,0:1:0:0:
80,112,90524,1,8,0:1:0:0:
112,56,90617,1,8,0:0:0:0:
168,40,90710,1,8,0:0:0:0:
232,40,90804,1,8,0:1:0:0:
176,88,90897,1,8,0:1:0:0:
232,112,90990,1,8,0:0:0:0:
288,136,91083,1,8,0:0:0:0:
120,352,91176,5,12,0:1:0:0:
64,336,91269,1,8,0:3:0:0:
64,272,91363,1,8,0:2:0:0:
120,240,91456,1,8,0:2:0:0:
296,240,91549,2,0,L|304:152,1,57.5,8|8,0:3|0:3,0:0:0:0:
232,184,91735,2,0,L|224:104,1,57.5,8|8,0:2|0:2,0:0:0:0:
384,136,91922,2,0,L|392:72,1,57.5,8|8,0:3|0:2,0:0:0:0:
320,80,92108,2,0,L|312:16,1,57.5,8|8,0:2|0:2,0:0:0:0:
464,240,92294,2,0,L|392:240,1,57.5,8|8,0:3|0:3,0:0:0:0:
248,240,92481,2,0,L|176:240,1,57.5,4|4,0:3|0:3,0:0:0:0:
400,344,92667,6,0,P|488:264|384:88,1,345,14|2,0:0|0:0,0:0:0:0:
248,88,93412,1,8,0:0:0:0:
396,90,93599,2,0,L|484:90,1,57.5,8|8,0:0|0:0,0:0:0:0:
248,88,93785,2,0,L|104:88,1,115,12|8,0:1|0:3,0:0:0:0:
392,40,94158,6,0,L|504:96,2,115,14|8|8,0:1|0:0|0:0,0:0:0:0:
128,40,94717,2,0,P|64:144|152:200,1,230,12|8,0:1|0:0,0:0:0:0:
408,200,95276,2,0,L|280:136,2,115,12|8|8,0:1|0:0|0:0,0:0:0:0:
160,352,95835,6,0,P|80:328|40:184,1,230,14|8,0:1|0:0,0:0:0:0:
304,192,96394,2,0,L|376:192,1,57.5,12|2,0:1|0:0,0:0:0:0:
192,80,96580,2,0,L|128:80,1,57.5,2|2,0:0|0:0,0:0:0:0:
304,304,96766,2,0,L|312:232,1,57.5,14|2,0:1|0:0,0:0:0:0:
232,256,96953,2,0,L|224:176,1,57.5,2|2,0:0|0:0,0:0:0:0:
432,216,97139,6,0,P|472:144|424:72,1,172.500006580353,12|8,0:1|0:2,0:0:0:0:
360,48,97418,2,0,L|496:48,1,115,8|8,0:1|0:0,0:0:0:0:
272,320,97698,2,0,P|208:256|288:160,1,230,14|8,0:1|0:0,0:0:0:0:
432,152,98257,2,0,L|304:64,2,115,14|2|8,0:1|0:0|0:0,0:0:0:0:
176,312,98816,5,12,0:1:0:0:
312,288,99002,2,0,L|320:144,1,115,14|8,0:1|0:0,0:0:0:0:
64,200,99375,2,0,L|56:56,1,115,14|0,0:1|0:0,0:0:0:0:
216,48,99748,1,8,0:1:0:0:
224,112,99841,1,8,0:1:0:0:
168,144,99934,1,8,0:3:0:0:
224,176,100027,1,8,0:3:0:0:
400,320,100120,6,0,L|408:168,1,115,14|0,0:0|0:0,0:0:0:0:
256,208,100493,2,0,L|248:80,1,115,8|8,0:1|0:0,0:0:0:0:
328,88,100772,1,8,0:1:0:0:
408,72,100866,2,0,L|264:64,2,115,10|8|8,0:0|0:0|0:1,0:0:0:0:
136,352,101425,6,0,P|72:272|160:192,1,230,14|8,0:0|0:0,0:0:0:0:
288,168,101984,2,0,L|120:168,1,115,8|8,0:1|0:0,0:0:0:0:
240,144,102263,1,8,0:1:0:0:
304,120,102356,2,0,L|168:120,1,115,8|8,0:0|0:0,0:0:0:0:
56,120,102729,1,8,0:1:0:0:
320,352,102915,6,0,P|384:256|296:184,1,230,14|8,0:0|0:0,0:0:0:0:
184,160,103474,1,8,0:1:0:0:
272,96,103599,1,8,0:1:0:0:
184,56,103723,1,8,0:1:0:0:
304,320,103847,1,8,0:3:0:0:
368,272,103971,1,8,0:0:0:0:
304,224,104095,1,4,0:3:0:0:
176,224,104220,2,0,L|80:224,1,57.5,8|8,0:0|0:0,0:0:0:0:
312,224,104406,6,0,P|424:176|440:56,1,230,14|8,0:0|0:0,0:0:0:0:
344,72,104965,1,8,0:1:0:0:
96,336,105151,2,0,P|40:208|120:168,1,230,14|8,0:0|0:0,0:0:0:0:
232,168,105710,2,0,L|360:168,1,115,8|0,0:1|0:0,0:0:0:0:
96,32,106083,6,0,P|40:80|112:200,1,230,10|8,0:0|0:1,0:0:0:0:
232,32,106642,1,2,0:0:0:0:
96,32,106828,2,0,L|88:160,1,115,8|8,0:0|0:0,0:0:0:0:
328,232,107387,1,8,0:1:0:0:
192,216,107574,6,0,L|184:48,1,115,10|8,0:0|0:0,0:0:0:0:
328,88,107946,1,8,0:1:0:0:
184,104,108133,2,0,P|120:208|208:256,1,230,2|8,0:0|0:0,0:0:0:0:
303,257,108692,2,0,L|167:257,1,115,8|0,0:1|0:0,0:0:0:0:
368,336,109064,6,0,P|432:264|352:168,1,230,8|8,0:0|0:1,0:0:0:0:
168,160,109810,1,8,0:0:0:0:
304,144,109996,1,8,0:0:0:0:
112,328,110369,1,8,0:1:0:0:
256,296,110555,6,0,L|264:168,1,115,10|8,0:0|0:0,0:0:0:0:
128,176,110928,1,8,0:1:0:0:
264,184,111114,2,0,L|424:184,1,115,10|8,0:0|0:0,0:0:0:0:
408,128,111394,1,0,3:0:0:0:
384,64,111487,1,0,3:0:0:0:
256,64,111673,2,0,L|248:184,1,115,8|0,0:1|0:0,0:0:0:0:
400,328,112046,6,0,L|408:200,1,115,8|2,0:0|0:0,0:0:0:0:
192,200,112605,2,0,L|128:200,2,57.5,0|0|8,3:0|3:0|3:2,0:0:0:0:
336,200,112977,1,8,0:0:0:0:
136,304,113350,1,8,0:1:0:0:
272,304,113536,6,0,L|368:232,2,115,10|8|8,0:0|0:0|0:1,0:0:0:0:
136,304,114095,2,0,P|72:224|144:136,1,230,2|8,0:0|0:0,0:0:0:0:
255,136,114654,2,0,L|127:136,1,115,8|0,0:1|0:0,0:0:0:0:
320,336,115027,6,0,L|472:216,2,172.5,10|2|2,0:0|0:0|0:0,0:0:0:0:
464,336,115772,1,8,0:0:0:0:
464,336,115959,1,8,0:0:0:0:
272,336,116331,6,0,P|184:304|144:168,1,230,8|8,0:1|0:0,0:0:0:0:
272,160,116890,1,8,0:1:0:0:
144,184,117077,2,0,P|160:96|312:40,1,230,10|2,0:0|0:0,0:0:0:0:
392,216,117636,2,0,L|400:80,1,115,8|2,0:1|0:0,0:0:0:0:
240,96,118008,5,8,0:0:0:0:
440,336,118381,1,8,0:1:0:0:
320,328,118567,2,0,P|224:296|184:152,1,230,8|10,0:0|0:0,0:0:0:0:
312,200,119126,2,0,L|320:64,1,115,8|0,0:1|0:0,0:0:0:0:
176,176,119499,6,0,L|352:64,2,172.5,10|2|10,0:0|0:0|0:0,0:0:0:0:
376,312,120431,1,8,0:0:0:0:
240,296,120617,2,0,L|232:144,1,115,8|0,0:1|0:0,0:0:0:0:
392,208,120990,6,0,P|448:144|368:48,1,230,10|8,0:0|0:1,0:0:0:0:
232,48,121549,1,8,0:0:0:0:
440,336,121922,1,8,0:0:0:0:
296,320,122108,2,0,L|288:176,1,115,8|0,0:1|0:0,0:0:0:0:
136,200,122481,6,0,P|64:112|152:40,1,230,10|8,0:0|0:1,0:0:0:0:
272,304,123040,2,0,P|336:224|256:136,1,230,10|0,0:0|0:0,0:0:0:0:
136,155,123599,2,0,L|128:27,1,115,8|0,0:1|0:0,0:0:0:0:
312,344,123971,6,0,P|400:304|440:176,1,230,10|8,0:0|0:1,0:0:0:0:
304,168,124530,1,8,0:0:0:0:
440,184,124717,2,0,P|432:96|296:16,1,230,10|8,0:0|0:1,0:0:0:0:
184,64,125276,1,2,0:0:0:0:
328,120,125462,5,8,0:0:0:0:
120,336,125835,1,8,0:1:0:0:
280,336,126021,2,0,P|336:280|240:160,1,230,2|8,0:0|0:0,0:0:0:0:
128,120,126580,2,0,L|248:120,1,115,8|2,0:1|0:0,0:0:0:0:
384,296,126953,6,0,L|168:200,1,230,10|8,0:0|0:1,0:0:0:0:
296,192,127512,1,8,0:0:0:0:
176,136,127698,1,8,0:3:0:0:
360,128,127977,1,8,0:1:0:0:
416,112,128071,1,8,0:1:0:0:
88,64,128257,6,0,P|24:120|136:208,1,230,14|8,0:0|0:0,0:0:0:0:
248,280,128816,2,0,L|256:128,1,115,10|0,0:1|0:0,0:0:0:0:
112,144,129189,1,8,0:3:0:0:
256,136,129469,1,8,0:0:0:0:
264,72,129562,1,4,0:3:0:0:
144,48,129748,1,8,0:0:0:0:
416,344,129934,6,0,P|472:280|400:160,1,230,14|8,0:0|0:1,0:0:0:0:
200,264,130679,1,8,0:0:0:0:
328,256,130866,2,0,L|336:104,1,115,2|8,0:0|0:1,0:0:0:0:
48,264,131425,6,0,P|72:120|184:96,1,230,10|8,0:0|0:1,0:0:0:0:
272,256,131984,2,0,L|40:256,1,230,10|8,0:0|0:0,0:0:0:0:
176,208,132543,2,0,L|296:192,1,115,8|0,0:1|0:0,0:0:0:0:
120,48,132915,6,0,P|48:104|144:200,1,230,8|8,0:0|0:1,0:0:0:0:
264,200,133474,1,2,0:0:0:0:
408,200,133661,2,0,L|416:320,1,115,8|2,0:0|0:0,0:0:0:0:
288,320,134033,1,8,0:1:0:0:
416,320,134220,1,2,0:0:0:0:
240,224,134406,5,8,0:0:0:0:
408,192,134779,1,8,0:1:0:0:
272,224,134965,2,0,P|208:152|288:56,1,230,10|8,0:0|0:0,0:0:0:0:
400,48,135524,2,0,L|408:176,1,115,8|0,0:1|0:0,0:0:0:0:
128,344,135897,6,0,P|72:248|176:168,1,230,14|8,0:0|0:1,0:0:0:0:
304,152,136456,1,10,0:0:0:0:
160,136,136642,2,0,L|168:16,1,115,0|8,0:0|0:0,0:0:0:0:
312,24,137015,1,8,0:1:0:0:
56,328,137387,6,0,L|296:312,1,230,10|8,0:0|0:1,0:0:0:0:
152,280,137946,2,0,P|88:216|176:128,1,230,10|8,0:0|0:0,0:0:0:0:
280,96,138505,2,0,L|120:96,1,115,8|2,0:1|0:0,0:0:0:0:
416,48,138878,6,0,P|480:136|376:216,1,230,8|8,0:0|0:1,0:0:0:0:
264,312,139437,1,2,0:0:0:0:
412,330,139623,2,0,L|412:194,1,115,8|0,0:0|0:0,0:0:0:0:
264,208,139996,1,8,0:1:0:0:
408,152,140182,6,0,L|168:80,1,230,10|8,0:0|0:0,0:0:0:0:
344,120,140928,1,2,0:0:0:0:
176,320,141114,2,0,L|184:192,1,115,8|2,0:0|0:0,0:0:0:0:
464,320,141487,2,0,L|456:192,1,115,14|0,0:1|0:0,0:0:0:0:
176,328,141859,5,8,0:1:0:0:
120,304,141953,1,8,0:1:0:0:
120,240,142046,1,8,0:0:0:0:
176,216,142139,1,8,0:0:0:0:
120,200,142232,1,8,0:3:0:0:
72,176,142325,1,8,0:3:0:0:
72,112,142418,1,8,0:0:0:0:
120,88,142512,1,8,0:0:0:0:
280,296,142605,2,0,L|288:208,1,57.5,4|4,0:3|0:3,0:0:0:0:
208,240,142791,2,0,L|200:168,1,57.5,8|8,0:0|0:0,0:0:0:0:
360,208,142977,1,4,0:3:0:0:
416,192,143071,1,4,0:3:0:0:
448,136,143164,1,8,0:0:0:0:
448,72,143257,1,8,0:0:0:0:
144,336,143350,6,0,P|48:256|176:96,1,345,14|2,0:1|0:0,0:0:0:0:
416,192,144095,1,8,0:1:0:0:
464,168,144189,1,8,0:1:0:0:
464,112,144282,1,8,0:0:0:0:
416,88,144375,1,8,0:0:0:0:
232,72,144468,1,8,0:1:0:0:
296,56,144561,1,8,0:1:0:0:
360,48,144654,1,4,0:3:0:0:
72,336,144841,6,0,P|8:248|96:168,1,230,14|8,0:0|0:1,0:0:0:0:
216,136,145400,2,0,L|128:136,2,57.5,10|8|8,0:0|0:1|0:0,0:0:0:0:
344,192,145772,1,8,0:0:0:0:
216,272,145959,1,8,0:1:0:0:
480,336,146145,6,0,P|448:208|344:184,1,230,10|2,0:0|0:0,0:0:0:0:
208,168,146704,1,8,0:1:0:0:
360,128,146891,1,8,0:0:0:0:
304,96,146984,1,8,0:1:0:0:
360,64,147077,1,8,0:0:0:0:
480,32,147263,1,8,0:0:0:0:
232,32,147449,2,0,L|80:32,1,115,8|2,0:1|0:0,0:0:0:0:
384,344,147822,6,0,L|392:176,1,115,14|0,0:0|0:0,0:0:0:0:
248,224,148195,1,8,0:1:0:0:
392,168,148381,2,0,L|464:168,2,57.5,8|8|8,0:0|0:1|0:0,0:0:0:0:
144,168,148754,2,0,L|0:168,1,115,8|8,0:0|0:1,0:0:0:0:
312,352,149126,6,0,P|376:288|288:184,1,230,10|8,0:0|0:0,0:0:0:0:
176,136,149685,2,0,L|328:136,1,115,8|8,0:1|0:0,0:0:0:0:
232,128,149965,1,8,0:1:0:0:
176,104,150058,1,8,0:0:0:0:
176,48,150151,1,8,0:1:0:0:
232,24,150244,1,8,0:0:0:0:
376,24,150431,1,8,0:1:0:0:
232,24,150617,2,0,L|232:112,1,57.5,8|8,0:0|0:1,0:0:0:0:
416,240,150804,6,0,L|280:240,2,115,14|2|8,0:0|0:0|0:1,0:0:0:0:
264,320,151363,2,0,L|200:320,2,57.5,10|8|8,0:0|0:1|0:0,0:0:0:0:
416,264,151735,1,8,0:0:0:0:
296,208,151922,1,8,0:1:0:0:
416,160,152108,1,2,0:0:0:0:
168,328,152294,6,0,L|160:184,1,115,8|8,0:0|0:0,0:0:0:0:
296,208,152667,1,8,0:1:0:0:
40,112,152853,2,0,L|176:112,1,115,10|0,0:0|0:0,0:0:0:0:
296,208,153226,2,0,L|184:208,1,57.5,8|8,0:1|0:1,0:0:0:0:
56,176,153412,2,0,L|128:176,1,57.5,8|8,0:1|0:3,0:0:0:0:
272,176,153599,2,0,L|352:176,1,57.5,4|4,0:3|0:3,0:0:0:0:
136,344,153785,6,0,P|72:248|144:184,1,230,14|8,0:0|0:1,0:0:0:0:
400,272,154344,2,0,L|168:128,1,230,14|8,0:0|0:0,0:0:0:0:
304,112,154903,1,8,0:1:0:0:
40,288,155089,6,0,P|56:192|208:144,1,230,14|8,0:0|0:0,0:0:0:0:
328,136,155648,2,0,L|408:136,1,57.5,8|8,0:1|0:1,0:0:0:0:
224,40,155835,2,0,L|152:40,1,57.5,8|8,0:0|0:0,0:0:0:0:
368,32,156021,1,8,0:1:0:0:
160,304,156394,2,0,L|152:168,1,115,14|0,0:1|0:0,0:0:0:0:
432,336,156766,6,0,P|496:272|416:176,1,230,14|8,0:0|0:1,0:0:0:0:
272,184,157325,2,0,L|272:120,1,57.5,8|8,0:0|0:1,0:0:0:0:
328,112,157512,1,10,0:0:0:0:
192,320,157698,2,0,L|48:320,1,115,8|8,0:0|0:1,0:0:0:0:
344,176,158071,6,0,L|216:176,1,115,2|0,0:0|0:0,0:0:0:0:
88,144,158443,1,8,0:0:0:0:
224,88,158630,1,8,0:1:0:0:
88,144,158816,2,0,L|16:144,2,57.5,8|8|8,0:0|0:1|0:0,0:0:0:0:
224,224,159189,1,10,0:0:0:0:
88,144,159375,2,0,L|80:16,1,115,8|0,0:1|0:0,0:0:0:0:
360,336,159748,6,0,P|424:272|336:160,1,230,14|8,0:0|0:1,0:0:0:0:
224,152,160307,1,8,0:0:0:0:
280,136,160400,1,8,0:1:0:0:
344,128,160493,1,10,0:0:0:0:
184,280,160679,2,0,L|176:120,1,115,8|8,0:0|0:1,0:0:0:0:
440,344,161052,6,0,L|448:200,1,115,14|0,0:0|0:0,0:0:0:0:
304,224,161425,1,8,0:0:0:0:
448,232,161611,2,0,L|456:112,1,115,8|8,0:1|0:0,0:0:0:0:
192,112,161984,1,8,0:1:0:0:
312,336,162170,1,8,3:1:0:0:
376,312,162263,1,8,3:1:0:0:
400,248,162356,1,8,3:1:0:0:
376,184,162449,1,8,3:2:0:0:
312,160,162543,1,4,3:3:0:0:
56,128,162729,6,0,L|224:128,1,115,14|8,0:1|0:0,0:0:0:0:
320,80,163102,2,0,L|200:80,1,115,8|8,0:1|0:0,0:0:0:0:
80,200,163474,2,0,L|216:200,1,115,8|8,0:1|0:0,0:0:0:0:
336,200,163847,2,0,L|480:200,1,115,8|8,0:1|0:0,0:0:0:0:
200,344,164220,5,14,0:1:0:0:
336,312,164406,1,8,0:0:0:0:
200,264,164592,1,8,0:1:0:0:
336,224,164779,1,8,0:0:0:0:
88,216,164965,2,0,L|80:88,1,115,8|8,0:1|0:0,0:0:0:0:
328,224,165338,2,0,L|336:96,1,115,8|8,0:1|0:0,0:0:0:0:
88,336,165710,6,0,P|40:272|112:200,1,172.5,14|8,0:1|0:0,0:0:0:0:
264,208,166083,1,8,0:1:0:0:
320,184,166176,1,8,0:1:0:0:
320,128,166269,1,8,0:0:0:0:
264,104,166363,1,8,0:0:0:0:
328,320,166456,1,8,0:3:0:0:
384,296,166549,1,8,0:3:0:0:
384,232,166642,1,8,0:0:0:0:
328,216,166735,1,8,0:0:0:0:
176,176,166828,2,0,L|280:176,1,57.5,8|4,0:3|0:3,0:0:0:0:
392,168,167015,2,0,L|456:168,1,57.5,4|4,0:3|0:3,0:0:0:0:
232,336,167201,6,0,P|128:240|256:96,1,345,14|2,0:0|0:0,0:0:0:0:
352,224,167946,2,0,L|360:96,1,115,2|0,0:0|0:0,0:0:0:0:
224,168,168319,2,0,L|216:40,1,115,2|0,0:0|0:0,0:0:0:0:
368,48,168692,6,0,L|384:304,1,230,2|2,0:0|0:0,0:0:0:0:
88,296,180617,6,0,L|288:152,3,230,14|8|8|8,0:0|0:0|0:0|0:0,0:0:0:0:
72,320,182108,6,0,P|48:208|160:120,1,230,8|10,0:0|0:0,0:0:0:0:
352,128,182853,1,10,0:0:0:0:
216,64,183102,1,2,0:0:0:0:
352,8,183350,1,2,0:0:0:0:
144,336,183599,6,0,P|80:288|160:168,1,230,10|8,0:0|0:0,0:0:0:0:
440,248,184344,2,0,P|496:128|400:72,1,230,10|8,0:0|0:0,0:0:0:0:
80,192,185089,6,0,L|288:64,2,230,10|2|8,0:0|0:0|0:3,0:0:0:0:
232,312,186021,2,0,L|232:224,1,57.5,8|8,0:1|0:1,0:0:0:0:
80,192,186207,2,0,L|24:152,2,57.5,8|8|4,0:1|0:3|0:3,0:0:0:0:
408,328,186580,6,0,P|472:240|376:160,1,230,14|8,0:1|0:0,0:0:0:0:
120,328,187139,2,0,P|64:208|144:168,1,230,14|8,0:1|0:0,0:0:0:0:
400,88,187698,2,0,L|136:88,1,230,14|8,0:1|0:0,0:0:0:0:
416,320,188257,5,14,0:1:0:0:
264,320,188443,2,0,L|192:264,2,76.6666666666667,10|2|2,0:0|0:0|0:0,0:0:0:0:
368,320,188816,2,0,L|448:256,2,76.6666666666667,12|2|2,0:1|0:0|0:0,0:0:0:0:
264,320,189189,2,0,L|264:208,1,76.6666666666667,14|2,0:1|0:0,0:0:0:0:
344,224,189437,1,2,0:0:0:0:
112,336,189561,6,0,P|56:224|152:168,1,230,14|8,0:1|0:0,0:0:0:0:
264,168,190120,2,0,L|272:88,1,57.5,14|0,0:1|0:0,0:0:0:0:
251,120,190307,2,0,L|136:120,1,115,0|8,0:0|0:0,0:0:0:0:
440,320,190679,2,0,L|448:176,1,115,14|8,0:1|0:0,0:0:0:0:
320,208,191052,5,8,0:0:0:0:
72,192,191238,1,12,0:1:0:0:
224,176,191425,2,0,L|232:48,1,115,14|8,0:1|0:0,0:0:0:0:
72,56,191797,1,8,0:1:0:0:
24,96,191890,1,8,0:1:0:0:
24,152,191984,1,8,0:0:0:0:
72,184,192077,1,8,0:0:0:0:
256,184,192170,2,0,L|400:184,1,115,10|0,0:1|0:0,0:0:0:0:
120,320,192543,6,0,L|256:320,1,115,14|8,0:1|0:0,0:0:0:0:
352,320,192915,1,8,0:0:0:0:
232,280,193102,1,14,0:1:0:0:
352,216,193288,1,10,0:0:0:0:
432,152,193412,1,2,0:0:0:0:
352,96,193536,1,2,0:0:0:0:
152,88,193661,1,14,0:1:0:0:
80,136,193785,1,2,0:0:0:0:
80,208,193909,1,2,0:0:0:0:
152,240,194033,5,10,0:0:0:0:
416,296,194220,1,12,0:1:0:0:
296,288,194406,2,0,P|312:192|448:136,1,230,14|14,0:1|0:1,0:0:0:0:
336,96,194903,1,2,0:0:0:0:
416,56,195027,1,2,0:0:0:0:
232,232,195151,1,14,0:1:0:0:
160,200,195276,1,2,0:0:0:0:
120,128,195400,1,2,0:0:0:0:
344,320,195524,6,0,P|384:176|304:144,1,230,14|8,0:1|0:0,0:0:0:0:
80,320,196083,2,0,P|16:240|96:144,1,230,14|8,0:1|0:0,0:0:0:0:
336,320,196642,2,0,P|440:264|464:144,1,230,14|8,0:1|0:0,0:0:0:0:
216,168,197201,5,14,0:1:0:0:
467,162,197387,2,0,L|339:162,1,115,14|2,0:1|0:0,0:0:0:0:
320,128,197667,1,2,0:0:0:0:
352,88,197760,2,0,L|504:88,1,115,8|8,0:1|0:0,0:0:0:0:
320,128,198133,1,8,0:1:0:0:
368,152,198226,1,8,0:1:0:0:
368,216,198319,1,8,0:1:0:0:
320,248,198412,1,8,0:1:0:0:
112,336,198505,6,0,L|104:200,1,115,14|0,0:0|0:0,0:0:0:0:
240,224,198878,2,0,L|248:96,1,115,10|8,0:1|0:0,0:0:0:0:
104,112,199251,1,10,0:0:0:0:
216,64,199437,1,8,0:0:0:0:
104,40,199623,1,10,0:1:0:0:
352,336,199810,6,0,P|424:256|320:176,1,230,14|8,0:0|0:0,0:0:0:0:
200,160,200369,2,0,L|328:160,1,115,10|0,0:1|0:0,0:0:0:0:
456,88,200741,2,0,L|464:240,1,115,10|8,0:0|0:0,0:0:0:0:
320,200,201114,1,10,0:1:0:0:
64,288,201300,6,0,P|80:192|208:120,1,230,14|2,0:0|0:0,0:0:0:0:
256,120,201766,1,2,0:0:0:0:
180,287,201859,2,0,P|118:183|198:119,1,230,10|10,0:1|0:0,0:0:0:0:
344,120,202418,2,0,L|480:120,1,115,8|10,0:0|0:1,0:0:0:0:
208,336,202791,6,0,P|120:304|88:176,1,230,14|2,0:0|0:0,0:0:0:0:
152,176,203257,1,2,0:0:0:0:
360,176,203350,1,14,0:1:0:0:
416,152,203443,1,2,0:0:0:0:
440,104,203536,1,2,0:0:0:0:
416,40,203630,1,2,0:0:0:0:
256,40,203723,5,14,0:1:0:0:
488,40,204095,1,12,0:3:0:0:
24,352,204468,6,0,P|0:272|136:176,1,230,14|10,0:0|0:1,0:0:0:0:
240,208,205027,2,0,P|304:136|224:40,1,230,2|8,0:0|0:0,0:0:0:0:
96,40,205586,1,10,0:1:0:0:
424,40,205772,6,0,L|432:192,1,115,12|0,0:0|0:0,0:0:0:0:
288,160,206145,1,2,0:0:0:0:
432,160,206331,1,8,0:1:0:0:
288,160,206518,2,0,P|224:232|312:328,1,230,2|2,0:0|0:0,0:0:0:0:
368,328,206984,1,2,0:0:0:0:
432,272,207077,2,0,L|280:272,1,115,10|8,0:1|0:0,0:0:0:0:
56,200,207449,6,0,P|160:160|192:32,2,230,14|8|8,0:0|0:0|0:0,0:0:0:0:
192,272,208381,1,2,0:0:0:0:
56,320,208567,1,10,0:0:0:0:
352,336,208754,6,0,P|416:272|344:176,1,230,12|2,0:1|0:0,0:0:0:0:
192,176,209313,1,10,0:0:0:0:
240,144,209406,1,2,0:0:0:0:
264,80,209499,1,8,0:3:0:0:
240,32,209592,1,2,0:0:0:0:
192,8,209685,1,8,0:0:0:0:
336,248,209872,1,8,0:3:0:0:
192,296,210058,1,10,0:0:0:0:
336,344,210244,1,8,0:1:0:0:
48,328,210431,6,0,P|32:256|56:216,1,115,14|2,0:0|0:0,0:0:0:0:
112,224,210710,1,2,0:0:0:0:
288,232,210804,1,2,0:0:0:0:
344,208,210897,1,2,0:0:0:0:
360,152,210990,1,2,0:0:0:0:
344,88,211083,1,2,0:0:0:0:
176,80,211176,2,0,L|168:200,1,115,8|12,0:1|0:0,0:0:0:0:
432,208,211549,1,10,0:0:0:0:
160,376,211735,6,0,B|-16:352|-32:128|168:56|312:176|176:360|48:224|48:224|0:144|56:32|160:56,1,809.600024707032,14|2,0:0|0:0,0:0:0:0:
200,56,213319,1,2,0:0:0:0:
280,56,213412,6,0,P|344:120|272:224,1,230,10|2,0:0|0:0,0:0:0:0:
144,224,213971,1,8,0:0:0:0:
280,224,214158,2,0,L|288:352,1,115,0|0,0:0|0:0,0:0:0:0:
64,256,214717,1,0,0:0:0:0:
192,256,214903,6,0,P|256:192|168:80,1,230,10|0,0:0|0:0,0:0:0:0:
64,208,215462,2,0,L|56:88,1,115,8|0,0:0|0:0,0:0:0:0:
200,88,215835,2,0,L|208:216,1,115,8|8,0:0|0:1,0:0:0:0:
456,240,216394,5,10,0:0:0:0:
272,336,216766,2,0,L|160:256,2,115,0|10|0,0:0|0:0|0:0,0:0:0:0:
416,336,217325,2,0,L|424:200,1,115,0|8,0:0|0:1,0:0:0:0:
272,216,217698,6,0,L|264:80,1,115,0|8,0:0|0:0,0:0:0:0:
416,96,218071,1,0,0:0:0:0:
272,224,218257,2,0,P|168:176|144:48,1,230,0|0,0:0|0:0,0:0:0:0:
272,224,218816,2,0,L|280:96,1,115,0|8,0:0|0:1,0:0:0:0:
48,104,219375,5,8,0:0:0:0:
272,336,219748,2,0,L|280:192,1,115,0|10,0:0|0:0,0:0:0:0:
152,224,220120,2,0,L|144:104,1,115,0|2,0:0|0:0,0:0:0:0:
272,112,220493,1,8,0:1:0:0:
136,112,220679,6,0,L|24:48,2,115,2|8|0,0:0|0:0|0:0,0:0:0:0:
288,336,221238,2,0,P|336:216|264:152,1,230,2|0,0:0|0:0,0:0:0:0:
80,152,221984,1,8,0:1:0:0:
400,344,222356,6,0,P|456:272|376:160,1,230,10|0,0:0|0:0,0:0:0:0:
256,160,222915,1,8,0:0:0:0:
392,168,223102,2,0,L|400:32,1,115,2|0,0:0|0:0,0:0:0:0:
256,160,223474,2,0,L|248:32,1,115,8|2,0:1|0:0,0:0:0:0:
400,48,223847,6,0,L|304:120,2,115,8|8|8,0:0|0:0|0:1,0:0:0:0:
152,328,224406,2,0,P|104:264|184:160,1,230,14|0,0:0|0:0,0:0:0:0:
288,160,224903,1,8,0:1:0:0:
336,152,224965,2,0,L|344:24,1,115,8|8,0:0|0:3,0:0:0:0:
80,40,225338,6,0,P|40:72|96:176,1,172.5,12|8,0:3|0:1,0:0:0:0:
144,176,225710,1,8,0:1:0:0:
408,288,225897,2,0,L|264:288,1,115,14|0,0:0|0:0,0:0:0:0:
424,224,226269,2,0,L|432:88,1,115,8|8,0:3|0:0,0:0:0:0:
176,224,226642,6,0,L|168:72,1,115,14|0,0:0|0:0,0:0:0:0:
288,80,227015,1,8,0:0:0:0:
168,48,227201,1,8,0:1:0:0:
440,40,227387,1,8,0:1:0:0:
272,280,236331,6,0,L|264:224,3,38.3333333333333,8|8|8|8,0:3|0:0|0:0|0:0,0:0:0:0:
392,200,236704,1,8,0:1:0:0:
144,168,236890,2,0,L|24:168,1,115,10|0,0:0|0:0,0:0:0:0:
304,264,237263,6,0,P|368:192|272:96,1,230,14|8,0:0|0:1,0:0:0:0:
32,304,237822,2,0,P|48:208|184:152,1,230,14|2,0:0|0:0,0:0:0:0:
408,104,238381,1,8,0:1:0:0:
160,320,238567,6,0,P|72:272|48:152,1,230,14|0,0:0|0:0,0:0:0:0:
296,136,239126,2,0,L|376:136,1,57.5,8|8,0:1|0:1,0:0:0:0:
288,96,239313,2,0,L|280:32,1,57.5,8|8,0:0|0:0,0:0:0:0:
448,32,239499,1,8,0:1:0:0:
208,32,239872,2,0,L|200:192,1,115,14|2,0:0|0:0,0:0:0:0:
464,320,240244,6,0,P|424:200|328:152,1,230,14|8,0:0|0:1,0:0:0:0:
192,144,240804,2,0,L|320:144,1,115,2|8,0:0|0:0,0:0:0:0:
448,240,241176,2,0,L|312:240,1,115,2|8,0:0|0:1,0:0:0:0:
80,320,241549,6,0,L|72:168,1,115,2|8,0:0|0:0,0:0:0:0:
216,216,241922,2,0,L|224:80,1,115,2|8,0:0|0:1,0:0:0:0:
72,72,242294,2,0,L|232:72,1,115,2|8,0:0|0:0,0:0:0:0:
328,72,242667,1,2,0:0:0:0:
80,304,242853,2,0,L|72:152,1,115,10|0,0:1|0:0,0:0:0:0:
328,160,243226,6,0,L|448:160,1,115,14|0,0:0|0:0,0:0:0:0:
192,328,243599,1,8,0:1:0:0:
321,274,243785,2,0,L|329:122,1,115,2|8,0:0|0:0,0:0:0:0:
176,184,244158,2,0,L|168:48,1,115,2|8,0:0|0:1,0:0:0:0:
440,64,244530,6,0,L|312:64,1,115,2|0,0:0|0:0,0:0:0:0:
184,64,244903,1,2,0:0:0:0:
440,280,245089,2,0,L|448:144,1,115,14|0,0:1|0:0,0:0:0:0:
288,144,245462,2,0,L|216:144,1,57.5,10|8,0:1|0:1,0:0:0:0:
384,48,245648,2,0,L|448:48,1,57.5,8|8,0:0|0:0,0:0:0:0:
232,48,245835,2,0,L|64:48,1,115,14|0,0:1|0:0,0:0:0:0:
392,344,246207,6,0,L|400:184,1,115,14|8,0:1|0:0,0:0:0:0:
256,232,246580,2,0,L|248:112,1,115,8|8,0:0|0:0,0:0:0:0:
104,152,246953,2,0,L|112:24,1,115,8|8,0:0|0:0,0:0:0:0:
248,40,247325,1,8,0:0:0:0:
112,40,247512,1,8,0:0:0:0:
360,296,247698,5,8,0:1:0:0:
224,248,247884,1,8,0:0:0:0:
360,184,248071,1,8,0:1:0:0:
224,144,248257,1,8,0:0:0:0:
472,144,248443,1,8,0:1:0:0:
464,88,248536,1,8,0:1:0:0:
432,39,248629,1,8,0:0:0:0:
380,16,248723,1,8,0:0:0:0:
320,336,248816,1,8,0:1:0:0:
376,320,248909,1,8,0:1:0:0:
400,264,249002,1,8,0:0:0:0:
384,200,249095,1,8,0:0:0:0:
208,184,249189,6,0,L|112:184,1,57.5,14|8,0:0|0:0,0:0:0:0:
320,136,249375,2,0,L|328:64,1,57.5,8|8,0:1|0:1,0:0:0:0:
256,88,249561,2,0,L|248:16,1,57.5,8|8,0:3|0:3,0:0:0:0:
328,80,249748,2,0,L|336:152,1,57.5,8|8,0:3|0:3,0:0:0:0:
144,296,249934,2,0,L|224:296,1,57.5,8|8,0:1|0:1,0:0:0:0:
360,296,250120,2,0,L|368:224,1,57.5,8|8,0:3|0:3,0:0:0:0:
288,232,250307,2,0,L|296:144,1,57.5,8|8,0:3|0:0,0:0:0:0:
472,128,250493,2,0,L|384:128,1,57.5,4|4,0:3|0:3,0:0:0:0:
192,320,250679,6,0,P|96:232|208:80,1,345,14|2,0:0|0:0,0:0:0:0:
344,80,251425,1,10,0:0:0:0:
200,80,251611,2,0,L|112:80,1,57.5,8|8,0:0|0:0,0:0:0:0:
344,192,251797,2,0,L|488:192,1,115,14|0,0:1|0:0,0:0:0:0:
208,336,252170,6,0,P|96:296|64:184,1,230,14|10,0:1|0:0,0:0:0:0:
120,200,252636,1,10,0:0:0:0:
336,208,252729,2,0,P|392:152|328:32,1,230,14|8,0:1|0:0,0:0:0:0:
64,40,253288,2,0,L|56:168,1,115,14|0,0:1|0:0,0:0:0:0:
168,152,253661,1,8,0:0:0:0:
424,328,253847,6,0,P|480:280|416:152,1,230,14|10,0:1|0:0,0:0:0:0:
368,152,254313,1,2,0:0:0:0:
216,80,254406,2,0,L|376:80,1,115,14|8,0:1|0:0,0:0:0:0:
80,328,254779,2,0,L|72:192,1,115,14|10,0:1|0:0,0:0:0:0:
336,344,255151,6,0,P|424:312|472:176,1,230,14|10,0:1|0:0,0:0:0:0:
408,192,255617,1,2,0:0:0:0:
224,192,255710,2,0,P|160:128|232:32,1,230,14|8,0:1|0:0,0:0:0:0:
480,192,256269,2,0,L|472:64,1,115,14|2,0:1|0:0,0:0:0:0:
352,80,256642,1,8,0:0:0:0:
88,288,256828,6,0,L|352:224,1,230,14|8,0:1|0:0,0:0:0:0:
184,208,257387,2,0,L|176:88,1,115,14|8,0:1|0:0,0:0:0:0:
440,240,257760,2,0,L|448:112,1,115,14|8,0:1|0:0,0:0:0:0:
184,352,258133,6,0,P|120:296|216:192,1,230,14|2,0:1|0:0,0:0:0:0:
248,192,258599,1,2,0:0:0:0:
432,200,258692,2,0,P|488:136|424:24,1,230,14|8,0:1|0:0,0:0:0:0:
176,328,259251,6,0,P|72:288|48:152,1,230,14|8,0:1|0:0,0:0:0:0:
288,328,259810,2,0,P|392:288|416:152,1,230,14|8,0:1|0:0,0:0:0:0:
176,176,260369,1,14,0:1:0:0:
96,128,260493,1,2,0:0:0:0:
176,80,260617,1,2,0:0:0:0:
304,80,260741,1,14,0:1:0:0:
232,112,260866,1,2,0:0:0:0:
160,136,260990,1,2,0:0:0:0:
384,336,261114,6,0,P|448:288|376:176,1,230,14|8,0:1|0:0,0:0:0:0:
128,336,261673,2,0,P|64:288|144:184,1,230,14|8,0:1|0:0,0:0:0:0:
384,176,262232,1,14,0:1:0:0:
248,168,262418,1,2,0:0:0:0:
192,160,262512,1,2,0:0:0:0:
136,152,262605,1,10,0:0:0:0:
392,64,262791,5,14,0:1:0:0:
138,266,262977,2,0,L|135:100,1,115,14|2,0:1|0:0,0:0:0:0:
200,144,263257,1,2,0:0:0:0:
392,144,263350,5,8,0:3:0:0:
256,216,263599,1,6,0:0:0:0:
392,288,263847,1,2,0:0:0:0:
80,336,264095,6,0,P|16:272|104:176,1,230,14|2,0:0|0:0,0:0:0:0:
152,176,264561,1,2,0:0:0:0:
216,168,264654,2,0,L|64:168,2,115,10|8|8,0:1|0:0|0:0,0:0:0:0:
464,104,265213,2,0,L|336:104,2,115,10|2|8,0:1|0:0|0:0,0:0:0:0:
200,344,265772,6,0,P|136:288|216:184,1,230,10|8,0:1|0:0,0:0:0:0:
344,136,266331,2,0,L|264:136,1,57.5,10|2,0:1|0:0,0:0:0:0:
224,128,266518,2,0,L|216:48,1,57.5,2|2,0:0|0:0,0:0:0:0:
368,312,266704,2,0,L|448:312,1,57.5,10|2,0:1|0:0,0:0:0:0:
260,184,266890,2,0,L|180:184,1,57.5,2|2,0:0|0:0,0:0:0:0:
408,312,267077,6,0,P|440:208|400:160,1,172.500006580353,10|8,0:1|0:0,0:0:0:0:
317,184,267356,2,0,L|157:184,1,115,10|0,0:1|0:0,0:0:0:0:
410,331,267636,2,0,P|474:251|402:163,1,230,10|8,0:1|0:0,0:0:0:0:
248,168,268195,2,0,L|240:32,1,115,8|0,0:1|0:0,0:0:0:0:
384,48,268567,1,8,0:0:0:0:
232,288,268754,5,8,0:1:0:0:
368,264,268940,2,0,L|376:120,1,115,8|0,0:1|0:0,0:0:0:0:
112,256,269313,2,0,L|104:112,1,115,14|0,0:1|0:0,0:0:0:0:
232,56,269685,1,8,0:1:0:0:
176,80,269778,1,8,0:1:0:0:
176,144,269871,1,8,0:3:0:0:
232,168,269965,1,4,0:3:0:0:
416,200,270058,6,0,L|424:352,1,115,14|0,0:0|0:0,0:0:0:0:
280,320,270431,1,8,0:1:0:0:
424,320,270617,1,8,0:0:0:0:
360,312,270710,1,8,0:1:0:0:
296,304,270804,1,2,0:0:0:0:
424,232,270990,2,0,L|432:80,1,115,8|8,0:0|0:1,0:0:0:0:
176,232,271363,6,0,P|112:176|192:80,1,230,14|8,0:0|0:0,0:0:0:0:
328,80,271922,1,8,0:1:0:0:
184,80,272108,2,0,L|104:80,2,57.5,8|8|10,0:0|0:1|0:0,0:0:0:0:
328,80,272481,1,8,0:0:0:0:
184,80,272667,1,8,0:1:0:0:
464,304,272853,6,0,P|440:200|328:136,1,230,14|8,0:0|0:0,0:0:0:0:
184,128,273412,1,8,0:1:0:0:
336,240,273599,2,0,L|344:160,1,57.5,10|10,0:0|0:0,0:0:0:0:
184,336,273785,2,0,L|176:264,1,57.5,8|8,0:1|0:1,0:0:0:0:
256,272,273971,2,0,L|264:208,1,57.5,8|8,0:3|0:3,0:0:0:0:
112,160,274158,2,0,L|24:160,1,57.5,8|8,0:1|0:0,0:0:0:0:
264,0,274344,6,0,B|440:24|384:176|264:192|264:192|128:184|120:336|256:360|256:360|120:336|112:168|264:192|344:192|424:96|424:96|232:136|248:328|424:368,1,1495,14|8,0:0|0:1,0:0:0:0:
160,272,277139,1,14,0:0:0:0:
424,224,277325,1,14,0:0:0:0:
256,192,277512,12,0,283474,0:0:0:0:
