osu file format v14

[General]
AudioFilename: audio.mp3
AudioLeadIn: 0
PreviewTime: 83189
Countdown: 0
SampleSet: Soft
StackLeniency: 0.7
Mode: 0
LetterboxInBreaks: 0
WidescreenStoryboard: 1

[Editor]
DistanceSpacing: 1
BeatDivisor: 4
GridSize: 32
TimelineZoom: 1.3

[Metadata]
Title:Liblume
TitleUnicode:Liblume
Artist:Shimotsuki Haruka
ArtistUnicode:霜月はるか
Creator:sodarose
Version:Normal
Source:生命のスペア
Tags:i was born for you 結び音リボン ~sora no oto~ galgame eroge Visual Novels op tv size nishizaka kyohei 西坂恭平 AKABEiSOFT3 inochi no spare Narcissu japanese あかべぇそふとすりぃ pop j-pop jpop
BeatmapID:2451756
BeatmapSetID:1096081

[Difficulty]
HPDrainRate:4
CircleSize:3
OverallDifficulty:4
ApproachRate:5
SliderMultiplier:1
SliderTickRate:1

[Events]
//Background and Video events
0,0,"bg.jpg",0,0
//Break Periods
//Storyboard Layer 0 (Background)
//Storyboard Layer 1 (Fail)
//Storyboard Layer 2 (Pass)
//Storyboard Layer 3 (Foreground)
//Storyboard Layer 4 (Overlay)
//Storyboard Sound Samples

[TimingPoints]
-10,400,6,2,1,30,1,0
11990,-100,6,2,1,50,0,0
21190,-100,6,2,1,30,0,0
39590,-100,6,2,1,50,0,0
59990,-100,6,2,1,30,0,0
68390,-100,6,2,1,30,0,0
69590,-100,6,2,1,50,0,0
83190,-100,6,2,1,30,0,0
83990,-100,6,2,1,60,0,1
89990,-100,6,2,1,40,0,1
90390,-100,6,2,1,60,0,1
92390,-100,6,2,1,40,0,1
93190,-100,6,2,1,60,0,1
101990,-100,6,2,1,70,0,1
103190,-100,6,2,1,60,0,1
107990,-100,6,2,1,40,0,1
112790,-100,6,2,1,50,0,0
131990,-111.111111111111,6,2,1,30,0,0
149990,444.444444444444,3,2,1,30,1,0
150434,504.201680672269,3,2,1,30,1,0
150938,576.923076923077,3,2,1,30,1,0
151226,631.578947368421,3,2,1,30,1,0
151541,571.428571428571,3,2,1,30,1,0
151826,625,3,2,1,30,1,0
152138,600,3,2,1,30,1,0
152438,645.161290322581,3,2,1,30,1,0
153083,983.606557377049,3,2,1,30,1,0
153451,722.89156626506,3,2,1,30,1,0
153812,779.220779220779,3,2,1,30,1,0
154201,967.741935483871,3,2,1,30,1,0
155168,1142.85714285714,3,2,1,30,1,0
156310,857.142857142857,3,2,1,30,1,0
156460,1200,3,2,1,30,1,0
157060,1276.59574468085,3,2,1,30,1,0
157379,1071.42857142857,3,2,1,30,1,0
157646,1000,3,2,1,30,1,0
157896,810.810810810811,3,2,1,30,1,0
158098,937.5,3,2,1,30,1,0
158332,1176.47058823529,3,2,1,30,1,0
158626,1200,3,2,1,30,1,0
158926,1250,3,2,1,30,1,0
159238,1395.3488372093,3,2,1,30,1,0
159586,1935.48387096774,3,2,1,30,1,0
160069,1395.3488372093,3,2,1,30,1,0
160766,937.5,3,2,1,30,1,0

[Colours]
Combo1 : 242,24,57
Combo2 : 251,162,208
Combo3 : 126,248,126

[HitObjects]
76,111,1990,6,0,P|123:101|142:106,1,50,2|2,0:0|0:0,0:0:0:0:
163,132,2390,2,0,P|196:142|272:129,1,100,2|2,0:0|0:0,0:0:0:0:
299,104,2990,1,2,0:0:0:0:
299,104,3190,2,0,L|307:208,1,100,2|2,0:0|0:0,0:0:0:0:
313,303,3990,2,0,P|345:293|377:292,2,50,2|2|2,0:0|0:0|0:0,0:0:0:0:
266,322,4590,1,0,0:0:0:0:
266,322,4790,6,0,P|216:319|166:302,1,100,2|0,0:0|0:0,0:0:0:0:
95,235,5590,2,0,P|67:247|44:264,2,50,2|0|0,0:0|0:0|0:0,0:0:0:0:
126,196,6190,2,0,P|165:206|186:204,2,50,2|0|0,0:0|0:0|0:0,0:0:0:0:
90,160,6790,2,0,P|68:121|66:98,1,50,2|2,0:0|0:0,0:0:0:0:
79,67,7190,6,0,L|184:77,1,100,2|2,0:0|0:0,0:0:0:0:
224,95,7790,1,2,0:0:0:0:
224,95,7990,2,0,P|268:72|318:70,1,100,2|2,0:0|0:0,0:0:0:0:
364,158,8790,2,0,P|370:200|384:221,1,50,2|2,0:0|0:0,0:0:0:0:
409,240,9190,2,0,P|393:283|380:296,1,50,2|2,0:0|0:0,0:0:0:0:
357,322,9590,6,0,L|457:345,2,100,2|2|2,0:0|0:0|0:0,0:0:0:0:
258,303,10790,1,2,0:0:0:0:
106,172,11590,2,0,L|86:226,1,50,2|2,0:0|0:0,0:0:0:0:
69,264,11990,6,0,B|31:162|31:162|46:118,1,150,12|0,0:0|0:0,0:0:0:0:
70,80,12790,1,2,0:0:0:0:
167,104,13190,2,0,P|212:88|266:97,1,100,8|0,0:0|0:0,0:0:0:0:
304,122,13790,1,2,0:1:0:0:
304,122,13990,2,0,L|312:184,1,50,8|8,0:0|0:0,0:0:0:0:
301,220,14390,6,0,P|355:224|401:306,1,150,4|0,0:0|0:0,0:0:0:0:
378,344,15190,1,2,0:0:0:0:
281,373,15590,2,0,P|246:364|166:352,1,100,8|0,0:0|0:0,0:0:0:0:
132,353,16190,1,2,0:1:0:0:
132,353,16390,2,0,L|125:297,1,50,8|8,0:0|0:0,0:0:0:0:
116,254,16790,6,0,P|37:263|7:250,2,100,12|2|2,0:0|0:0|0:0,0:0:0:0:
176,174,17990,2,0,P|255:165|285:178,2,100,8|2|2,0:0|0:0|0:1,0:0:0:0:
75,180,19190,2,0,B|71:135|58:117|50:106|31:94|12:95|2:58|19:33|41:4|74:3|99:0|127:11|148:24|148:73,1,300,12|0,0:0|0:0,0:0:0:0:
365,261,21590,6,0,B|336:294|306:306|306:306|243:295|166:304,1,200,2|2,0:1|0:0,0:0:0:0:
95,275,22790,2,0,P|107:222|90:68,1,200,2|2,0:0|0:0,0:0:0:0:
172,28,23990,6,0,B|202:75|202:75|268:99|305:81,1,150,2|0,0:0|0:0,0:0:0:0:
332,61,24790,2,0,P|375:63|427:96,1,100,2|0,0:0|0:0,0:0:0:0:
452,176,25590,1,2,0:0:0:0:
407,254,25990,1,2,0:0:0:0:
336,309,26390,6,0,P|295:295|176:287,1,150,2|2,0:0|0:0,0:0:0:0:
101,307,27390,2,0,L|87:142,1,150,2|2,0:0|0:0,0:0:0:0:
121,73,28390,1,2,0:0:0:0:
210,80,28790,6,0,L|221:25,2,50,2|2|2,0:0|0:0|0:0,0:0:0:0:
223,122,29390,2,0,L|165:148,2,50,2|2|2,0:0|0:0|0:0,0:0:0:0:
264,105,29990,1,2,0:0:0:0:
416,200,30790,6,0,L|409:258,1,50,2|2,0:0|0:0,0:0:0:0:
412,294,31190,2,0,B|368:323|328:313|328:313|301:236,1,150,2|0,0:0|0:0,0:0:0:0:
299,210,31990,2,0,L|310:150,1,50,2|2,0:0|0:0,0:0:0:0:
319,117,32390,2,0,L|208:122,1,100,2|0,0:0|0:0,0:0:0:0:
129,125,33190,1,2,0:0:0:0:
51,171,33590,6,0,P|79:204|137:214,1,100,2|0,0:0|0:0,0:0:0:0:
177,215,34190,2,0,B|170:306|170:306|197:330|242:327,1,150,2|2,0:0|0:0,0:0:0:0:
309,298,35190,1,2,0:0:0:0:
393,329,35590,1,2,0:0:0:0:
462,272,35990,6,0,P|471:185|467:64,1,200,2|2,0:0|0:0,0:0:0:0:
381,48,37190,2,0,P|286:43|158:45,1,200,2|2,0:0|0:0,0:0:0:0:
94,67,38390,5,2,0:0:0:0:
58,149,38790,2,0,P|79:193|116:229,1,100,2|2,0:0|0:0,0:0:0:0:
201,203,39590,2,0,P|253:196|300:197,1,100,2|2,0:0|0:0,0:0:0:0:
398,177,40390,2,0,L|434:223,1,50,8|2,0:0|0:1,0:0:0:0:
459,255,40790,6,0,L|481:155,1,100,12|0,0:0|0:0,0:0:0:0:
476,57,41590,2,0,L|411:44,1,50,2|0,0:0|0:0,0:0:0:0:
377,36,41990,2,0,P|337:47|267:46,1,100,8|0,0:0|0:0,0:0:0:0:
179,31,42790,1,2,0:0:0:0:
85,67,43190,6,0,L|101:174,2,100,8|0|2,0:0|0:0|0:0,0:0:0:0:
179,31,44390,2,0,L|195:138,1,100,8|0,0:0|0:0,0:0:0:0:
176,228,45190,1,2,0:0:0:0:
188,327,45590,6,0,P|246:343|299:328,1,100,8|0,0:0|0:0,0:0:0:0:
339,252,46390,1,2,0:0:0:0:
435,276,46790,2,0,L|449:162,1,100,8|0,0:0|0:0,0:0:0:0:
457,77,47590,1,2,0:0:0:0:
359,52,47990,6,0,L|307:67,1,50,8|0,0:0|0:0,0:0:0:0:
276,102,48390,2,0,L|217:91,1,50,2|0,0:0|0:0,0:0:0:0:
182,70,48790,2,0,P|115:75|79:101,1,100,2|8,0:0|0:0,0:0:0:0:
52,185,49590,1,0,0:0:0:0:
68,283,49990,2,0,L|126:269,1,50,2|0,0:0|0:0,0:0:0:0:
166,265,50390,6,0,L|157:156,2,100,8|0|2,0:0|0:0|0:0,0:0:0:0:
216,351,51590,2,0,P|278:329|321:331,1,100,8|0,0:0|0:0,0:0:0:0:
408,353,52390,1,2,0:0:0:0:
468,273,52790,6,0,P|484:195|484:158,1,100,8|0,0:0|0:0,0:0:0:0:
445,83,53590,2,0,L|390:98,1,50,2|0,0:0|0:0,0:0:0:0:
351,118,53990,2,0,L|246:85,1,100,8|0,0:0|0:0,0:0:0:0:
166,41,54790,1,2,0:0:0:0:
109,123,55190,6,0,P|61:114|25:77,2,100,8|0|2,0:0|0:0|0:0,0:0:0:0:
208,115,56390,2,0,L|201:216,1,100,8|0,0:0|0:0,0:0:0:0:
181,313,57190,1,2,0:0:0:0:
83,337,57590,6,0,P|60:297|47:239,1,100,8|0,0:0|0:0,0:0:0:0:
103,162,58390,1,2,0:0:0:0:
202,158,58790,2,0,L|310:176,2,100,8|0|2,0:0|0:0|0:0,0:0:0:0:
103,162,59990,6,0,P|90:80|197:74,1,200,12|2,0:0|0:0,0:0:0:0:
203,158,61190,1,2,0:0:0:0:
319,344,62390,6,0,P|382:359|379:255,1,200,2|2,0:0|0:0,0:0:0:0:
282,251,63590,2,0,P|258:167|345:163,1,200,2|2,0:0|0:0,0:0:0:0:
382,256,64790,6,0,P|314:262|184:291,1,200,2|2,0:0|0:0,0:0:0:0:
89,320,65990,1,2,0:0:0:0:
89,320,67190,6,0,P|97:257|105:106,1,200,2|2,0:0|0:0,0:0:0:0:
103,20,68390,2,0,B|176:12|176:12|221:34|249:122,1,200,2|8,0:0|0:0,0:0:0:0:
252,163,69390,1,2,0:1:0:0:
252,163,69590,6,0,P|325:163|353:187,1,100,12|0,0:0|0:0,0:0:0:0:
374,273,70390,2,0,L|362:323,1,50,2|0,0:0|0:0,0:0:0:0:
345,368,70790,2,0,P|294:349|228:344,1,100,8|0,0:0|0:0,0:0:0:0:
149,354,71590,1,2,0:0:0:0:
90,272,71990,6,0,L|61:163,2,100,8|0|2,0:0|0:0|0:0,0:0:0:0:
149,354,73190,2,0,P|197:331|246:286,1,100,8|0,0:0|0:0,0:0:0:0:
276,210,73990,1,2,0:0:0:0:
270,110,74390,6,0,B|318:67|318:67|372:54|444:105,1,200,8|2,0:0|0:0,0:0:0:0:
459,203,75590,2,0,P|444:270|434:313,1,100,8|0,0:0|0:0,0:0:0:0:
373,377,76390,1,2,0:0:0:0:
282,333,76790,6,0,P|231:341|167:343,2,100,8|0|2,0:0|0:0|0:0,0:0:0:0:
332,246,77990,2,0,P|320:198|301:145,1,100,8|0,0:0|0:0,0:0:0:0:
249,65,78790,1,2,0:0:0:0:
151,41,79190,6,0,P|104:66|74:109,1,100,8|0,0:0|0:0,0:0:0:0:
64,202,79990,2,0,L|118:231,1,50,2|0,0:0|0:0,0:0:0:0:
149,254,80390,2,0,P|209:242|264:239,1,100,8|0,0:0|0:0,0:0:0:0:
316,312,81190,2,0,L|377:320,1,50,8|8,0:0|0:0,0:0:0:0:
415,312,81590,5,6,0:0:0:0:
458,82,83990,6,0,L|357:108,1,100,12|2,0:0|0:1,0:0:0:0:
279,165,84790,1,8,0:0:0:0:
279,165,84990,1,8,0:0:0:0:
279,165,85190,2,0,P|218:145|185:146,2,75,8|2|2,0:0|0:1|0:1,0:0:0:0:
304,208,85990,2,0,L|312:268,1,50,8|8,0:0|0:0,0:0:0:0:
320,306,86390,6,0,P|256:323|216:309,1,100,12|2,0:0|0:1,0:0:0:0:
166,232,87190,2,0,L|171:162,1,50,8|0,0:0|0:0,0:0:0:0:
185,134,87590,2,0,P|133:104|85:107,1,100,12|2,0:0|0:1,0:0:0:0:
21,172,88390,1,8,0:0:0:0:
40,270,88790,6,0,P|113:284|192:284,1,150,12|8,0:0|0:0,0:0:0:0:
257,212,89790,1,2,0:1:0:0:
257,212,89990,2,0,P|325:195|362:192,1,100,8|0,0:1|0:0,0:0:0:0:
404,189,90590,2,0,L|419:134,2,50,8|8|8,0:0|0:0|0:0,0:0:0:0:
395,238,91190,6,0,L|411:357,1,100,8|8,0:0|0:0,0:0:0:0:
311,361,91990,1,8,0:0:0:0:
214,334,92390,2,0,B|165:359|134:333|134:333|95:368|33:347|17:318|14:289|25:259,1,250,8|8,0:0|0:0,0:0:0:0:
44,230,93590,6,0,L|36:122,1,100,12|2,0:0|0:1,0:0:0:0:
87,43,94390,1,8,0:0:0:0:
87,43,94590,1,8,0:0:0:0:
87,43,94790,2,0,P|20:31|-4:35,2,75,8|2|2,0:0|0:1|0:1,0:0:0:0:
121,78,95590,2,0,L|176:67,1,50,8|8,0:0|0:0,0:0:0:0:
209,37,95990,6,0,P|251:59|311:60,1,100,12|2,0:0|0:1,0:0:0:0:
397,29,96790,2,0,L|409:88,1,50,8|0,0:0|0:0,0:0:0:0:
427,123,97190,2,0,L|406:233,1,100,12|2,0:0|0:1,0:0:0:0:
383,318,97990,1,8,0:0:0:0:
290,356,98390,6,0,P|236:343|146:305,1,150,12|8,0:0|0:0,0:0:0:0:
108,276,99190,2,0,L|108:215,1,50,2|0,0:1|0:0,0:0:0:0:
120,177,99590,2,0,L|20:192,2,100,8|8|8,0:0|0:0|0:0,0:0:0:0:
208,130,100790,6,0,P|268:155|352:145,1,150,8|8,0:0|0:0,0:0:0:0:
423,76,101790,1,2,0:1:0:0:
423,76,101990,2,0,L|445:188,1,100,8|8,0:0|0:0,0:0:0:0:
450,273,102790,2,0,P|398:285|388:284,1,50,8|0,0:0|0:0,0:0:0:0:
352,274,103190,5,12,0:0:0:0:
162,210,103990,2,0,P|118:203|90:210,2,50,2|2|12,0:0|0:0|0:0,0:0:0:0:
303,351,105190,2,0,P|281:316|275:296,1,50,2|2,0:0|0:0,0:0:0:0:
264,259,105590,6,0,L|286:98,1,150,12|12,0:0|0:0,0:0:0:0:
151,41,106790,2,0,B|101:81|92:117|92:117|106:169|103:231,1,200,12|8,0:0|0:0,0:0:0:0:
93,317,107990,6,0,L|33:305,2,50,2|2|2,0:0|0:0|0:0,0:0:0:0:
289,355,109190,2,0,L|349:343,2,50,2|2|2,0:0|0:0|0:0,0:0:0:0:
201,174,110390,6,0,L|186:56,2,100,2|2|2,0:0|0:0|0:0,0:0:0:0:
216,272,111590,1,2,0:0:0:0:
409,123,112790,6,0,B|383:97|354:88|354:88|315:93|265:77,1,150,12|0,0:0|0:0,0:0:0:0:
223,63,113590,1,2,0:0:0:0:
127,93,113990,2,0,P|113:139|107:202,1,100,8|0,0:0|0:0,0:0:0:0:
113,240,114590,1,2,0:1:0:0:
113,240,114790,2,0,L|145:278,1,50,8|8,0:0|0:0,0:0:0:0:
170,321,115190,6,0,P|216:286|313:296,1,150,12|0,0:0|0:0,0:0:0:0:
347,316,115990,1,2,0:0:0:0:
434,266,116390,2,0,P|446:192|450:148,1,100,8|0,0:0|0:0,0:0:0:0:
406,76,117190,2,0,L|357:86,1,50,2|0,0:0|0:0,0:0:0:0:
314,112,117590,6,0,B|272:97|253:69|253:69|160:82,1,150,12|0,0:0|0:0,0:0:0:0:
129,83,118390,1,2,0:0:0:0:
44,136,118790,2,0,P|85:174|192:160,1,150,8|2,0:0|0:1,0:0:0:0:
222,157,119590,2,0,L|247:218,1,50,8|8,0:0|0:0,0:0:0:0:
258,250,119990,6,0,P|314:232|368:248,2,100,12|2|2,0:0|0:0|0:0,0:0:0:0:
221,343,121190,2,0,P|269:350|316:333,1,100,8|0,0:0|0:0,0:0:0:0:
353,240,121990,2,0,L|361:183,1,50,2|0,0:0|0:0,0:0:0:0:
379,144,122390,6,0,P|314:148|257:83,1,150,12|0,0:0|0:0,0:0:0:0:
248,41,123190,1,2,0:0:0:0:
346,58,123590,2,0,P|395:51|454:80,1,100,8|0,0:0|0:0,0:0:0:0:
479,101,124190,1,2,0:1:0:0:
479,101,124390,2,0,L|472:169,1,50,8|8,0:0|0:0,0:0:0:0:
486,199,124790,6,0,P|415:203|334:222,1,150,12|0,0:0|0:0,0:0:0:0:
292,240,125590,1,2,0:0:0:0:
214,302,125990,2,0,P|150:291|96:272,1,100,8|0,0:0|0:0,0:0:0:0:
78,247,126590,1,2,0:1:0:0:
78,247,126790,2,0,L|76:185,1,50,8|8,0:0|0:0,0:0:0:0:
54,152,127190,6,0,P|41:121|49:51,2,100,12|2|2,0:0|0:0|0:0,0:0:0:0:
153,164,128390,2,0,P|166:195|158:265,2,100,8|2|2,0:0|0:0|0:1,0:0:0:0:
149,64,129590,6,0,P|228:69|268:75,1,100,12|0,0:0|0:0,0:0:0:0:
287,103,130190,2,0,P|366:98|406:92,1,100,12|4,0:0|0:0,0:0:0:0:
436,93,130790,2,0,B|475:83|506:107|505:157|474:162|446:185|433:240|433:240|412:215|385:192|330:198,1,300,8|4,0:0|0:0,0:0:0:0:
188,316,132790,5,2,0:0:0:0:
118,258,133190,2,0,P|158:229|275:288,1,179.999994506836,2|2,0:0|0:0,0:0:0:0:
319,346,134390,6,0,B|370:328|370:328|406:252|414:197,1,179.999994506836,2|2,0:0|0:0,0:0:0:0:
433,122,135590,2,0,P|380:108|266:49,1,179.999994506836,2|2,0:0|0:0,0:0:0:0:
185,17,136790,6,0,P|137:31|104:144,1,179.999994506836,2|2,0:0|0:0,0:0:0:0:
187,109,137990,2,0,B|244:130|244:130|278:161|278:161|358:179,1,179.999994506836,2|2,0:0|0:0,0:0:0:0:
438,164,139190,6,0,P|432:218|398:252,2,89.9999972534181,2|2|2,0:0|0:0|0:0,0:0:0:0:
392,86,140390,2,0,P|298:86|251:166,1,179.999994506836,2|2,0:0|0:0,0:0:0:0:
256,195,141390,1,0,0:0:0:0:
256,195,141590,6,0,B|186:160|116:172|116:172|82:217,1,179.999994506836,6|2,0:0|0:0,0:0:0:0:
76,288,142790,2,0,B|119:296|160:268|160:268|199:291|257:325,1,179.999994506836,2|2,0:0|0:0,0:0:0:0:
316,360,143990,6,0,P|338:306|400:192,1,179.999994506836,2|2,0:0|0:0,0:0:0:0:
445,123,145190,2,0,P|393:113|262:70,1,179.999994506836,2|2,0:0|0:0,0:0:0:0:
187,104,146390,6,0,P|181:59|207:10,2,89.9999972534181,2|2|2,0:0|0:0|0:0,0:0:0:0:
255,162,147590,2,0,P|261:207|235:256,2,89.9999972534181,2|2|2,0:0|0:0|0:0,0:0:0:0:
170,193,148790,6,0,L|361:182,1,179.999994506836,2|2,0:0|0:0,0:0:0:0:
439,175,149990,1,2,0:0:0:0:
256,192,151541,12,2,160766,0:0:0:0:
