osu file format v14

[General]
AudioFilename: audio.mp3
AudioLeadIn: 0
PreviewTime: 83189
Countdown: 0
SampleSet: Soft
StackLeniency: 0.7
Mode: 0
LetterboxInBreaks: 0
WidescreenStoryboard: 1

[Editor]
DistanceSpacing: 1.4
BeatDivisor: 4
GridSize: 32
TimelineZoom: 1.3

[Metadata]
Title:Liblume
TitleUnicode:Liblume
Artist:Shimotsuki Haruka
ArtistUnicode:霜月はるか
Creator:sodarose
Version:Hard
Source:生命のスペア
Tags:i was born for you 結び音リボン ~sora no oto~ galgame eroge Visual Novels op tv size nishizaka kyohei 西坂恭平 AKABEiSOFT3 inochi no spare Narcissu japanese あかべぇそふとすりぃ pop j-pop jpop
BeatmapID:2350617
BeatmapSetID:1096081

[Difficulty]
HPDrainRate:5
CircleSize:4
OverallDifficulty:6
ApproachRate:7.4
SliderMultiplier:1.4
SliderTickRate:1

[Events]
//Background and Video events
0,0,"bg.jpg",0,0
//Break Periods
//Storyboard Layer 0 (Background)
//Storyboard Layer 1 (Fail)
//Storyboard Layer 2 (Pass)
//Storyboard Layer 3 (Foreground)
//Storyboard Layer 4 (Overlay)
//Storyboard Sound Samples

[TimingPoints]
-10,400,6,2,1,30,1,0
11990,-100,6,2,1,50,0,0
21190,-125,6,2,1,30,0,0
39590,-100,6,2,1,50,0,0
59990,-125,6,2,1,30,0,0
68390,-100,6,2,1,30,0,0
69590,-100,6,2,1,50,0,0
83190,-100,6,2,1,30,0,0
83990,-100,6,2,1,60,0,1
89990,-100,6,2,1,40,0,1
90390,-100,6,2,1,60,0,1
92390,-100,6,2,1,40,0,1
93190,-100,6,2,1,60,0,1
101990,-100,6,2,1,70,0,1
103190,-100,6,2,1,60,0,1
107990,-100,6,2,1,40,0,1
112790,-100,6,2,1,50,0,0
131990,-125,6,2,1,30,0,0
149990,444.444444444444,3,2,1,30,1,0
150434,504.201680672269,3,2,1,30,1,0
150938,576.923076923077,3,2,1,30,1,0
151226,631.578947368421,3,2,1,30,1,0
151541,571.428571428571,3,2,1,30,1,0
151826,625,3,2,1,30,1,0
152138,600,3,2,1,30,1,0
152438,645.161290322581,3,2,1,30,1,0
153083,983.606557377049,3,2,1,30,1,0
153451,722.89156626506,3,2,1,30,1,0
153812,779.220779220779,3,2,1,30,1,0
154201,967.741935483871,3,2,1,30,1,0
155168,1142.85714285714,3,2,1,30,1,0
156310,857.142857142857,3,2,1,30,1,0
156460,1200,3,2,1,30,1,0
157060,1276.59574468085,3,2,1,30,1,0
157379,1071.42857142857,3,2,1,30,1,0
157646,1000,3,2,1,30,1,0
157896,810.810810810811,3,2,1,30,1,0
158098,937.5,3,2,1,30,1,0
158332,1176.47058823529,3,2,1,30,1,0
158626,1200,3,2,1,30,1,0
158926,1250,3,2,1,30,1,0
159238,1395.3488372093,3,2,1,30,1,0
159586,1935.48387096774,3,2,1,30,1,0
160069,1395.3488372093,3,2,1,30,1,0
160766,937.5,3,2,1,30,1,0

[Colours]
Combo1 : 242,24,57
Combo2 : 251,162,208
Combo3 : 126,248,126

[HitObjects]
106,109,1990,5,2,0:0:0:0:
106,109,2190,1,2,0:0:0:0:
152,179,2390,6,0,P|217:167|323:160,1,140,2|2,0:0|0:0,0:0:0:0:
362,204,2990,1,2,0:0:0:0:
362,204,3190,2,0,P|426:216|452:214,1,70,2|0,0:0|0:0,0:0:0:0:
493,159,3590,2,0,P|490:124|481:90,1,70,2|0,0:0|0:0,0:0:0:0:
411,43,3990,5,2,0:0:0:0:
333,74,4190,1,2,0:0:0:0:
215,17,4390,2,0,P|270:5|309:10,1,70,2|0,0:0|0:0,0:0:0:0:
333,74,4790,2,0,P|328:148|316:223,1,140,2|2,0:0|0:0,0:0:0:0:
264,277,5390,1,2,0:0:0:0:
264,277,5590,2,0,P|202:262|177:262,2,70,2|2|2,0:0|0:0|0:0,0:0:0:0:
299,353,6190,2,0,P|361:338|386:338,2,70,2|2|2,0:0|0:0|0:0,0:0:0:0:
180,368,6790,1,2,0:0:0:0:
180,368,6990,1,2,0:0:0:0:
115,313,7190,6,0,P|126:253|149:156,1,140,2|2,0:0|0:0,0:0:0:0:
178,99,7790,1,2,0:0:0:0:
178,99,7990,2,0,P|226:85|266:83,1,70,2|0,0:0|0:0,0:0:0:0:
321,46,8390,2,0,P|367:64|400:87,1,70,2|0,0:0|0:0,0:0:0:0:
425,148,8790,1,2,0:0:0:0:
389,224,8990,1,2,0:0:0:0:
398,352,9190,2,0,P|429:324|444:284,1,70,2|2,0:0|0:0,0:0:0:0:
389,224,9590,6,0,P|329:229|292:235,1,70,2|0,0:0|0:0,0:0:0:0:
159,178,9990,2,0,P|219:183|256:189,1,70,2|0,0:0|0:0,0:0:0:0:
228,340,10390,2,0,P|233:280|239:243,1,70,2|0,0:0|0:0,0:0:0:0:
318,149,10790,1,2,0:0:0:0:
318,149,11590,2,0,P|293:121|285:77,1,70,2|0,0:0|0:0,0:0:0:0:
368,84,11990,6,0,P|367:156|357:252,1,140,4|2,0:0|0:0,0:0:0:0:
325,300,12590,1,2,0:0:0:0:
325,300,12790,2,0,P|282:293|255:293,1,70,2|0,0:0|0:0,0:0:0:0:
154,261,13190,6,0,P|167:324|103:353,1,140,8|0,0:0|0:0,0:0:0:0:
67,280,13790,1,8,0:0:0:0:
44,199,13990,2,0,P|57:147|74:111,1,70,12|0,0:0|0:0,0:0:0:0:
106,59,14390,6,0,P|171:59|257:53,1,140,8|0,0:0|0:0,0:0:0:0:
317,10,14990,1,0,0:0:0:0:
317,10,15190,2,0,P|372:30|402:33,1,70,2|0,0:0|0:0,0:0:0:0:
483,83,15590,6,0,B|443:78|443:78|423:119|446:198,1,140,8|0,0:0|0:0,0:0:0:0:
468,255,16190,1,8,0:0:0:0:
390,287,16390,1,8,0:0:0:0:
390,287,16590,1,8,0:0:0:0:
301,225,16790,6,0,P|238:211|173:254,2,140,4|8|2,0:0|0:0|0:0,0:0:0:0:
428,357,17990,2,0,P|440:278|443:186,2,140,8|2|2,0:0|0:1|0:0,0:0:0:0:
344,346,18990,1,8,0:0:0:0:
344,346,19190,1,4,0:0:0:0:
256,192,19290,12,0,21190,0:0:0:0:
146,325,21590,6,0,P|139:273|132:194,1,112,2|0,0:1|0:0,0:0:0:0:
196,166,22190,2,0,P|204:107|210:48,1,112,2|0,0:0|0:0,0:0:0:0:
140,15,22790,1,2,0:0:0:0:
140,15,22990,1,2,0:0:0:0:
101,83,23190,2,0,P|109:132|115:156,2,56,0|0|2,0:0|0:0|0:0,0:0:0:0:
254,47,23990,6,0,P|319:57|376:62,1,112,2|0,0:0|0:0,0:0:0:0:
441,82,24590,2,0,P|480:77|505:77,2,56,2|0|0,0:0|0:0|0:0,0:0:0:0:
393,144,25190,2,0,P|345:155|315:158,1,56,2|0,0:0|0:0,0:0:0:0:
261,175,25590,1,2,0:0:0:0:
261,175,25790,1,2,0:0:0:0:
191,139,25990,2,0,P|145:148|126:155,1,56
82,208,26390,6,0,P|105:287|125:335,1,112,2|2,0:0|0:0,0:0:0:0:
192,331,26990,2,0,P|201:281|200:255,2,56,2|0|0,0:0|0:0|0:0,0:0:0:0:
255,376,27590,2,0,P|289:341|299:314,1,56,2|0,0:0|0:0,0:0:0:0:
299,256,27990,1,2,0:0:0:0:
452,288,28390,1,2,0:0:0:0:
408,137,28790,6,0,P|446:119|475:116,2,56,2|2|2,0:0|0:0|0:0,0:0:0:0:
341,179,29390,2,0,P|313:172|289:158,2,56,2|2|2,0:0|0:0|0:0,0:0:0:0:
345,100,29990,2,0,P|284:79|222:109,1,112,2|0,0:0|0:0,0:0:0:0:
177,236,30790,1,2,0:0:0:0:
177,236,30990,1,2,0:0:0:0:
119,183,31190,6,0,P|117:133|111:57,1,112,2|0,0:0|0:0,0:0:0:0:
41,104,31790,1,2,0:0:0:0:
41,104,31990,2,0,P|38:151|39:174,1,56,2|0,0:0|0:0,0:0:0:0:
59,235,32390,2,0,P|100:227|118:226,2,56,2|0|0,0:0|0:0|0:0,0:0:0:0:
162,353,33190,1,2,0:0:0:0:
272,242,33590,6,0,P|330:243|368:292,1,112,2|0,0:0|0:0,0:0:0:0:
349,357,34190,2,0,P|309:356|285:347,2,56,2|0|0,0:0|0:0|0:0,0:0:0:0:
424,335,34790,1,2,0:0:0:0:
472,185,35190,2,0,P|458:129|434:63,1,112,2|0,0:0|0:0,0:0:0:0:
286,44,35990,6,0,P|238:30|199:136,1,168,2|0,0:0|0:0,0:0:0:0:
234,179,36790,2,0,P|236:228|229:254,1,56,2|0,0:0|0:0,0:0:0:0:
178,290,37190,2,0,P|228:279|290:317,1,112,2|0,0:0|0:0,0:0:0:0:
137,369,37990,1,0,0:0:0:0:
137,369,38190,1,0,0:0:0:0:
81,313,38390,6,0,P|77:247|81:207,1,84,2|0,0:0|0:0,0:0:0:0:
69,191,38790,2,0,P|104:168|124:142,1,56,2|0,0:0|0:0,0:0:0:0:
194,187,39190,2,0,P|198:145|191:113,1,56,2|0,0:0|0:0,0:0:0:0:
147,63,39590,2,0,P|227:58|298:59,1,140,2|2,0:0|0:0,0:0:0:0:
370,53,40190,1,8,0:0:0:0:
370,53,40290,1,8,0:0:0:0:
370,53,40390,2,0,P|376:108|380:139,1,70,8|2,0:0|0:1,0:0:0:0:
370,240,40790,6,0,P|314:227|230:218,2,140,12|0|2,0:0|0:0|0:0,0:0:0:0:
226,327,41990,2,0,P|158:333|55:335,1,140,8|0,0:0|0:0,0:0:0:0:
41,263,42590,1,0,0:0:0:0:
41,263,42690,1,0,0:0:0:0:
41,263,42790,2,0,P|34:203|35:180,1,70,2|0,0:0|0:0,0:0:0:0:
43,80,43190,6,0,P|69:35|157:42,2,140,8|0|2,0:0|0:0|0:0,0:0:0:0:
198,143,44390,2,0,P|286:122|365:112,1,140,8|0,0:0|0:0,0:0:0:0:
418,107,44990,1,0,0:0:0:0:
418,107,45090,1,0,0:0:0:0:
418,107,45190,2,0,P|433:169|434:189,1,70,2|0,0:0|0:0,0:0:0:0:
360,265,45590,6,0,P|410:255|508:258,2,140,8|0|2,0:0|0:0|0:0,0:0:0:0:
213,347,46790,2,0,P|152:343|122:266,1,140,8|0,0:0|0:0,0:0:0:0:
104,195,47390,1,0,0:0:0:0:
104,195,47490,1,0,0:0:0:0:
104,195,47590,2,0,P|116:141|129:118,1,70,2|0,0:0|0:0,0:0:0:0:
185,52,47990,6,0,P|241:64|264:67,1,70,10|0,0:0|0:0,0:0:0:0:
295,154,48390,2,0,P|329:145|363:140,1,70,2|0,0:0|0:0,0:0:0:0:
441,80,48790,1,2,0:0:0:0:
441,80,48990,1,0,0:0:0:0:
487,166,49190,2,0,B|492:229|468:270|468:270|418:245,1,140,8|0,0:0|0:0,0:0:0:0:
243,235,49990,2,0,P|283:239|327:254,1,70,2|0,0:0|0:0,0:0:0:0:
385,327,50390,6,0,P|452:347|515:296,2,140,12|0|2,0:0|0:0|0:0,0:0:0:0:
243,235,51590,2,0,P|258:162|270:84,1,140,8|0,0:0|0:0,0:0:0:0:
206,39,52190,1,0,0:0:0:0:
206,39,52290,1,0,0:0:0:0:
206,39,52390,2,0,P|156:62|133:79,1,70,2|0,0:0|0:0,0:0:0:0:
75,159,52790,6,0,P|152:147|241:148,2,140,8|0|2,0:0|0:0|0:0,0:0:0:0:
4,311,53990,2,0,P|81:323|170:322,1,140,8|0,0:0|0:0,0:0:0:0:
224,303,54590,1,0,0:0:0:0:
224,303,54690,1,0,0:0:0:0:
224,303,54790,2,0,P|247:260|253:239,1,70,2|0,0:0|0:0,0:0:0:0:
196,159,55190,6,0,P|164:131|147:105,1,70,8|0,0:0|0:0,0:0:0:0:
228,80,55590,2,0,P|227:37|235:7,1,70
309,49,55990,2,0,P|340:20|367:5,1,70,2|0,0:0|0:0,0:0:0:0:
387,88,56390,2,0,P|399:139|410:233,1,140,8|0,0:0|0:0,0:0:0:0:
393,308,56990,2,0,L|430:325,2,35,0|0|2,0:0|0:0|0:0,0:0:0:0:
236,249,57590,6,0,P|245:195|246:167,1,70,8|0,0:0|0:0,0:0:0:0:
182,124,57990,1,0,0:0:0:0:
182,124,58190,1,0,0:0:0:0:
145,199,58390,2,0,P|148:233|154:268,1,70,2|0,0:0|0:0,0:0:0:0:
217,324,58790,2,0,P|283:311|356:307,1,140,8|0,0:0|0:0,0:0:0:0:
439,310,59390,2,0,L|455:348,2,35,0|0|2,0:0|0:0|0:0,0:0:0:0:
400,234,59790,1,2,0:0:0:0:
410,144,59990,6,0,P|418:104|418:82,2,56,4|0|2,0:0|0:0|0:0,0:0:0:0:
335,169,60590,1,0,0:0:0:0:
257,180,60790,1,2,0:0:0:0:
95,187,61190,2,0,B|75:214|57:208|25:164|55:122|112:112|139:161|162:193|204:200|263:179,1,280,2|0,0:0|0:0,0:0:0:0:
309,239,62390,6,0,P|278:255|236:259,1,56,2|0,0:0|0:0,0:0:0:0:
201,314,62790,2,0,P|167:304|133:278,1,56,2|0,0:0|0:0,0:0:0:0:
88,245,63190,1,2,0:0:0:0:
128,93,63590,1,2,0:0:0:0:
128,93,63790,1,2,0:0:0:0:
81,156,63990,2,0,P|44:152|10:140,2,56,2|0|2,0:0|0:0|0:0,0:0:0:0:
207,63,64790,6,0,P|248:67|284:76,1,56,2|0,0:0|0:0,0:0:0:0:
321,122,65190,2,0,P|348:117|376:115,1,56,2|0,0:0|0:0,0:0:0:0:
421,50,65590,2,0,P|462:54|498:63,1,56,2|0,0:0|0:0,0:0:0:0:
498,138,65990,6,0,B|481:200|486:255|486:255|448:294|421:300|421:300|406:266|406:216,1,280,2|0,0:0|0:0,0:0:0:0:
328,210,67190,6,0,P|333:267|340:283,1,56,2|0,0:0|0:0,0:0:0:0:
339,343,67590,2,0,P|294:335|268:334,2,56,2|0|2,0:0|0:0|0:0,0:0:0:0:
145,311,68390,2,0,L|105:318,4,35,2|2|2|2|0,0:0|0:0|0:0|0:0|0:0,0:0:0:0:
216,267,68990,1,8,0:0:0:0:
216,267,69090,1,8,0:0:0:0:
216,267,69190,2,0,P|226:224|229:174,1,70,8|2,0:0|0:1,0:0:0:0:
167,121,69590,6,0,P|214:149|301:92,1,140,12|0,0:0|0:0,0:0:0:0:
150,22,70390,2,0,P|113:35|85:60,1,70,2|0,0:0|0:0,0:0:0:0:
33,116,70790,2,0,P|44:187|46:262,1,140,8|0,0:0|0:0,0:0:0:0:
32,338,71390,1,0,0:0:0:0:
32,338,71490,1,0,0:0:0:0:
32,338,71590,2,0,P|84:335|116:339,1,70,2|0,0:0|0:0,0:0:0:0:
182,281,71990,6,0,P|220:322|244:330,1,70,8|0,0:0|0:0,0:0:0:0:
310,298,72390,2,0,P|326:244|321:219,1,70
260,176,72790,2,0,P|205:188|186:205,1,70,2|0,0:0|0:0,0:0:0:0:
150,267,73190,2,0,P|149:203|139:110,1,140,8|0,0:0|0:0,0:0:0:0:
276,27,73990,2,0,P|267:72|267:101,1,70,2|0,0:0|0:0,0:0:0:0:
341,160,74390,6,0,B|391:142|445:143|445:143|469:180,1,140,12|0,0:0|0:0,0:0:0:0:
436,251,74990,1,0,0:0:0:0:
390,321,75190,2,0,P|339:314|317:315,1,70,2|0,0:0|0:0,0:0:0:0:
230,355,75590,2,0,P|173:349|92:322,1,140,8|0,0:0|0:0,0:0:0:0:
41,163,76390,2,0,P|56:124|74:88,1,70,2|0,0:0|0:0,0:0:0:0:
148,42,76790,6,0,B|182:60|182:60|205:108|198:169,1,140,8|0,0:0|0:0,0:0:0:0:
169,238,77390,1,0,0:0:0:0:
127,311,77590,2,0,P|133:357|140:381,1,70,2|0,0:0|0:0,0:0:0:0:
221,360,77990,2,0,P|254:316|267:288,1,70,8|0,0:0|0:0,0:0:0:0:
291,223,78390,2,0,B|342:260|385:256|385:256|416:211,1,140,0|2,0:0|0:0,0:0:0:0:
306,90,79190,6,0,P|256:122|178:104,1,140,8|0,0:0|0:0,0:0:0:0:
117,50,79790,1,0,0:0:0:0:
80,125,79990,2,0,P|90:182|89:208,1,70,2|0,0:0|0:0,0:0:0:0:
12,255,80390,2,0,P|96:245|182:247,1,140,8|0,0:0|0:0,0:0:0:0:
228,278,80990,1,2,0:1:0:0:
282,341,81190,2,0,P|307:304|310:271,1,70,8|8,0:0|0:0,0:0:0:0:
301,182,81590,5,6,0:0:0:0:
325,233,83190,6,0,P|372:225|409:234,2,70,2|0|2,0:0|0:0|0:0,0:0:0:0:
259,286,83790,1,0,0:0:0:0:
205,203,83990,6,0,P|217:148|220:76,1,105,12|0,0:0|0:0,0:0:0:0:
212,57,84390,2,0,P|163:60|131:72,1,70,2|0,0:1|0:0,0:0:0:0:
80,122,84790,1,8,0:0:0:0:
99,203,84990,1,8,0:0:0:0:
121,283,85190,2,0,P|77:283|25:240,2,105,8|2|2,0:0|0:1|0:1,0:0:0:0:
203,263,85990,1,8,0:0:0:0:
281,293,86190,1,8,0:0:0:0:
378,281,86390,6,0,P|384:237|391:205,1,70,12|0,0:0|0:0,0:0:0:0:
466,151,86790,2,0,P|409:141|332:105,1,140,2|8,0:1|0:0,0:0:0:0:
256,47,87390,1,8,0:0:0:0:
160,25,87590,2,0,P|103:35|26:71,1,140,12|8,0:0|0:0,0:0:0:0:
9,141,88123,2,0,L|17:207,1,46.6666666666667,8|8,0:0|0:0,0:0:0:0:
50,230,88390,2,0,L|34:294,2,46.6666666666667,8|8|8,0:0|0:0|0:0,0:0:0:0:
93,168,88790,6,0,B|140:157|140:157|196:176|234:216,1,140,12|0,0:0|0:0,0:0:0:0:
288,270,89390,2,0,P|278:318|280:362,1,70,8|0,0:0|0:0,0:0:0:0:
356,367,89790,1,2,0:1:0:0:
421,314,89990,2,0,P|417:249|392:151,1,140,8|0,0:1|0:0,0:0:0:0:
354,106,90590,1,8,0:0:0:0:
271,119,90790,2,0,P|217:105|190:88,1,70,8|8,0:0|0:0,0:0:0:0:
86,54,91190,6,0,P|114:114|122:141,1,70,12|0,0:0|0:0,0:0:0:0:
42,184,91590,2,0,P|91:227|110:248,1,70,8|8,0:0|0:0,0:0:0:0:
50,318,91990,2,0,P|113:337|138:349,1,70,8|0,0:0|0:0,0:0:0:0:
209,370,92390,2,0,P|248:342|310:331,1,105,8|0,0:0|0:0,0:0:0:0:
349,345,92790,2,0,L|392:351,3,35,2|2|2|2,0:1|0:1|0:1|0:1,0:0:0:0:
393,301,93190,2,0,L|445:293,3,35,8|8|8|8,0:0|0:0|0:0|0:0,0:0:0:0:
472,276,93590,6,0,P|486:210|485:151,1,105,12|0,0:0|0:0,0:0:0:0:
476,131,93990,2,0,P|431:120|387:119,1,70,2|0,0:1|0:0,0:0:0:0:
328,148,94390,1,8,0:0:0:0:
255,105,94590,1,8,0:0:0:0:
184,59,94790,2,0,P|123:73|72:73,2,105,8|2|2,0:0|0:1|0:1,0:0:0:0:
259,21,95590,1,8,0:0:0:0:
255,105,95790,1,8,0:0:0:0:
226,198,95990,6,0,P|188:217|148:222,1,70,12|0,0:0|0:0,0:0:0:0:
63,218,96390,2,0,B|52:274|61:321|61:321|108:305,1,140,2|8,0:1|0:0,0:0:0:0:
192,291,96990,1,8,0:0:0:0:
289,289,97190,2,0,B|330:289|354:318|354:318|399:319|428:272,1,140,12|0,0:0|0:0,0:0:0:0:
472,105,97990,2,0,P|418:124|385:124,1,70,8|8,0:0|0:0,0:0:0:0:
309,103,98390,6,0,P|263:83|168:62,1,140,12|2,0:0|0:1,0:0:0:0:
92,76,98990,1,8,0:0:0:0:
75,158,99190,2,0,P|86:222|93:253,1,70,2|0,0:1|0:0,0:0:0:0:
155,276,99590,2,0,P|213:251|290:225,2,140,8|2|8,0:0|0:1|0:0,0:0:0:0:
127,355,100590,1,2,0:1:0:0:
222,333,100790,6,0,P|234:273|241:189,1,140,12|2,0:0|0:1,0:0:0:0:
206,118,101390,1,8,0:0:0:0:
184,36,101590,2,0,P|238:15|269:10,1,70,8|2,0:0|0:1,0:0:0:0:
361,18,101990,2,0,P|369:64|374:108,1,70,8|0,0:0|0:0,0:0:0:0:
447,177,102390,2,0,P|451:142|457:107,1,70,8|0,0:0|0:0,0:0:0:0:
344,181,102790,2,0,P|352:227|357:271,1,70,8|0,0:0|0:0,0:0:0:0:
302,339,103190,5,12,0:0:0:0:
302,339,103990,2,0,P|237:327|215:326,1,70,2|0,0:0|0:0,0:0:0:0:
136,344,104390,1,12,0:0:0:0:
136,344,105190,2,0,P|116:307|102:273,1,70,2|0,0:0|0:0,0:0:0:0:
48,201,105590,6,0,P|87:170|153:100,1,140,12|0,0:0|0:0,0:0:0:0:
189,15,106190,2,0,P|256:33|347:72,1,140,12|0,0:0|0:0,0:0:0:0:
410,100,106790,2,0,P|431:156|439:200,1,93.3333333333333,12|8,0:0|0:0,0:0:0:0:
452,242,107190,2,0,L|479:284,2,46.6666666666667,8|8|8,0:0|0:0|0:0,0:0:0:0:
416,286,107590,2,0,L|413:343,2,46.6666666666667,8|8|8,0:0|0:0|0:0,0:0:0:0:
363,307,107990,6,0,P|340:335|309:364,1,70,2|2,0:0|0:0,0:0:0:0:
231,365,108390,1,2,0:0:0:0:
31,184,109190,2,0,P|54:212|85:241,1,70,2|2,0:0|0:0,0:0:0:0:
163,242,109590,1,2,0:0:0:0:
317,88,110390,6,0,P|258:59|189:98,2,140,2|2|2,0:0|0:0|0:0,0:0:0:0:
383,240,111590,2,0,P|268:288|118:235,1,280,2|0,0:0|0:0,0:0:0:0:
52,90,112790,6,0,P|119:73|192:67,1,140,12|0,0:0|0:0,0:0:0:0:
273,62,113390,1,0,0:0:0:0:
337,115,113590,2,0,P|394:135|422:140,1,70,2|0,0:0|0:0,0:0:0:0:
486,206,113990,6,0,B|439:199|439:199|390:218|344:266,1,140,8|0,0:0|0:0,0:0:0:0:
299,304,114590,1,2,0:1:0:0:
219,331,114790,1,12,0:0:0:0:
219,331,114990,1,8,0:0:0:0:
113,288,115190,6,0,P|101:250|79:148,1,140,12|0,0:0|0:0,0:0:0:0:
62,70,115790,1,0,0:0:0:0:
134,27,115990,2,0,P|170:46|196:69,1,70,2|0,0:0|0:0,0:0:0:0:
222,143,116390,6,0,P|267:129|366:115,1,140,8|0,0:0|0:0,0:0:0:0:
442,124,116990,1,0,0:0:0:0:
442,124,117190,2,0,P|436:183|436:218,1,70,2|0,0:0|0:0,0:0:0:0:
418,300,117590,6,0,B|384:320|384:320|350:284|358:202,1,140,12|0,0:0|0:0,0:0:0:0:
364,142,118190,1,0,0:0:0:0:
392,63,118390,2,0,P|371:28|341:1,1,70,2|0,0:0|0:0,0:0:0:0:
259,52,118790,6,0,B|210:67|210:67|185:51|149:46|149:46|110:77,1,140,8|0,0:0|0:0,0:0:0:0:
67,116,119390,1,2,0:1:0:0:
46,197,119590,1,12,0:0:0:0:
46,197,119790,1,8,0:0:0:0:
64,279,119990,6,0,P|120:271|151:270,1,70,12|0,0:0|0:0,0:0:0:0:
202,200,120390,2,0,P|236:202|271:208,1,70,2|0,0:0|0:0,0:0:0:0:
269,322,120790,2,0,P|303:319|338:313,1,70,2|0,0:0|0:0,0:0:0:0:
432,254,121190,6,0,P|441:184|441:103,1,140,8|2,0:0|0:1,0:0:0:0:
410,46,121723,2,0,L|363:38,1,46.6666666666667,8|8,0:0|0:0,0:0:0:0:
313,62,121990,2,0,L|254:70,2,46.6666666666667,8|8|8,0:0|0:0|0:0,0:0:0:0:
343,135,122390,6,0,B|285:145|285:145|246:160|246:160|200:142,1,140,12|0,0:0|0:0,0:0:0:0:
136,103,122990,1,0,0:0:0:0:
52,91,123190,2,0,P|17:118|-2:143,1,70,2|0,0:0|0:0,0:0:0:0:
8,236,123590,6,0,B|44:255|44:255|95:253|157:229,1,140,8|0,0:0|0:0,0:0:0:0:
222,214,124190,1,2,0:1:0:0:
292,259,124390,1,8,0:0:0:0:
292,259,124590,1,8,0:0:0:0:
352,182,124790,6,0,P|420:195|436:278,1,140,12|0,0:0|0:0,0:0:0:0:
402,329,125390,1,0,0:0:0:0:
402,329,125590,2,0,P|349:340|315:340,1,70,2|0,0:0|0:0,0:0:0:0:
237,359,125990,6,0,P|225:313|207:216,1,140,8|2,0:0|0:1,0:0:0:0:
228,149,126523,2,0,L|232:96,1,46.6666666666667,8|8,0:0|0:0,0:0:0:0:
261,55,126790,2,0,L|257:9,2,46.6666666666667,8|8|8,0:0|0:0|0:0,0:0:0:0:
303,116,127190,6,0,P|371:111|444:91,2,140,12|2|2,0:0|0:0|0:0,0:0:0:0:
196,245,128390,2,0,P|264:250|337:270,2,140,8|2|8,0:0|0:1|0:0,0:0:0:0:
113,258,129390,1,0,0:0:0:0:
33,283,129590,6,0,P|26:229|51:130,1,140,12|0,0:0|0:0,0:0:0:0:
109,73,130190,2,0,B|158:99|158:99|209:76|266:83,1,140,12|0,0:0|0:0,0:0:0:0:
323,92,130790,2,0,L|358:38,2,46.6666666666667,8|8|8,0:0|0:0|0:0,0:0:0:0:
309,146,131190,2,0,L|366:126,2,46.6666666666667,8|8|8,0:0|0:0|0:0,0:0:0:0:
277,192,131590,2,0,L|333:216,2,46.6666666666667,8|8|8,0:0|0:0|0:0,0:0:0:0:
203,164,131990,6,0,B|171:167|171:167|144:190|132:238,1,112,4|0,0:0|0:0,0:0:0:0:
125,313,132590,1,0,0:0:0:0:
125,313,132790,2,0,P|173:310|200:312,1,56,2|0,0:0|0:0,0:0:0:0:
249,348,133190,2,0,P|290:361|355:315,1,112,2|0,0:0|0:0,0:0:0:0:
341,251,133790,2,0,P|328:213|327:177,2,56,0|2|0,0:0|0:0|0:0,0:0:0:0:
417,266,134390,6,0,P|432:215|427:137,1,112,2|0,0:0|0:0,0:0:0:0:
397,85,134990,1,0,0:0:0:0:
397,85,135190,2,0,P|351:75|321:75,1,56,2|0,0:0|0:0,0:0:0:0:
264,84,135590,2,0,P|222:96|91:90,1,168,2|0,0:0|0:0,0:0:0:0:
20,89,136390,2,0,P|36:137|41:167,1,56,2|0,0:0|0:0,0:0:0:0:
19,219,136790,6,0,P|11:273|67:295,1,112,2|0,0:0|0:0,0:0:0:0:
111,242,137390,1,0,0:0:0:0:
111,242,137590,2,0,P|148:249|178:263,1,56,2|0,0:0|0:0,0:0:0:0:
234,291,137990,2,0,P|277:272|351:252,1,112,2|0,0:0|0:0,0:0:0:0:
418,246,138590,2,0,P|428:287|427:322,2,56,0|2|0,0:0|0:0|0:0,0:0:0:0:
386,174,139190,6,0,P|392:140|408:104,1,56,2|0,0:0|0:0,0:0:0:0:
321,113,139590,2,0,P|312:79|312:40,1,56,2|0,0:0|0:0,0:0:0:0:
234,72,139990,2,0,P|212:44|196:8,1,56,2|0,0:0|0:0,0:0:0:0:
142,76,140390,2,0,B|72:75|17:35|17:35|38:92,1,168,2|0,0:0|0:0,0:0:0:0:
11,143,141190,2,0,P|42:150|79:151,1,56,2|0,0:0|0:0,0:0:0:0:
143,161,141590,6,0,P|166:216|177:288,1,112,2|0,0:0|0:0,0:0:0:0:
179,345,142190,1,0,0:0:0:0:
179,345,142390,2,0,P|228:333|258:332,1,56,2|0,0:0|0:0,0:0:0:0:
310,344,142790,2,0,P|324:283|326:208,1,112,2|0,0:0|0:0,0:0:0:0:
306,158,143390,2,0,P|298:126|293:96,2,56,0|2|0,0:0|0:0|0:0,0:0:0:0:
381,132,143990,6,0,B|372:80|357:55|357:55|325:30,1,112,2|0,0:0|0:0,0:0:0:0:
253,33,144590,1,0,0:0:0:0:
253,33,144790,2,0,P|205:43|191:51,1,56,2|0,0:0|0:0,0:0:0:0:
127,79,145190,2,0,P|118:144|116:256,1,168,2|0,0:0|0:0,0:0:0:0:
144,319,145990,2,0,P|183:308|212:305,1,56,2|0,0:0|0:0,0:0:0:0:
266,266,146390,6,0,P|311:290|385:303,2,112,2|2|2,0:0|0:0|0:0,0:0:0:0:
197,124,147590,2,0,P|142:135|92:160,2,112,2|2|2,0:0|0:0|0:0,0:0:0:0:
337,52,148790,6,0,P|372:56|401:72,2,56,2|0|2,0:0|0:0|0:0,0:0:0:0:
275,100,149390,2,0,P|277:167|266:226,1,112,2|0,0:0|0:0,0:0:0:0:
182,223,149990,2,0,P|195:125|187:58,1,140,2|0,0:0|0:0,0:0:0:0:
31,145,150938,6,0,P|45:198|56:216,1,70,2|2,0:0|0:0,0:0:0:0:
104,287,151541,2,0,P|168:279|197:280,1,70,2|2,0:0|0:0,0:0:0:0:
243,335,152138,2,0,P|291:344|315:345,1,70,2|2,0:0|0:0,0:0:0:0:
401,307,152760,2,0,P|416:275|424:230,1,70,2|2,0:0|0:0,0:0:0:0:
391,151,153451,2,0,P|340:160|309:161,1,70,2|2,0:0|0:0,0:0:0:0:
248,213,154201,6,0,P|206:198|113:142,1,140,2|2,0:0|0:0,0:0:0:0:
256,192,156310,12,2,160766,0:0:0:0:
