osu file format v14

[General]
AudioFilename: audio.mp3
AudioLeadIn: 0
PreviewTime: 80809
Countdown: 1
SampleSet: Soft
StackLeniency: 0.2
Mode: 0
LetterboxInBreaks: 0
WidescreenStoryboard: 1

[Editor]
DistanceSpacing: 2.2
BeatDivisor: 4
GridSize: 32
TimelineZoom: 1.8

[Metadata]
Title:Liblume
TitleUnicode:Liblume
Artist:Shimotsuki Haruka
ArtistUnicode:霜月はるか
Creator:Lasse
Version:Expert
Source:生命のスペア
Tags:i was born for you inochi no spare full version musubine ribbon 結び音リボン ~Sora no Oto~ visual novel eroge
BeatmapID:1276080
BeatmapSetID:602903

[Difficulty]
HPDrainRate:6
CircleSize:4
OverallDifficulty:8
ApproachRate:8.2
SliderMultiplier:2.24
SliderTickRate:1

[Events]
//Background and Video events
0,0,"bg.jpg",0,0
//Break Periods
//Storyboard Layer 0 (Background)
//Storyboard Layer 1 (Fail)
//Storyboard Layer 2 (Pass)
//Storyboard Layer 3 (Foreground)
//Storyboard Sound Samples

[TimingPoints]
409,400,3,2,43,15,1,0
409,-133.333333333333,3,2,43,15,0,0
7609,-133.333333333333,3,2,1,20,0,0
8009,-133.333333333333,3,2,1,23,0,0
8409,-133.333333333333,3,2,1,26,0,0
8809,-133.333333333333,3,2,2,29,0,0
9609,-200,3,2,1,30,0,0
10009,-133.333333333333,3,2,1,45,0,0
17209,-166.666666666667,3,2,1,40,0,0
17609,-166.666666666667,3,2,1,10,0,0
18009,-166.666666666667,3,2,1,20,0,0
18209,-166.666666666667,3,2,31,30,0,0
18409,-166.666666666667,3,2,31,32,0,0
19209,-200,3,2,1,30,0,0
19609,-200,3,2,43,20,0,0
20009,-200,3,2,43,10,0,0
20209,-200,3,2,43,20,0,0
27809,-200,3,2,43,15,0,0
28009,-200,3,2,43,20,0,0
29609,-200,3,2,43,10,0,0
29809,-200,3,2,43,20,0,0
32609,-200,3,2,43,15,0,0
32809,-200,3,2,43,20,0,0
34409,-200,3,2,43,10,0,0
34609,-200,3,2,43,20,0,0
35609,-200,3,2,43,10,0,0
36009,-200,3,2,43,20,0,0
38209,-200,3,2,1,30,0,0
38409,-200,3,2,56,33,0,0
38609,-200,3,2,56,35,0,0
38809,-166.666666666667,3,2,1,35,0,0
39109,-166.666666666667,3,2,99,5,0,0
39209,-166.666666666667,3,2,1,35,0,0
41509,-166.666666666667,3,2,99,5,0,0
41609,-166.666666666667,3,2,1,35,0,0
43009,-166.666666666667,3,2,1,20,0,0
43209,-166.666666666667,3,2,1,35,0,0
43909,-166.666666666667,3,2,99,5,0,0
44009,-166.666666666667,3,2,1,35,0,0
45409,-166.666666666667,3,2,1,20,0,0
45609,-166.666666666667,3,2,1,35,0,0
47509,-166.666666666667,3,2,99,5,0,0
47609,-166.666666666667,3,2,1,35,0,0
48709,-166.666666666667,3,2,99,5,0,0
48809,-166.666666666667,3,2,1,35,0,0
50209,-166.666666666667,3,2,1,20,0,0
50409,-166.666666666667,3,2,1,35,0,0
51109,-166.666666666667,3,2,99,5,0,0
51209,-166.666666666667,3,2,1,35,0,0
52609,-166.666666666667,3,2,1,20,0,0
52809,-166.666666666667,3,2,1,35,0,0
53509,-166.666666666667,3,2,99,5,0,0
53609,-166.666666666667,3,2,1,35,0,0
55909,-166.666666666667,3,2,99,5,0,0
56009,-166.666666666667,3,2,1,35,0,0
57209,-166.666666666667,3,2,1,25,0,0
57609,-166.666666666667,3,2,1,15,0,0
58009,-250,3,2,43,20,0,0
67009,-250,3,2,1,23,0,0
67209,-250,3,2,56,25,0,0
67409,-250,3,2,56,28,0,0
67609,-166.666666666667,3,2,1,35,0,0
69609,-147.058823529412,3,2,1,35,0,0
72009,-166.666666666667,3,2,1,28,0,0
72309,-166.666666666667,3,2,99,5,0,0
72409,-125,3,2,1,33,0,0
72609,-125,3,2,99,15,0,0
72809,-125,3,2,1,33,0,0
73009,-125,3,2,99,15,0,0
73209,-125,3,2,1,33,0,0
73409,-125,3,2,99,15,0,0
73609,-125,3,2,1,33,0,0
73809,-125,3,2,99,15,0,0
74009,-125,3,2,1,33,0,0
74209,-125,3,2,99,15,0,0
74409,-125,3,2,1,33,0,0
74609,-125,3,2,99,15,0,0
74809,-125,3,2,1,35,0,0
75009,-125,3,2,99,15,0,0
75209,-125,3,2,1,35,0,0
75409,-125,3,2,99,15,0,0
75609,-125,3,2,1,35,0,0
75809,-125,3,2,99,15,0,0
76009,-125,3,2,1,35,0,0
76209,-125,3,2,99,15,0,0
76409,-125,3,2,1,37,0,0
76609,-125,3,2,99,15,0,0
76809,-125,3,2,1,37,0,0
77009,-125,3,2,99,15,0,0
77209,-125,3,2,1,37,0,0
77409,-125,3,2,99,15,0,0
77609,-125,3,2,1,33,0,0
78409,-125,3,2,1,36,0,0
78809,-125,3,2,1,33,0,0
79609,-142.857142857143,3,2,2,37,0,0
79659,-142.857142857143,3,2,99,5,0,0
81209,-117.647058823529,3,2,1,30,0,0
81609,-117.647058823529,3,2,1,40,0,0
82009,-100,3,2,1,50,0,1
86009,-100,3,2,1,30,0,1
86142,-100,3,2,56,40,0,1
86409,-100,3,2,56,45,0,1
86809,-100,3,2,1,50,0,1
87409,-86.9565217391304,3,2,1,50,0,1
88009,-76.9230769230769,3,2,1,50,0,1
89209,-66.6666666666667,3,2,68,50,0,1
89409,-66.6666666666667,3,2,68,25,0,1
89609,-66.6666666666667,3,2,1,50,0,1
89809,-66.6666666666667,3,2,1,25,0,1
90009,-66.6666666666667,3,2,1,50,0,1
90209,-66.6666666666667,3,2,1,25,0,1
90409,-66.6666666666667,3,2,1,40,0,1
90809,-66.6666666666667,3,2,56,42,0,1
91209,-66.6666666666667,3,2,56,44,0,1
91509,-100,3,2,56,44,0,0
91609,-100,3,2,1,50,0,1
96009,-100,3,2,1,45,0,1
96809,-100,3,2,1,15,0,1
97009,-100,3,2,1,45,0,1
99209,-100,3,2,1,15,0,1
99409,-100,3,2,1,45,0,1
99609,-83.3333333333333,3,2,1,45,0,1
99809,-83.3333333333333,3,2,1,20,0,1
100009,-83.3333333333333,3,2,1,45,0,1
100309,-83.3333333333333,3,2,1,30,0,1
100409,-83.3333333333333,3,2,1,40,0,1
101209,-200,3,2,1,50,0,0
102009,-200,3,2,1,30,0,0
102409,-200,3,2,1,45,0,0
103209,-200,3,2,1,30,0,0
103609,-200,3,2,1,45,0,0
104009,-200,3,2,1,40,0,0
104209,-100,3,2,68,45,0,0
104609,-100,3,2,1,45,0,0
104809,-125,3,2,1,40,0,0
105075,-125,3,2,1,25,0,0
105209,-125,3,2,56,35,0,0
105609,-125,3,2,56,30,0,0
106009,-200,3,2,43,15,0,0
108409,-333.333333333333,3,2,1,20,0,0
108809,-200,3,2,1,15,0,0
109609,-200,3,2,1,10,0,0
110009,-200,3,2,99,5,0,0
110409,-200,3,2,1,30,0,0
110809,-133.333333333333,3,2,1,45,0,0
118009,-166.666666666667,3,2,1,40,0,0
118409,-166.666666666667,3,2,1,10,0,0
118809,-166.666666666667,3,2,1,20,0,0
119009,-166.666666666667,3,2,31,30,0,0
119209,-166.666666666667,3,2,31,32,0,0
119809,-200,3,2,1,30,0,0
120009,-200,3,2,56,33,0,0
120209,-200,3,2,56,35,0,0
120409,-166.666666666667,3,2,1,35,0,0
120709,-166.666666666667,3,2,99,5,0,0
120809,-166.666666666667,3,2,1,35,0,0
123109,-166.666666666667,3,2,99,5,0,0
123209,-166.666666666667,3,2,1,35,0,0
124609,-166.666666666667,3,2,1,20,0,0
124809,-166.666666666667,3,2,1,35,0,0
125509,-166.666666666667,3,2,99,5,0,0
125609,-166.666666666667,3,2,1,35,0,0
127009,-166.666666666667,3,2,1,20,0,0
127209,-166.666666666667,3,2,1,35,0,0
130309,-166.666666666667,3,2,99,5,0,0
130409,-166.666666666667,3,2,1,35,0,0
131809,-166.666666666667,3,2,1,20,0,0
132009,-166.666666666667,3,2,1,35,0,0
132709,-166.666666666667,3,2,99,5,0,0
132809,-166.666666666667,3,2,1,35,0,0
134209,-166.666666666667,3,2,1,20,0,0
134409,-166.666666666667,3,2,1,35,0,0
135109,-166.666666666667,3,2,99,5,0,0
135209,-166.666666666667,3,2,1,35,0,0
137509,-166.666666666667,3,2,99,5,0,0
137609,-166.666666666667,3,2,1,35,0,0
139609,-250,3,2,43,20,0,0
144409,-250,3,2,44,20,0,0
144809,-250,3,2,43,20,0,0
148609,-250,3,2,1,23,0,0
148809,-250,3,2,56,25,0,0
149009,-250,3,2,56,28,0,0
149209,-166.666666666667,3,2,1,35,0,0
149609,-166.666666666667,3,2,1,10,0,0
149809,-166.666666666667,3,2,1,35,0,0
151209,-147.058823529412,3,2,1,35,0,0
152209,-147.058823529412,3,2,1,20,0,0
152409,-147.058823529412,3,2,1,35,0,0
152609,-166.666666666667,3,2,1,20,0,0
152809,-166.666666666667,3,2,1,35,0,0
153209,-166.666666666667,3,2,1,20,0,0
153409,-166.666666666667,3,2,1,35,0,0
153609,-166.666666666667,3,2,56,28,0,0
153809,-166.666666666667,3,2,56,24,0,0
154009,-125,3,2,1,33,0,0
154209,-125,3,2,99,15,0,0
154409,-125,3,2,1,33,0,0
154609,-125,3,2,99,15,0,0
154809,-125,3,2,1,33,0,0
155009,-125,3,2,99,15,0,0
155209,-125,3,2,1,33,0,0
155409,-125,3,2,99,15,0,0
155609,-125,3,2,1,33,0,0
155809,-125,3,2,99,15,0,0
156009,-125,3,2,1,33,0,0
156209,-125,3,2,99,15,0,0
156409,-125,3,2,1,35,0,0
156609,-125,3,2,99,15,0,0
156809,-125,3,2,1,35,0,0
157009,-125,3,2,99,15,0,0
157209,-125,3,2,1,35,0,0
157409,-125,3,2,99,15,0,0
157609,-125,3,2,1,35,0,0
157809,-125,3,2,99,15,0,0
158009,-125,3,2,1,37,0,0
158209,-125,3,2,99,15,0,0
158409,-125,3,2,1,37,0,0
158609,-125,3,2,99,15,0,0
158809,-111.111111111111,3,2,1,40,0,0
159009,-125,3,2,99,15,0,0
159209,-125,3,2,1,30,0,0
159409,-111.111111111111,3,2,1,40,0,0
159609,-111.111111111111,3,2,1,20,0,0
159809,-111.111111111111,3,2,1,30,0,0
160009,-111.111111111111,3,2,56,33,0,0
160409,-111.111111111111,3,2,56,36,0,0
160809,-200,3,2,1,40,0,0
161009,-133.333333333333,3,2,1,15,0,0
161209,-100,3,2,1,50,0,1
165209,-100,3,2,1,30,0,1
165342,-100,3,2,56,40,0,1
165609,-100,3,2,56,45,0,1
166009,-100,3,2,1,50,0,1
166609,-86.9565217391304,3,2,1,50,0,1
167209,-76.9230769230769,3,2,1,50,0,1
168409,-66.6666666666667,3,2,68,50,0,1
168609,-66.6666666666667,3,2,68,25,0,1
168809,-66.6666666666667,3,2,1,50,0,1
169009,-66.6666666666667,3,2,1,25,0,1
169209,-66.6666666666667,3,2,1,50,0,1
169409,-66.6666666666667,3,2,1,25,0,1
169609,-66.6666666666667,3,2,1,40,0,1
170009,-66.6666666666667,3,2,56,42,0,1
170409,-66.6666666666667,3,2,56,44,0,1
170709,-66.6666666666667,3,2,56,44,0,0
170809,-100,3,2,1,50,0,1
175209,-100,3,2,1,45,0,1
176009,-100,3,2,1,15,0,1
176209,-100,3,2,1,45,0,1
178409,-100,3,2,1,15,0,1
178609,-100,3,2,1,45,0,1
178809,-83.3333333333333,3,2,1,45,0,1
179609,-83.3333333333333,3,2,56,40,0,1
180409,-111.111111111111,3,2,1,40,0,0
181909,-111.111111111111,3,2,99,5,0,0
182009,-111.111111111111,3,2,1,40,0,0
188809,-90.9090909090908,3,2,1,40,0,0
189209,-90.9090909090908,3,2,1,20,0,0
189342,-90.9090909090908,3,2,56,40,0,0
190009,-111.111111111111,3,2,1,40,0,0
196009,-90.9090909090908,3,2,1,40,0,0
197209,-83.3333333333333,3,2,1,40,0,0
198809,-83.3333333333333,3,2,56,40,0,0
199609,-111.111111111111,3,2,1,40,0,0
203509,-111.111111111111,3,2,99,5,0,0
203609,-111.111111111111,3,2,1,40,0,0
204059,-111.111111111111,3,2,99,15,0,0
204409,-111.111111111111,3,2,1,40,0,0
204809,-111.111111111111,3,2,1,15,0,0
205009,-111.111111111111,3,2,1,40,0,0
208409,-111.111111111111,3,2,1,15,0,0
208609,-111.111111111111,3,2,1,40,0,0
210809,-111.111111111111,3,2,1,15,0,0
211009,-111.111111111111,3,2,1,40,0,0
213409,-111.111111111111,3,2,1,30,0,0
213609,-111.111111111111,3,2,1,40,0,0
215509,-111.111111111111,3,2,99,5,0,0
215609,-111.111111111111,3,2,1,40,0,0
215809,-111.111111111111,3,2,1,30,0,0
216009,-111.111111111111,3,2,1,40,0,0
217909,-111.111111111111,3,2,99,5,0,0
218009,-111.111111111111,3,2,1,40,0,0
218209,-111.111111111111,3,2,1,30,0,0
218409,-111.111111111111,3,2,1,43,0,0
218609,-111.111111111111,3,2,1,38,0,0
218809,-111.111111111111,3,2,1,43,0,0
219009,-111.111111111111,3,2,1,37,0,0
219209,-111.111111111111,3,2,1,34,0,0
219409,-111.111111111111,3,2,1,43,0,0
219609,-111.111111111111,3,2,1,40,0,0
220009,-111.111111111111,3,2,56,30,0,0
220409,-111.111111111111,3,2,56,34,0,0
220809,-111.111111111111,3,2,1,38,0,0
222009,400,3,2,1,35,1,0
222009,-166.666666666667,3,2,1,35,0,0
222109,-166.666666666667,3,2,1,25,0,0
223209,-166.666666666667,3,2,2,25,0,0
224009,-166.666666666667,3,2,1,25,0,0
224409,-166.666666666667,3,2,1,30,0,0
224609,-166.666666666667,3,2,1,25,0,0
225609,-166.666666666667,3,2,2,25,0,0
226409,-166.666666666667,3,2,1,25,0,0
226809,-100,3,2,77,35,0,0
227109,-200,3,2,99,5,0,0
227209,-90.9090909090909,3,2,77,36,0,0
227509,-200,3,2,99,5,0,0
227609,-83.3333333333333,3,2,77,37,0,0
227909,-200,3,2,99,5,0,0
228009,-76.9230769230769,3,2,77,38,0,0
228309,-200,3,2,99,5,0,0
228409,-71.4285714285714,3,2,77,39,0,0
228709,-200,3,2,99,5,0,0
228809,-66.6666666666667,3,2,77,40,0,0
229109,-200,3,2,99,5,0,0
229209,-62.5,3,2,77,42,0,0
229509,-200,3,2,99,5,0,0
229609,-62.5,3,2,77,44,0,0
229909,-200,3,2,99,5,0,0
230009,-55.5555555555556,3,2,1,46,0,0
230209,-55.5555555555556,3,2,1,40,0,0
230409,-200,3,2,1,25,0,0
230609,-200,3,2,1,15,0,0
231609,-100,3,2,1,50,0,1
236009,-100,3,2,1,45,0,1
236809,-100,3,2,1,15,0,1
237009,-100,3,2,1,45,0,1
239209,-100,3,2,1,15,0,1
239409,-100,3,2,1,45,0,1
239609,-83.3333333333333,3,2,1,45,0,1
239809,-83.3333333333333,3,2,1,20,0,1
240009,-83.3333333333333,3,2,1,45,0,1
240309,-83.3333333333333,3,2,1,30,0,1
240409,-83.3333333333333,3,2,1,40,0,1
241209,-100,3,2,1,50,0,0
242009,-200,3,2,1,30,0,0
242409,-200,3,2,1,45,0,0
243209,-200,3,2,1,30,0,0
243609,-200,3,2,1,45,0,0
244009,-200,3,2,1,40,0,0
244209,-100,3,2,1,45,0,0
244809,-125,3,2,1,40,0,0
245075,-125,3,2,1,30,0,0
245209,-125,3,2,56,35,0,0
245609,-125,3,2,56,30,0,0
246009,-200,3,2,43,15,0,0
248409,-333.333333333333,3,2,1,20,0,0
248809,-200,3,2,1,15,0,0
249609,-200,3,2,1,10,0,0
250009,-200,3,2,99,5,0,0
250409,-200,3,2,1,30,0,0
250809,-133.333333333333,3,2,1,45,0,0
254809,-133.333333333333,3,2,1,10,0,0
255009,-133.333333333333,3,2,1,45,0,0
259609,-133.333333333333,3,2,56,45,0,0
260409,-133.333333333333,3,2,1,45,0,0
264809,-133.333333333333,3,2,56,45,0,0
265209,-133.333333333333,3,2,1,45,0,0
265509,-133.333333333333,3,2,99,5,0,0
265609,-133.333333333333,3,2,1,45,0,0
266709,-133.333333333333,3,2,99,5,0,0
266809,-133.333333333333,3,2,1,45,0,0
267609,-100,3,2,1,40,0,0
268209,-100,3,2,1,44,0,0
268409,-100,3,2,1,30,0,0
268609,-100,3,2,68,46,0,0
268809,-100,3,2,1,30,0,0
268942,-100,3,2,1,40,0,0
269209,-100,3,2,1,36,0,0
269609,-100,3,2,1,40,0,0
269742,-100,3,2,56,40,0,0
270009,-200,3,2,2,30,0,0
270609,-200,3,2,1,23,0,0
271809,-200,3,2,1,15,0,0
272009,-200,3,2,43,23,0,0
276609,-200,3,2,1,15,0,0
276809,-200,3,2,43,23,0,0
279609,-200,3,2,44,25,0,0
280209,-200,3,2,43,20,0,0
281409,-200,3,2,1,15,0,0
281609,-200,3,2,43,20,0,0
287609,-200,3,2,43,15,0,0
288009,-200,3,2,43,20,0,0
288409,552.995391705069,4,2,99,10,1,0
288962,582.52427184466,4,2,43,15,1,0
289253,625,4,2,43,15,1,0
289565,566.037735849057,4,2,43,15,1,0
289848,625,4,2,43,15,1,0
290160,600,4,2,43,15,1,0
290462,638.297872340426,4,2,43,15,1,0
290781,-142.857142857143,4,2,43,15,0,0
291100,1071.42857142857,4,2,43,15,1,0
291367,857.142857142857,4,2,43,15,1,0
291474,722.89156626506,4,2,43,15,1,0
291836,769.230769230769,4,2,43,15,1,0
292220,1224.48979591837,4,2,43,15,1,0
293444,1621.62162162162,4,2,43,10,1,0
295065,1818.18181818182,4,2,43,10,1,0
295178,1250,4,2,43,10,1,0
295803,-83.3333333333333,4,2,43,10,0,0
296428,714.285714285714,4,2,43,10,1,0
296604,759.493670886076,4,2,43,11,1,0
296793,1071.42857142857,4,2,43,12,1,0
297060,1250,4,2,43,13,1,0
297372,1071.42857142857,4,2,43,12,1,0
297639,2727.27272727273,4,2,43,11,1,0
297979,2608.69565217391,4,2,43,10,1,0
298305,3076.92307692308,4,2,43,9,1,0
299074,2580.64516129032,4,2,43,8,1,0
300364,937.5,4,2,43,14,1,0
300422,-100,4,2,99,7,0,0
300481,-100,4,2,99,6,0,0
300539,-100,4,2,99,5,0,0

[Colours]
Combo1 : 190,200,250
Combo2 : 250,190,240
Combo3 : 170,240,250
Combo4 : 180,240,160

[HitObjects]
229,358,9,5,2,0:0:0:0:
219,344,209,1,2,0:0:0:0:
209,330,409,1,6,0:3:0:0:
209,330,809,5,2,0:1:0:0:
252,267,1009,1,2,0:0:0:0:
320,233,1209,1,2,0:0:0:0:
396,237,1409,1,2,0:0:0:0:
354,300,1609,5,2,0:1:0:0:
320,233,1809,1,2,0:0:0:0:
324,157,2009,1,2,0:0:0:0:
365,93,2209,1,2,0:0:0:0:
399,160,2409,5,2,0:1:0:0:
324,157,2609,1,2,0:0:0:0:
260,116,2809,1,2,0:0:0:0:
225,48,3009,1,2,0:0:0:0:
301,51,3209,5,2,0:1:0:0:
260,116,3409,1,2,0:0:0:0:
191,151,3609,1,2,0:0:0:0:
113,146,3809,1,2,0:0:0:0:
156,80,4009,5,2,0:1:0:0:
191,151,4209,1,2,0:0:0:0:
185,229,4409,1,2,0:0:0:0:
140,293,4609,1,2,0:0:0:0:
218,300,4809,5,2,0:0:0:0:
235,303,5009,1,2,0:0:0:0:
252,305,5209,1,6,0:3:0:0:
252,305,5609,5,2,0:1:0:0:
312,350,5809,1,2,0:0:0:0:
386,358,6009,1,2,0:0:0:0:
454,327,6209,1,2,0:0:0:0:
394,284,6409,5,2,0:1:0:0:
363,216,6609,1,2,0:0:0:0:
370,141,6809,1,2,0:0:0:0:
413,79,7009,1,2,0:0:0:0:
445,147,7209,5,2,0:1:0:0:
506,189,7409,1,2,0:1:0:0:
512,116,7609,5,2,0:0:0:0:
439,220,8009,5,2,0:0:0:0:
300,280,8409,5,2,0:0:0:0:
118,244,8809,5,2,0:1:0:0:
118,244,9609,6,0,P|125:218|129:190,1,56,2|0,0:0|0:0,0:0:0:0:
116,358,10009,6,0,B|158:364|192:328|192:328|239:314|270:347,1,168.000006408692,4|0,0:0|0:0,0:0:0:0:
375,294,10609,1,2,0:0:0:0:
268,345,10809,2,0,P|254:308|262:249,1,84.0000032043458,2|8,0:0|0:3,0:0:0:0:
475,174,11209,6,0,B|425:198|425:198|312:184,1,168.000006408692,10|0,0:1|0:0,0:0:0:0:
218,63,11809,1,6,0:3:0:0:
256,264,12009,5,6,0:0:0:0:
218,63,12209,1,10,0:3:0:0:
91,265,12409,6,0,B|177:287|172:235|255:263,1,168.000006408692,6|0,0:0|0:0,0:0:0:0:
317,321,13009,1,2,0:0:0:0:
400,341,13209,1,2,0:0:0:0:
481,316,13409,1,2,0:0:0:0:
403,186,13609,6,0,P|379:220|375:261,1,84.0000032043458,10|0,0:1|0:0,0:0:0:0:
466,132,14008,2,0,P|431:109|389:104,1,84.0000032043458,2|8,0:0|0:3,0:0:0:0:
252,151,14409,5,8,0:0:0:0:
403,186,14609,1,8,0:0:0:0:
255,263,14809,6,0,B|211:268|174:232|174:232|135:220|83:256,1,168.000006408692,6|0,0:0|0:0,0:0:0:0:
0,344,15409,1,6,0:3:0:0:
99,245,15609,2,0,P|113:204|104:155,1,84.0000032043458,2|8,0:0|0:3,0:0:0:0:
288,122,16009,6,0,P|247:114|213:89,1,84.0000032043458,10|0,0:1|0:0,0:0:0:0:
259,268,16409,2,0,P|242:229|210:202,1,84.0000032043458,2|0,0:0|0:0,0:0:0:0:
28,196,16809,1,6,0:3:0:0:
28,196,17009,1,8,0:3:0:0:
213,89,17209,6,0,B|263:66|312:88|289:100|346:112|386:100|386:100|337:95|305:57,1,268.799991796875,6|0,0:0|0:0,0:0:0:0:
254,161,18209,1,2,0:2:0:0:
251,174,18309,1,2,0:2:0:0:
248,187,18409,1,2,0:1:0:0:
248,187,19209,6,0,L|179:176,1,56,2|0,0:0|0:0,0:0:0:0:
110,221,19609,2,0,P|124:149|192:178,1,168,6|8,0:1|0:0,0:0:0:0:
181,255,20409,6,0,L|186:319,1,56,2|0,0:0|0:0,0:0:0:0:
248,356,20809,2,0,P|298:335|354:340,1,112,2|0,0:0|0:0,0:0:0:0:
428,366,21409,5,2,0:0:0:0:
488,315,21609,1,10,0:1:0:0:
473,237,21809,1,2,0:0:0:0:
396,209,22009,6,0,P|374:158|380:103,1,112,2|0,0:1|0:0,0:0:0:0:
438,50,22609,1,10,0:0:0:0:
380,103,22809,2,0,P|324:108|273:86,2,112,2|2|2,0:2|0:0|0:0,0:0:0:0:
427,286,24009,6,0,P|401:273|375:268,1,56,10|8,0:1|0:0,0:0:0:0:
366,190,24409,2,0,P|338:198|315:214,1,56,2|0,0:2|0:0,0:0:0:0:
254,166,24809,2,0,P|241:190|235:217,2,56,2|8|2,0:0|0:0|0:0,0:0:0:0:
374,268,25609,5,2,0:0:0:0:
219,293,26009,1,2,0:0:0:0:
71,236,26409,6,0,P|45:224|16:222,1,56,10|8,0:1|0:0,0:0:0:0:
26,307,26809,2,0,P|51:318|80:320,1,56,2|0,0:0|0:0,0:0:0:0:
146,269,27209,1,2,0:1:0:0:
71,236,27409,6,0,B|50:204|48:151|72:114|72:114|86:131|80:164,1,168,2|2,0:0|0:1,0:0:0:0:
378,49,28809,5,10,0:1:0:0:
303,23,29009,1,10,0:2:0:0:
231,57,29209,2,0,B|136:74|155:23|65:41,1,168,2|8,0:1|0:0,0:0:0:0:
20,103,30009,5,2,0:0:0:0:
29,180,30209,1,2,0:0:0:0:
11,256,30409,2,0,L|4:313,2,56,2|0|0,0:0|0:0|0:0,0:0:0:0:
158,202,31209,6,0,P|184:192|227:193,1,56,10|0,0:1|0:0,0:0:0:0:
283,219,31609,2,0,P|309:229|337:231,1,56,2|0,0:0|0:0,0:0:0:0:
391,174,32009,5,2,0:0:0:0:
337,231,32209,2,0,B|322:289|350:337|350:337|321:317|276:318,1,168,10|2,0:0|0:1,0:0:0:0:
460,268,33209,6,0,P|468:242|473:214,1,56,2|0,0:0|0:0,0:0:0:0:
438,144,33609,2,0,L|359:127,1,56,10|0,0:1|0:0,0:0:0:0:
320,180,34009,2,0,P|382:134|337:59,1,168,2|8,0:1|0:0,0:0:0:0:
270,73,34809,2,0,P|243:71|215:64,1,56,2|0,0:0|0:0,0:0:0:0:
113,43,35209,6,0,B|166:22|216:65|216:65|159:101|167:174,1,224,2|8,0:1|0:0,0:0:0:0:
260,284,36409,1,2,0:1:0:0:
117,348,36809,6,0,P|92:338|64:334,1,56,10|8,0:1|0:0,0:0:0:0:
20,268,37209,2,0,L|14:191,1,56,2|0,0:0|0:0,0:0:0:0:
51,141,37609,2,0,L|60:22,1,112,2|2,0:0|0:1,0:0:0:0:
146,82,38209,5,8,0:0:0:0:
160,85,38309,1,8,0:0:0:0:
174,88,38409,1,8,0:3:0:0:
255,28,38609,1,8,0:3:0:0:
304,152,38809,6,0,B|316:182|316:182|296:216|314:253,1,100.799996923828,6|0,0:0|0:0,0:0:0:0:
325,267,39209,2,0,P|358:275|393:267,1,67.1999979492188,2|0,0:0|0:0,0:0:0:0:
242,303,39609,2,0,P|259:331|287:349,1,67.1999979492188,2|0,0:0|0:0,0:0:0:0:
304,152,40009,2,0,B|258:125|206:148|206:148|212:129|231:112,1,134.399995898438,10|0,0:1|0:0,0:0:0:0:
282,57,40609,5,2,0:0:0:0:
297,52,40709,1,2,0:0:0:0:
313,48,40809,1,2,0:0:0:0:
402,77,41009,1,2,0:0:0:0:
504,28,41209,6,0,P|486:71|506:137,1,100.799996923828,10|0,0:0|0:0,0:0:0:0:
504,144,41609,2,0,L|498:223,1,67.1999979492188,2|0,0:0|0:0,0:0:0:0:
393,306,42009,2,0,L|387:238,1,67.1999979492188,2|0,0:0|0:0,0:0:0:0:
288,147,42409,2,0,P|230:114|165:136,1,134.399995898438,10|0,0:1|0:0,0:0:0:0:
212,262,43009,5,2,0:0:0:0:
212,262,43109,1,2,0:0:0:0:
212,262,43209,2,0,L|222:196,1,67.1999979492188,2|0,0:0|0:0,0:0:0:0:
131,40,43609,6,0,P|85:44|24:16,1,100.799996923828,10|0,0:3|0:0,0:0:0:0:
41,46,44009,2,0,P|49:79|49:113,1,67.1999979492188,2|0,0:0|0:0,0:0:0:0:
28,266,44409,2,0,P|20:233|20:199,1,67.1999979492188,2|0,0:0|0:0,0:0:0:0:
242,188,44809,2,0,P|177:204|115:183,1,134.399995898438,10|0,0:1|0:0,0:0:0:0:
190,100,45409,5,2,0:0:0:0:
190,100,45509,1,2,0:0:0:0:
190,100,45609,2,0,P|229:90|262:91,1,67.1999979492188,2|0,0:0|0:0,0:0:0:0:
416,97,46009,5,10,0:3:0:0:
338,47,46209,1,2,0:0:0:0:
255,90,46409,2,0,P|245:129|246:162,1,67.1999979492188,2|0,0:0|0:0,0:0:0:0:
332,284,46809,2,0,P|308:260|280:243,1,67.1999979492188,2|0,0:0|0:0,0:0:0:0:
92,230,47209,6,0,P|139:245|186:229,1,100.799996923828,10|0,0:1|0:0,0:0:0:0:
181,252,47609,2,0,L|174:326,1,67.1999979492188,2|4,0:0|0:3,0:0:0:0:
285,374,48009,5,2,0:0:0:0:
332,284,48209,1,2,0:0:0:0:
413,202,48409,2,0,P|464:186|525:193,1,100.799996923828,6|0,0:0|0:0,0:0:0:0:
509,165,48809,2,0,L|502:91,1,67.1999979492188,2|0,0:0|0:0,0:0:0:0:
383,32,49209,5,2,0:0:0:0:
303,93,49409,1,2,0:0:0:0:
197,49,49609,2,0,P|135:27|61:43,1,134.399995898438,10|0,0:1|0:0,0:0:0:0:
39,132,50209,5,2,0:0:0:0:
39,132,50309,1,2,0:0:0:0:
39,132,50409,2,0,P|42:165|42:209,1,67.1999979492188,2|0,0:0|0:0,0:0:0:0:
4,353,50809,6,0,P|29:329|105:331,1,100.799996923828,10|0,0:3|0:0,0:0:0:0:
113,335,51209,2,0,P|148:344|186:336,1,67.1999979492188,2|0,0:0|0:0,0:0:0:0:
230,208,51609,2,0,P|195:199|157:207,1,67.1999979492188,2|0,0:0|0:0,0:0:0:0:
305,293,52009,2,0,P|341:237|334:171,1,134.399995898438,10|0,0:1|0:0,0:0:0:0:
263,109,52609,5,2,0:0:0:0:
263,109,52709,1,2,0:0:0:0:
263,109,52809,2,0,L|185:99,1,67.1999979492188,2|0,0:0|0:0,0:0:0:0:
0,138,53209,6,0,P|48:143|94:121,1,100.799996923828,10|0,0:3|0:0,0:0:0:0:
107,102,53609,2,0,L|113:24,1,67.1999979492188,2|0,0:0|0:0,0:0:0:0:
1,161,54009,2,0,L|-5:239,1,67.1999979492188,2|0,0:0|0:0,0:0:0:0:
88,357,54409,2,0,P|126:342|164:342,1,67.1999979492188,10|0,0:1|0:0,0:0:0:0:
302,370,54809,5,2,0:0:0:0:
359,288,55009,1,2,0:0:0:0:
364,273,55109,1,2,0:0:0:0:
368,257,55209,2,0,L|369:188,1,67.1999979492188,2|0,0:0|0:0,0:0:0:0:
281,57,55609,6,0,P|218:61|170:31,1,100.799996923828,10|0,0:3|0:0,0:0:0:0:
165,30,56009,2,0,P|130:20|98:22,1,67.1999979492188,2|0,0:0|0:0,0:0:0:0:
43,168,56409,2,0,P|77:177|109:175,1,67.1999979492188,2|0,0:0|0:0,0:0:0:0:
264,283,56809,2,0,P|204:253|132:268,2,134.399995898438,10|0|0,0:1|0:0|0:0,0:0:0:0:
440,349,58009,6,0,L|493:353,2,44.8,6|0|0,0:0|0:0|0:0,0:0:0:0:
370,315,58609,1,2,0:0:0:0:
343,242,58809,2,0,L|339:197,1,44.8,2|0,0:0|0:0,0:0:0:0:
279,114,59209,2,0,P|301:119|324:122,1,44.8,2|0,0:3|0:0,0:0:0:0:
398,145,59609,2,0,P|439:131|496:149,1,89.6,2|0,0:0|0:0,0:0:0:0:
443,212,60209,5,2,0:0:0:0:
420,289,60409,2,0,L|413:346,1,44.8,2|0,0:0|0:0,0:0:0:0:
339,360,60809,2,0,P|316:354|296:351,2,44.8,2|0|0,0:0|0:0|0:0,0:0:0:0:
495,260,61609,5,2,0:3:0:0:
420,289,61809,1,2,0:0:0:0:
342,279,62009,1,2,0:0:0:0:
285,231,62209,1,2,0:0:0:0:
259,163,62409,1,2,0:0:0:0:
259,163,62809,5,2,0:1:0:0:
285,231,63009,1,2,0:0:0:0:
342,279,63209,1,2,0:0:0:0:
420,289,63409,1,2,0:0:0:0:
495,260,63609,6,0,L|500:195,1,44.8,2|0,0:0|0:0,0:0:0:0:
465,146,64009,2,0,L|470:81,1,44.8,2|0,0:3|0:0,0:0:0:0:
414,46,64409,2,0,P|362:49|316:22,1,89.6,2|0,0:0|0:0,0:0:0:0:
258,64,65009,5,2,0:0:0:0:
186,37,65209,2,0,P|165:32|131:33,2,44.8,2|2|0,0:0|0:1|0:0,0:0:0:0:
258,64,65809,5,2,0:1:0:0:
307,124,66009,1,2,0:0:0:0:
319,200,66209,1,2,0:0:0:0:
289,290,66409,6,0,L|282:332,4,22.4,2|2|2|2|2,0:3|0:0|0:0|0:0|0:0,0:0:0:0:
214,212,67009,5,8,0:0:0:0:
200,204,67109,1,8,0:0:0:0:
184,202,67209,1,8,0:3:0:0:
106,250,67409,1,8,0:3:0:0:
26,157,67609,6,0,P|22:77|22:19,1,134.399995898438,6|0,0:0|0:0,0:0:0:0:
176,88,68409,5,2,0:0:0:0:
261,120,68609,1,2,0:0:0:0:
352,48,68809,2,0,P|391:40|474:88,1,134.399995898438,10|0,0:1|0:0,0:0:0:0:
386,230,69609,6,0,P|381:193|394:152,1,76.1600004648438,2|0,0:0|0:0,0:0:0:0:
459,235,70009,6,0,P|421:240|385:229,1,76.1600004648438,10|0,0:3|0:0,0:0:0:0:
347,313,70409,2,0,P|317:289|299:256,1,76.1600004648438,2|0,0:0|0:0,0:0:0:0:
213,289,70809,2,0,P|208:251|219:215,1,76.1600004648438,2|0,0:0|0:0,0:0:0:0:
255,92,71209,6,0,B|297:86|329:108|329:108|322:148|289:171,1,152.320000929688,10|0,0:1|0:0,0:0:0:0:
31,224,72009,6,0,P|77:202|139:220,1,100.799996923828,2|0,0:0|0:0,0:0:0:0:
146,241,72409,6,0,P|186:257|230:251,1,89.6,6|0,0:0|0:0,0:0:0:0:
181,77,72809,2,0,P|178:121|198:161,1,89.6,2|0,0:0|0:0,0:0:0:0:
347,60,73209,2,0,P|303:70|272:101,1,89.6,2|0,0:0|0:0,0:0:0:0:
290,325,73609,6,0,P|318:291|326:247,1,89.6,10|0,0:3|0:0,0:0:0:0:
145,240,74009,2,0,P|186:257|230:251,1,89.6,2|0,0:0|0:0,0:0:0:0:
353,155,74409,6,0,P|392:176|416:214,1,89.6,2|0,0:0|0:0,0:0:0:0:
197,160,74809,6,0,P|178:121|181:77,1,89.6,10|0,0:3|0:0,0:0:0:0:
229,251,75209,2,0,P|185:256|145:240,1,89.6,2|0,0:0|0:0,0:0:0:0:
326,247,75609,2,0,P|318:290|290:325,1,89.6,2|0,0:0|0:0,0:0:0:0:
272,100,76009,6,0,P|303:68|346:59,1,89.6,10|0,0:1|0:0,0:0:0:0:
229,251,76409,6,0,P|185:256|145:240,1,89.6,2|0,0:0|0:0,0:0:0:0:
65,80,76809,2,0,P|91:115|97:158,1,89.6,2|0,0:0|0:0,0:0:0:0:
0,308,77209,2,0,P|17:267|51:240,1,89.6,10|0,0:3|0:0,0:0:0:0:
229,251,77609,5,2,0:0:0:0:
316,312,77809,1,2,0:0:0:0:
412,266,78009,1,2,0:0:0:0:
330,26,78409,5,10,0:1:0:0:
316,312,78809,5,2,0:0:0:0:
229,251,79009,1,2,0:0:0:0:
412,266,79209,5,8,0:0:0:0:
220,358,79409,1,8,0:0:0:0:
331,169,79609,6,0,L|332:137,1,19.5999994018555,2|0,0:1|0:0,0:0:0:0:
43,120,81209,6,0,P|89:125|134:111,1,95.2000018157959,2|0,0:0|0:0,0:0:0:0:
81,36,81609,2,0,P|52:73|43:120,1,95.2000018157959,2|0,0:0|0:0,0:0:0:0:
221,301,82009,6,0,P|275:277|344:286,1,112,6|0,0:0|0:0,0:0:0:0:
512,348,82409,2,0,P|456:350|406:326,1,112,2|0,0:0|0:3,0:0:0:0:
408,115,82809,5,6,0:0:0:0:
476,244,83009,1,10,0:3:0:0:
291,165,83209,2,0,B|209:138|207:192|125:165,2,168,6|8|8,0:1|0:3|0:3,0:0:0:0:
406,326,84009,5,10,0:0:0:0:
248,253,84209,1,10,0:3:0:0:
324,71,84409,5,6,0:3:0:0:
346,248,84609,1,2,0:0:0:0:
180,316,84809,6,0,P|120:317|65:279,1,112,2|0,0:0|0:0,0:0:0:0:
220,46,85209,2,0,P|275:44|324:71,1,112,6|0,0:0|0:0,0:0:0:0:
7,202,85609,6,0,B|-27:117|20:56|20:56|58:65|74:104,1,224,14|0,0:1|0:0,0:0:0:0:
98,168,86142,1,8,0:3:0:0:
156,215,86275,1,8,0:3:0:0:
230,225,86409,5,4,0:3:0:0:
297,199,86542,1,4,0:3:0:0:
343,141,86675,1,4,0:3:0:0:
353,68,86809,6,0,B|342:35|315:12|315:12|276:34|263:68|263:68|220:80|186:45,1,224,10|0,0:1|0:0,0:0:0:0:
67,33,87409,2,0,P|131:27|191:50,1,128.800002456665,10|0,0:0|0:0,0:0:0:0:
167,199,87809,5,2,0:0:0:0:
0,81,88009,2,0,P|79:36|36:150,1,291.199986669923,6|8,0:3|0:1,0:0:0:0:
0,330,88609,5,8,0:2:0:0:
42,152,88809,1,10,0:3:0:0:
170,284,89009,1,8,0:3:0:0:
319,168,89209,6,0,P|397:142|481:195,1,168.000006408692,6|0,0:0|0:0,0:0:0:0:
210,183,89609,2,0,P|227:101|316:56,1,168.000006408692,2|8,0:0|0:1,0:0:0:0:
170,284,90009,2,0,P|109:227|113:128,1,168.000006408692,2|8,0:0|0:3,0:0:0:0:
295,58,90409,5,8,0:0:0:0:
320,60,90509,1,8,0:0:0:0:
343,69,90609,1,8,0:0:0:0:
364,81,90709,1,8,0:0:0:0:
380,100,90809,5,8,0:3:0:0:
360,115,90909,1,8,0:3:0:0:
336,124,91009,1,8,0:3:0:0:
312,132,91109,1,8,0:3:0:0:
286,134,91209,5,4,0:3:0:0:
254,144,91309,1,4,0:3:0:0:
227,165,91409,1,4,0:3:0:0:
211,194,91509,1,4,0:3:0:0:
207,227,91609,5,6,0:0:0:0:
297,354,91809,1,2,0:0:0:0:
445,307,92009,2,0,P|455:254|459:184,1,112,2|0,0:0|0:0,0:0:0:0:
207,227,92409,5,4,0:0:0:0:
114,353,92609,1,10,0:3:0:0:
19,182,92809,2,0,B|-11:122|36:59|36:59|44:71|45:94,2,168,6|8|8,0:1|0:3|0:3,0:0:0:0:
114,353,93609,5,10,0:0:0:0:
129,180,93809,1,10,0:3:0:0:
7,330,94009,5,6,0:3:0:0:
178,271,94209,1,2,0:0:0:0:
339,349,94409,6,0,P|393:359|447:342,1,112,2|0,0:0|0:0,0:0:0:0:
444,66,94809,2,0,P|389:55|336:72,1,112,6|0,0:0|0:0,0:0:0:0:
177,271,95209,6,0,P|88:302|106:207,1,224,14|0,0:1|0:3,0:0:0:0:
454,229,96009,6,0,L|445:377,1,112,10|8,0:0|0:3,0:0:0:0:
360,149,96409,2,0,P|486:97|453:230,1,336,6|8,0:0|0:1,0:0:0:0:
251,157,97209,5,2,0:0:0:0:
313,283,97409,1,2,0:0:0:0:
360,149,97609,2,0,B|248:121|252:195|139:159,1,224,8|8,0:3|0:3,0:0:0:0:
445,53,98409,5,10,0:0:0:0:
360,149,98609,1,2,0:0:0:0:
194,61,98809,2,0,P|47:100|76:249,1,336,6|8,0:0|0:1,0:0:0:0:
328,56,99609,6,0,L|194:61,1,134.399995898438,2|8,0:0|0:3,0:0:0:0:
303,283,100009,2,0,L|437:278,1,134.399995898438,2|0,0:0|0:0,0:0:0:0:
455,269,100309,1,8,0:0:0:0:
471,257,100409,6,0,P|491:190|464:117,1,134.399995898438,10|0,0:0|0:0,0:0:0:0:
193,61,100809,2,0,P|173:128|200:201,1,134.399995898438,10|8,0:3|0:3,0:0:0:0:
413,364,101209,5,6,0:0:0:0:
413,364,102009,5,2,0:0:0:0:
413,364,102209,1,2,0:0:0:0:
256,192,102409,1,4,0:1:0:0:
99,364,103209,5,2,0:0:0:0:
99,364,103409,1,2,0:0:0:0:
256,192,103609,1,4,0:0:0:0:
256,192,104009,5,8,0:3:0:0:
97,239,104209,2,0,B|41:234|-1:193|-1:193|41:148|98:145,1,224,4|8,0:0|0:3,0:0:0:0:
256,192,104809,6,0,P|312:214|369:203,1,119.466666666667,4|8,0:0|0:0,0:0:0:0:
430,153,105209,5,8,0:3:0:0:
492,104,105342,1,8,0:3:0:0:
504,183,105475,1,8,0:3:0:0:
441,232,105609,5,4,0:3:0:0:
368,202,105742,1,4,0:3:0:0:
357,123,105875,1,4,0:3:0:0:
419,74,106009,6,0,P|430:36|430:5,2,56,2|2|2,0:1|0:0|0:0,0:0:0:0:
282,173,106809,5,2,0:0:0:0:
277,159,107009,1,2,0:0:0:0:
272,145,107209,2,0,P|234:134|203:134,2,56,2|2|2,0:1|0:0|0:0,0:0:0:0:
319,325,108009,5,2,0:0:0:0:
305,330,108209,1,2,0:0:0:0:
292,335,108409,2,0,B|260:334|234:306|234:306|201:300|171:325|171:325|152:293|126:276|126:276|100:294|88:330,1,268.799991796875,2|0,0:0|0:0,0:0:0:0:
10,121,110409,6,0,P|17:95|16:64,1,56,2|0,0:0|0:0,0:0:0:0:
154,189,110809,6,0,B|240:170|232:219|318:200,1,168.000006408692,4|0,0:0|0:0,0:0:0:0:
424,149,111409,1,2,0:0:0:0:
318,199,111609,2,0,P|311:255|331:298,1,84.0000032043458,2|8,0:0|0:3,0:0:0:0:
510,125,112009,6,0,L|308:98,1,168.000006408692,10|0,0:1|0:0,0:0:0:0:
207,73,112609,1,6,0:3:0:0:
190,262,112809,5,6,0:0:0:0:
207,73,113009,1,10,0:3:0:0:
319,280,113209,6,0,P|254:226|188:268,1,168.000006408692,6|0,0:0|0:0,0:0:0:0:
152,338,113809,1,2,0:0:0:0:
67,343,114009,1,2,0:0:0:0:
20,271,114209,1,2,0:0:0:0:
30,118,114409,6,0,P|54:152|58:193,1,84.0000032043458,10|0,0:1|0:0,0:0:0:0:
190,262,114809,2,0,P|227:244|269:248,1,84.0000032043458,2|8,0:0|0:3,0:0:0:0:
389,366,115209,5,8,0:0:0:0:
240,341,115409,1,8,0:0:0:0:
395,241,115609,6,0,B|429:211|429:211|441:138|416:91,1,168.000006408692,6|0,0:0|0:0,0:0:0:0:
303,33,116209,1,6,0:3:0:0:
416,91,116409,2,0,P|458:89|496:71,1,84.0000032043458,2|8,0:0|0:3,0:0:0:0:
255,136,116809,6,0,P|293:118|335:116,1,84.0000032043458,10|0,0:1|0:0,0:0:0:0:
121,221,117209,2,0,P|163:218|201:201,1,84.0000032043458,2|0,0:0|0:0,0:0:0:0:
303,33,117609,1,6,0:3:0:0:
303,33,117809,1,8,0:3:0:0:
448,187,118009,6,0,B|457:152|427:127|427:127|398:178|430:242|442:205|459:278|420:325,1,268.799991796875,6|0,0:0|0:0,0:0:0:0:
323,346,119009,1,2,0:2:0:0:
310,344,119109,1,2,0:2:0:0:
297,341,119209,1,2,0:1:0:0:
297,341,119809,5,8,0:0:0:0:
310,344,119909,1,8,0:0:0:0:
323,346,120009,1,8,0:3:0:0:
424,318,120209,1,8,0:3:0:0:
340,188,120409,6,0,B|321:158|321:158|310:124|344:79,1,100.799996923828,6|0,0:0|0:0,0:0:0:0:
312,108,120809,2,0,P|271:106|240:92,1,67.1999979492188,2|0,0:0|0:0,0:0:0:0:
111,36,121209,2,0,P|152:38|183:52,1,67.1999979492188,2|0,0:0|0:0,0:0:0:0:
127,281,121609,2,0,L|127:147,1,134.399995898438,10|0,0:1|0:0,0:0:0:0:
247,96,122209,5,2,0:0:0:0:
262,100,122309,1,2,0:0:0:0:
278,104,122409,1,2,0:0:0:0:
386,51,122609,1,2,0:0:0:0:
433,215,122809,6,0,P|391:188|319:188,1,100.799996923828,10|0,0:0|0:0,0:0:0:0:
323,198,123209,2,0,L|316:279,1,67.1999979492188,2|0,0:0|0:0,0:0:0:0:
199,353,123609,2,0,L|192:272,1,67.1999979492188,2|0,0:0|0:0,0:0:0:0:
132,130,124009,2,0,P|73:158|13:134,1,134.399995898438,10|0,0:1|0:0,0:0:0:0:
61,12,124609,5,2,0:0:0:0:
61,12,124709,1,2,0:0:0:0:
61,12,124809,2,0,P|70:45|72:79,1,67.1999979492188,2|0,0:0|0:0,0:0:0:0:
0,260,125209,6,0,P|40:237|92:241,1,100.799996923828,10|0,0:3|0:0,0:0:0:0:
105,260,125609,2,0,P|136:273|170:273,1,67.1999979492188,2|0,0:0|0:0,0:0:0:0:
135,90,126009,2,0,P|104:77|70:77,1,67.1999979492188,2|0,0:0|0:0,0:0:0:0:
118,279,126409,2,0,P|180:304|242:284,1,134.399995898438,10|0,0:1|0:0,0:0:0:0:
314,205,127009,5,2,0:0:0:0:
314,205,127109,1,2,0:0:0:0:
314,205,127209,2,0,L|317:124,1,67.1999979492188,2|0,0:0|0:0,0:0:0:0:
470,89,127609,5,10,0:3:0:0:
407,157,127809,1,2,0:0:0:0:
316,137,128009,2,0,P|281:120|231:118,1,67.1999979492188,2|0,0:0|0:0,0:0:0:0:
242,284,128409,2,0,P|271:299|304:304,1,67.1999979492188,2|0,0:0|0:0,0:0:0:0:
165,202,128809,6,0,P|138:245|133:294,2,100.799996923828,10|8|8,0:1|0:3|0:3,0:0:0:0:
253,116,129609,5,10,0:0:0:0:
292,215,129809,1,10,0:0:0:0:
398,302,130009,6,0,P|448:313|513:275,1,100.799996923828,6|0,0:0|0:0,0:0:0:0:
504,275,130409,2,0,L|505:203,1,67.1999979492188,2|0,0:0|0:0,0:0:0:0:
366,139,130809,5,2,0:0:0:0:
292,215,131009,1,2,0:0:0:0:
169,162,131209,2,0,B|104:139|104:178|29:151,1,134.399995898438,10|0,0:1|0:0,0:0:0:0:
4,237,131809,5,2,0:0:0:0:
4,237,131909,1,2,0:0:0:0:
4,237,132009,2,0,P|9:283|9:313,1,67.1999979492188,2|0,0:0|0:0,0:0:0:0:
95,361,132409,6,0,P|107:304|124:256,1,100.799996923828,10|0,0:3|0:0,0:0:0:0:
141,251,132809,2,0,L|234:249,1,67.1999979492188,2|0,0:0|0:0,0:0:0:0:
296,118,133209,2,0,L|228:114,1,67.1999979492188,2|0,0:0|0:0,0:0:0:0:
420,206,133609,2,0,P|450:147|444:81,1,134.399995898438,10|0,0:1|0:0,0:0:0:0:
354,37,134209,5,2,0:0:0:0:
354,37,134309,1,2,0:0:0:0:
354,37,134409,2,0,L|286:33,1,67.1999979492188,2|0,0:0|0:0,0:0:0:0:
83,32,134809,6,0,P|132:28|184:66,1,100.799996923828,10|0,0:3|0:0,0:0:0:0:
172,77,135209,2,0,L|172:151,1,67.1999979492188,2|0,0:0|0:0,0:0:0:0:
29,217,135609,2,0,L|29:143,1,67.1999979492188,2|0,0:0|0:0,0:0:0:0:
237,150,136009,2,0,P|203:153|171:143,1,67.1999979492188,10|0,0:1|0:0,0:0:0:0:
83,32,136409,5,2,0:0:0:0:
29,149,136609,1,2,0:0:0:0:
25,165,136709,1,2,0:0:0:0:
23,181,136809,2,0,L|20:251,1,67.1999979492188,2|0,0:0|0:0,0:0:0:0:
138,356,137209,6,0,P|197:335|251:352,1,100.799996923828,10|0,0:3|0:0,0:0:0:0:
257,352,137609,2,0,P|293:358|327:349,1,67.1999979492188,2|0,0:0|0:0,0:0:0:0:
329,190,138009,2,0,P|296:183|263:189,1,67.1999979492188,2|0,0:0|0:0,0:0:0:0:
112,269,138409,2,0,P|63:272|16:244,2,100.799996923828,10|8|8,0:1|0:3|0:3,0:0:0:0:
169,116,139209,5,8,0:0:0:0:
85,179,139409,1,8,0:0:0:0:
45,41,139609,6,0,P|22:31|-11:29,2,44.8,6|2|2,0:0|0:0|0:0,0:0:0:0:
93,102,140209,5,2,0:2:0:0:
169,116,140409,2,0,P|201:114|226:108,1,44.8,2|0,0:1|0:0,0:0:0:0:
229,103,140709,1,2,0:0:0:0:
244,94,140809,2,0,P|266:90|288:89,1,44.8,2|0,0:1|0:0,0:0:0:0:
344,140,141209,2,0,L|357:244,1,89.6,2|2,0:0|0:1,0:0:0:0:
396,293,141809,5,12,0:3:0:0:
335,339,142009,2,0,L|285:336,1,44.8,12|0,0:3|0:0,0:0:0:0:
214,349,142409,2,0,L|164:346,2,44.8,2|2|0,0:0|0:1|0:0,0:0:0:0:
268,260,143009,5,2,0:0:0:0:
274,243,143109,1,2,0:0:0:0:
279,225,143209,2,0,L|282:170,1,44.8,2|0,0:0|0:0,0:0:0:0:
322,116,143609,1,2,0:0:0:0:
390,82,143809,1,2,0:0:0:0:
465,86,144009,1,12,0:3:0:0:
327,41,144409,6,0,B|305:38|281:51|281:51|260:52|223:38,1,89.6,12|0,0:0|0:0,0:0:0:0:
169,14,145009,5,2,0:0:0:0:
124,75,145209,2,0,L|121:130,1,44.8,2|0,0:1|0:0,0:0:0:0:
116,134,145509,1,0,0:0:0:0:
111,148,145609,2,0,L|108:203,1,44.8,2|0,0:1|0:0,0:0:0:0:
161,247,146009,2,0,P|203:228|248:236,1,89.6,2|8,0:0|0:3,0:0:0:0:
304,281,146609,5,2,0:0:0:0:
355,337,146809,2,0,P|381:341|418:332,1,44.8,12|0,0:3|0:0,0:0:0:0:
463,297,147209,2,0,L|465:243,1,44.8,2|2,0:0|0:0,0:0:0:0:
468,175,147609,1,2,0:0:0:0:
472,98,147809,1,2,0:0:0:0:
396,37,148009,6,0,L|354:28,2,22.4,2|2|2,0:1|0:0|0:0,0:0:0:0:
472,98,148409,1,2,0:1:0:0:
349,149,148609,5,8,0:0:0:0:
334,151,148709,1,8,0:0:0:0:
319,153,148809,1,8,0:3:0:0:
229,202,149009,1,8,0:3:0:0:
132,68,149209,6,0,P|202:120|238:39,1,201.599993847656,6|8,0:0|0:2,0:0:0:0:
45,15,150009,5,2,0:0:0:0:
132,68,150209,1,2,0:0:0:0:
50,165,150409,2,0,P|32:231|54:300,1,134.399995898438,10|0,0:1|0:0,0:0:0:0:
267,267,151209,6,0,P|234:247|197:241,1,76.1600004648438,2|0,0:0|0:0,0:0:0:0:
241,336,151609,6,0,P|260:304|267:267,1,76.1600004648438,10|0,0:3|0:0,0:0:0:0:
346,246,152009,2,0,P|328:213|299:189,1,76.1600004648438,2|8,0:0|0:1,0:0:0:0:
321,109,152409,2,0,P|283:107|247:121,1,76.1600004648438,2|8,0:0|0:3,0:0:0:0:
135,206,152809,6,0,B|81:225|38:200|38:200|53:211|62:233,1,134.399995898438,10|0,0:1|0:0,0:0:0:0:
53,302,153409,1,8,0:0:0:0:
135,206,153609,6,0,P|179:197|223:197,1,67.1999979492188,10|4,0:3|0:3,0:0:0:0:
399,315,154009,6,0,B|398:338|384:356|384:356|367:342|360:318,1,89.6,6|0,0:0|0:0,0:0:0:0:
455,198,154409,2,0,B|477:205|489:224|489:224|470:236|446:236,1,89.6,10|0,0:3|0:0,0:0:0:0:
361,108,154809,2,0,B|374:89|396:83|396:83|402:104|394:127,1,89.6,10|0,0:3|0:0,0:0:0:0:
270,297,155209,6,0,B|247:304|226:296|226:296|234:274|254:261,1,89.6,10|0,0:1|0:0,0:0:0:0:
399,315,155609,2,0,B|398:338|384:356|384:356|367:342|360:318,1,89.6,10|0,0:3|0:0,0:0:0:0:
275,143,156009,6,0,B|255:128|233:127|233:127|232:150|246:169,1,89.6,10|0,0:3|0:0,0:0:0:0:
446,236,156409,6,0,B|470:236|489:224|489:224|477:205|455:198,1,89.6,10|0,0:3|0:0,0:0:0:0:
360,318,156809,2,0,B|367:342|384:356|384:356|398:338|399:315,1,89.6,10|0,0:3|0:0,0:0:0:0:
254,261,157209,2,0,B|234:274|226:296|226:296|247:304|270:297,1,89.6,10|0,0:3|0:0,0:0:0:0:
394,127,157609,6,0,B|402:104|396:83|396:83|374:89|361:108,1,89.6,10|0,0:1|0:0,0:0:0:0:
242,168,158009,6,0,P|198:168|157:151,1,89.6,10|0,0:3|0:0,0:0:0:0:
177,32,158409,2,0,P|222:28|263:45,1,89.6,10|0,0:3|0:0,0:0:0:0:
110,217,158809,6,0,P|81:177|85:117,1,100.799996923828,6|0,0:2|0:0,0:0:0:0:
242,168,159209,5,10,0:3:0:0:
143,293,159409,2,0,P|94:297|52:271,1,100.799996923828,4|8,0:1|0:3,0:0:0:0:
242,168,159809,5,8,0:3:0:0:
341,300,160009,5,8,0:3:0:0:
348,313,160109,1,8,0:3:0:0:
358,328,160209,1,8,0:3:0:0:
369,341,160309,1,8,0:3:0:0:
380,354,160409,5,4,0:3:0:0:
392,338,160509,1,4,0:3:0:0:
397,320,160609,1,4,0:3:0:0:
402,302,160709,1,4,0:3:0:0:
403,284,160809,6,0,L|406:207,1,56,10|0,0:1|0:0,0:0:0:0:
370,38,161209,5,6,0:0:0:0:
482,165,161409,1,2,0:0:0:0:
315,198,161609,2,0,P|260:194|205:183,1,112,2|0,0:0|0:3,0:0:0:0:
480,53,162009,6,0,P|426:42|370:38,1,112,6|10,0:0|0:3,0:0:0:0:
204,182,162409,2,0,B|182:214|177:274|205:307|205:307|215:296|219:274,2,168,6|8|8,0:1|0:3|0:3,0:0:0:0:
405,228,163209,5,10,0:0:0:0:
218,275,163409,1,10,0:3:0:0:
243,61,163609,5,6,0:3:0:0:
317,216,163809,1,2,0:0:0:0:
465,126,164009,6,0,P|483:74|471:20,1,112,2|0,0:0|0:0,0:0:0:0:
391,314,164409,2,0,P|445:304|485:266,1,112,6|0,0:0|0:3,0:0:0:0:
207,362,164809,6,0,B|252:306|231:224|231:224|188:211|159:243,1,224,14|0,0:1|0:0,0:0:0:0:
86,249,165342,1,8,0:3:0:0:
27,206,165475,1,8,0:3:0:0:
11,134,165609,5,4,0:3:0:0:
47,70,165742,1,4,0:3:0:0:
115,46,165875,1,4,0:3:0:0:
183,72,166009,6,0,B|227:96|279:77|279:77|359:65|387:151,1,224,10|0,0:1|0:0,0:0:0:0:
387,254,166609,2,0,P|366:194|379:132,1,128.800002456665,10|0,0:0|0:0,0:0:0:0:
498,81,167009,5,2,0:0:0:0:
505,275,167209,2,0,P|390:267|474:188,1,291.199986669923,6|8,0:3|0:1,0:0:0:0:
360,356,167809,5,8,0:2:0:0:
473,187,168009,1,10,0:3:0:0:
273,133,168209,1,8,0:3:0:0:
125,315,168409,6,0,B|82:323|42:306|42:306|59:266|96:244,1,168.000006408692,6|0,0:0|0:0,0:0:0:0:
327,281,168809,2,0,B|355:313|360:356|360:356|317:361|279:341,1,168.000006408692,2|8,0:0|0:1,0:0:0:0:
198,125,169209,2,0,B|212:83|247:57|247:57|273:92|274:134,1,168.000006408692,2|8,0:0|0:3,0:0:0:0:
125,315,169609,5,8,0:0:0:0:
100,319,169709,1,8,0:0:0:0:
75,319,169809,1,8,0:0:0:0:
51,316,169909,1,8,0:0:0:0:
30,303,170009,5,8,0:3:0:0:
43,281,170109,1,8,0:3:0:0:
62,265,170209,1,8,0:3:0:0:
82,249,170309,1,8,0:3:0:0:
105,238,170409,5,4,0:3:0:0:
127,213,170509,1,4,0:3:0:0:
145,184,170609,1,4,0:3:0:0:
147,150,170709,1,4,0:3:0:0:
134,118,170809,5,6,0:0:0:0:
256,19,171009,1,2,0:0:0:0:
376,119,171209,2,0,P|422:138|501:125,1,112,2|0,0:0|0:0,0:0:0:0:
256,19,171609,5,4,0:0:0:0:
376,119,171809,1,10,0:3:0:0:
317,357,172009,2,0,P|307:277|369:226,2,168,6|8|8,0:1|0:3|0:3,0:0:0:0:
501,341,172809,5,10,0:0:0:0:
369,226,173009,1,10,0:3:0:0:
512,64,173209,5,6,0:3:0:0:
473,240,173409,1,2,0:0:0:0:
340,118,173609,6,0,P|288:99|228:106,1,112,2|0,0:0|0:0,0:0:0:0:
132,344,174009,2,0,P|184:363|244:356,1,112,6|0,0:0|0:0,0:0:0:0:
158,38,174409,6,0,B|114:86|139:154|139:154|140:221|77:236,1,224,14|0,0:1|0:3,0:0:0:0:
451,128,175209,6,0,L|317:115,1,112,10|8,0:0|0:3,0:0:0:0:
446,334,175609,2,0,B|485:286|507:178|451:128|451:128|389:152|384:225,1,336,6|8,0:0|0:1,0:0:0:0:
305,358,176409,5,2,0:0:0:0:
203,253,176609,1,2,0:0:0:0:
68,310,176809,2,0,B|58:348|80:367|80:367|105:350|100:285|85:301|72:250|105:200,1,224,10|8,0:3|0:3,0:0:0:0:
377,202,177609,5,10,0:0:0:0:
273,288,177809,1,2,0:0:0:0:
98,213,178009,2,0,B|52:158|52:46|128:20|128:20|180:67|150:138,1,336,6|8,0:0|0:1,0:0:0:0:
39,345,178809,6,0,P|92:298|160:302,1,134.399995898438,2|8,0:0|0:3,0:0:0:0:
459,368,179209,2,0,P|393:366|345:321,1,134.399995898438,6|0,0:0|0:0,0:0:0:0:
303,168,179609,5,8,0:3:0:0:
249,108,179742,1,8,0:3:0:0:
174,82,179875,1,8,0:3:0:0:
95,96,180009,5,4,0:3:0:0:
33,145,180142,1,4,0:3:0:0:
3,219,180275,1,4,0:3:0:0:
11,298,180409,6,0,B|57:365|142:348|142:348|123:317|77:319,2,201.599993847656,6|8|8,0:0|0:3|0:3,0:0:0:0:
33,145,181409,5,2,0:0:0:0:
121,193,181609,2,0,B|196:212|188:166|269:189,1,151.199995385742,10|0,0:1|0:0,0:0:0:0:
291,212,182009,2,0,L|300:321,1,100.799996923828,10|8,0:3|0:3,0:0:0:0:
382,369,182409,1,10,0:3:0:0:
474,328,182609,1,10,0:3:0:0:
399,169,182809,6,0,L|391:270,1,100.799996923828,6|0,0:0|0:0,0:0:0:0:
382,369,183209,1,10,0:3:0:0:
299,312,183409,2,0,P|249:295|190:298,1,100.799996923828,2|8,0:0|0:1,0:0:0:0:
77,355,183809,5,2,0:0:0:0:
39,190,184009,2,0,L|30:89,1,100.799996923828,10|0,0:1|0:0,0:0:0:0:
187,24,184409,5,8,0:3:0:0:
252,101,184609,1,8,0:0:0:0:
39,190,184809,5,10,0:3:0:0:
88,6,185009,1,10,0:0:0:0:
210,192,185209,2,0,P|306:186|352:102,1,201.599993847656,6|8,0:0|0:3,0:0:0:0:
130,317,186009,5,10,0:3:0:0:
210,192,186209,1,2,0:0:0:0:
363,323,186409,2,0,P|459:325|512:244,1,201.599993847656,10|8,0:1|0:3,0:0:0:0:
352,100,187009,5,6,0:3:0:0:
210,192,187209,1,10,0:3:0:0:
201,23,187409,1,10,0:3:0:0:
128,221,187609,6,0,P|149:128|243:110,2,201.599993847656,6|8|8,0:0|0:3|0:3,0:0:0:0:
512,323,188809,6,0,P|408:283|253:300,1,246.400007519531,6|8,0:0|0:3,0:0:0:0:
213,331,189342,1,8,0:3:0:0:
140,339,189475,1,8,0:3:0:0:
71,314,189609,5,4,0:3:0:0:
20,261,189742,1,4,0:3:0:0:
0,191,189875,1,4,0:3:0:0:
8,119,190009,6,0,B|2:44|65:8|65:8|97:36|94:80,1,201.599993847656,6|8,0:0|0:3,0:0:0:0:
140,339,190809,5,10,0:3:0:0:
238,277,191009,1,2,0:0:0:0:
374,345,191209,2,0,P|424:353|471:336,1,100.799996923828,10|0,0:1|0:0,0:0:0:0:
507,186,191609,5,8,0:3:0:0:
414,243,191809,1,4,0:3:0:0:
500,109,192009,5,10,0:3:0:0:
489,261,192209,1,10,0:3:0:0:
338,124,192409,2,0,P|251:89|197:192,1,201.599993847656,6|8,0:0|0:3,0:0:0:0:
414,243,193209,5,10,0:3:0:0:
338,124,193409,1,2,0:3:0:0:
242,286,193609,2,0,P|153:295|72:212,1,201.599993847656,10|8,0:1|0:3,0:0:0:0:
108,54,194209,5,6,0:3:0:0:
188,176,194409,1,10,0:3:0:0:
254,46,194609,1,10,0:3:0:0:
386,185,194809,6,0,P|456:188|504:69,1,201.599993847656,6|8,0:0|0:3,0:0:0:0:
386,185,195409,2,0,P|371:238|402:317,1,100.799996923828,2|8,0:0|0:3,0:0:0:0:
488,359,195809,5,2,0:0:0:0:
386,185,196009,2,0,B|331:146|253:178|285:198|213:231|149:181,1,246.400007519531,14|8,0:0|0:3,0:0:0:0:
0,103,196609,5,6,0:3:0:0:
154,184,196809,2,0,P|179:240|166:299,1,123.200003759766,10|8,0:3|0:3,0:0:0:0:
258,60,197209,6,0,P|320:38|383:57,2,134.399995898438,6|8|8,0:0|0:3|0:3,0:0:0:0:
153,183,197809,2,0,P|90:204|27:185,2,134.399995898438,4|8|8,0:0|0:3|0:3,0:0:0:0:
258,60,198409,5,8,0:0:0:0:
331,42,198542,1,8,0:0:0:0:
404,59,198675,1,8,0:0:0:0:
463,107,198809,5,8,0:3:0:0:
493,176,198942,1,8,0:3:0:0:
489,252,199075,1,8,0:3:0:0:
452,317,199209,5,4,0:3:0:0:
390,360,199342,1,4,0:3:0:0:
315,370,199475,1,4,0:3:0:0:
244,345,199609,6,0,P|163:322|39:361,2,201.599993847656,4|8|8,0:0|0:3|0:1,0:0:0:0:
345,182,200609,5,2,0:0:0:0:
345,182,200709,1,2,0:0:0:0:
345,182,200809,2,0,P|271:249|243:344,1,201.599993847656,6|0,0:0|0:0,0:0:0:0:
193,199,201409,5,10,0:3:0:0:
243,344,201609,2,0,P|292:353|365:329,1,100.799996923828,10|8,0:0|0:3,0:0:0:0:
241,104,202009,6,0,P|191:95|142:105,1,100.799996923828,6|0,0:0|0:0,0:0:0:0:
73,179,202409,1,2,0:0:0:0:
67,204,202509,1,2,0:0:0:0:
61,229,202609,5,0,0:0:0:0:
143,287,202809,1,10,0:0:0:0:
193,199,203009,1,10,0:3:0:0:
307,271,203209,6,0,B|348:287|385:256|385:256|425:247|460:276,1,151.199995385742,2|0,0:1|0:0,0:0:0:0:
468,287,203609,2,0,L|477:164,1,100.799996923828,2|8,0:0|0:3,0:0:0:0:
492,57,204009,2,0,L|503:31,4,25.1999992309571,2|2|2|2|2,0:0|0:0|0:0|0:0|0:0,0:0:0:0:
321,190,204409,6,0,B|218:234|136:135|136:135|171:97|226:105,1,302.399990771485,6|8,0:0|0:3,0:0:0:0:
321,190,205209,2,0,P|333:239|326:289,1,100.799996923828,10|8,0:0|0:3,0:0:0:0:
69,341,205609,6,0,B|32:276|63:203|63:203|98:210|125:249,1,201.599993847656,6|0,0:0|0:0,0:0:0:0:
192,361,206209,1,6,0:3:0:0:
324,287,206409,2,0,P|373:273|423:276,1,100.799996923828,10|8,0:0|0:3,0:0:0:0:
482,78,206809,6,0,P|468:126|471:176,1,100.799996923828,6|0,0:0|0:0,0:0:0:0:
494,355,207209,5,2,0:3:0:0:
324,287,207409,1,2,0:3:0:0:
471,176,207609,5,10,0:0:0:0:
397,350,207809,1,10,0:3:0:0:
345,148,208009,6,0,B|309:84|216:86|216:86|140:140|63:94,1,302.399990771485,2|8,0:3|0:3,0:0:0:0:
0,234,208809,5,10,0:3:0:0:
24,229,208909,1,10,0:3:0:0:
51,230,209009,1,10,0:3:0:0:
75,240,209109,1,8,0:3:0:0:
98,251,209209,6,0,P|146:263|195:248,1,100.799996923828,6|0,0:0|0:0,0:0:0:0:
345,148,209609,2,0,P|392:133|441:145,1,100.799996923828,2|0,0:0|0:0,0:0:0:0:
512,249,210009,5,10,0:0:0:0:
441,145,210209,1,10,0:3:0:0:
339,269,210409,6,0,B|241:324|159:244|159:244|206:199|258:209,1,302.399990771485,6|8,0:0|0:3,0:0:0:0:
339,269,211209,6,0,P|356:316|342:372,1,100.799996923828,10|8,0:3|0:3,0:0:0:0:
91,273,211609,2,0,P|187:259|261:323,1,201.599993847656,6|0,0:0|0:0,0:0:0:0:
0,371,212209,5,10,0:3:0:0:
91,273,212409,2,0,P|107:226|98:177,1,100.799996923828,2|8,0:0|0:3,0:0:0:0:
0,38,212809,6,0,P|49:47|96:31,1,100.799996923828,2|0,0:1|0:0,0:0:0:0:
268,112,213209,2,0,P|221:96|172:106,1,100.799996923828,2|8,0:0|0:3,0:0:0:0:
91,273,213609,5,10,0:0:0:0:
215,192,213809,1,10,0:3:0:0:
350,322,214009,6,0,P|424:332|417:227,1,201.599993847656,6|0,0:0|0:0,0:0:0:0:
214,39,214809,5,2,0:0:0:0:
127,151,215009,1,10,0:3:0:0:
112,155,215109,1,8,0:3:0:0:
97,159,215209,6,0,B|31:177|-16:145|-16:145|11:135|35:144,1,151.199995385742,10|0,0:1|0:0,0:0:0:0:
97,159,215609,2,0,P|108:206|96:262,1,100.799996923828,2|8,0:0|0:3,0:0:0:0:
0,354,216009,5,10,0:3:0:0:
98,256,216209,1,10,0:3:0:0:
265,338,216409,6,0,B|365:371|356:295|468:334,2,201.599993847656,6|10|8,0:2|0:3|0:3,0:0:0:0:
301,35,217609,6,0,P|311:134|311:208,1,151.199995385742,10|0,0:1|0:0,0:0:0:0:
297,207,218009,2,0,L|185:199,1,100.799996923828,2|8,0:0|0:3,0:0:0:0:
78,55,218409,2,0,L|178:47,1,100.799996923828,2|0,0:0|0:0,0:0:0:0:
405,84,218809,5,6,0:0:0:0:
297,207,219009,2,0,P|287:264|320:324,1,100.799996923828,2|8,0:0|0:3,0:0:0:0:
478,323,219409,5,4,0:0:0:0:
397,249,219609,1,8,0:3:0:0:
301,303,219809,1,8,0:3:0:0:
186,254,220009,5,8,0:3:0:0:
165,251,220109,1,8,0:3:0:0:
145,256,220209,1,8,0:3:0:0:
128,267,220309,1,8,0:3:0:0:
116,283,220409,5,4,0:3:0:0:
95,297,220509,1,4,0:3:0:0:
70,300,220609,1,4,0:3:0:0:
45,294,220709,1,4,0:3:0:0:
25,278,220809,5,8,0:0:0:0:
26,247,220909,1,8,0:0:0:0:
27,216,221009,1,8,0:0:0:0:
28,185,221109,1,8,0:0:0:0:
28,185,222009,6,2,B|90:230|152:187|152:187|166:252|228:296|228:296|289:257|303:190,1,403.199987695313,6|2,0:1|0:1,0:0:0:0:
303,190,224009,5,2,0:0:0:0:
303,190,224409,6,0,B|355:146|359:70|359:70|355:146|400:192|400:192|358:257|396:323,1,403.199987695313,2|2,0:1|0:1,0:0:0:0:
394,319,226409,5,2,0:0:0:0:
250,122,226809,6,0,B|207:113|166:131|166:131|184:171|218:193,1,168,12|0,0:0|0:0,0:0:0:0:
336,129,227209,6,0,B|330:81|298:45|298:45|262:77|250:122,1,184.800005639649,10|0,0:0|0:0,0:0:0:0:
354,222,227609,6,0,B|401:199|429:153|429:153|383:126|336:129,1,201.599993847656,10|0,0:0|0:0,0:0:0:0:
268,275,228009,6,0,B|306:316|362:328|362:328|374:272|354:222,1,218.399990002442,12|0,0:0|0:0,0:0:0:0:
177,211,228409,6,0,B|151:256|157:321|157:321|222:314|268:275,1,235.199992822266,10|0,0:0|0:0,0:0:0:0:
225,104,228809,6,0,B|160:91|99:118|99:118|126:179|178:211,1,252.000009613037,10|0,0:0|0:0,0:0:0:0:
268,275,229209,6,0,P|180:210|181:319,1,268.8,12|0,0:0|0:0,0:0:0:0:
337,341,229609,6,0,P|369:237|268:275,1,268.8,12|0,0:0|0:0,0:0:0:0:
256,358,230009,5,8,0:1:0:0:
256,358,230209,1,8,0:1:0:0:
180,318,230409,6,0,B|128:278|76:316|76:316|29:272|49:209|49:209|38:237|13:251,1,280,2|0,0:1|0:0,0:0:0:0:
127,379,231609,5,6,0:0:0:0:
207,227,231809,1,2,0:0:0:0:
376,260,232009,2,0,P|434:266|499:240,1,112,2|0,0:0|0:0,0:0:0:0:
306,77,232409,5,4,0:0:0:0:
207,227,232609,1,10,0:3:0:0:
78,59,232809,2,0,P|154:40|194:108,2,168,6|8|8,0:1|0:3|0:3,0:0:0:0:
95,255,233609,5,10,0:0:0:0:
194,107,233809,1,10,0:3:0:0:
0,199,234009,5,6,0:3:0:0:
78,59,234209,1,2,0:0:0:0:
194,213,234409,6,0,P|245:232|306:212,1,112,2|0,0:0|0:0,0:0:0:0:
466,64,234809,2,0,P|414:44|361:59,1,112,6|0,0:0|0:0,0:0:0:0:
414,295,235209,6,0,B|442:256|447:171|409:134|409:134|393:159|403:196,1,224,14|0,0:1|0:3,0:0:0:0:
35,317,236009,5,10,0:0:0:0:
71,184,236209,1,10,0:3:0:0:
190,331,236409,2,0,P|42:328|73:184,1,336,6|8,0:0|0:1,0:0:0:0:
190,331,237209,5,2,0:0:0:0:
209,196,237409,1,2,0:0:0:0:
155,71,237609,2,0,P|56:84|71:184,1,224,10|8,0:3|0:3,0:0:0:0:
301,294,238409,5,10,0:0:0:0:
340,174,238609,1,2,0:0:0:0:
502,316,238809,2,0,B|402:397|301:295|301:295|355:252|407:269,1,336,6|8,0:0|0:1,0:0:0:0:
512,152,239609,6,0,P|536:93|500:28,1,134.399995898438,2|8,0:0|0:3,0:0:0:0:
340,174,240009,2,0,P|310:115|334:54,1,134.399995898438,2|0,0:0|0:0,0:0:0:0:
354,49,240309,1,8,0:0:0:0:
373,44,240409,6,0,L|513:33,1,134.399995898438,10|0,0:0|0:0,0:0:0:0:
502,316,240809,2,0,L|368:305,1,134.399995898438,10|8,0:3|0:3,0:0:0:0:
157,84,241209,5,6,0:0:0:0:
157,84,242009,5,2,0:0:0:0:
157,84,242209,1,2,0:0:0:0:
256,288,242409,1,4,0:1:0:0:
355,84,243209,5,2,0:0:0:0:
355,84,243409,1,2,0:0:0:0:
256,288,243609,1,4,0:0:0:0:
256,288,244009,5,8,0:3:0:0:
115,186,244209,2,0,B|118:124|158:84|158:84|200:123|205:186,1,224,4|8,0:0|0:3,0:0:0:0:
147,329,244809,6,0,P|89:346|29:315,1,119.466666666667,4|8,0:0|0:0,0:0:0:0:
16,248,245209,5,8,0:3:0:0:
14,169,245342,1,8,0:3:0:0:
32,92,245475,1,8,0:3:0:0:
69,22,245609,5,4,0:3:0:0:
110,89,245742,1,4,0:3:0:0:
132,164,245875,1,4,0:3:0:0:
133,242,246009,6,0,P|129:290|126:323,2,56,2|2|2,0:1|0:0|0:0,0:0:0:0:
362,141,246809,5,2,0:0:0:0:
376,146,247009,1,2,0:0:0:0:
390,151,247209,2,0,P|438:155|471:158,2,56,2|2|2,0:1|0:0|0:0,0:0:0:0:
262,352,248009,5,2,0:0:0:0:
257,338,248209,1,2,0:0:0:0:
252,325,248409,2,0,B|253:291|281:267|281:267|285:235|260:204|260:204|288:186|298:153|298:153|291:115|246:97,1,268.799991796875,2|0,0:0|0:0,0:0:0:0:
37,60,250409,6,0,P|65:57|114:47,1,56,2|0,0:0|0:0,0:0:0:0:
256,101,250809,6,0,B|342:82|334:131|420:112,1,168.000006408692,4|0,0:0|0:0,0:0:0:0:
506,31,251409,1,2,0:0:0:0:
420,111,251609,2,0,P|409:169|418:216,1,84.0000032043458,2|8,0:0|0:3,0:0:0:0:
501,359,252009,6,0,P|434:306|355:303,1,168.000006408692,10|0,0:1|0:0,0:0:0:0:
199,353,252609,1,6,0:3:0:0:
135,177,252809,5,6,0:0:0:0:
199,353,253009,1,2,0:0:0:0:
9,198,253209,6,0,P|64:142|135:177,1,168.000006408692,6|0,0:0|0:0,0:0:0:0:
185,244,253809,1,2,0:0:0:0:
264,278,254009,1,2,0:0:0:0:
349,267,254209,1,2,0:0:0:0:
423,178,254409,6,0,P|401:272|340:174,1,252.000009613037,10|8,0:1|0:3,0:0:0:0:
398,46,255209,5,2,0:0:0:0:
423,178,255409,1,2,0:0:0:0:
281,65,255609,6,0,P|209:40|99:52,1,168.000006408692,6|0,0:0|0:0,0:0:0:0:
17,107,256209,1,2,0:0:0:0:
118,45,256409,2,0,P|136:96|133:137,1,84.0000032043458,2|0,0:0|0:0,0:0:0:0:
10,289,256809,6,0,P|56:224|136:231,1,168.000006408692,10|0,0:1|0:0,0:0:0:0:
287,298,257409,1,6,0:3:0:0:
91,298,257609,5,14,0:0:0:0:
287,298,257809,1,2,0:0:0:0:
264,45,258009,6,0,P|198:91|205:171,2,168.000006408692,6|2|2,0:0|0:0|0:0,0:0:0:0:
242,354,259209,6,0,P|180:361|119:327,1,112.000004272461,10|0,0:1|0:0,0:0:0:0:
79,288,259609,5,8,0:3:0:0:
53,215,259742,1,8,0:3:0:0:
63,138,259876,1,8,0:3:0:0:
107,74,260009,5,4,0:3:0:0:
175,37,260142,1,4,0:3:0:0:
253,35,260276,1,4,0:3:0:0:
322,69,260409,6,0,P|403:83|473:38,1,168.000006408692,6|0,0:0|0:0,0:0:0:0:
457,156,261009,1,2,0:0:0:0:
471,39,261209,2,0,P|430:18|386:9,1,84.0000032043458,2|0,0:0|0:0,0:0:0:0:
248,159,261609,6,0,B|228:196|252:240|252:240|262:292|207:318,1,168.000006408692,10|0,0:1|0:0,0:0:0:0:
79,310,262209,1,6,0:3:0:0:
26,131,262409,5,6,0:0:0:0:
79,310,262609,1,10,0:3:0:0:
248,159,262809,6,0,B|337:137|321:193|411:174,1,168.000006408692,6|0,0:0|0:0,0:0:0:0:
486,138,263409,1,2,0:0:0:0:
493,56,263609,1,2,0:0:0:0:
425,9,263809,1,2,0:0:0:0:
290,65,264009,6,0,P|223:70|166:47,1,112.000004272461,10|0,0:1|0:0,0:0:0:0:
103,52,264409,5,8,0:0:0:0:
35,89,264542,1,8,0:0:0:0:
0,155,264675,1,8,0:0:0:0:
0,232,264809,5,8,0:3:0:0:
34,299,264942,1,8,0:3:0:0:
102,336,265075,1,8,0:3:0:0:
180,333,265209,6,0,P|253:319|326:338,1,126.000004806519,4|0,0:0|0:0,0:0:0:0:
328,344,265609,2,0,P|334:295|338:256,1,84.0000032043458,2|8,0:0|0:3,0:0:0:0:
288,67,266009,2,0,P|292:108|297:150,1,84.0000032043458,2|8,0:0|0:3,0:0:0:0:
479,278,266409,6,0,P|417:245|355:246,1,126.000004806519,10|0,0:1|0:0,0:0:0:0:
337,260,266809,2,0,P|294:258|246:251,1,84.0000032043458,10|0,0:3|0:0,0:0:0:0:
121,151,267209,5,10,0:3:0:0:
253,252,267409,1,10,0:3:0:0:
120,344,267609,6,0,P|29:316|89:242,1,224,4|8,0:1|0:3,0:0:0:0:
392,344,268209,2,0,P|441:352|499:317,1,112,4|0,0:2|0:0,0:0:0:0:
375,25,268609,6,0,P|367:81|361:170,1,112,4|0,0:0|0:0,0:0:0:0:
398,206,268942,1,8,0:1:0:0:
356,273,269075,1,8,0:1:0:0:
276,270,269209,5,8,0:0:0:0:
238,199,269342,1,8,0:0:0:0:
280,130,269475,1,8,0:0:0:0:
318,202,269609,5,8,0:0:0:0:
276,270,269742,1,8,0:3:0:0:
196,268,269875,1,8,0:3:0:0:
158,196,270009,5,6,0:1:0:0:
158,196,270609,1,2,0:0:0:0:
200,127,270809,1,2,0:0:0:0:
196,268,271209,6,0,P|140:275|88:237,1,112,2|0,0:1|0:0,0:0:0:0:
84,168,271809,1,2,0:0:0:0:
87,154,271909,1,2,0:0:0:0:
90,140,272009,2,0,L|95:73,1,56,2|2,0:1|0:0,0:0:0:0:
207,32,272409,6,0,P|240:23|286:27,2,56,2|2|2,0:1|0:0|0:1,0:0:0:0:
174,104,273009,5,2,0:1:0:0:
182,183,273209,1,2,0:0:0:0:
228,247,273409,1,2,0:0:0:0:
261,176,273609,6,0,P|319:158|380:182,1,112,6|0,0:3|0:0,0:0:0:0:
454,301,274409,5,2,0:1:0:0:
394,247,274609,1,2,0:0:0:0:
366,172,274809,2,0,L|362:96,2,56,2|2|2,0:1|0:0|0:0,0:0:0:0:
315,233,275409,5,2,0:0:0:0:
287,158,275609,2,0,L|283:82,1,56,2|0,0:1|0:0,0:0:0:0:
401,28,276009,6,0,P|350:39|290:16,1,112,6|0,0:3|0:0,0:0:0:0:
221,49,276609,1,2,0:0:0:0:
207,49,276709,1,2,0:0:0:0:
193,49,276809,2,0,P|161:38|133:38,1,56,2|2,0:1|0:0,0:0:0:0:
46,22,277209,6,0,P|56:48|64:75,1,56,2|0,0:1|0:0,0:0:0:0:
103,143,277609,2,0,P|98:170|91:197,1,56,2|0,0:1|0:0,0:0:0:0:
91,275,278009,2,0,P|73:296|53:316,1,56,2|0,0:1|0:0,0:0:0:0:
175,357,278409,6,0,P|204:338|295:338,1,112,6|0,0:3|0:0,0:0:0:0:
446,371,279209,5,2,0:0:0:0:
473,297,279409,1,2,0:0:0:0:
416,199,279609,5,6,0:2:0:0:
416,199,280209,1,2,0:1:0:0:
347,236,280409,2,0,P|314:237|276:222,1,56,2|0,0:1|0:0,0:0:0:0:
234,175,280809,6,0,B|224:159|222:140|222:140|242:108|226:65,1,112,2|0,0:1|0:0,0:0:0:0:
154,39,281409,1,2,0:0:0:0:
140,40,281509,1,2,0:0:0:0:
126,40,281609,2,0,L|61:33,1,56,2|2,0:1|0:0,0:0:0:0:
18,102,282009,6,0,P|5:77|-14:54,2,56,2|2|2,0:1|0:0|0:1,0:0:0:0:
19,180,282609,5,2,0:1:0:0:
47,253,282809,1,2,0:0:0:0:
98,312,283009,1,2,0:0:0:0:
166,349,283209,6,0,P|213:329|276:335,1,112,2|0,0:1|0:0,0:0:0:0:
424,351,284009,5,2,0:0:0:0:
350,327,284209,1,2,0:0:0:0:
303,260,284409,6,0,P|299:232|304:205,1,56,2|0,0:1|0:0,0:0:0:0:
245,155,284809,2,0,P|267:137|294:128,1,56,2|0,0:1|0:0,0:0:0:0:
306,52,285209,2,0,P|332:62|353:80,1,56,0|0,0:1|0:0,0:0:0:0:
395,205,285609,6,0,P|445:225|497:207,2,112,2|2|2,0:1|0:1|0:1,0:0:0:0:
306,52,286809,6,0,P|280:45|229:45,1,56,2|0,0:2|0:0,0:0:0:0:
179,75,287209,2,0,P|151:73|124:65,1,56,2|0,0:1|0:0,0:0:0:0:
53,31,287609,5,2,0:0:0:0:
59,109,287809,1,2,0:0:0:0:
32,182,288009,2,0,P|25:239|37:293,1,112,2|0,0:1|0:0,0:0:0:0:
424,334,288962,5,2,0:0:0:0:
475,275,289253,1,2,0:0:0:0:
489,198,289565,1,2,0:1:0:0:
463,124,289848,1,2,0:0:0:0:
403,74,290160,5,2,0:1:0:0:
390,151,290462,1,2,0:0:0:0:
340,210,290781,6,0,P|301:217|265:202,1,78.399997607422,2|2,0:0|0:0,0:0:0:0:
169,122,291367,5,2,0:0:0:0:
169,122,291474,1,2,0:1:0:0:
145,246,291836,5,2,0:0:0:0:
265,202,292220,1,2,0:0:0:0:
471,344,293444,5,2,0:0:0:0:
463,61,295065,5,2,0:0:0:0:
463,61,295178,1,2,0:0:0:0:
309,133,295803,6,0,P|281:136|241:121,2,67.1999979492188,2|2|2,0:0|0:0|0:0,0:0:0:0:
373,89,296604,5,2,0:0:0:0:
444,123,296793,1,2,0:0:0:0:
385,252,297060,5,2,0:0:0:0:
309,133,297372,1,2,0:0:0:0:
244,259,297639,1,2,0:0:0:0:
167,139,297979,5,2,0:1:0:0:
309,133,298305,1,2,0:1:0:0:
102,265,299074,5,2,0:0:0:0:
309,133,300364,6,0,L|311:118,4,14,6|0|0|0|0,0:3|0:0|0:0|0:0|0:0,0:0:0:0:
