osu file format v14

[General]
AudioFilename: audio.mp3
AudioLeadIn: 0
PreviewTime: 80809
Countdown: 1
SampleSet: Soft
StackLeniency: 0.2
Mode: 0
LetterboxInBreaks: 0
WidescreenStoryboard: 1

[Editor]
DistanceSpacing: 2.2
BeatDivisor: 4
GridSize: 32
TimelineZoom: 1.8

[Metadata]
Title:Liblume
TitleUnicode:Liblume
Artist:Shimotsuki Haruka
ArtistUnicode:霜月はるか
Creator:Lasse
Version:Devotion
Source:生命のスペア
Tags:i was born for you inochi no spare full version musubine ribbon 結び音リボン ~Sora no Oto~ visual novel eroge
BeatmapID:1273457
BeatmapSetID:602903

[Difficulty]
HPDrainRate:6
CircleSize:6
OverallDifficulty:8
ApproachRate:8
SliderMultiplier:1
SliderTickRate:1

[Events]
//Background and Video events
0,0,"bg.jpg",0,0
//Break Periods
//Storyboard Layer 0 (Background)
//Storyboard Layer 1 (Fail)
//Storyboard Layer 2 (Pass)
//Storyboard Layer 3 (Foreground)
//Storyboard Sound Samples

[TimingPoints]
409,400,3,2,43,15,1,0
409,-133.333333333333,3,2,43,15,0,0
7609,-133.333333333333,3,2,1,20,0,0
8009,-133.333333333333,3,2,1,23,0,0
8409,-133.333333333333,3,2,1,26,0,0
8809,-133.333333333333,3,2,2,29,0,0
9609,-200,3,2,1,30,0,0
10009,-133.333333333333,3,2,1,45,0,0
17209,-166.666666666667,3,2,1,40,0,0
17609,-166.666666666667,3,2,1,10,0,0
18009,-166.666666666667,3,2,1,20,0,0
18209,-166.666666666667,3,2,31,30,0,0
18409,-166.666666666667,3,2,31,32,0,0
19209,-200,3,2,1,30,0,0
19609,-200,3,2,43,20,0,0
20009,-200,3,2,43,10,0,0
20209,-200,3,2,43,20,0,0
27809,-200,3,2,43,15,0,0
28009,-200,3,2,43,20,0,0
29609,-200,3,2,43,10,0,0
29809,-200,3,2,43,20,0,0
32609,-200,3,2,43,15,0,0
32809,-200,3,2,43,20,0,0
34409,-200,3,2,43,10,0,0
34609,-200,3,2,43,20,0,0
35609,-200,3,2,43,10,0,0
36009,-200,3,2,43,20,0,0
38209,-200,3,2,1,30,0,0
38409,-200,3,2,56,33,0,0
38609,-200,3,2,56,35,0,0
38809,-166.666666666667,3,2,1,35,0,0
39109,-166.666666666667,3,2,99,5,0,0
39209,-166.666666666667,3,2,1,35,0,0
41509,-166.666666666667,3,2,99,5,0,0
41609,-166.666666666667,3,2,1,35,0,0
43009,-166.666666666667,3,2,1,20,0,0
43209,-166.666666666667,3,2,1,35,0,0
43909,-166.666666666667,3,2,99,5,0,0
44009,-166.666666666667,3,2,1,35,0,0
45409,-166.666666666667,3,2,1,20,0,0
45609,-166.666666666667,3,2,1,35,0,0
47509,-166.666666666667,3,2,99,5,0,0
47609,-166.666666666667,3,2,1,35,0,0
48709,-166.666666666667,3,2,99,5,0,0
48809,-166.666666666667,3,2,1,35,0,0
50209,-166.666666666667,3,2,1,20,0,0
50409,-166.666666666667,3,2,1,35,0,0
51109,-166.666666666667,3,2,99,5,0,0
51209,-166.666666666667,3,2,1,35,0,0
52609,-166.666666666667,3,2,1,20,0,0
52809,-166.666666666667,3,2,1,35,0,0
53509,-166.666666666667,3,2,99,5,0,0
53609,-166.666666666667,3,2,1,35,0,0
55909,-166.666666666667,3,2,99,5,0,0
56009,-166.666666666667,3,2,1,35,0,0
57209,-166.666666666667,3,2,1,25,0,0
57609,-166.666666666667,3,2,1,15,0,0
58009,-250,3,2,43,20,0,0
67009,-250,3,2,1,23,0,0
67209,-250,3,2,56,25,0,0
67409,-250,3,2,56,28,0,0
67609,-166.666666666667,3,2,1,35,0,0
72009,-166.666666666667,3,2,1,28,0,0
72309,-166.666666666667,3,2,99,5,0,0
72409,-125,3,2,1,33,0,0
72609,-125,3,2,99,15,0,0
72809,-125,3,2,1,33,0,0
73009,-125,3,2,99,15,0,0
73209,-125,3,2,1,33,0,0
73409,-125,3,2,99,15,0,0
73609,-125,3,2,1,33,0,0
73809,-125,3,2,99,15,0,0
74009,-125,3,2,1,33,0,0
74209,-125,3,2,99,15,0,0
74409,-125,3,2,1,33,0,0
74609,-125,3,2,99,15,0,0
74809,-125,3,2,1,35,0,0
75009,-125,3,2,99,15,0,0
75209,-125,3,2,1,35,0,0
75409,-125,3,2,99,15,0,0
75609,-125,3,2,1,35,0,0
75809,-125,3,2,99,15,0,0
76009,-125,3,2,1,35,0,0
76209,-125,3,2,99,15,0,0
76409,-125,3,2,1,37,0,0
76609,-125,3,2,99,15,0,0
76809,-125,3,2,1,37,0,0
77009,-125,3,2,99,15,0,0
77209,-125,3,2,1,37,0,0
77409,-125,3,2,99,15,0,0
77609,-125,3,2,1,33,0,0
78409,-125,3,2,1,36,0,0
78809,-125,3,2,1,33,0,0
79609,-142.857142857143,3,2,2,37,0,0
79659,-142.857142857143,3,2,99,5,0,0
81209,-117.647058823529,3,2,1,30,0,0
81609,-117.647058823529,3,2,1,40,0,0
82009,-100,3,2,1,50,0,1
86009,-100,3,2,1,30,0,1
86142,-100,3,2,56,40,0,1
86409,-100,3,2,56,45,0,1
86809,-100,3,2,1,50,0,1
87409,-86.9565217391304,3,2,1,50,0,1
88009,-76.9230769230769,3,2,1,50,0,1
89209,-66.6666666666667,3,2,68,50,0,1
89409,-66.6666666666667,3,2,68,25,0,1
89609,-66.6666666666667,3,2,1,50,0,1
89809,-66.6666666666667,3,2,1,25,0,1
90009,-66.6666666666667,3,2,1,50,0,1
90209,-66.6666666666667,3,2,1,25,0,1
90409,-66.6666666666667,3,2,1,40,0,1
90809,-66.6666666666667,3,2,56,42,0,1
91209,-66.6666666666667,3,2,56,44,0,1
91509,-100,3,2,56,44,0,0
91609,-100,3,2,1,50,0,1
96009,-100,3,2,1,45,0,1
96809,-100,3,2,1,15,0,1
97009,-100,3,2,1,45,0,1
99209,-100,3,2,1,15,0,1
99409,-100,3,2,1,45,0,1
99609,-83.3333333333333,3,2,1,45,0,1
99809,-83.3333333333333,3,2,1,20,0,1
100009,-83.3333333333333,3,2,1,45,0,1
100309,-83.3333333333333,3,2,1,30,0,1
100409,-83.3333333333333,3,2,1,40,0,1
101209,-200,3,2,1,50,0,0
102009,-200,3,2,1,30,0,0
102409,-200,3,2,1,45,0,0
103209,-200,3,2,1,30,0,0
103609,-200,3,2,1,45,0,0
104009,-200,3,2,1,40,0,0
104209,-100,3,2,68,45,0,0
104609,-100,3,2,1,45,0,0
104809,-125,3,2,1,40,0,0
105075,-125,3,2,1,25,0,0
105209,-125,3,2,56,35,0,0
105609,-125,3,2,56,30,0,0
106009,-200,3,2,43,15,0,0
108409,-200,3,2,1,20,0,0
108809,-200,3,2,1,15,0,0
109609,-200,3,2,1,10,0,0
110009,-200,3,2,99,5,0,0
110409,-200,3,2,1,30,0,0
110809,-133.333333333333,3,2,1,45,0,0
118009,-166.666666666667,3,2,1,40,0,0
118409,-166.666666666667,3,2,1,10,0,0
118809,-166.666666666667,3,2,1,20,0,0
119009,-166.666666666667,3,2,31,30,0,0
119209,-166.666666666667,3,2,31,32,0,0
119809,-200,3,2,1,30,0,0
120009,-200,3,2,56,33,0,0
120209,-200,3,2,56,35,0,0
120409,-166.666666666667,3,2,1,35,0,0
120709,-166.666666666667,3,2,99,5,0,0
120809,-166.666666666667,3,2,1,35,0,0
123109,-166.666666666667,3,2,99,5,0,0
123209,-166.666666666667,3,2,1,35,0,0
124609,-166.666666666667,3,2,1,20,0,0
124809,-166.666666666667,3,2,1,35,0,0
125509,-166.666666666667,3,2,99,5,0,0
125609,-166.666666666667,3,2,1,35,0,0
127009,-166.666666666667,3,2,1,20,0,0
127209,-166.666666666667,3,2,1,35,0,0
130309,-166.666666666667,3,2,99,5,0,0
130409,-166.666666666667,3,2,1,35,0,0
131809,-166.666666666667,3,2,1,20,0,0
132009,-166.666666666667,3,2,1,35,0,0
132709,-166.666666666667,3,2,99,5,0,0
132809,-166.666666666667,3,2,1,35,0,0
134209,-166.666666666667,3,2,1,20,0,0
134409,-166.666666666667,3,2,1,35,0,0
135109,-166.666666666667,3,2,99,5,0,0
135209,-166.666666666667,3,2,1,35,0,0
137509,-166.666666666667,3,2,99,5,0,0
137609,-166.666666666667,3,2,1,35,0,0
139609,-250,3,2,43,20,0,0
144409,-250,3,2,44,20,0,0
144809,-250,3,2,43,20,0,0
148609,-250,3,2,1,23,0,0
148809,-250,3,2,56,25,0,0
149009,-250,3,2,56,28,0,0
149209,-166.666666666667,3,2,1,35,0,0
149609,-166.666666666667,3,2,1,10,0,0
149809,-166.666666666667,3,2,1,35,0,0
152209,-166.666666666667,3,2,1,20,0,0
152409,-166.666666666667,3,2,1,35,0,0
152609,-166.666666666667,3,2,1,20,0,0
152809,-166.666666666667,3,2,1,35,0,0
153209,-166.666666666667,3,2,1,20,0,0
153409,-166.666666666667,3,2,1,35,0,0
153609,-166.666666666667,3,2,56,28,0,0
153809,-166.666666666667,3,2,56,24,0,0
154009,-125,3,2,1,33,0,0
154209,-125,3,2,99,15,0,0
154409,-125,3,2,1,33,0,0
154609,-125,3,2,99,15,0,0
154809,-125,3,2,1,33,0,0
155009,-125,3,2,99,15,0,0
155209,-125,3,2,1,33,0,0
155409,-125,3,2,99,15,0,0
155609,-125,3,2,1,33,0,0
155809,-125,3,2,99,15,0,0
156009,-125,3,2,1,33,0,0
156209,-125,3,2,99,15,0,0
156409,-125,3,2,1,35,0,0
156609,-125,3,2,99,15,0,0
156809,-125,3,2,1,35,0,0
157009,-125,3,2,99,15,0,0
157209,-125,3,2,1,35,0,0
157409,-125,3,2,99,15,0,0
157609,-125,3,2,1,35,0,0
157809,-125,3,2,99,15,0,0
158009,-125,3,2,1,37,0,0
158209,-125,3,2,99,15,0,0
158409,-125,3,2,1,37,0,0
158609,-125,3,2,99,15,0,0
158809,-111.111111111111,3,2,1,40,0,0
159009,-125,3,2,99,15,0,0
159209,-125,3,2,1,30,0,0
159409,-111.111111111111,3,2,1,40,0,0
159609,-111.111111111111,3,2,1,20,0,0
159809,-111.111111111111,3,2,1,30,0,0
160009,-111.111111111111,3,2,56,33,0,0
160409,-111.111111111111,3,2,56,36,0,0
160809,-133.333333333333,3,2,1,40,0,0
161009,-133.333333333333,3,2,1,15,0,0
161209,-100,3,2,1,50,0,1
165209,-100,3,2,1,30,0,1
165342,-100,3,2,56,40,0,1
165609,-100,3,2,56,45,0,1
166009,-100,3,2,1,50,0,1
166609,-86.9565217391304,3,2,1,50,0,1
167209,-76.9230769230769,3,2,1,50,0,1
168409,-66.6666666666667,3,2,68,50,0,1
168609,-66.6666666666667,3,2,68,25,0,1
168809,-66.6666666666667,3,2,1,50,0,1
169009,-66.6666666666667,3,2,1,25,0,1
169209,-66.6666666666667,3,2,1,50,0,1
169409,-66.6666666666667,3,2,1,25,0,1
169609,-66.6666666666667,3,2,1,40,0,1
170009,-66.6666666666667,3,2,56,42,0,1
170409,-66.6666666666667,3,2,56,44,0,1
170709,-100,3,2,56,44,0,0
170809,-100,3,2,1,50,0,1
175209,-100,3,2,1,45,0,1
176009,-100,3,2,1,15,0,1
176209,-100,3,2,1,45,0,1
178409,-100,3,2,1,15,0,1
178609,-100,3,2,1,45,0,1
178809,-83.3333333333333,3,2,1,45,0,1
179609,-83.3333333333333,3,2,56,40,0,1
180409,-111.111111111111,3,2,1,40,0,0
181909,-111.111111111111,3,2,99,5,0,0
182009,-111.111111111111,3,2,1,40,0,0
188809,-90.9090909090908,3,2,1,40,0,0
189209,-90.9090909090908,3,2,1,20,0,0
189342,-90.9090909090908,3,2,56,40,0,0
190009,-111.111111111111,3,2,1,40,0,0
196009,-90.9090909090908,3,2,1,40,0,0
197209,-83.3333333333333,3,2,1,40,0,0
198809,-83.3333333333333,3,2,56,40,0,0
199609,-111.111111111111,3,2,1,40,0,0
203509,-111.111111111111,3,2,99,5,0,0
203609,-111.111111111111,3,2,1,40,0,0
204059,-111.111111111111,3,2,99,15,0,0
204409,-111.111111111111,3,2,1,40,0,0
204809,-111.111111111111,3,2,1,15,0,0
205009,-111.111111111111,3,2,1,40,0,0
208409,-111.111111111111,3,2,1,15,0,0
208609,-111.111111111111,3,2,1,40,0,0
210809,-111.111111111111,3,2,1,15,0,0
211009,-111.111111111111,3,2,1,40,0,0
213409,-111.111111111111,3,2,1,30,0,0
213609,-111.111111111111,3,2,1,40,0,0
215509,-111.111111111111,3,2,99,5,0,0
215609,-111.111111111111,3,2,1,40,0,0
215809,-111.111111111111,3,2,1,30,0,0
216009,-111.111111111111,3,2,1,40,0,0
217909,-111.111111111111,3,2,99,5,0,0
218009,-111.111111111111,3,2,1,40,0,0
218209,-111.111111111111,3,2,1,30,0,0
218409,-111.111111111111,3,2,1,43,0,0
218609,-111.111111111111,3,2,1,38,0,0
218809,-111.111111111111,3,2,1,43,0,0
219009,-111.111111111111,3,2,1,37,0,0
219209,-111.111111111111,3,2,1,34,0,0
219409,-111.111111111111,3,2,1,43,0,0
219609,-111.111111111111,3,2,1,40,0,0
220009,-111.111111111111,3,2,56,30,0,0
220409,-111.111111111111,3,2,56,34,0,0
220809,-111.111111111111,3,2,1,38,0,0
222009,400,3,2,1,35,1,0
222009,-133.333333333333,3,2,1,35,0,0
222109,-133.333333333333,3,2,1,25,0,0
223209,-133.333333333333,3,2,2,25,0,0
224009,-133.333333333333,3,2,1,25,0,0
224409,-133.333333333333,3,2,1,30,0,0
224609,-133.333333333333,3,2,1,25,0,0
225609,-133.333333333333,3,2,2,25,0,0
226409,-133.333333333333,3,2,1,25,0,0
226809,-83.3333333333333,3,2,77,35,0,0
227109,-200,3,2,99,5,0,0
227209,-76.9230769230769,3,2,77,36,0,0
227509,-200,3,2,99,5,0,0
227609,-71.4285714285714,3,2,77,37,0,0
227909,-200,3,2,99,5,0,0
228009,-66.6666666666667,3,2,77,38,0,0
228309,-200,3,2,99,5,0,0
228409,-62.5,3,2,77,39,0,0
228709,-200,3,2,99,5,0,0
228809,-58.8235294117647,3,2,77,40,0,0
229109,-200,3,2,99,5,0,0
229209,-55.5555555555556,3,2,77,42,0,0
229509,-200,3,2,99,5,0,0
229609,-52.6315789473684,3,2,77,44,0,0
229909,-200,3,2,99,5,0,0
230009,-50,3,2,1,46,0,0
230209,-50,3,2,1,40,0,0
230409,-200,3,2,1,25,0,0
230609,-200,3,2,1,15,0,0
231609,-100,3,2,1,50,0,1
236009,-100,3,2,1,45,0,1
236809,-100,3,2,1,15,0,1
237009,-100,3,2,1,45,0,1
239209,-100,3,2,1,15,0,1
239409,-100,3,2,1,45,0,1
239609,-83.3333333333333,3,2,1,45,0,1
239809,-83.3333333333333,3,2,1,20,0,1
240009,-83.3333333333333,3,2,1,45,0,1
240309,-83.3333333333333,3,2,1,30,0,1
240409,-83.3333333333333,3,2,1,40,0,1
241209,-100,3,2,1,50,0,0
242009,-200,3,2,1,30,0,0
242409,-200,3,2,1,45,0,0
243209,-200,3,2,1,30,0,0
243609,-200,3,2,1,45,0,0
244009,-200,3,2,1,40,0,0
244209,-100,3,2,1,45,0,0
244809,-125,3,2,1,40,0,0
245075,-125,3,2,1,30,0,0
245209,-125,3,2,56,35,0,0
245609,-125,3,2,56,30,0,0
246009,-200,3,2,43,15,0,0
248409,-200,3,2,1,20,0,0
248809,-200,3,2,1,15,0,0
249609,-200,3,2,1,10,0,0
250009,-200,3,2,99,5,0,0
250409,-200,3,2,1,30,0,0
250809,-133.333333333333,3,2,1,45,0,0
254809,-133.333333333333,3,2,1,10,0,0
255009,-133.333333333333,3,2,1,45,0,0
259609,-133.333333333333,3,2,56,45,0,0
260409,-133.333333333333,3,2,1,45,0,0
264809,-133.333333333333,3,2,56,45,0,0
265209,-133.333333333333,3,2,1,45,0,0
265509,-133.333333333333,3,2,99,5,0,0
265609,-133.333333333333,3,2,1,45,0,0
266709,-133.333333333333,3,2,99,5,0,0
266809,-133.333333333333,3,2,1,45,0,0
267609,-100,3,2,1,40,0,0
268209,-100,3,2,1,44,0,0
268409,-100,3,2,1,30,0,0
268609,-100,3,2,68,46,0,0
268809,-100,3,2,1,30,0,0
268942,-100,3,2,1,40,0,0
269209,-100,3,2,1,36,0,0
269609,-100,3,2,1,40,0,0
269742,-100,3,2,56,40,0,0
270009,-200,3,2,2,30,0,0
270609,-200,3,2,1,23,0,0
271809,-200,3,2,1,15,0,0
272009,-200,3,2,43,23,0,0
276609,-200,3,2,1,15,0,0
276809,-200,3,2,43,23,0,0
279609,-200,3,2,44,25,0,0
280209,-200,3,2,43,20,0,0
281409,-200,3,2,1,15,0,0
281609,-200,3,2,43,20,0,0
287609,-200,3,2,43,15,0,0
288009,-200,3,2,43,20,0,0
288409,552.995391705069,4,2,99,10,1,0
288962,582.52427184466,4,2,43,15,1,0
289253,625,4,2,43,15,1,0
289565,566.037735849057,4,2,43,15,1,0
289848,625,4,2,43,15,1,0
290160,600,4,2,43,15,1,0
290462,638.297872340426,4,2,43,15,1,0
290781,-100,4,2,43,15,0,0
291100,1071.42857142857,4,2,43,15,1,0
291367,857.142857142857,4,2,43,15,1,0
291474,722.89156626506,4,2,43,15,1,0
291836,769.230769230769,4,2,43,15,1,0
292220,1224.48979591837,4,2,43,15,1,0
293444,1621.62162162162,4,2,43,10,1,0
295065,1818.18181818182,4,2,43,10,1,0
295178,1250,4,2,43,10,1,0
295803,-66.6666666666667,4,2,43,10,0,0
296428,714.285714285714,4,2,43,10,1,0
296604,759.493670886076,4,2,43,11,1,0
296793,1071.42857142857,4,2,43,12,1,0
297060,1250,4,2,43,13,1,0
297372,1071.42857142857,4,2,43,12,1,0
297639,2727.27272727273,4,2,43,11,1,0
297979,2608.69565217391,4,2,43,10,1,0
298305,3076.92307692308,4,2,43,9,1,0
299074,2580.64516129032,4,2,43,8,1,0
300364,937.5,4,2,43,14,1,0
300422,-100,4,2,99,7,0,0
300481,-100,4,2,99,6,0,0
300539,-100,4,2,99,5,0,0

[Colours]
Combo1 : 190,200,250
Combo2 : 250,190,240
Combo3 : 170,240,250
Combo4 : 180,240,160

[HitObjects]
90,241,9,5,2,0:0:0:0:
95,246,209,1,2,0:0:0:0:
100,251,409,1,6,0:3:0:0:
100,251,809,5,2,0:1:0:0:
151,219,1009,1,2,0:0:0:0:
204,247,1209,1,2,0:0:0:0:
206,306,1409,1,2,0:0:0:0:
153,278,1609,5,2,0:1:0:0:
151,219,1809,1,2,0:0:0:0:
203,188,2009,1,2,0:0:0:0:
255,217,2209,1,2,0:0:0:0:
204,247,2409,5,2,0:1:0:0:
151,219,2609,1,2,0:0:0:0:
151,159,2809,1,2,0:0:0:0:
203,129,3009,1,2,0:0:0:0:
203,188,3209,5,2,0:1:0:0:
255,217,3409,1,2,0:0:0:0:
314,216,3609,1,2,0:0:0:0:
364,185,3809,1,2,0:0:0:0:
365,244,4009,5,2,0:1:0:0:
364,185,4209,1,2,0:0:0:0:
333,134,4409,1,2,0:0:0:0:
282,107,4609,1,2,0:0:0:0:
331,77,4809,5,2,0:0:0:0:
336,72,5009,1,2,0:0:0:0:
341,67,5209,1,6,0:3:0:0:
341,67,5609,5,2,0:1:0:0:
389,103,5809,1,2,0:0:0:0:
444,79,6009,1,2,0:0:0:0:
450,20,6209,1,2,0:0:0:0:
395,44,6409,5,2,0:1:0:0:
389,103,6609,1,2,0:0:0:0:
438,138,6809,1,2,0:0:0:0:
492,113,7009,1,2,0:0:0:0:
444,79,7209,5,2,0:1:0:0:
438,138,7409,1,2,0:1:0:0:
432,197,7609,5,2,0:0:0:0:
426,256,8009,5,2,0:0:0:0:
420,315,8409,5,2,0:0:0:0:
414,374,8809,5,2,0:1:0:0:
414,374,9609,6,0,P|395:372|381:364,1,25,2|0,0:0|0:0,0:0:0:0:
255,359,10009,6,0,P|220:346|184:339,1,75.0000028610231,4|0,0:0|0:0,0:0:0:0:
75,371,10609,1,2,0:0:0:0:
184,339,10809,2,0,P|195:313|197:298,1,37.5000014305115,2|8,0:0|0:3,0:0:0:0:
95,184,11209,6,0,L|88:260,1,75.0000028610231,10|0,0:1|0:0,0:0:0:0:
75,371,11809,1,6,0:3:0:0:
95,184,12009,5,6,0:0:0:0:
75,371,12209,1,10,0:3:0:0:
75,111,12409,6,0,P|87:147|95:184,1,75.0000028610231,6|0,0:0|0:0,0:0:0:0:
154,250,13009,1,2,0:0:0:0:
239,278,13209,1,2,0:0:0:0:
326,259,13409,1,2,0:0:0:0:
388,161,13609,6,0,P|385:180|384:206,1,37.5000014305115,10|0,0:1|0:0,0:0:0:0:
407,279,14009,2,0,P|421:291|443:304,1,37.5000014305115,2|8,0:0|0:3,0:0:0:0:
467,139,14409,5,8,0:0:0:0:
383,198,14609,1,8,0:0:0:0:
428,375,14809,6,0,P|431:338|437:301,1,75.0000028610231,6|0,0:0|0:0,0:0:0:0:
510,224,15409,1,6,0:3:0:0:
437,300,15609,2,0,P|418:303|399:303,1,37.5000014305115,2|8,0:0|0:3,0:0:0:0:
383,94,16009,6,0,P|401:91|420:91,1,37.5000014305115,10|0,0:1|0:0,0:0:0:0:
510,224,16409,2,0,P|503:241|493:257,1,37.5000014305115,2|0,0:0|0:0,0:0:0:0:
309,169,16809,1,6,0:3:0:0:
309,169,17009,1,8,0:3:0:0:
185,350,17209,6,0,P|180:296|121:272,1,119.999996337891,6|0,0:0|0:0,0:0:0:0:
60,361,18209,1,2,0:2:0:0:
60,361,18309,1,2,0:2:0:0:
60,361,18409,1,2,0:1:0:0:
60,361,19209,6,0,P|59:339|58:326,1,25,2|0,0:0|0:0,0:0:0:0:
13,302,19609,2,0,P|49:303|78:280,1,75,6|8,0:1|0:0,0:0:0:0:
108,228,20409,6,0,L|109:198,1,25,2|0,0:0|0:0,0:0:0:0:
81,150,20809,2,0,P|73:131|71:93,1,50,2|0,0:0|0:0,0:0:0:0:
96,47,21409,5,2,0:0:0:0:
147,14,21609,1,10,0:1:0:0:
207,11,21809,1,2,0:0:0:0:
260,38,22009,6,0,P|279:46|317:48,1,50,2|0,0:1|0:0,0:0:0:0:
365,30,22609,1,10,0:0:0:0:
417,59,22809,2,0,L|474:59,2,50,2|2|2,0:2|0:0|0:0,0:0:0:0:
456,171,24009,6,0,P|462:183|466:195,1,25,10|8,0:1|0:0,0:0:0:0:
463,255,24409,2,0,P|448:273|441:280,1,25,2|0,0:2|0:0,0:0:0:0:
394,301,24809,2,0,P|370:297|361:295,2,25,2|8|2,0:0|0:0|0:0,0:0:0:0:
394,301,25609,5,2,0:0:0:0:
463,255,26009,1,2,0:0:0:0:
456,171,26409,6,0,P|453:157|452:145,1,25,10|8,0:1|0:0,0:0:0:0:
414,99,26809,2,0,P|401:91|392:83,1,25,2|0,0:0|0:0,0:0:0:0:
350,43,27209,1,2,0:1:0:0:
292,59,27409,6,0,B|253:63|255:46|217:51,1,75,2|2,0:0|0:1,0:0:0:0:
99,234,28809,5,10,0:1:0:0:
96,174,29009,1,10,0:2:0:0:
65,124,29209,2,0,P|52:89|54:51,1,75,2|8,0:1|0:0,0:0:0:0:
108,24,30009,5,2,0:0:0:0:
132,78,30209,1,2,0:0:0:0:
156,132,30409,2,0,L|160:161,2,25,2|0|0,0:0|0:0|0:0,0:0:0:0:
74,218,31209,6,0,L|71:243,1,25,10|0,0:1|0:0,0:0:0:0:
38,293,31609,2,0,L|35:318,1,25,2|0,0:0|0:0,0:0:0:0:
2,369,32009,5,2,0:0:0:0:
35,318,32209,2,0,P|63:304|112:306,1,75,10|2,0:0|0:1,0:0:0:0:
221,337,33209,6,0,P|205:337|194:335,1,25,2|0,0:0|0:0,0:0:0:0:
212,277,33609,2,0,P|204:263|200:252,1,25,10|0,0:1|0:0,0:0:0:0:
259,238,34009,2,0,P|283:224|335:235,1,75,2|8,0:1|0:0,0:0:0:0:
382,254,34809,2,0,P|398:254|409:252,1,25,2|0,0:0|0:0,0:0:0:0:
454,215,35209,6,0,B|449:190|463:166|463:166|469:130|453:111,1,100,2|8,0:1|0:0,0:0:0:0:
359,35,36409,1,2,0:1:0:0:
243,68,36809,6,0,P|231:67|219:65,1,25,10|8,0:1|0:0,0:0:0:0:
178,110,37209,2,0,P|170:102|163:91,1,25,2|0,0:0|0:0,0:0:0:0:
102,90,37609,2,0,P|108:66|125:45,1,50,2|2,0:0|0:1,0:0:0:0:
184,23,38209,5,8,0:0:0:0:
196,21,38309,1,8,0:0:0:0:
207,18,38409,1,8,0:3:0:0:
247,68,38609,1,8,0:3:0:0:
368,16,38809,6,0,P|404:33|419:31,1,44.999998626709,6|0,0:0|0:0,0:0:0:0:
423,32,39209,2,0,L|432:75,1,29.9999990844727,2|0,0:0|0:0,0:0:0:0:
336,146,39609,2,0,L|345:103,1,29.9999990844727,2|0,0:0|0:0,0:0:0:0:
349,237,40009,2,0,P|317:239|290:225,1,59.9999981689454,10|0,0:1|0:0,0:0:0:0:
249,142,40609,5,2,0:0:0:0:
248,156,40709,1,2,0:0:0:0:
247,170,40809,1,2,0:0:0:0:
219,256,41009,1,2,0:0:0:0:
111,291,41209,6,0,P|88:286|68:277,1,44.999998626709,10|0,0:0|0:0,0:0:0:0:
57,267,41609,2,0,L|54:234,1,29.9999990844727,2|0,0:0|0:0,0:0:0:0:
132,127,42009,2,0,L|134:156,1,29.9999990844727,2|0,0:0|0:0,0:0:0:0:
219,256,42409,2,0,P|248:262|283:248,1,59.9999981689454,10|0,0:1|0:0,0:0:0:0:
347,224,43009,5,2,0:0:0:0:
347,224,43109,1,2,0:0:0:0:
347,224,43209,2,0,P|373:219|385:219,1,29.9999990844727,2|0,0:0|0:0,0:0:0:0:
467,305,43609,6,0,P|436:302|416:291,1,44.999998626709,10|0,0:3|0:0,0:0:0:0:
410,289,44009,2,0,L|379:285,1,29.9999990844727,2|0,0:0|0:0,0:0:0:0:
360,152,44409,2,0,L|391:156,1,29.9999990844727,2|0,0:0|0:0,0:0:0:0:
312,324,44809,2,0,P|303:296|307:263,1,59.9999981689454,10|0,0:1|0:0,0:0:0:0:
383,225,45409,5,2,0:0:0:0:
383,225,45509,1,2,0:0:0:0:
383,225,45609,2,0,P|363:224|345:218,1,29.9999990844727,2|0,0:0|0:0,0:0:0:0:
303,152,46009,5,10,0:3:0:0:
205,162,46209,1,2,0:0:0:0:
163,262,46409,2,0,P|160:281|158:302,1,29.9999990844727,2|0,0:0|0:0,0:0:0:0:
233,365,46809,2,0,P|236:346|238:325,1,29.9999990844727,2|0,0:0|0:0,0:0:0:0:
205,162,47209,6,0,P|182:153|154:155,1,44.999998626709,10|0,0:1|0:0,0:0:0:0:
148,161,47609,2,0,L|138:194,1,29.9999990844727,2|4,0:0|0:3,0:0:0:0:
69,283,48009,5,2,0:0:0:0:
57,201,48209,1,2,0:0:0:0:
100,93,48409,2,0,P|129:90|148:79,1,44.999998626709,6|0,0:0|0:0,0:0:0:0:
154,73,48809,2,0,L|190:65,1,29.9999990844727,2|0,0:0|0:0,0:0:0:0:
301,25,49209,5,2,0:0:0:0:
289,99,49409,1,2,0:0:0:0:
372,175,49609,2,0,P|343:166|314:168,1,59.9999981689454,10|0,0:1|0:0,0:0:0:0:
276,237,50209,5,2,0:0:0:0:
276,237,50309,1,2,0:0:0:0:
276,237,50409,2,0,P|272:266|271:277,1,29.9999990844727,2|0,0:0|0:0,0:0:0:0:
368,359,50809,6,0,P|369:334|375:301,1,44.999998626709,10|0,0:3|0:0,0:0:0:0:
383,304,51209,2,0,L|418:299,1,29.9999990844727,2|0,0:0|0:0,0:0:0:0:
342,163,51609,2,0,L|313:168,1,29.9999990844727,2|0,0:0|0:0,0:0:0:0:
446,189,52009,2,0,P|449:156|442:128,1,59.9999981689454,10|0,0:1|0:0,0:0:0:0:
375,72,52609,5,2,0:0:0:0:
375,72,52709,1,2,0:0:0:0:
375,72,52809,2,0,P|393:71|415:69,1,29.9999990844727,2|0,0:0|0:0,0:0:0:0:
490,196,53209,6,0,P|468:190|445:188,1,44.999998626709,10|0,0:3|0:0,0:0:0:0:
433,197,53609,2,0,L|403:198,1,29.9999990844727,2|0,0:0|0:0,0:0:0:0:
404,70,54009,2,0,L|434:69,1,29.9999990844727,2|0,0:0|0:0,0:0:0:0:
384,257,54409,2,0,P|368:249|353:239,1,29.9999990844727,10|0,0:1|0:0,0:0:0:0:
298,125,54809,5,2,0:0:0:0:
271,217,55009,1,2,0:0:0:0:
272,232,55109,1,2,0:0:0:0:
273,247,55209,2,0,P|280:266|289:278,1,29.9999990844727,2|0,0:0|0:0,0:0:0:0:
386,366,55609,6,0,P|368:352|346:349,1,44.999998626709,10|0,0:3|0:0,0:0:0:0:
331,353,56009,2,0,L|291:355,1,29.9999990844727,2|0,0:0|0:0,0:0:0:0:
357,242,56409,2,0,L|397:240,1,29.9999990844727,2|0,0:0|0:0,0:0:0:0:
301,354,56809,2,0,P|266:355|236:339,2,59.9999981689454,10|0|0,0:1|0:0|0:0,0:0:0:0:
256,192,58009,6,0,L|256:168,2,20,6|0|0,0:0|0:0|0:0,0:0:0:0:
213,234,58609,1,2,0:0:0:0:
155,217,58809,2,0,P|143:215|129:214,1,20,2|0,0:0|0:0,0:0:0:0:
57,227,59209,2,0,P|67:228|77:230,1,20,2|0,0:3|0:0,0:0:0:0:
120,273,59609,2,0,P|123:291|123:316,1,40,2|0,0:0|0:0,0:0:0:0:
81,356,60209,5,2,0:0:0:0:
123,312,60409,2,0,P|132:311|142:313,1,20,2|0,0:0|0:0,0:0:0:0:
197,337,60809,2,0,P|206:338|216:338,2,20,2|0|0,0:0|0:0|0:0,0:0:0:0:
81,356,61609,5,2,0:3:0:0:
42,305,61809,1,2,0:0:0:0:
34,243,62009,1,2,0:0:0:0:
59,188,62209,1,2,0:0:0:0:
106,154,62409,1,2,0:0:0:0:
106,154,62809,5,2,0:1:0:0:
59,188,63009,1,2,0:0:0:0:
34,243,63209,1,2,0:0:0:0:
42,305,63409,1,2,0:0:0:0:
81,356,63609,6,0,P|92:354|106:355,1,20,2|0,0:0|0:0,0:0:0:0:
181,338,64009,2,0,P|171:338|162:337,1,20,2|0,0:3|0:0,0:0:0:0:
115,293,64409,2,0,P|113:272|109:248,1,40,2|0,0:0|0:0,0:0:0:0:
60,216,65009,5,2,0:0:0:0:
53,278,65209,2,0,P|51:291|51:304,2,20,2|2|0,0:0|0:1|0:0,0:0:0:0:
110,253,65809,5,2,0:1:0:0:
172,260,66009,1,2,0:0:0:0:
225,299,66209,1,2,0:0:0:0:
259,362,66409,6,0,L|260:380,4,10,2|2|2|2|2,0:3|0:0|0:0|0:0|0:0,0:0:0:0:
300,297,67009,5,8,0:0:0:0:
313,288,67109,1,8,0:0:0:0:
328,283,67209,1,8,0:3:0:0:
438,309,67409,1,8,0:3:0:0:
512,189,67609,6,0,P|505:160|503:130,1,59.9999981689454,6|0,0:0|0:0,0:0:0:0:
492,363,68409,5,2,0:0:0:0:
438,309,68609,1,2,0:0:0:0:
465,226,68809,2,0,P|486:205|511:188,1,59.9999981689454,10|0,0:1|0:0,0:0:0:0:
361,65,69609,6,0,P|339:61|321:55,1,29.9999990844727,2|0,0:0|0:0,0:0:0:0:
249,95,70009,6,0,P|263:77|277:65,1,29.9999990844727,10|0,0:3|0:0,0:0:0:0:
361,65,70409,2,0,P|381:73|398:83,1,29.9999990844727,2|0,0:0|0:0,0:0:0:0:
424,162,70809,2,0,P|422:184|418:202,1,29.9999990844727,2|0,0:0|0:0,0:0:0:0:
479,87,71209,6,0,B|482:66|471:45|471:45|493:60,1,59.9999981689454,10|0,0:1|0:0,0:0:0:0:
350,244,72009,6,0,P|332:235|299:235,1,44.999998626709,2|0,0:0|0:0,0:0:0:0:
283,243,72409,6,0,P|261:242|241:230,1,40,6|0,0:0|0:0,0:0:0:0:
309,117,72809,2,0,P|301:137|283:152,1,40,2|0,0:0|0:0,0:0:0:0:
197,53,73209,2,0,P|214:66|223:88,1,40,2|0,0:0|0:0,0:0:0:0:
153,256,73609,6,0,P|147:234|152:212,1,40,10|0,0:3|0:0,0:0:0:0:
283,243,74009,2,0,P|261:242|241:230,1,40,2|0,0:0|0:0,0:0:0:0:
101,137,74409,6,0,P|119:124|142:122,1,40,2|0,0:0|0:0,0:0:0:0:
288,150,74809,6,0,P|302:135|309:117,1,40,10|0,0:3|0:0,0:0:0:0:
245,233,75209,2,0,P|263:242|283:243,1,40,2|0,0:0|0:0,0:0:0:0:
150,217,75609,2,0,P|147:236|153:256,1,40,2|0,0:0|0:0,0:0:0:0:
222,82,76009,6,0,P|212:65|197:53,1,40,10|0,0:1|0:0,0:0:0:0:
245,233,76409,6,0,P|263:242|282:243,1,40,2|0,0:0|0:0,0:0:0:0:
380,173,76809,2,0,P|363:184|353:201,1,40,2|0,0:0|0:0,0:0:0:0:
365,320,77209,2,0,P|363:300|354:282,1,40,10|0,0:3|0:0,0:0:0:0:
282,243,77609,5,2,0:0:0:0:
353,201,77809,1,2,0:0:0:0:
354,282,78009,1,2,0:0:0:0:
281,162,78409,5,10,0:1:0:0:
283,324,78809,5,2,0:0:0:0:
354,282,79009,1,2,0:0:0:0:
211,285,79209,5,8,0:0:0:0:
355,363,79409,1,8,0:0:0:0:
282,243,79609,6,0,L|280:230,1,8.7499997329712,2|0,0:1|0:0,0:0:0:0:
431,113,81209,6,0,P|416:103|399:82,1,42.5000008106232,2|0,0:0|0:0,0:0:0:0:
393,223,81609,2,0,P|406:207|424:195,1,42.5000008106232,2|0,0:0|0:0,0:0:0:0:
258,334,82009,6,0,P|282:337|307:335,1,50,6|0,0:0|0:0,0:0:0:0:
354,146,82409,2,0,P|330:137|306:135,1,50,2|0,0:0|0:3,0:0:0:0:
439,274,82809,5,6,0:0:0:0:
354,146,83009,1,10,0:3:0:0:
258,334,83209,2,0,P|216:340|169:314,2,75,6|8|8,0:1|0:3|0:3,0:0:0:0:
360,244,84009,5,10,0:0:0:0:
227,259,84209,1,10,0:3:0:0:
354,146,84409,5,6,0:3:0:0:
297,278,84609,1,2,0:0:0:0:
210,162,84809,6,0,P|185:154|144:149,1,50,2|0,0:0|0:0,0:0:0:0:
329,28,85209,2,0,P|305:36|281:41,1,50,6|0,0:0|0:0,0:0:0:0:
447,173,85609,6,0,P|403:150|354:146,1,100,14|0,0:1|0:0,0:0:0:0:
296,151,86142,1,8,0:3:0:0:
259,195,86275,1,8,0:3:0:0:
264,253,86409,5,4,0:3:0:0:
308,290,86542,1,4,0:3:0:0:
365,285,86675,1,4,0:3:0:0:
402,241,86809,6,0,B|432:238|450:257|450:257|447:277|422:294,1,100,10|0,0:1|0:0,0:0:0:0:
307,289,87409,2,0,P|336:285|365:285,1,57.5000010967255,10|0,0:0|0:0,0:0:0:0:
342,364,87809,5,2,0:0:0:0:
243,278,88009,2,0,B|252:247|284:230|284:230|308:251|307:289,1,129.999994049073,6|8,0:3|0:1,0:0:0:0:
180,371,88609,5,8,0:2:0:0:
243,278,88809,1,10,0:3:0:0:
260,356,89009,1,8,0:3:0:0:
137,252,89209,6,0,P|126:216|134:180,1,75.0000028610231,6|0,0:0|0:0,0:0:0:0:
264,98,89609,2,0,P|238:125|203:135,1,75.0000028610231,2|8,0:0|0:1,0:0:0:0:
68,66,90009,2,0,P|104:74|130:99,1,75.0000028610231,2|8,0:0|0:3,0:0:0:0:
135,180,90409,5,8,0:0:0:0:
142,200,90509,1,8,0:0:0:0:
154,223,90609,1,8,0:0:0:0:
168,243,90709,1,8,0:0:0:0:
187,258,90809,5,8,0:3:0:0:
202,241,90909,1,8,0:3:0:0:
216,220,91009,1,8,0:3:0:0:
226,197,91109,1,8,0:3:0:0:
232,174,91209,5,4,0:3:0:0:
225,144,91309,1,4,0:3:0:0:
227,114,91409,1,4,0:3:0:0:
240,87,91509,1,4,0:3:0:0:
265,71,91609,5,6,0:0:0:0:
372,146,91809,1,2,0:0:0:0:
476,67,92009,2,0,L|482:17,1,50,2|0,0:0|0:0,0:0:0:0:
265,71,92409,5,4,0:0:0:0:
372,146,92609,1,10,0:3:0:0:
343,344,92809,2,0,P|336:307|333:270,2,75,6|8|8,0:1|0:3|0:3,0:0:0:0:
449,189,93609,5,10,0:0:0:0:
333,270,93809,1,10,0:3:0:0:
342,92,94009,5,6,0:3:0:0:
401,244,94209,1,2,0:0:0:0:
504,117,94409,6,0,P|479:112|455:106,1,50,2|0,0:0|0:0,0:0:0:0:
428,285,94809,2,0,P|414:263|400:243,1,50,6|0,0:0|0:0,0:0:0:0:
218,347,95209,6,0,P|256:320|295:347,1,100,14|0,0:1|0:3,0:0:0:0:
453,110,96009,6,0,P|450:122|453:163,1,50,10|8,0:0|0:3,0:0:0:0:
383,16,96409,2,0,P|450:39|453:110,1,150,6|8,0:0|0:1,0:0:0:0:
368,214,97209,5,2,0:0:0:0:
256,144,97409,1,2,0:0:0:0:
144,214,97609,2,2,B|90:223|100:196|45:204,1,100,8|8,0:3|0:3,0:0:0:0:
0,22,98409,5,10,0:0:0:0:
57,110,98609,1,2,0:0:0:0:
126,17,98809,2,0,P|59:40|58:111,1,150,6|8,0:0|0:1,0:0:0:0:
219,131,99609,6,0,P|189:125|161:133,1,59.9999981689454,2|8,0:0|0:3,0:0:0:0:
225,282,100009,2,0,P|254:287|282:279,1,59.9999981689454,2|0,0:0|0:0,0:0:0:0:
300,266,100309,1,8,0:0:0:0:
310,247,100409,6,0,L|319:171,1,59.9999981689454,10|0,0:0|0:0,0:0:0:0:
161,132,100809,2,0,L|152:208,1,59.9999981689454,10|8,0:3|0:3,0:0:0:0:
303,357,101209,5,6,0:0:0:0:
303,357,102009,5,2,0:0:0:0:
303,357,102209,1,2,0:0:0:0:
256,192,102409,1,4,0:1:0:0:
209,357,103209,5,2,0:0:0:0:
209,357,103409,1,2,0:0:0:0:
256,192,103609,1,4,0:0:0:0:
256,192,104009,5,8,0:3:0:0:
372,325,104209,2,0,B|413:353|413:353|452:322,1,100,4|8,0:0|0:3,0:0:0:0:
470,216,104809,6,0,P|444:214|420:224,1,53.3333333333333,4|8,0:0|0:0,0:0:0:0:
382,266,105209,5,8,0:3:0:0:
328,283,105342,1,8,0:3:0:0:
274,267,105475,1,8,0:3:0:0:
238,224,105609,5,4,0:3:0:0:
184,208,105742,1,4,0:3:0:0:
130,225,105875,1,4,0:3:0:0:
104,288,106009,6,0,L|102:313,2,25,2|2|2,0:1|0:0|0:0,0:0:0:0:
317,128,106809,5,2,0:0:0:0:
322,114,107009,1,2,0:0:0:0:
327,100,107209,2,0,L|325:75,2,25,2|2|2,0:1|0:0|0:0,0:0:0:0:
346,293,108009,5,2,0:0:0:0:
360,298,108209,1,2,0:0:0:0:
373,303,108409,2,0,B|397:300|423:313|423:313|426:292|441:270|441:270|463:286|486:285|486:285|502:264|498:227,1,200,2|0,0:0|0:0,0:0:0:0:
385,64,110409,6,0,P|369:59|353:59,1,25,2|0,0:0|0:0,0:0:0:0:
225,124,110809,6,0,P|188:117|152:105,1,75.0000028610231,4|0,0:0|0:0,0:0:0:0:
53,52,111409,1,2,0:0:0:0:
152,105,111609,2,0,P|163:131|165:146,1,37.5000014305115,2|8,0:0|0:3,0:0:0:0:
30,326,112009,6,0,P|31:292|37:250,1,75.0000028610231,10|0,0:1|0:0,0:0:0:0:
101,143,112609,1,6,0:3:0:0:
30,326,112809,5,6,0:0:0:0:
101,143,113009,1,10,0:3:0:0:
92,360,113209,6,0,P|56:351|30:326,1,75.0000028610231,6|0,0:0|0:0,0:0:0:0:
0,241,113809,1,2,0:0:0:0:
16,152,114009,1,2,0:0:0:0:
74,82,114209,1,2,0:0:0:0:
140,175,114409,6,0,P|121:173|104:166,1,37.5000014305115,10|0,0:1|0:0,0:0:0:0:
63,46,114809,2,0,P|71:63|74:82,1,37.5000014305115,2|8,0:0|0:3,0:0:0:0:
0,248,115209,5,8,0:0:0:0:
104,166,115409,1,8,0:0:0:0:
147,339,115609,6,0,P|150:301|158:265,1,75.0000028610231,6|0,0:0|0:0,0:0:0:0:
226,203,116209,1,6,0:3:0:0:
158,265,116409,2,0,P|139:264|120:261,1,37.5000014305115,2|8,0:0|0:3,0:0:0:0:
73,81,116809,6,0,P|91:81|110:84,1,37.5000014305115,10|0,0:1|0:0,0:0:0:0:
225,202,117209,2,0,P|216:186|210:169,1,37.5000014305115,2|0,0:0|0:0,0:0:0:0:
256,9,117609,1,6,0:3:0:0:
256,9,117809,1,8,0:3:0:0:
416,169,118009,6,0,B|408:139|418:118|418:118|394:88|357:103,1,119.999996337891,6|0,0:0|0:0,0:0:0:0:
326,182,119009,1,2,0:2:0:0:
326,182,119109,1,2,0:2:0:0:
326,182,119209,1,2,0:1:0:0:
109,344,119809,5,8,0:0:0:0:
98,340,119909,1,8,0:0:0:0:
87,336,120009,1,8,0:3:0:0:
14,357,120209,1,8,0:3:0:0:
90,261,120409,6,0,P|96:242|96:207,1,44.999998626709,6|0,0:0|0:0,0:0:0:0:
92,202,120809,2,0,L|57:198,1,29.9999990844727,2|0,0:0|0:0,0:0:0:0:
20,66,121209,2,0,L|55:70,1,29.9999990844727,2|0,0:0|0:0,0:0:0:0:
0,226,121609,2,0,P|-5:196|1:165,1,59.9999981689454,10|0,0:1|0:0,0:0:0:0:
106,139,122209,5,2,0:0:0:0:
92,141,122309,1,2,0:0:0:0:
78,140,122409,1,2,0:0:0:0:
20,66,122609,1,2,0:0:0:0:
126,17,122809,6,0,P|143:18|173:26,1,44.999998626709,10|0,0:0|0:0,0:0:0:0:
179,36,123209,2,0,L|217:37,1,29.9999990844727,2|0,0:0|0:0,0:0:0:0:
284,141,123609,2,0,L|246:139,1,29.9999990844727,2|0,0:0|0:0,0:0:0:0:
149,217,124009,2,0,P|141:245|144:275,1,59.9999981689454,10|0,0:1|0:0,0:0:0:0:
205,325,124609,5,2,0:0:0:0:
205,325,124709,1,2,0:0:0:0:
205,325,124809,2,0,P|231:320|243:320,1,29.9999990844727,2|0,0:0|0:0,0:0:0:0:
356,287,125209,6,0,P|325:284|305:273,1,44.999998626709,10|0,0:3|0:0,0:0:0:0:
299,271,125609,2,0,L|268:267,1,29.9999990844727,2|0,0:0|0:0,0:0:0:0:
370,161,126009,2,0,L|401:165,1,29.9999990844727,2|0,0:0|0:0,0:0:0:0:
256,259,126409,2,0,P|248:230|253:197,1,59.9999981689454,10|0,0:1|0:0,0:0:0:0:
303,137,127009,5,2,0:0:0:0:
303,137,127109,1,2,0:0:0:0:
303,137,127209,2,0,P|283:136|265:130,1,29.9999990844727,2|0,0:0|0:0,0:0:0:0:
206,83,127609,5,10,0:3:0:0:
123,137,127809,1,2,0:0:0:0:
28,84,128009,2,0,L|24:54,1,29.9999990844727,2|0,0:0|0:0,0:0:0:0:
111,4,128409,2,0,L|114:33,1,29.9999990844727,2|0,0:0|0:0,0:0:0:0:
61,165,128809,6,0,P|41:158|13:157,2,44.999998626709,10|8|8,0:1|0:3|0:3,0:0:0:0:
108,314,129609,5,10,0:0:0:0:
184,231,129809,1,10,0:0:0:0:
310,338,130009,6,0,P|333:338|355:332,1,44.999998626709,6|0,0:0|0:0,0:0:0:0:
368,325,130409,2,0,L|402:325,1,29.9999990844727,2|0,0:0|0:0,0:0:0:0:
512,242,130809,5,2,0:0:0:0:
436,241,131009,1,2,0:0:0:0:
318,190,131209,2,0,P|347:188|371:205,1,59.9999981689454,10|0,0:1|0:0,0:0:0:0:
434,169,131809,5,2,0:0:0:0:
434,169,131909,1,2,0:0:0:0:
434,169,132009,2,0,P|434:139|435:128,1,29.9999990844727,2|0,0:0|0:0,0:0:0:0:
512,72,132409,6,0,P|489:74|467:75,1,44.999998626709,10|0,0:3|0:0,0:0:0:0:
454,68,132809,2,0,L|425:65,1,29.9999990844727,2|0,0:0|0:0,0:0:0:0:
307,52,133209,2,0,L|336:49,1,29.9999990844727,2|0,0:0|0:0,0:0:0:0:
434,169,133609,2,0,P|406:167|374:154,1,59.9999981689454,10|0,0:1|0:0,0:0:0:0:
297,118,134209,5,2,0:0:0:0:
297,118,134309,1,2,0:0:0:0:
297,118,134409,2,0,P|315:117|337:115,1,29.9999990844727,2|0,0:0|0:0,0:0:0:0:
230,83,134809,6,0,P|223:104|221:127,1,44.999998626709,10|0,0:3|0:0,0:0:0:0:
225,141,135209,2,0,L|227:175,1,29.9999990844727,2|0,0:0|0:0,0:0:0:0:
115,253,135609,2,0,L|113:219,1,29.9999990844727,2|0,0:0|0:0,0:0:0:0:
290,174,136009,2,0,P|284:198|276:213,1,29.9999990844727,10|0,0:1|0:0,0:0:0:0:
174,311,136409,5,2,0:0:0:0:
113,223,136609,1,2,0:0:0:0:
105,210,136709,1,2,0:0:0:0:
100,195,136809,2,0,P|99:172|100:158,1,29.9999990844727,2|0,0:0|0:0,0:0:0:0:
153,48,137209,6,0,P|123:57|101:56,1,44.999998626709,10|0,0:3|0:0,0:0:0:0:
94,54,137609,2,0,L|54:52,1,29.9999990844727,2|0,0:0|0:0,0:0:0:0:
0,181,138009,2,0,L|40:183,1,29.9999990844727,2|0,0:0|0:0,0:0:0:0:
201,129,138409,2,0,P|179:119|149:114,2,44.999998626709,10|8|8,0:1|0:3|0:3,0:0:0:0:
248,220,139209,5,8,0:0:0:0:
146,214,139409,1,8,0:0:0:0:
303,135,139609,6,0,L|329:137,2,20,6|2|2,0:0|0:0|0:0,0:0:0:0:
256,97,140209,5,2,0:2:0:0:
209,59,140409,2,0,L|183:57,1,20,2|0,0:1|0:0,0:0:0:0:
174,62,140709,1,2,0:0:0:0:
160,68,140809,2,0,L|134:66,1,20,2|0,0:1|0:0,0:0:0:0:
86,38,141209,2,0,P|64:31|40:31,1,40,2|2,0:0|0:1,0:0:0:0:
0,70,141809,5,12,0:3:0:0:
16,127,142009,2,0,L|18:155,1,20,12|0,0:3|0:0,0:0:0:0:
10,206,142409,2,0,L|12:234,2,20,2|2|0,0:0|0:1|0:0,0:0:0:0:
17,146,143009,5,2,0:0:0:0:
28,136,143109,1,2,0:0:0:0:
39,126,143209,2,0,L|66:125,1,20,2|0,0:0|0:0,0:0:0:0:
113,156,143609,1,2,0:0:0:0:
176,154,143809,1,2,0:0:0:0:
232,116,144009,1,12,0:3:0:0:
288,320,144409,6,0,L|290:276,1,40,12|0,0:0|0:0,0:0:0:0:
324,230,145009,5,2,0:0:0:0:
381,245,145209,2,0,P|394:245|406:242,1,20,2|0,0:1|0:0,0:0:0:0:
414,237,145509,1,0,0:0:0:0:
424,226,145609,2,0,L|428:201,1,20,2|0,0:1|0:0,0:0:0:0:
458,154,146009,2,0,P|457:132|459:109,1,40,2|8,0:0|0:3,0:0:0:0:
492,64,146609,5,2,0:0:0:0:
458,114,146809,2,0,L|434:108,1,20,12|0,0:3|0:0,0:0:0:0:
379,100,147209,2,0,L|355:106,1,20,2|2,0:0|0:0,0:0:0:0:
301,118,147609,1,2,0:0:0:0:
256,77,147809,1,2,0:0:0:0:
184,131,148009,6,0,L|166:128,2,10,2|2|2,0:1|0:0|0:0,0:0:0:0:
229,172,148409,1,2,0:1:0:0:
193,248,148609,5,8,0:0:0:0:
195,263,148709,1,8,0:0:0:0:
197,278,148809,1,8,0:3:0:0:
249,346,149009,1,8,0:3:0:0:
143,370,149209,6,0,B|97:370|102:350|54:354,1,89.9999972534181,6|8,0:0|0:2,0:0:0:0:
28,264,150009,5,2,0:0:0:0:
82,210,150209,1,2,0:0:0:0:
55,127,150409,2,0,P|46:103|44:68,1,59.9999981689454,10|0,0:1|0:0,0:0:0:0:
322,58,151209,6,0,P|344:54|362:48,1,29.9999990844727,2|0,0:0|0:0,0:0:0:0:
434,88,151609,6,0,P|420:70|406:58,1,29.9999990844727,10|0,0:3|0:0,0:0:0:0:
322,58,152009,2,0,P|302:66|285:76,1,29.9999990844727,2|8,0:0|0:1,0:0:0:0:
259,155,152409,2,0,P|261:177|265:195,1,29.9999990844727,2|8,0:0|0:3,0:0:0:0:
203,79,152809,6,0,P|180:63|148:58,1,59.9999981689454,10|0,0:1|0:0,0:0:0:0:
84,67,153409,1,8,0:0:0:0:
155,124,153609,6,0,L|159:167,1,29.9999990844727,10|4,0:3|0:3,0:0:0:0:
177,348,154009,6,0,P|167:330|166:310,1,40,6|0,0:0|0:0,0:0:0:0:
295,316,154409,2,0,P|273:315|252:303,1,40,10|0,0:3|0:0,0:0:0:0:
326,199,154809,2,0,P|314:217|293:228,1,40,10|0,0:3|0:0,0:0:0:0:
123,146,155209,6,0,P|142:146|160:155,1,40,10|0,0:1|0:0,0:0:0:0:
91,263,155609,2,0,P|102:244|123:233,1,40,10|0,0:3|0:0,0:0:0:0:
295,316,156009,6,0,P|273:315|252:303,1,40,10|0,0:3|0:0,0:0:0:0:
160,155,156409,6,0,P|142:146|123:146,1,40,10|0,0:3|0:0,0:0:0:0:
251,153,156809,2,0,P|250:133|241:116,1,40,10|0,0:3|0:0,0:0:0:0:
299,227,157209,2,0,P|315:215|326:199,1,40,10|0,0:3|0:0,0:0:0:0:
117,234,157609,6,0,P|101:246|91:263,1,40,10|0,0:1|0:0,0:0:0:0:
251,153,158009,6,0,P|250:133|241:116,1,40,10|0,0:3|0:0,0:0:0:0:
140,68,158409,2,0,P|157:76|177:77,1,40,10|0,0:3|0:0,0:0:0:0:
342,57,158809,6,0,P|325:72|313:91,1,44.999998626709,6|0,0:2|0:0,0:0:0:0:
308,188,159209,5,10,0:3:0:0:
431,133,159409,2,0,P|410:125|388:125,1,44.999998626709,4|8,0:1|0:3,0:0:0:0:
308,188,159809,5,8,0:3:0:0:
406,272,160009,5,8,0:3:0:0:
407,256,160109,1,8,0:3:0:0:
407,239,160209,1,8,0:3:0:0:
405,222,160309,1,8,0:3:0:0:
402,205,160409,5,4,0:3:0:0:
384,212,160509,1,4,0:3:0:0:
370,224,160609,1,4,0:3:0:0:
356,236,160709,1,4,0:3:0:0:
345,251,160809,6,0,P|340:280|344:302,1,37.5000014305115,10|0,0:1|0:0,0:0:0:0:
492,372,161209,5,6,0:0:0:0:
406,272,161409,1,2,0:0:0:0:
285,323,161609,2,0,P|257:320|232:314,1,50,2|0,0:0|0:3,0:0:0:0:
285,104,162009,6,0,P|309:105|333:112,1,50,6|10,0:0|0:3,0:0:0:0:
406,272,162409,2,0,P|395:228|401:190,2,75,6|8|8,0:1|0:3|0:3,0:0:0:0:
443,127,163209,5,10,0:0:0:0:
301,171,163409,1,10,0:3:0:0:
416,52,163609,5,6,0:3:0:0:
398,198,163809,1,2,0:0:0:0:
316,67,164009,6,0,P|314:38|321:4,1,50,2|0,0:0|0:0,0:0:0:0:
397,247,164409,2,0,P|400:222|398:198,1,50,6|0,0:0|0:3,0:0:0:0:
161,307,164809,6,0,P|206:288|254:298,1,100,14|0,0:1|0:0,0:0:0:0:
293,340,165342,1,8,0:3:0:0:
351,343,165475,1,8,0:3:0:0:
393,304,165609,5,4,0:3:0:0:
397,247,165742,1,4,0:3:0:0:
360,204,165875,1,4,0:3:0:0:
302,199,166009,6,0,B|281:177|284:153|284:153|304:143|332:151,1,100,10|0,0:1|0:0,0:0:0:0:
397,247,166609,2,0,P|376:227|360:204,1,57.5000010967255,10|0,0:0|0:0,0:0:0:0:
391,122,167009,5,2,0:0:0:0:
461,236,167209,2,0,B|462:274|438:295|438:295|406:278|397:247,1,129.999994049073,6|8,0:3|0:1,0:0:0:0:
391,122,167809,5,8,0:2:0:0:
335,260,168009,1,10,0:3:0:0:
332,151,168209,1,8,0:3:0:0:
173,330,168409,6,0,B|162:346|143:351|143:351|137:332|147:316,1,75.0000028610231,6|0,0:0|0:0,0:0:0:0:
336,232,168809,2,0,B|356:233|369:247|369:247|356:261|335:260,1,75.0000028610231,2|8,0:0|0:1,0:0:0:0:
168,140,169209,2,0,B|158:122|163:103|163:103|183:108|192:124,1,75.0000028610231,2|8,0:0|0:3,0:0:0:0:
254,313,169609,5,8,0:0:0:0:
270,326,169709,1,8,0:0:0:0:
291,339,169809,1,8,0:0:0:0:
313,350,169909,1,8,0:0:0:0:
337,353,170009,5,8,0:3:0:0:
342,331,170109,1,8,0:3:0:0:
343,306,170209,1,8,0:3:0:0:
341,281,170309,1,8,0:3:0:0:
334,259,170409,5,4,0:3:0:0:
313,236,170509,1,4,0:3:0:0:
309,206,170609,1,4,0:3:0:0:
321,178,170709,1,4,0:3:0:0:
347,165,170809,5,6,0:0:0:0:
469,121,171009,1,2,0:0:0:0:
370,38,171209,2,0,P|342:30|302:25,1,50,2|0,0:0|0:0,0:0:0:0:
191,189,171609,5,4,0:0:0:0:
208,25,171809,1,10,0:3:0:0:
347,165,172009,2,0,P|375:173|430:174,2,75,6|8|8,0:1|0:3|0:3,0:0:0:0:
218,108,172809,5,10,0:0:0:0:
323,24,173009,1,10,0:3:0:0:
253,213,173209,5,6,0:3:0:0:
271,66,173409,1,2,0:0:0:0:
370,171,173609,6,0,P|395:173|420:175,1,50,2|0,0:0|0:0,0:0:0:0:
203,216,174009,2,0,P|227:213|252:212,1,50,6|0,0:0|0:0,0:0:0:0:
47,143,174409,6,0,P|95:151|123:113,1,100,14|0,0:1|0:3,0:0:0:0:
134,309,175209,6,0,P|101:312|72:325,1,50,10|8,0:0|0:3,0:0:0:0:
178,250,175609,2,0,B|167:293|134:309|134:309|103:280|102:245,1,150,6|8,0:0|0:1,0:0:0:0:
192,104,176409,5,2,0:0:0:0:
256,198,176609,1,2,0:0:0:0:
320,104,176809,2,0,P|366:91|419:114,1,100,10|8,0:3|0:3,0:0:0:0:
329,348,177609,5,10,0:0:0:0:
437,332,177809,1,2,0:0:0:0:
333,249,178009,2,0,B|343:292|377:308|377:308|408:279|409:245,1,150,6|8,0:0|0:1,0:0:0:0:
285,173,178809,6,0,P|255:166|227:174,1,59.9999981689454,2|8,0:0|0:3,0:0:0:0:
409,245,179209,2,0,P|439:251|467:243,1,59.9999981689454,6|0,0:0|0:0,0:0:0:0:
433,143,179609,5,8,0:3:0:0:
379,121,179742,1,8,0:3:0:0:
324,134,179875,1,8,0:3:0:0:
285,173,180009,5,4,0:3:0:0:
231,186,180142,1,4,0:3:0:0:
177,165,180275,1,4,0:3:0:0:
237,109,180409,6,0,P|248:67|236:24,2,89.9999972534181,6|8|8,0:0|0:3|0:3,0:0:0:0:
157,68,181409,5,2,0:0:0:0:
77,110,181609,2,0,P|47:108|0:101,1,67.4999979400635,10|0,0:1|0:0,0:0:0:0:
14,116,182009,2,0,P|22:137|23:160,1,44.999998626709,10|8,0:3|0:3,0:0:0:0:
0,247,182409,1,10,0:3:0:0:
66,312,182609,1,10,0:3:0:0:
176,271,182809,6,0,P|197:265|220:266,1,44.999998626709,6|0,0:0|0:0,0:0:0:0:
200,177,183209,1,10,0:3:0:0:
220,266,183409,2,0,P|241:271|264:270,1,44.999998626709,2|8,0:0|0:1,0:0:0:0:
346,205,183809,5,2,0:0:0:0:
397,308,184009,2,0,L|405:360,1,44.999998626709,10|0,0:1|0:0,0:0:0:0:
512,369,184409,5,8,0:3:0:0:
465,319,184609,1,8,0:0:0:0:
334,333,184809,5,10,0:3:0:0:
440,255,185009,1,10,0:0:0:0:
372,118,185209,2,0,P|362:74|378:33,1,89.9999972534181,6|8,0:0|0:3,0:0:0:0:
334,333,186009,5,10,0:3:0:0:
262,245,186209,1,2,0:0:0:0:
287,116,186409,2,0,P|330:103|372:118,1,89.9999972534181,10|8,0:1|0:3,0:0:0:0:
262,245,187009,5,6,0:3:0:0:
162,158,187209,1,10,0:3:0:0:
137,289,187409,1,10,0:3:0:0:
36,157,187609,6,0,B|14:127|34:86|34:86|39:91|40:107,2,89.9999972534181,6|8|8,0:0|0:3|0:3,0:0:0:0:
177,362,188809,6,0,P|200:327|273:329,1,110.000003356934,6|8,0:0|0:3,0:0:0:0:
314,352,189342,1,8,0:3:0:0:
374,353,189475,1,8,0:3:0:0:
426,323,189609,5,4,0:3:0:0:
456,271,189742,1,4,0:3:0:0:
456,211,189876,1,4,0:3:0:0:
426,159,190009,6,0,P|414:115|438:68,1,89.9999972534181,6|8,0:0|0:3,0:0:0:0:
486,322,190809,5,10,0:3:0:0:
396,272,191009,1,2,0:0:0:0:
277,305,191209,2,0,P|248:303|216:287,1,44.999998626709,10|0,0:1|0:0,0:0:0:0:
223,156,191609,5,8,0:3:0:0:
269,224,191809,1,4,0:3:0:0:
257,82,192009,5,10,0:3:0:0:
142,163,192209,1,10,0:3:0:0:
100,26,192409,2,0,P|142:12|185:23,1,89.9999972534181,6|8,0:0|0:3,0:0:0:0:
223,156,193209,5,10,0:3:0:0:
146,77,193409,1,2,0:3:0:0:
69,179,193609,2,0,P|53:220|60:264,1,89.9999972534181,10|8,0:1|0:3,0:0:0:0:
193,353,194209,5,6,0:3:0:0:
55,343,194409,1,10,0:3:0:0:
132,229,194609,1,10,0:3:0:0:
295,277,194809,6,0,P|338:286|379:269,1,89.9999972534181,6|8,0:0|0:3,0:0:0:0:
328,170,195409,2,0,L|331:215,1,44.999998626709,2|8,0:0|0:3,0:0:0:0:
338,349,195809,5,2,0:0:0:0:
478,280,196009,2,0,P|430:254|379:269,1,110.000003356934,14|8,0:0|0:3,0:0:0:0:
338,349,196609,5,6,0:3:0:0:
483,333,196809,2,0,P|486:306|478:280,1,55.0000016784668,10|8,0:3|0:3,0:0:0:0:
328,170,197209,6,0,P|296:169|263:152,2,59.9999981689454,6|8|8,0:0|0:3|0:3,0:0:0:0:
455,42,197809,2,0,P|484:42|512:54,2,59.9999981689454,4|8|8,0:0|0:3|0:3,0:0:0:0:
319,100,198409,5,8,0:0:0:0:
265,86,198542,1,8,0:0:0:0:
225,47,198675,1,8,0:0:0:0:
170,33,198809,5,8,0:3:0:0:
115,48,198943,1,8,0:3:0:0:
74,88,199075,1,8,0:3:0:0:
58,143,199209,5,4,0:3:0:0:
72,199,199342,1,4,0:3:0:0:
56,254,199475,1,4,0:3:0:0:
0,292,199609,6,0,P|45:288|81:321,2,89.9999972534181,4|8|8,0:0|0:3|0:1,0:0:0:0:
126,248,200609,5,2,0:0:0:0:
126,248,200709,1,2,0:0:0:0:
126,248,200809,2,0,P|171:252|207:219,1,89.9999972534181,6|0,0:0|0:0,0:0:0:0:
217,90,201409,5,10,0:3:0:0:
146,148,201609,2,0,L|154:193,1,44.999998626709,10|8,0:0|0:3,0:0:0:0:
246,336,202009,6,0,P|249:316|254:291,1,44.999998626709,6|0,0:0|0:0,0:0:0:0:
321,213,202409,1,2,0:0:0:0:
342,206,202509,1,2,0:0:0:0:
364,209,202609,5,0,0:0:0:0:
436,245,202809,1,10,0:0:0:0:
502,199,203009,1,10,0:3:0:0:
470,106,203209,6,0,P|460:71|461:32,1,67.4999979400635,2|0,0:1|0:0,0:0:0:0:
450,30,203609,2,0,L|388:21,1,44.999998626709,2|8,0:0|0:3,0:0:0:0:
316,56,204009,2,0,L|302:55,4,11.2499996566773,2|2|2|2|2,0:0|0:0|0:0|0:0|0:0,0:0:0:0:
364,209,204409,6,0,P|323:158|258:162,1,134.999995880127,6|8,0:0|0:3,0:0:0:0:
289,268,205209,2,0,P|296:247|295:225,1,44.999998626709,10|8,0:0|0:3,0:0:0:0:
105,113,205609,6,0,P|145:132|189:129,1,89.9999972534181,6|0,0:0|0:0,0:0:0:0:
87,197,206209,1,6,0:3:0:0:
189,129,206409,2,0,P|195:107|194:85,1,44.999998626709,10|8,0:0|0:3,0:0:0:0:
294,224,206809,6,0,P|316:223|338:228,1,44.999998626709,6|0,0:0|0:0,0:0:0:0:
421,337,207209,5,2,0:3:0:0:
428,224,207409,1,2,0:3:0:0:
307,306,207609,5,10,0:0:0:0:
381,175,207809,1,10,0:3:0:0:
502,242,208009,6,0,P|454:277|428:224,1,134.999995880127,2|8,0:3|0:3,0:0:0:0:
447,85,208809,5,10,0:3:0:0:
431,62,208909,1,10,0:3:0:0:
407,47,209009,1,10,0:3:0:0:
379,45,209109,1,8,0:3:0:0:
352,54,209209,6,0,P|330:57|308:52,1,44.999998626709,6|0,0:0|0:0,0:0:0:0:
199,17,209609,2,0,P|222:14|244:19,1,44.999998626709,2|0,0:0|0:0,0:0:0:0:
306,121,210009,5,10,0:0:0:0:
220,78,210209,1,10,0:3:0:0:
131,179,210409,6,0,P|69:179|68:118,1,134.999995880127,6|8,0:0|0:3,0:0:0:0:
131,179,211209,6,0,L|127:230,1,44.999998626709,10|8,0:3|0:3,0:0:0:0:
215,368,211609,2,0,P|246:338|293:340,1,89.9999972534181,6|0,0:0|0:0,0:0:0:0:
389,372,212209,5,10,0:3:0:0:
468,304,212409,2,0,L|471:252,1,44.999998626709,2|8,0:0|0:3,0:0:0:0:
409,135,212809,6,0,P|386:133|365:126,1,44.999998626709,2|0,0:1|0:0,0:0:0:0:
415,17,213209,2,0,P|443:20|469:32,1,44.999998626709,2|8,0:0|0:3,0:0:0:0:
512,165,213609,5,10,0:0:0:0:
409,135,213809,1,10,0:3:0:0:
300,229,214009,6,0,P|265:230|234:176,1,89.9999972534181,6|0,0:0|0:0,0:0:0:0:
131,24,214809,5,2,0:0:0:0:
54,84,215009,1,10,0:3:0:0:
49,96,215109,1,8,0:3:0:0:
45,108,215209,6,0,L|40:185,1,67.4999979400635,10|0,0:1|0:0,0:0:0:0:
44,193,215609,2,0,P|65:187|100:189,1,44.999998626709,2|8,0:0|0:3,0:0:0:0:
214,244,216009,5,10,0:3:0:0:
75,258,216209,1,10,0:3:0:0:
270,286,216409,6,0,P|283:244|270:202,2,89.9999972534181,6|10|8,0:2|0:3|0:3,0:0:0:0:
196,84,217609,6,0,P|228:90|259:78,1,67.4999979400635,10|0,0:1|0:0,0:0:0:0:
272,66,218009,2,0,L|319:61,1,44.999998626709,2|8,0:0|0:3,0:0:0:0:
383,195,218409,2,0,L|336:190,1,44.999998626709,2|0,0:0|0:0,0:0:0:0:
439,32,218809,5,6,0:0:0:0:
497,125,219009,2,0,L|502:172,1,44.999998626709,2|8,0:0|0:3,0:0:0:0:
466,333,219409,5,4,0:0:0:0:
401,277,219609,1,8,0:3:0:0:
315,283,219809,1,8,0:3:0:0:
239,352,220009,5,8,0:3:0:0:
220,364,220109,1,8,0:3:0:0:
198,367,220209,1,8,0:3:0:0:
177,359,220309,1,8,0:3:0:0:
161,343,220409,5,4,0:3:0:0:
143,323,220509,1,4,0:3:0:0:
118,313,220609,1,4,0:3:0:0:
91,317,220709,1,4,0:3:0:0:
68,332,220809,5,8,0:0:0:0:
41,314,220909,1,8,0:0:0:0:
32,284,221009,1,8,0:0:0:0:
35,252,221109,1,8,0:0:0:0:
35,252,222009,6,0,B|61:225|67:186|67:186|69:224|98:252|98:252|135:233|171:254,1,225.000008583069,6|2,0:1|0:1,0:0:0:0:
171,254,224009,5,2,0:0:0:0:
171,254,224409,6,0,B|152:216|176:182|176:182|167:142|125:132|125:132|157:115|170:75,1,225.000008583069,2|2,0:1|0:1,0:0:0:0:
170,77,226409,5,2,0:0:0:0:
245,176,226809,6,0,B|251:199|267:215|267:215|281:196|283:174,1,89.9999972534181,12|0,0:0|0:0,0:0:0:0:
230,138,227209,6,0,B|208:152|197:174|197:174|220:181|244:176,1,97.4999955368044,10|0,0:0|0:0,0:0:0:0:
267,112,227609,6,0,B|244:94|218:90|218:90|218:117|231:139,1,104.999996795654,10|0,0:0|0:0,0:0:0:0:
307,141,228009,6,0,B|317:111|312:83|312:83|284:92|266:113,1,112.500004291535,12|0,0:0|0:0,0:0:0:0:
293,190,228409,6,0,B|325:190|352:177|352:177|334:152|306:140,1,120,10|0,0:0|0:0,0:0:0:0:
240,194,228809,6,0,B|249:226|271:249|271:249|291:223|293:191,1,127.50000243187,10|0,0:0|0:0,0:0:0:0:
212,140,229209,6,0,P|151:114|86:128,1,134.999995880127,12|0,0:0|0:0,0:0:0:0:
67,196,229609,6,0,P|134:179|157:115,1,142.49999619484,12|0,0:0|0:0,0:0:0:0:
110,61,230009,5,8,0:1:0:0:
110,61,230209,1,8,0:1:0:0:
86,128,230409,6,0,B|123:139|156:116|156:116|182:112|207:135,1,125,2|0,0:1|0:0,0:0:0:0:
273,300,231609,5,6,0:0:0:0:
165,227,231809,1,2,0:0:0:0:
62,307,232009,2,0,L|1:298,1,50,2|0,0:0|0:0,0:0:0:0:
273,300,232409,5,4,0:0:0:0:
165,227,232609,1,10,0:3:0:0:
191,28,232809,2,0,P|204:63|200:100,2,75,6|8|8,0:1|0:3|0:3,0:0:0:0:
6,28,233609,5,10,0:0:0:0:
135,74,233809,1,10,0:3:0:0:
0,168,234009,5,6,0:3:0:0:
76,32,234209,1,2,0:0:0:0:
94,185,234409,6,0,P|97:213|98:245,1,50,2|0,0:0|0:0,0:0:0:0:
209,44,234809,2,0,P|206:72|205:104,1,50,6|0,0:0|0:0,0:0:0:0:
281,304,235209,6,0,B|291:278|281:254|281:254|255:264|246:286,1,100,14|0,0:1|0:3,0:0:0:0:
452,250,236009,5,10,0:0:0:0:
393,155,236209,1,10,0:3:0:0:
357,309,236410,2,0,B|346:352|313:368|313:368|282:339|281:304,1,150,6|8,0:0|0:1,0:0:0:0:
319,181,237209,5,2,0:0:0:0:
357,309,237409,1,2,0:0:0:0:
449,213,237609,2,0,B|474:228|477:253|477:253|452:266|430:260,1,100,10|8,0:3|0:3,0:0:0:0:
112,101,238409,5,10,0:0:0:0:
153,211,238609,1,2,0:0:0:0:
176,60,238810,2,0,B|155:32|112:27|112:27|95:59|112:101,1,150,6|8,0:0|0:1,0:0:0:0:
244,141,239609,6,0,P|215:135|186:139,1,59.9999981689454,2|8,0:0|0:3,0:0:0:0:
237,297,240009,2,0,P|266:300|295:294,1,59.9999981689454,2|0,0:0|0:0,0:0:0:0:
310,278,240309,1,8,0:0:0:0:
320,260,240409,6,0,L|329:184,1,59.9999981689454,10|0,0:0|0:0,0:0:0:0:
192,79,240809,2,0,L|183:155,1,59.9999981689454,10|8,0:3|0:3,0:0:0:0:
152,337,241209,5,6,0:0:0:0:
152,337,242009,5,2,0:0:0:0:
152,337,242209,1,2,0:0:0:0:
256,192,242409,1,4,0:1:0:0:
360,337,243209,5,2,0:0:0:0:
360,337,243409,1,2,0:0:0:0:
256,192,243609,1,4,0:0:0:0:
256,344,244009,5,8,0:3:0:0:
360,205,244209,2,0,B|365:175|350:147|350:147|366:169|382:174,1,100,4|8,0:0|0:3,0:0:0:0:
463,88,244809,6,0,P|440:100|414:103,1,53.3333333333333,4|8,0:0|0:0,0:0:0:0:
357,84,245209,5,8,0:3:0:0:
303,110,245342,1,8,0:3:0:0:
283,166,245475,1,8,0:3:0:0:
229,191,245609,5,4,0:3:0:0:
173,170,245742,1,4,0:3:0:0:
148,115,245875,1,4,0:3:0:0:
175,49,246009,6,0,P|177:35|178:14,2,25,2|2|2,0:1|0:0|0:0,0:0:0:0:
403,130,246809,5,2,0:0:0:0:
408,116,247009,1,2,0:0:0:0:
413,102,247209,2,0,P|430:98|446:97,2,25,2|2|2,0:1|0:0|0:0,0:0:0:0:
460,313,248009,5,2,0:0:0:0:
446,308,248209,1,2,0:0:0:0:
432,303,248409,2,0,B|411:288|402:264|402:264|390:288|365:298|365:298|354:276|329:266|329:266|303:275|291:303,1,200,2|0,0:0|0:0,0:0:0:0:
95,354,250409,6,0,P|82:352|70:348,1,25,2|0,0:0|0:0,0:0:0:0:
46,200,250809,6,0,P|57:164|61:126,1,75.0000028610231,4|0,0:0|0:0,0:0:0:0:
32,17,251409,1,2,0:0:0:0:
61,127,251609,2,0,P|76:131|112:126,1,37.5000014305115,2|8,0:0|0:3,0:0:0:0:
216,32,252009,6,0,L|131:24,1,75.0000028610231,10|0,0:1|0:0,0:0:0:0:
32,17,252609,1,6,0:3:0:0:
216,32,252809,5,6,0:0:0:0:
32,17,253009,1,2,0:0:0:0:
255,91,253209,6,0,P|243:56|216:32,1,75.0000028610231,6|0,0:0|0:0,0:0:0:0:
169,108,253809,1,2,0:0:0:0:
165,199,254009,1,2,0:0:0:0:
207,279,254209,1,2,0:0:0:0:
350,266,254409,6,0,P|322:248|296:308,1,112.500004291535,10|8,0:1|0:3,0:0:0:0:
411,340,255209,5,2,0:0:0:0:
350,266,255409,1,2,0:0:0:0:
459,164,255609,6,0,P|467:123|458:86,1,75.0000028610231,6|0,0:0|0:0,0:0:0:0:
366,126,256209,1,2,0:0:0:0:
459,164,256409,2,0,P|477:166|499:166,1,37.5000014305115,2|0,0:0|0:0,0:0:0:0:
388,22,256809,6,0,L|309:16,1,75.0000028610231,10|0,0:1|0:0,0:0:0:0:
218,79,257409,1,6,0:3:0:0:
388,22,257609,5,14,0:0:0:0:
218,79,257809,1,2,0:0:0:0:
423,112,258009,6,0,P|384:95|346:91,2,75.0000028610231,6|2|2,0:0|0:0|0:0,0:0:0:0:
451,328,259209,6,0,P|414:322|385:308,1,50.0000019073487,10|0,0:1|0:0,0:0:0:0:
361,273,259609,5,8,0:3:0:0:
303,255,259742,1,8,0:3:0:0:
243,268,259875,1,8,0:3:0:0:
197,309,260009,5,4,0:3:0:0:
136,321,260142,1,4,0:3:0:0:
77,300,260275,1,4,0:3:0:0:
36,252,260409,6,0,L|34:162,1,75.0000028610231,6|0,0:0|0:0,0:0:0:0:
0,304,261009,1,2,0:0:0:0:
34,177,261209,2,0,P|53:165|82:158,1,37.5000014305115,2|0,0:0|0:0,0:0:0:0:
241,224,261609,6,0,L|156:216,1,75.0000028610231,10|0,0:1|0:0,0:0:0:0:
67,160,262209,1,6,0:3:0:0:
241,224,262409,5,6,0:0:0:0:
67,160,262609,1,10,0:3:0:0:
253,154,262809,6,0,P|257:191|241:224,1,75.0000028610231,6|0,0:0|0:0,0:0:0:0:
179,289,263409,1,2,0:0:0:0:
222,368,263609,1,2,0:0:0:0:
310,351,263809,1,2,0:0:0:0:
321,211,264009,6,0,P|318:236|320:261,1,50.0000019073487,10|0,0:1|0:0,0:0:0:0:
359,307,264409,5,8,0:0:0:0:
414,326,264542,1,8,0:0:0:0:
471,310,264675,1,8,0:0:0:0:
506,262,264809,5,8,0:3:0:0:
506,203,264942,1,8,0:3:0:0:
472,156,265075,1,8,0:3:0:0:
415,138,265209,6,0,L|345:130,1,56.2500021457673,4|0,0:0|0:0,0:0:0:0:
347,117,265609,2,0,P|343:98|344:79,1,37.5000014305115,2|8,0:0|0:3,0:0:0:0:
494,48,266009,2,0,P|497:66|496:85,1,37.5000014305115,2|8,0:0|0:3,0:0:0:0:
406,208,266409,6,0,L|335:199,1,56.2500021457673,10|0,0:1|0:0,0:0:0:0:
332,209,266809,2,0,P|323:226|318:244,1,37.5000014305115,10|0,0:3|0:0,0:0:0:0:
357,364,267209,5,10,0:3:0:0:
318,244,267409,1,10,0:3:0:0:
178,354,267609,6,0,P|123:364|75:328,1,100,4|8,0:1|0:3,0:0:0:0:
133,166,268209,2,0,P|136:191|139:216,1,50,4|0,0:2|0:0,0:0:0:0:
281,364,268609,6,0,P|284:339|287:315,1,50,4|0,0:0|0:0,0:0:0:0:
302,250,268942,1,8,0:1:0:0:
367,231,269075,1,8,0:1:0:0:
415,277,269209,5,8,0:0:0:0:
478,258,269342,1,8,0:0:0:0:
493,193,269475,1,8,0:0:0:0:
444,148,269609,5,8,0:0:0:0:
380,167,269742,1,8,0:3:0:0:
367,231,269875,1,8,0:3:0:0:
430,212,270009,5,6,0:1:0:0:
430,212,270609,1,2,0:0:0:0:
444,148,270809,1,2,0:0:0:0:
367,231,271209,6,0,P|335:232|313:218,1,50,2|0,0:1|0:0,0:0:0:0:
263,185,271809,1,2,0:0:0:0:
251,179,271909,1,2,0:0:0:0:
238,175,272009,2,0,L|204:170,1,25,2|2,0:1|0:0,0:0:0:0:
134,190,272409,6,0,L|109:186,2,25,2|2|2,0:1|0:0|0:1,0:0:0:0:
185,229,273009,5,2,0:1:0:0:
210,289,273209,1,2,0:0:0:0:
201,353,273409,1,2,0:0:0:0:
260,328,273609,6,0,P|289:322|314:323,1,50,6|0,0:3|0:0,0:0:0:0:
458,360,274409,5,2,0:1:0:0:
469,295,274609,1,2,0:0:0:0:
418,252,274809,2,0,L|384:245,2,25,2|2|2,0:1|0:0|0:0,0:0:0:0:
481,230,275409,5,2,0:0:0:0:
430,187,275609,2,0,L|396:180,1,25,2|0,0:1|0:0,0:0:0:0:
334,139,276009,6,0,P|359:137|378:122,1,50,6|0,0:3|0:0,0:0:0:0:
411,60,276609,1,2,0:0:0:0:
422,51,276709,1,2,0:0:0:0:
434,46,276809,2,0,L|458:40,1,25,2|2,0:1|0:0,0:0:0:0:
476,140,277209,6,0,P|468:130|463:118,1,25,2|0,0:1|0:0,0:0:0:0:
399,134,277609,2,0,P|387:129|377:121,1,25,2|0,0:1|0:0,0:0:0:0:
329,167,278009,2,0,P|316:168|304:166,1,25,2|0,0:1|0:0,0:0:0:0:
234,234,278409,6,0,P|258:227|283:229,1,50,6|0,0:3|0:0,0:0:0:0:
324,347,279209,5,2,0:0:0:0:
266,322,279409,1,2,0:0:0:0:
190,357,279609,5,6,0:2:0:0:
190,357,280209,1,2,0:1:0:0:
137,323,280409,2,0,P|123:321|108:320,1,25,2|0,0:1|0:0,0:0:0:0:
47,277,280809,6,0,P|64:256|71:226,1,50,2|0,0:1|0:0,0:0:0:0:
104,182,281409,1,2,0:0:0:0:
116,176,281509,1,2,0:0:0:0:
129,172,281609,2,0,L|163:167,1,25,2|2,0:1|0:0,0:0:0:0:
236,184,282009,6,0,L|261:188,2,25,2|2|2,0:1|0:0|0:1,0:0:0:0:
204,129,282609,5,2,0:1:0:0:
219,66,282809,1,2,0:0:0:0:
274,32,283009,1,2,0:0:0:0:
336,46,283209,6,0,P|360:50|389:44,1,50,2|0,0:1|0:0,0:0:0:0:
478,119,284009,5,2,0:0:0:0:
420,96,284209,1,2,0:0:0:0:
376,140,284409,6,0,P|372:154|370:173,1,25,2|0,0:1|0:0,0:0:0:0:
311,185,284809,2,0,P|314:199|322:216,1,25,2|0,0:1|0:0,0:0:0:0:
277,256,285209,2,0,P|287:266|302:277,1,25,0|0,0:1|0:0,0:0:0:0:
353,325,285609,6,0,P|328:327|306:339,2,50,2|2|2,0:1|0:1|0:1,0:0:0:0:
230,355,286809,6,0,P|228:342|228:330,1,25,2|0,0:2|0:0,0:0:0:0:
277,256,287209,2,0,P|277:243|275:231,1,25,2|0,0:1|0:0,0:0:0:0:
244,159,287609,5,2,0:0:0:0:
184,140,287809,1,2,0:0:0:0:
128,168,288009,2,0,P|102:171|73:160,1,50,2|0,0:1|0:0,0:0:0:0:
256,32,288962,5,2,0:0:0:0:
290,81,289253,1,2,0:0:0:0:
348,91,289565,1,2,0:1:0:0:
396,57,289848,1,2,0:0:0:0:
401,115,290160,5,2,0:1:0:0:
445,152,290462,1,2,0:0:0:0:
390,170,290781,6,0,P|382:194|381:219,1,50,2|2,0:0|0:0,0:0:0:0:
397,309,291367,5,2,0:0:0:0:
397,309,291474,1,2,0:1:0:0:
314,359,291836,5,2,0:0:0:0:
229,312,292220,1,2,0:0:0:0:
227,214,293444,5,2,0:0:0:0:
310,163,295065,5,2,0:0:0:0:
310,163,295178,1,2,0:0:0:0:
201,57,295803,6,0,P|180:58|152:46,2,37.5000014305115,2|2|2,0:0|0:0|0:0,0:0:0:0:
256,32,296604,5,2,0:0:0:0:
306,68,296793,1,2,0:0:0:0:
295,201,297060,5,2,0:0:0:0:
250,94,297372,1,2,0:0:0:0:
223,207,297639,1,2,0:0:0:0:
311,131,297979,5,2,0:1:0:0:
195,140,298305,1,2,0:1:0:0:
274,317,299074,5,2,0:0:0:0:
384,96,300364,6,0,L|385:88,4,6.25,6|0|0|0|0,0:3|0:0|0:0|0:0|0:0,0:0:0:0:
