osu file format v14

[General]
AudioFilename: audio.mp3
AudioLeadIn: 0
PreviewTime: 84850
Countdown: 0
SampleSet: Soft
StackLeniency: 0.3
Mode: 0
LetterboxInBreaks: 0
WidescreenStoryboard: 0

[Editor]
DistanceSpacing: 1.2
BeatDivisor: 4
GridSize: 16
TimelineZoom: 1

[Metadata]
Title:Liblume
TitleUnicode:Liblume
Artist:Shimotsuki Haruka
ArtistUnicode:霜月はるか
Creator:ImpurePug
Version:PinkHeart's Heartbreak
Source:生命のスペア
Tags:scubdomino [keqing] anime girl natsume shiki jungkyuyoung fia pinkheart i was born for you inochi no spare musubine ribbon 結び音リボン ~Sora no Oto~ visual novel eroge japanese folk
BeatmapID:3237374
BeatmapSetID:1584913

[Difficulty]
HPDrainRate:8
CircleSize:4.2
OverallDifficulty:8
ApproachRate:8
SliderMultiplier:1.6
SliderTickRate:1

[Events]
//Background and Video events
0,0,"bg.jpg",0,0
//Break Periods
2,62250,70300
2,83850,84500
2,153650,157790
//Storyboard Layer 0 (Background)
//Storyboard Layer 1 (Fail)
//Storyboard Layer 2 (Pass)
//Storyboard Layer 3 (Foreground)
//Storyboard Layer 4 (Overlay)
//Storyboard Sound Samples

[TimingPoints]
3250,400,3,2,0,10,1,0
4050,-200,3,2,0,10,0,0
11250,-200,3,2,0,20,0,0
11450,-200,3,2,0,25,0,0
11650,-200,3,2,0,30,0,0
12050,-200,3,2,0,37,0,0
12450,-200,3,2,0,45,0,0
12850,-66.6666666666667,3,2,0,50,0,0
12916,-66.6666666666667,3,2,0,5,0,0
13650,-66.6666666666667,3,2,0,35,0,0
14050,-100,3,2,1,45,0,1
14150,-100,3,2,1,45,0,0
16050,-100,3,2,2,45,0,0
17050,-100,3,2,1,45,0,0
18850,-100,3,2,2,45,0,0
19250,-100,3,2,1,45,0,0
22450,-200,3,2,3,45,0,0
22850,-200,3,2,3,20,0,0
23450,-200,3,2,1,20,0,0
23650,-200,3,2,3,20,0,0
24450,-200,3,2,3,15,0,0
37650,-200,3,2,3,18,0,0
38050,-200,3,2,3,21,0,0
40050,-200,3,2,3,15,0,0
42050,-200,3,2,1,20,0,0
42250,-200,3,2,1,28,0,0
42850,-100,3,2,1,30,0,0
44850,-100,3,2,3,30,0,0
45250,-100,3,2,1,30,0,0
47250,-100,3,2,3,30,0,0
47650,-100,3,2,2,30,0,0
48450,-100,3,2,1,30,0,0
49650,-100,3,2,3,30,0,0
50050,-100,3,2,1,30,0,0
52050,-100,3,2,3,30,0,0
52250,-100,3,2,1,30,0,0
52450,-100,3,2,2,30,0,0
52850,-100,3,2,1,30,0,0
54450,-100,3,2,3,30,0,0
54850,-100,3,2,1,30,0,0
56850,-100,3,2,3,30,0,0
57250,-100,3,2,2,30,0,0
57650,-80,3,2,1,30,0,0
58050,-66.6666666666667,3,2,1,30,0,0
59250,-66.6666666666667,3,2,3,30,0,0
59650,-100,3,2,1,30,0,0
60050,-80,3,2,1,30,0,0
60450,-66.6666666666667,3,2,1,30,0,0
61650,-100,3,2,3,30,0,0
62050,-100,3,2,2,30,0,0
71250,-100,3,2,1,30,0,0
71650,-100,3,2,1,38,0,0
72450,-100,3,2,2,38,0,0
72850,-100,3,2,1,38,0,0
75650,-100,3,2,2,38,0,0
76050,-100,3,2,1,38,0,0
76450,-100,3,2,2,38,0,0
77050,-100,3,2,1,38,0,0
77950,-100,3,2,1,5,0,0
78050,-80,3,2,1,42,0,0
78350,-80,3,2,1,5,0,0
78450,-66.6666666666667,3,2,1,42,0,0
78750,-66.6666666666667,3,2,1,5,0,0
78850,-100,3,2,1,42,0,0
80050,-80,3,2,1,42,0,0
80350,-80,3,2,1,5,0,0
80450,-80,3,2,1,42,0,0
80750,-80,3,2,1,5,0,0
80850,-80,3,2,1,42,0,0
81150,-80,3,2,1,5,0,0
81250,-100,3,2,2,42,0,0
81650,-100,3,2,1,42,0,0
82850,-100,3,2,3,42,0,0
83050,-100,3,2,1,42,0,0
83650,-100,3,2,3,15,0,0
85250,-200,3,2,3,15,0,0
86050,-66.6666666666667,3,2,1,42,0,1
86850,-66.6666666666667,3,2,2,42,0,1
87250,-66.6666666666667,3,2,1,42,0,1
88450,-66.6666666666667,3,2,2,42,0,1
88850,-66.6666666666667,3,2,1,42,0,1
89250,-66.6666666666667,3,2,2,42,0,1
89650,-66.6666666666667,3,2,4,42,0,1
90449,-66.6666666666667,3,2,1,42,0,1
92050,-66.6666666666667,3,2,4,42,0,1
92450,-66.6666666666667,3,2,1,42,0,1
93250,-66.6666666666667,3,2,4,42,0,1
93650,-66.6666666666667,3,2,1,42,0,1
95250,-66.6666666666667,3,2,4,42,0,1
95650,-66.6666666666667,3,2,1,42,0,1
96450,-66.6666666666667,3,2,2,42,0,1
96850,-66.6666666666667,3,2,1,42,0,1
98050,-66.6666666666667,3,2,2,42,0,1
98450,-66.6666666666667,3,2,1,42,0,1
98850,-66.6666666666667,3,2,2,42,0,1
99250,-66.6666666666667,3,2,4,42,0,1
100450,-66.6666666666667,3,2,1,42,0,1
102850,-66.6666666666667,3,2,2,42,0,1
103250,-66.6666666666667,3,2,1,42,0,1
106050,-66.6666666666667,3,2,1,42,0,0
106450,-66.6666666666667,3,2,2,42,0,1
107250,-66.6666666666667,3,2,1,42,0,0
107650,-66.6666666666667,3,2,1,42,0,1
108250,-66.6666666666667,3,2,2,42,0,1
108850,-66.6666666666667,3,2,1,42,0,1
110049,-66.6666666666667,3,2,1,15,0,0
113650,-200,3,2,1,15,0,0
114450,-66.6666666666667,3,2,1,35,0,0
114850,-100,3,2,1,35,0,1
114950,-100,3,2,1,35,0,0
116850,-100,3,2,2,45,0,0
117850,-100,3,2,1,45,0,0
121650,-100,3,2,2,45,0,0
122350,-100,3,2,2,5,0,0
122450,-100,3,2,1,45,0,0
122750,-100,3,2,1,5,0,0
122850,-100,3,2,1,45,0,0
123150,-100,3,2,1,5,0,0
123250,-100,3,2,1,45,0,0
123550,-100,3,2,1,5,0,0
123650,-100,3,2,1,45,0,0
126450,-100,3,2,2,45,0,0
127450,-100,3,2,1,45,0,0
128350,-100,3,2,1,5,0,0
128450,-100,3,2,1,45,0,0
129250,-66.6666666666667,3,2,1,45,0,0
129550,-66.6666666666667,3,2,1,5,0,0
129650,-66.6666666666667,3,2,1,45,0,0
129950,-66.6666666666667,3,2,1,5,0,0
130050,-66.6666666666667,3,2,1,45,0,0
130350,-66.6666666666667,3,2,1,5,0,0
130450,-66.6666666666667,3,2,1,45,0,0
130750,-66.6666666666667,3,2,1,5,0,0
130850,-66.6666666666667,3,2,1,45,0,0
131150,-66.6666666666667,3,2,1,5,0,0
131250,-66.6666666666667,3,2,1,45,0,0
132250,-66.6666666666667,3,2,4,45,0,0
132650,-66.6666666666667,3,2,2,45,0,0
132850,-66.6666666666667,3,2,1,45,0,0
132983,-66.6666666666667,3,2,1,38,0,0
133116,-66.6666666666667,3,2,1,32,0,0
133250,-66.6666666666667,3,2,1,48,0,0
133383,-66.6666666666667,3,2,1,52,0,0
133517,-66.6666666666667,3,2,1,42,0,0
133650,-66.6666666666667,3,2,1,45,0,0
134850,-66.6666666666667,3,2,1,25,0,0
143250,-100,3,2,1,25,0,0
158540,400,3,2,1,25,1,0

[Colours]
Combo1 : 255,213,236
Combo2 : 255,85,140
Combo3 : 255,128,169
Combo4 : 255,170,200

[HitObjects]
64,158,4050,54,0,P|83:145|96:126,1,40,0|0,2:0|2:0,2:0:0:0:
109,77,4450,6,0,P|120:126|176:162,1,120,2|0,2:0|2:0,2:0:0:0:
252,158,5250,1,0,2:0:0:0:
380,146,5650,2,0,P|416:160|444:190,1,80,0|0,2:0|2:0,2:0:0:0:
464,262,6250,1,0,2:0:0:0:
388,266,6450,2,0,P|377:249|372:230,1,40,2|0,2:0|2:0,2:0:0:0:
380,146,6850,6,0,P|388:106|380:66,1,80,0|0,2:0|2:0,2:0:0:0:
336,10,7450,1,0,2:0:0:0:
308,78,7650,1,0,2:0:0:0:
244,114,7850,1,0,2:0:0:0:
172,126,8050,2,0,P|128:118|98:99,2,80,0|0|0,2:0|2:0|2:0,2:0:0:0:
244,114,9050,1,0,2:0:0:0:
312,86,9250,6,0,P|350:80|389:92,1,80,2|0,2:0|2:0,2:0:0:0:
442,144,9850,1,0,2:0:0:0:
377,185,10050,2,0,P|358:175|345:161,1,40,0|0,2:0|2:0,2:0:0:0:
345,161,10450,2,0,P|357:220|348:250,1,80,0|0,2:0|2:0,2:0:0:0:
304,296,11050,1,0,2:0:0:0:
232,316,11250,1,2,2:0:0:0:
164,288,11450,1,0,2:0:0:0:
124,228,11650,6,0,L|128:172,1,40,0|0,2:0|2:0,2:0:0:0:
72,136,12050,2,0,L|76:80,1,40,0|0,2:0|2:0,2:0:0:0:
20,44,12450,2,0,L|24:-12,1,40,0|0,2:0|2:0,2:0:0:0:
150,32,12850,6,0,L|148:72,1,40.000001525879,2|0,2:0|2:0,2:0:0:0:
148,71,13650,38,0,P|164:120|220:156,1,120.000004577637,0|0,2:0|2:0,2:0:0:0:
335,152,14050,6,0,B|363:137|373:116|368:88|368:88|334:108|323:158|337:202|373:227,1,240,12|0,2:1|2:0,2:0:0:0:
460,248,14850,2,0,P|496:240|528:208,1,80,8|8,2:0|2:1,2:0:0:0:
248,144,15250,2,0,P|176:160|124:228,1,160,12|0,3:2|2:0,2:0:0:0:
108,320,15850,1,10,2:1:0:0:
88,120,16050,1,14,1:0:0:0:
230,252,16250,1,0,2:0:0:0:
24,188,16450,6,0,P|0:144|48:36,1,160,14|0,2:0|2:0,2:0:0:0:
104,232,17050,1,2,2:0:0:0:
196,124,17250,2,0,P|244:108|292:112,1,80,8|8,2:0|2:1,2:0:0:0:
310,344,17650,2,0,P|251:295|253:218,2,160,12|2|0,3:2|2:0|1:0,2:0:0:0:
432,184,18650,1,0,1:0:0:0:
253,217,18850,6,0,P|201:205|149:157,1,120,12|0,2:0|2:0,2:0:0:0:
152,162,19250,2,0,P|167:213|152:282,1,120,2|0,2:0|2:0,2:0:0:0:
154,277,19650,2,0,P|190:237|257:216,1,120,8|0,2:0|2:0,2:0:0:0:
326,222,20050,2,0,P|353:169|353:110,1,120,4|0,3:2|2:0,2:0:0:0:
274,30,20450,2,0,P|246:82|246:141,1,120,10|0,2:1|2:0,2:0:0:0:
326,222,20850,1,8,2:0:0:0:
462,134,21050,1,2,2:0:0:0:
336,340,21250,6,0,B|279:356|199:358|144:320|155:251|210:233|234:258|241:287|228:300|228:300|185:347|109:323,1,400,12|2,2:1|2:3,2:0:0:0:
92,320,22350,1,2,2:3:0:0:
76,309,22450,2,0,P|60:289|48:237,2,80,8|0|0,2:0|2:0|2:0,2:0:0:0:
148,337,23450,1,2,2:0:0:0:
224,333,23650,5,4,2:3:0:0:
224,333,24450,1,2,2:0:0:0:
292,369,24850,2,0,P|348:361|356:297,1,120,0|0,2:0|2:0,2:0:0:0:
304,164,25650,2,0,P|300:140|300:120,1,40,0|0,3:0|2:0,2:0:0:0:
332,232,26050,6,0,P|284:260|208:252,1,120,2|0,2:0|3:0,2:0:0:0:
156,225,26850,2,0,P|112:217|64:225,1,80,0|0,2:0|2:0,2:0:0:0:
77,221,27650,2,0,L|36:237,1,40,2|0,2:0|2:0,2:0:0:0:
72,305,28050,2,0,L|54:345,1,40,0|0,3:0|2:0,2:0:0:0:
144,328,28450,6,0,P|184:300|192:260,1,80,0|0,2:0|3:0,2:0:0:0:
180,200,29050,2,0,P|176:168|240:228,1,240,2|0,2:0|2:0,2:0:0:0:
252,223,30450,2,0,L|304:225,1,40,0|0,3:0|2:0,2:0:0:0:
356,264,30850,6,0,P|396:256|432:224,1,80,2|0,2:0|2:0,2:0:0:0:
428,148,31450,2,0,P|388:156|352:188,1,80,0|0,3:0|2:0,2:0:0:0:
357,179,32050,1,2,2:0:0:0:
300,80,32450,1,0,2:0:0:0:
272,216,32850,2,0,P|256:240|240:252,1,40,2|0,2:0|3:0,2:0:0:0:
172,264,33250,6,0,P|132:256|64:292,1,120,2|0,2:0|3:0,2:0:0:0:
124,364,34050,2,0,P|148:348|160:332,1,40,0|0,2:0|2:0,2:0:0:0:
172,264,34450,2,0,P|164:224|200:156,1,120,2|0,2:0|2:0,2:0:0:0:
272,128,35250,1,0,3:0:0:0:
344,252,35650,6,0,P|400:272|432:264,1,80,0|0,2:0|2:0,2:0:0:0:
484,228,36250,2,0,P|504:172|496:140,1,80,0|0,3:0|2:0,2:0:0:0:
468,84,36850,1,0,2:0:0:0:
400,188,37250,1,2,2:0:0:0:
276,164,37650,1,0,3:0:0:0:
208,8,38050,6,0,P|192:60|212:120,1,120,2|0,2:0|3:0,2:0:0:0:
276,164,38850,1,2,2:0:0:0:
128,136,39250,2,0,B|68:136|40:172|40:172|80:188,1,120,0|0,2:0|2:0,2:0:0:0:
128,212,40050,1,0,3:0:0:0:
144,64,40450,1,0,2:0:0:0:
276,164,40850,5,0,3:2:0:0:
400,188,41250,1,2,2:0:0:0:
484,160,41650,1,0,2:0:0:0:
512,112,42050,1,2,2:0:0:0:
432,232,42250,1,0,1:0:0:0:
428,256,42350,1,0,1:0:0:0:
432,280,42450,1,8,2:3:0:0:
408,144,42650,1,4,1:3:0:0:
328,328,42850,6,0,P|268:364|188:332,1,160,12|0,2:1|2:0,2:0:0:0:
100,200,43450,1,8,2:1:0:0:
176,256,43650,2,0,P|191:293|189:333,1,80,8|8,2:0|2:1,2:0:0:0:
12,212,44050,2,0,P|36:136|128:112,1,160,12|0,1:2|2:0,2:0:0:0:
232,220,44650,1,2,2:3:0:0:
256,236,44750,1,2,2:3:0:0:
284,236,44850,1,10,2:1:0:0:
376,136,45050,1,0,2:0:0:0:
312,308,45250,6,0,B|298:350|325:383|325:383|362:363|367:318,1,160,8|0,3:2|2:0,2:0:0:0:
312,172,45850,1,0,2:0:0:0:
192,328,46050,2,0,P|152:352|120:356,1,80,8|8,2:0|2:1,2:0:0:0:
107,101,46450,2,0,P|153:105|181:120,1,80,12|0,1:2|2:0,2:0:0:0:
42,336,46850,2,0,P|6:305|-6:276,1,80,2|0,2:0|2:3,2:0:0:0:
232,184,47250,2,0,P|242:229|236:261,1,80,10|0,2:1|2:0,2:0:0:0:
0,196,47650,6,0,P|8:153|112:128,1,160,10|0,2:1|2:0,2:0:0:0:
236,261,48250,1,8,2:1:0:0:
328,160,48450,2,0,P|320:112|296:80,1,80,8|8,2:0|2:1,2:0:0:0:
236,261,48850,2,0,P|186:305|61:296,1,160,12|0,1:2|2:0,2:0:0:0:
68,92,49450,1,2,2:3:0:0:
97,101,49550,1,2,2:3:0:0:
119,122,49650,2,0,P|138:167|131:204,1,80,10|0,2:1|2:0,2:0:0:0:
0,281,50050,21,8,3:2:0:0:
101,338,50250,1,2,2:0:0:0:
173,282,50450,5,0,2:0:0:0:
274,339,50650,1,0,2:0:0:0:
346,283,50850,5,8,2:0:0:0:
447,340,51050,1,8,2:1:0:0:
289,212,51250,6,0,P|265:158|266:125,1,80,12|0,1:2|2:0,2:0:0:0:
346,283,51650,2,0,P|369:336|368:369,1,80,0|2,2:0|2:3,2:0:0:0:
364,193,51950,1,2,2:3:0:0:
364,193,52050,2,0,P|324:195|288:213,1,80,10|2,2:1|2:0,2:0:0:0:
170,336,52450,6,0,B|126:345|95:316|95:316|118:280|162:281,1,160,12|2,2:0|2:0,2:0:0:0:
242,384,53050,1,8,2:1:0:0:
53,239,53250,2,0,P|40:189|47:153,1,80,8|8,2:0|2:1,2:0:0:0:
162,281,53650,2,0,P|210:293|299:227,1,160,12|0,1:2|2:0,2:0:0:0:
222,67,54250,1,2,2:3:0:0:
201,92,54350,1,2,2:3:0:0:
192,123,54450,2,0,P|193:162|210:199,1,80,10|0,2:1|2:0,2:0:0:0:
376,269,54850,6,0,P|436:234|464:152,1,160,8|0,3:2|2:0,2:0:0:0:
348,156,55450,2,0,P|281:115|257:40,1,160,2|8,2:0|2:1,2:0:0:0:
489,78,56050,2,0,P|484:118|464:152,1,80,12|0,1:2|2:0,2:0:0:0:
394,300,56450,2,0,P|398:260|419:226,1,80,0|2,2:0|2:3,2:0:0:0:
446,370,56750,1,2,2:3:0:0:
446,370,56850,2,0,P|409:385|369:384,1,80,10|0,2:1|2:0,2:0:0:0:
184,298,57250,6,0,P|135:315|109:341,1,80,10|0,2:0|2:0,2:0:0:0:
249,217,57650,2,0,P|186:198|141:205,1,100,2|8,2:0|2:1,2:0:0:0:
366,187,58050,2,0,P|333:137|283:104,1,120.000004577637,8|8,2:0|2:1,2:0:0:0:
316,279,58450,2,0,P|425:273|463:161,1,240.000009155274,12|0,1:2|2:0,2:0:0:0:
410,328,59050,1,2,2:3:0:0:
385,354,59150,1,2,2:3:0:0:
351,367,59250,2,0,P|278:364|238:327,1,120.000004577637,10|0,2:1|2:0,2:0:0:0:
261,223,59650,6,0,P|294:244|315:278,1,80,8|0,3:2|2:0,2:0:0:0:
224,124,60050,2,0,P|273:121|320:139,1,100,0|0,2:0|2:0,2:0:0:0:
121,61,60450,2,0,P|167:23|225:8,1,120.000004577637,8|8,2:0|2:1,2:0:0:0:
261,223,60850,2,0,B|253:290|199:320|199:320|158:270|178:207,1,240.000009155274,12|0,1:2|2:0,2:0:0:0:
329,88,61450,1,2,2:3:0:0:
351,118,61550,1,2,2:3:0:0:
329,148,61650,2,0,P|293:135|292:98,1,80,10|0,2:1|2:0,2:0:0:0:
512,73,62050,5,14,2:0:0:0:
430,206,71050,37,0,1:0:0:0:
430,206,71150,1,0,1:0:0:0:
430,206,71250,1,8,2:3:0:0:
373,116,71450,1,8,2:3:0:0:
347,259,71650,6,0,P|316:312|205:322,1,160,12|0,2:1|2:0,2:0:0:0:
107,204,72250,1,0,2:0:0:0:
143,280,72450,2,0,P|132:333|103:368,1,80,10|0,2:1|2:0,2:0:0:0:
107,204,72850,2,0,B|166:170|222:197|222:197|206:259|143:280,1,240.000009155274,12|8,1:2|2:1,2:0:0:0:
107,204,73650,2,0,P|118:151|147:116,1,80,8|0,2:0|2:0,2:0:0:0:
174,0,74050,6,0,P|193:55|212:72,1,80,8|0,3:2|2:0,2:0:0:0:
373,276,74450,2,0,P|362:223|333:188,1,80,2|0,2:0|2:0,2:0:0:0:
306,72,74850,2,0,P|287:127|268:144,1,80,8|0,2:0|2:0,2:0:0:0:
173,295,75250,2,0,P|218:236|286:267,1,160,12|0,1:2|3:0,2:0:0:0:
285,266,75750,1,0,3:0:0:0:
285,266,75850,1,0,3:0:0:0:
192,154,76050,2,0,P|142:131|97:134,1,80,8|0,2:0|2:0,2:0:0:0:
60,323,76450,6,0,P|127:353|173:295,1,160,12|0,2:1|2:0,2:0:0:0:
244,190,77050,2,0,P|177:160|132:219,1,160,2|0,2:0|2:0,2:0:0:0:
289,348,77650,6,0,P|290:303|265:340,1,120,12|0,1:2|2:0,2:0:0:0:
355,336,78050,38,0,P|323:289|325:345,1,150,0|2,2:0|2:3,2:0:0:0:
406,285,78450,38,0,P|342:261|384:314,1,180.000006866455,8|0,2:0|2:0,2:0:0:0:
451,198,78850,38,0,P|415:132|332:147,1,160,8|2,3:2|2:0,2:0:0:0:
196,164,79450,2,0,P|232:230|315:215,1,160,0|0,2:0|2:0,2:0:0:0:
100,80,80050,6,0,B|60:67|30:92|30:92|48:126|90:131,1,150,12|0,1:2|2:0,2:0:0:0:
211,90,80450,6,0,B|241:62|234:22|234:22|196:21|171:55,1,150,2|0,2:0|2:0,2:0:0:0:
147,181,80850,6,0,B|155:221|193:235|193:235|213:202|196:163,1,150,8|0,2:0|2:0,2:0:0:0:
91,131,81250,6,0,P|71:179|86:226,1,80,12|0,2:0|2:0,2:0:0:0:
115,274,81650,1,2,2:3:0:0:
147,181,81850,1,2,2:0:0:0:
246,129,82050,1,8,2:0:0:0:
373,127,82250,1,0,2:0:0:0:
497,195,82450,6,0,P|509:245|490:288,1,80,12|0,1:2|2:0,2:0:0:0:
348,358,82850,1,8,2:0:0:0:
250,230,83050,1,8,2:1:0:0:
264,86,83250,1,0,1:0:0:0:
336,191,83450,1,0,1:0:0:0:
295,296,83650,5,4,2:3:0:0:
169,325,85250,6,0,P|198:273|197:214,1,120,0|0,2:0|2:0,2:0:0:0:
114,225,86050,2,0,P|128:283|170:326,1,120,12|0,2:1|2:0,2:0:0:0:
78,149,86450,6,0,B|15:170|-1:232|-1:232|55:259|114:225,1,240.000009155274,2|6,2:0|1:0,2:0:0:0:
234,71,87050,1,8,2:1:0:0:
306,273,87250,38,0,B|320:338|277:383|277:383|223:349|223:283,1,240.000009155274,12|0,3:2|2:0,2:0:0:0:
394,353,87850,1,2,2:0:0:0:
108,291,88050,6,0,P|135:238|186:207,1,120,8|8,1:2|2:1,2:0:0:0:
186,207,88450,38,0,P|150:159|142:100,1,120.000004577637,14|0,2:0|2:0,2:0:0:0:
223,283,88850,6,0,P|167:302|108:291,1,120,2|8,2:0|2:1,2:0:0:0:
142,101,89250,38,0,P|200:111|245:149,1,120,6|8,1:0|2:1,2:0:0:0:
376,256,89650,6,0,B|414:201|390:142|390:142|329:153|303:216,1,240.000009155274,14|0,1:2|1:0,2:0:0:0:
304,296,90183,1,0,1:0:0:0:
372,336,90316,1,0,1:0:0:0:
376,256,90449,1,4,3:0:0:0:
292,303,90583,1,8,2:1:0:0:
196,302,90716,1,8,2:1:0:0:
109,259,90850,6,0,B|54:215|60:154|60:154|124:148|165:199,1,240.000009155274,12|2,2:1|2:0,2:0:0:0:
196,302,91450,2,0,P|152:342|94:354,1,120,0|8,1:0|2:0,2:0:0:0:
191,111,91850,1,8,2:1:0:0:
376,171,92050,38,0,P|418:129|435:73,1,120,6|0,3:2|2:0,2:0:0:0:
327,242,92450,38,0,P|378:271|437:268,1,120,4|0,2:3|1:0,2:0:0:0:
247,217,92850,38,0,P|234:274|255:330,1,120,8|0,2:0|2:0,2:0:0:0:
435,72,93250,22,0,P|375:71|323:100,1,120,4|0,3:1|2:0,2:0:0:0:
438,268,93650,38,0,P|419:211|376:171,1,120,2|0,2:0|1:0,2:0:0:0:
255,330,94050,38,0,P|303:295|327:241,1,120,8|0,2:0|2:0,2:0:0:0:
183,147,94450,37,4,1:2:0:0:
169,200,94550,1,0,1:0:0:0:
178,254,94650,1,8,2:1:0:0:
208,300,94750,1,8,2:1:0:0:
255,330,94850,1,8,2:3:0:0:
309,339,94950,1,8,2:3:0:0:
362,325,95050,1,8,2:1:0:0:
405,291,95150,1,8,2:1:0:0:
431,243,95250,1,12,1:2:0:0:
435,188,95350,1,0,2:0:0:0:
417,136,95450,1,0,2:0:0:0:
379,96,95550,1,0,2:0:0:0:
327,73,95650,38,0,P|268:72|216:101,1,120,12|0,2:1|2:0,2:0:0:0:
84,208,96050,2,0,B|34:163|42:101|42:101|106:97|146:151,1,240.000009155274,2|6,2:0|1:0,2:0:0:0:
112,312,96650,1,8,2:1:0:0:
145,150,96850,6,0,B|172:87|233:76|233:76|257:136|218:190,1,240.000009155274,6|0,3:2|2:0,2:0:0:0:
32,184,97450,1,2,2:0:0:0:
202,271,97650,38,0,P|201:330|172:382,1,120.000004577637,8|8,1:2|2:1,2:0:0:0:
314,251,98050,6,0,P|260:277|201:271,1,120,14|0,2:0|2:0,2:0:0:0:
218,190,98450,2,0,P|274:208|314:252,1,120,2|8,2:0|2:1,2:0:0:0:
172,382,98850,38,0,P|131:339|118:281,1,120,6|8,1:0|2:1,2:0:0:0:
84,206,99250,6,0,B|20:227|4:288|4:288|59:316|118:281,1,240.000009155274,14|8,1:2|2:1,2:0:0:0:
268,112,99850,1,8,2:1:0:0:
343,291,100050,38,0,P|412:323|480:308,1,120.000004577637,8|8,1:2|2:1,2:0:0:0:
265,267,100450,2,0,B|237:328|271:381|271:381|329:358|343:291,1,240.000009155274,12|2,1:1|2:0,2:0:0:0:
341,155,101050,1,0,1:0:0:0:
265,267,101250,38,0,P|205:262|155:228,1,120.000004577637,8|8,2:0|2:1,2:0:0:0:
343,292,101650,2,0,B|328:358|271:381|271:381|237:328|265:267,1,240.000009155274,12|0,2:0|1:0,2:0:0:0:
428,344,102250,1,8,2:1:0:0:
316,165,102450,38,0,P|259:153|202:172,1,120.000004577637,8|8,1:2|2:1,2:0:0:0:
399,165,102850,2,0,B|406:98|357:58|357:58|309:97|316:165,1,240.000009155274,14|2,1:1|2:0,2:0:0:0:
444,280,103450,1,0,1:0:0:0:
204,174,103650,38,0,P|165:240|173:308,1,120.000004577637,8|8,2:0|2:1,2:0:0:0:
268,81,104050,2,0,P|193:64|130:94,1,120.000004577637,12|0,1:2|2:0,2:0:0:0:
376,113,104450,2,0,P|368:36|321:-13,1,120.000004577637,2|8,2:3|2:1,2:0:0:0:
378,225,104850,2,0,P|448:194|481:133,1,120.000004577637,0|8,1:0|2:1,2:0:0:0:
206,159,105250,38,0,B|143:180|127:242|127:242|183:269|242:235,1,240.000009155274,12|0,2:1|2:0,2:0:0:0:
242,235,106050,2,0,B|252:259|276:283|276:283|303:264|315:237,1,120.000004577637,2|0,2:0|2:0,2:0:0:0:
329,105,106450,38,0,B|343:40|297:-5|297:-5|246:30|246:99,1,240.000009155274,12|0,2:1|2:0,2:0:0:0:
246,98,107250,2,0,B|219:94|186:103|186:103|189:136|205:159,1,120.000004577637,2|0,2:0|2:0,2:0:0:0:
314,237,107650,38,0,B|363:281|425:263|425:263|420:201|361:167,1,240.000009155274,12|8,2:1|2:1,2:0:0:0:
232,216,108250,38,0,B|207:277|245:329|245:329|302:304|314:237,1,240.000009155274,4|8,1:2|2:1,2:0:0:0:
244,93,108850,37,12,2:1:0:0:
167,75,108983,1,8,1:0:0:0:
92,100,109116,1,0,1:0:0:0:
43,162,109249,37,0,1:0:0:0:
34,240,109383,1,8,1:3:0:0:
68,311,109516,1,8,1:3:0:0:
136,353,109649,37,4,2:3:0:0:
215,352,109783,1,4,2:3:0:0:
281,308,109916,1,4,2:3:0:0:
313,237,110049,37,0,2:0:0:0:
313,237,111250,1,0,2:0:0:0:
313,237,112450,1,2,2:0:0:0:
281,308,112850,1,0,2:0:0:0:
215,352,113250,1,0,2:0:0:0:
136,353,113650,2,0,P|68:313|37:244,1,120,0|0,2:0|2:0,2:0:0:0:
47,279,114450,38,0,P|123:263|193:293,1,120,2|0,2:0|2:0,2:0:0:0:
304,340,114850,6,0,B|343:359|388:349|426:314|426:275|426:275|400:285|386:304|388:336,1,240,12|0,2:1|2:0,2:0:0:0:
500,232,115650,2,0,P|492:168|472:136,1,80,8|8,2:0|2:1,2:0:0:0:
412,0,116050,2,0,P|384:64|296:100,1,160,12|0,3:2|2:0,2:0:0:0:
120,72,116650,1,10,2:1:0:0:
96,84,116750,1,0,2:0:0:0:
80,104,116850,1,14,1:0:0:0:
216,72,117050,1,0,2:0:0:0:
112,192,117250,6,0,P|112:264|192:308,1,160,14|0,2:0|2:0,2:0:0:0:
300,172,117850,1,2,2:0:0:0:
360,304,118050,2,0,P|350:342|324:372,1,80,8|8,2:0|2:1,2:0:0:0:
208,160,118450,2,0,P|224:120|332:84,1,160,12|2,3:2|2:0,2:0:0:0:
420,228,119050,1,2,2:3:0:0:
300,172,119250,1,8,2:0:0:0:
454,67,119450,1,0,2:0:0:0:
468,252,119650,6,0,P|428:312|344:312,1,160,12|0,2:1|2:0,2:0:0:0:
204,168,120250,1,2,2:0:0:0:
176,324,120450,2,0,P|215:321|246:297,1,80,8|0,2:0|2:0,2:0:0:0:
224,84,120850,2,0,P|136:112|124:196,1,160,12|0,3:2|2:0,2:0:0:0:
283,203,121450,1,8,2:1:0:0:
294,180,121550,1,8,2:1:0:0:
290,154,121650,1,14,1:0:0:0:
213,254,121850,1,8,2:1:0:0:
280,32,122050,6,0,P|330:1|390:0,1,120,14|0,2:0|2:0,2:0:0:0:
389,0,122450,2,0,P|370:56|328:97,1,120,2|0,2:0|2:0,2:0:0:0:
327,97,122850,38,0,P|372:136|390:192,1,120,8|0,2:0|2:0,2:0:0:0:
390,193,123250,2,0,P|331:194|279:166,1,120,14|0,3:2|2:0,2:0:0:0:
278,165,123650,37,8,2:1:0:0:
249,239,123783,1,0,1:0:0:0:
199,300,123916,1,0,1:0:0:0:
129,339,124050,37,8,2:3:0:0:
98,267,124183,1,8,2:3:0:0:
95,187,124316,1,8,2:3:0:0:
119,111,124450,38,0,B|146:48|207:37|207:37|231:97|192:151,1,240.000009155274,12|0,2:1|2:0,2:0:0:0:
100,286,125250,2,0,P|118:250|148:224,1,80,8|0,2:0|2:0,2:0:0:0:
376,249,125650,38,0,P|307:287|232:268,1,160,12|0,3:2|2:0,2:0:0:0:
104,108,126250,1,8,2:1:0:0:
120,128,126350,1,8,2:1:0:0:
128,152,126450,1,14,1:0:0:0:
48,308,126650,1,8,2:1:0:0:
192,80,126850,38,0,B|224:51|270:49|316:73|326:111|326:111|298:108|280:93|274:62,1,240,14|2,2:0|2:0,2:0:0:0:
416,28,127650,2,0,P|456:36|496:68,1,80,8|8,2:0|2:1,2:0:0:0:
455,234,128050,38,0,P|420:187|415:128,1,120,14|0,3:2|2:0,2:0:0:0:
415,128,128450,1,8,2:1:0:0:
456,195,128583,1,0,1:0:0:0:
476,272,128716,1,0,1:0:0:0:
466,351,128850,1,8,2:3:0:0:
390,333,128983,1,4,2:3:0:0:
324,288,129116,1,4,2:3:0:0:
273,221,129250,38,0,B|240:181|254:136|254:136|302:141|324:185,1,180.000006866455,12|0,2:1|2:0,2:0:0:0:
291,282,129650,38,0,B|243:300|205:273|205:273|224:229|273:221,1,180.000006866455,2|0,2:0|2:0,2:0:0:0:
354,284,130050,38,0,B|356:334|319:363|319:363|283:331|291:282,1,180.000006866455,8|0,2:0|2:0,2:0:0:0:
376,225,130450,38,0,B|425:238|440:282|440:282|399:306|354:284,1,180.000006866455,4|0,3:2|2:0,2:0:0:0:
327,187,130850,38,0,B|354:144|401:143|401:143|411:190|376:225,1,180.000006866455,10|0,2:1|2:0,2:0:0:0:
276,224,131250,5,8,2:0:0:0:
144,68,131450,1,8,2:1:0:0:
64,352,131650,6,0,P|121:292|132:252,1,120.000004577637,12|0,1:0|2:0,2:0:0:0:
132,124,132050,1,8,2:1:0:0:
240,8,132250,6,0,P|219:87|231:128,1,120.000004577637,4|8,1:0|2:1,2:0:0:0:
295,239,132650,1,4,1:2:0:0:
378,129,132850,5,4,2:0:0:0:
383,89,132983,1,0,1:0:0:0:
373,50,133116,1,0,1:0:0:0:
345,124,133250,37,0,1:0:0:0:
364,201,133383,1,0,1:0:0:0:
422,254,133517,1,0,1:0:0:0:
388,325,133650,37,0,1:0:0:0:
309,316,133783,1,8,2:3:0:0:
295,239,133916,1,4,2:3:0:0:
476,328,134050,37,12,2:1:0:0:
476,328,134850,5,8,2:0:0:0:
376,348,135250,1,12,2:0:0:0:
424,236,135850,5,0,2:0:0:0:
424,236,135950,1,0,2:0:0:0:
424,236,136050,1,8,2:0:0:0:
354,310,136450,1,8,2:0:0:0:
327,192,137250,5,8,2:0:0:0:
314,293,137650,1,12,2:0:0:0:
223,213,138250,5,0,2:0:0:0:
223,213,138350,1,0,2:0:0:0:
223,213,138450,1,8,2:0:0:0:
272,302,138850,1,8,2:0:0:0:
181,222,139650,5,8,2:0:0:0:
168,323,140050,1,12,2:0:0:0:
141,205,140650,5,0,2:0:0:0:
141,205,140750,1,0,2:0:0:0:
141,205,140850,1,8,2:0:0:0:
71,278,141250,1,8,2:0:0:0:
119,167,142050,5,8,2:0:0:0:
19,187,142450,1,12,2:0:0:0:
256,140,143050,37,0,2:0:0:0:
256,140,143150,1,0,2:0:0:0:
256,140,143250,2,0,P|292:124|324:68,1,80,8|0,2:0|2:0,2:0:0:0:
332,10,143650,22,0,B|400:17|429:72|429:72|380:113|317:93,1,240.000009155274,12|0,2:1|2:0,2:0:0:0:
240,52,144450,1,8,2:0:0:0:
128,80,144850,6,0,P|132:186|208:136,1,240,8|0,2:0|2:0,2:0:0:0:
208,136,145550,1,0,2:0:0:0:
208,136,145650,1,8,2:0:0:0:
128,80,145850,1,0,2:0:0:0:
208,256,146050,6,0,B|247:309|311:305|311:305|319:243|269:198,1,240.000009155274,8|0,2:0|2:0,2:0:0:0:
256,124,146850,2,0,P|275:159|269:198,1,80,8|0,2:0|2:0,2:0:0:0:
220,48,147250,6,0,B|279:14|335:41|335:41|318:103|256:124,1,240.000009155274,8|0,2:0|2:0,2:0:0:0:
243,83,147950,1,0,2:0:0:0:
220,48,148050,2,0,P|185:29|146:37,1,80,8|0,2:0|2:0,2:0:0:0:
140,187,148450,6,0,B|155:216|187:219|187:219|196:189|174:163,1,120,8|0,2:0|2:0,2:0:0:0:
108,161,148850,6,0,B|84:184|91:216|91:216|122:215|141:186,1,120,0|0,2:0|2:0,2:0:0:0:
123,122,149250,6,0,B|93:107|65:123|65:123|75:152|108:161,1,120,8|0,2:0|2:0,2:0:0:0:
166,125,149650,6,0,B|170:92|146:70|146:70|122:89|123:122,1,120,8|0,2:0|2:0,2:0:0:0:
178,166,150050,38,0,B|210:160|223:131|223:131|198:113|166:125,1,120,0|0,2:0|2:0,2:0:0:0:
141,187,150450,38,0,P|164:240|192:260,1,80,8|0,2:0|2:0,2:0:0:0:
263,277,150850,38,0,B|339:277|403:241|379:185|395:128|466:138|497:191|479:233|423:245|410:219|415:193,1,320,8|8,2:0|2:0,2:0:0:0:
434,198,152050,1,8,2:0:0:0:
256,192,158540,12,2,162140,2:0:0:0:
