osu file format v14

[General]
AudioFilename: audio.mp3
AudioLeadIn: 0
PreviewTime: 84850
Countdown: 0
SampleSet: Soft
StackLeniency: 0.7
Mode: 0
LetterboxInBreaks: 0
WidescreenStoryboard: 1

[Editor]
Bookmarks: 62050,71250
DistanceSpacing: 1.5
BeatDivisor: 4
GridSize: 16
TimelineZoom: 0.9

[Metadata]
Title:Liblume
TitleUnicode:Liblume
Artist:Shimotsuki Haruka
ArtistUnicode:霜月はるか
Creator:ImpurePug
Version:Normal
Source:生命のスペア
Tags:scubdomino [keqing] anime girl natsume shiki jungkyuyoung fia pinkheart i was born for you inochi no spare musubine ribbon 結び音リボン ~Sora no Oto~ visual novel eroge japanese folk
BeatmapID:3237376
BeatmapSetID:1584913

[Difficulty]
HPDrainRate:3
CircleSize:3.2
OverallDifficulty:4
ApproachRate:5
SliderMultiplier:1.2
SliderTickRate:1

[Events]
//Background and Video events
0,0,"bg.jpg",0,0
//Break Periods
2,62250,70050
//Storyboard Layer 0 (Background)
//Storyboard Layer 1 (Fail)
//Storyboard Layer 2 (Pass)
//Storyboard Layer 3 (Foreground)
//Storyboard Layer 4 (Overlay)
//Storyboard Sound Samples

[TimingPoints]
3250,400,3,2,0,10,1,0
4450,-125,3,2,0,10,0,0
11250,-125,3,2,0,20,0,0
11650,-125,3,2,0,30,0,0
12050,-125,3,2,0,37,0,0
12450,-125,3,2,0,45,0,0
12850,-125,3,2,0,50,0,0
14050,-111.111111111111,3,2,1,45,0,1
14150,-111.111111111111,3,2,1,45,0,0
16050,-111.111111111111,3,2,2,45,0,0
17049,-111.111111111111,3,2,1,45,0,0
18850,-111.111111111111,3,2,2,45,0,0
19249,-111.111111111111,3,2,1,45,0,0
23650,-111.111111111111,3,2,3,20,0,0
24450,-111.111111111111,3,2,3,15,0,0
24850,-125,3,2,3,15,0,0
37650,-125,3,2,3,18,0,0
38050,-125,3,2,3,21,0,0
40050,-125,3,2,3,15,0,0
42050,-125,3,2,1,20,0,0
42450,-125,3,2,1,28,0,0
42850,-125,3,2,1,30,0,0
44850,-125,3,2,3,30,0,0
45250,-125,3,2,1,30,0,0
47250,-125,3,2,3,30,0,0
47650,-125,3,2,2,30,0,0
48850,-125,3,2,1,30,0,0
49650,-125,3,2,3,30,0,0
50050,-125,3,2,1,30,0,0
52050,-125,3,2,3,30,0,0
52250,-125,3,2,1,30,0,0
52450,-125,3,2,2,30,0,0
52850,-125,3,2,1,30,0,0
54450,-125,3,2,3,30,0,0
54850,-125,3,2,1,30,0,0
56850,-125,3,2,3,30,0,0
57250,-125,3,2,2,30,0,0
57650,-125,3,2,1,30,0,0
59250,-125,3,2,3,30,0,0
59650,-125,3,2,1,30,0,0
61650,-125,3,2,3,30,0,0
62050,-125,3,2,2,30,0,0
71250,-125,3,2,1,30,0,0
71650,-125,3,2,1,38,0,0
72450,-125,3,2,2,38,0,0
72850,-125,3,2,1,38,0,0
75850,-125,3,2,2,38,0,0
76050,-125,3,2,1,38,0,0
76450,-125,3,2,2,38,0,0
77250,-125,3,2,1,38,0,0
78450,-125,3,2,1,42,0,0
81250,-125,3,2,2,42,0,0
81650,-125,3,2,1,42,0,0
83650,-125,3,2,3,15,0,0
86050,-111.111111111111,3,2,1,42,0,1
86850,-111.111111111111,3,2,2,42,0,1
87250,-111.111111111111,3,2,1,42,0,1
88450,-111.111111111111,3,2,2,42,0,1
88849,-111.111111111111,3,2,1,42,0,1
89249,-111.111111111111,3,2,2,42,0,1
89650,-111.111111111111,3,2,4,42,0,1
90450,-111.111111111111,3,2,1,42,0,1
92050,-111.111111111111,3,2,4,42,0,1
93649,-111.111111111111,3,2,1,42,0,1
95250,-111.111111111111,3,2,4,42,0,1
95650,-111.111111111111,3,2,1,42,0,1
96450,-111.111111111111,3,2,2,42,0,1
96850,-111.111111111111,3,2,1,42,0,1
98050,-111.111111111111,3,2,2,42,0,1
98450,-111.111111111111,3,2,1,42,0,1
98849,-111.111111111111,3,2,2,42,0,1
99250,-111.111111111111,3,2,4,42,0,1
100450,-111.111111111111,3,2,1,42,0,1
102850,-111.111111111111,3,2,2,42,0,1
103650,-111.111111111111,3,2,1,42,0,1
106050,-111.111111111111,3,2,1,42,0,0
106450,-111.111111111111,3,2,2,42,0,1
107250,-111.111111111111,3,2,2,42,0,0
107650,-111.111111111111,3,2,1,42,0,1
108250,-111.111111111111,3,2,2,42,0,1
108850,-111.111111111111,3,2,1,42,0,1
110050,-111.111111111111,3,2,1,15,0,0
112450,-142.857142857143,3,2,1,15,0,0
114850,-111.111111111111,3,2,1,35,0,1
114950,-111.111111111111,3,2,1,35,0,0
116850,-111.111111111111,3,2,2,45,0,0
117849,-111.111111111111,3,2,1,45,0,0
121650,-111.111111111111,3,2,2,45,0,0
122449,-111.111111111111,3,2,1,45,0,0
126450,-111.111111111111,3,2,2,45,0,0
127449,-111.111111111111,3,2,1,45,0,0
132250,-111.111111111111,3,2,4,45,0,0
132649,-111.111111111111,3,2,2,45,0,0
132850,-111.111111111111,3,2,1,45,0,0
132983,-111.111111111111,3,2,1,38,0,0
133116,-111.111111111111,3,2,1,32,0,0
133250,-111.111111111111,3,2,1,48,0,0
133383,-111.111111111111,3,2,1,52,0,0
133516,-111.111111111111,3,2,1,42,0,0
133650,-111.111111111111,3,2,1,45,0,0
158540,400,3,2,1,45,1,0

[Colours]
Combo1 : 255,213,236
Combo2 : 255,85,140
Combo3 : 255,128,169
Combo4 : 255,170,200

[HitObjects]
446,45,4050,5,0,2:0:0:0:
446,45,4450,2,0,P|381:70|357:178,1,144,2|0,2:0|2:0,2:0:0:0:
349,133,5250,1,0,2:0:0:0:
421,179,5650,2,0,P|449:216|459:266,2,96,0|0|2,2:0|2:0|2:0,2:0:0:0:
353,137,6850,5,0,2:0:0:0:
299,204,7250,2,0,P|260:232|211:241,1,96,0|0,2:0|2:0,2:0:0:0:
131,215,8050,1,0,2:0:0:0:
66,45,8850,5,0,2:0:0:0:
66,45,9250,2,0,P|130:70|154:178,1,144,2|0,2:0|2:0,2:0:0:0:
161,134,10050,1,0,2:0:0:0:
91,179,10450,2,0,P|62:216|52:266,2,96,0|0|2,2:0|2:0|2:0,2:0:0:0:
165,138,11650,5,0,2:0:0:0:
219,205,12050,1,0,2:0:0:0:
309,237,12450,1,0,2:0:0:0:
404,213,12850,1,2,2:0:0:0:
260,338,14050,6,0,B|243:365|215:361|215:361|179:336|185:293|210:265,1,161.999995056153,12|0,2:1|2:0,2:0:0:0:
224,250,14850,1,8,2:0:0:0:
285,174,15250,2,0,L|436:142,1,107.999996704102,12|0,3:2|2:0,2:0:0:0:
405,169,15850,1,10,2:1:0:0:
418,185,16050,2,0,L|486:197,1,53.9999983520508,14|0,1:0|2:0,2:0:0:0:
485,210,16450,6,0,P|515:285|423:344,1,161.999995056153,14|2,2:0|2:0,2:0:0:0:
447,350,17250,1,8,2:0:0:0:
362,302,17650,2,0,B|288:288|280:353|208:336,1,161.999995056153,12|8,3:2|2:1,2:0:0:0:
190,325,18450,1,0,1:0:0:0:
172,312,18650,1,0,1:0:0:0:
153,301,18850,6,0,P|115:340|39:347,2,107.999996704102,12|2|8,2:0|2:0|2:0,2:0:0:0:
144,203,20050,2,0,P|79:160|18:173,2,107.999996704102,4|10|8,3:2|2:1|2:0,2:0:0:0:
232,242,21250,1,12,2:1:0:0:
256,192,21650,12,4,23650,2:3:0:0:
502,127,24450,5,2,2:0:0:0:
497,213,24850,2,0,P|440:207|384:239,1,96,0|0,2:0|2:0,2:0:0:0:
356,292,25650,6,0,L|347:355,1,48,0|0,3:0|2:0,2:0:0:0:
349,339,26050,2,0,P|292:345|236:313,1,96,2|0,2:0|2:0,2:0:0:0:
241,320,26650,1,0,3:0:0:0:
241,320,26850,2,0,P|240:263|206:224,1,96,0|0,2:0|2:0,2:0:0:0:
42,275,28050,6,0,P|43:332|91:380,2,96,0|0|0,3:0|2:0|3:0,2:0:0:0:
42,275,29050,2,0,P|74:236|184:257,1,144,2|0,2:0|2:0,2:0:0:0:
239,198,30050,1,0,2:0:0:0:
276,287,30450,2,0,P|317:321|351:330,1,48,0|0,3:0|2:0,2:0:0:0:
311,318,30850,6,0,L|427:292,1,96,2|0,2:0|2:0,2:0:0:0:
404,297,31450,2,0,B|469:288|470:352|533:346,1,144,0|2,3:0|2:0,2:0:0:0:
489,168,32850,5,2,2:0:0:0:
489,168,33050,1,0,3:0:0:0:
489,168,33250,2,0,P|471:101|377:76,1,144,2|0,2:0|3:0,2:0:0:0:
388,71,34050,6,0,L|366:146,1,48,0|0,2:0|2:0,2:0:0:0:
362,132,34450,2,0,P|300:126|301:257,1,192,2|0,2:0|3:0,2:0:0:0:
187,264,35650,2,0,B|160:297|168:338|168:338|137:368,1,96,0|0,2:0|2:0,2:0:0:0:
143,364,36250,2,0,P|82:324|5:344,1,144,0|0,3:0|2:0,2:0:0:0:
95,306,37250,5,2,2:0:0:0:
141,233,37650,1,0,3:0:0:0:
125,147,38050,2,0,P|89:83|12:56,1,144,2|0,2:0|3:0,2:0:0:0:
26,56,38850,1,2,2:0:0:0:
112,65,39250,6,0,P|185:65|247:13,1,144,0|0,2:0|2:0,2:0:0:0:
240,25,40050,1,0,3:0:0:0:
191,97,40450,6,0,P|154:150|164:220,2,96,0|0|2,2:0|3:2|2:0,2:0:0:0:
240,168,41650,2,0,P|271:218|334:241,1,96,0|2,2:0|2:0,2:0:0:0:
379,196,42450,6,0,L|439:181,1,48,8|4,2:3|1:3,2:0:0:0:
425,170,42850,2,0,P|480:190|498:262,1,96,12|0,2:1|2:0,2:0:0:0:
497,306,43650,1,8,2:0:0:0:
429,359,44050,2,0,B|371:367|359:311|292:323,1,144,12|2,1:2|2:3,2:0:0:0:
282,338,44850,2,0,L|212:328,1,48,10|0,2:1|2:0,2:0:0:0:
218,320,45250,6,0,L|87:341,1,96,8|0,3:2|2:0,2:0:0:0:
108,322,45850,1,0,2:0:0:0:
108,322,46050,1,8,2:0:0:0:
43,264,46450,2,0,P|-4:233|-14:163,2,96,12|2|10,1:2|2:0|2:1,2:0:0:0:
70,181,47650,6,0,B|199:208,1,96,10|0,2:1|2:0,2:0:0:0:
182,206,48250,2,0,P|229:175|218:84,1,144,8|12,2:1|1:2,2:0:0:0:
71,17,49650,2,0,P|52:43|45:95,1,48,10|0,2:1|2:0,2:0:0:0:
30,75,50050,6,0,B|159:102,1,96,8|0,3:2|2:0,2:0:0:0:
140,111,50650,2,0,L|260:91,1,96,0|8,2:0|2:1,2:0:0:0:
254,81,51250,1,12,1:2:0:0:
414,16,52050,2,0,P|407:47|428:97,1,48,10|2,2:1|2:0,2:0:0:0:
416,80,52450,6,0,P|474:113|532:79,1,96,12|2,2:0|2:0,2:0:0:0:
489,193,53250,2,0,P|482:224|442:260,1,48,8|8,2:0|2:1,2:0:0:0:
460,250,53650,2,0,P|393:255|355:200,1,96,12|0,1:2|2:0,2:0:0:0:
326,166,54450,1,10,2:1:0:0:
249,205,54850,6,0,L|275:335,1,96,8|0,3:2|2:0,2:0:0:0:
258,316,55450,2,0,L|246:374,2,48,2|8|8,2:0|2:0|2:1,2:0:0:0:
258,316,56050,1,12,1:2:0:0:
249,143,56850,2,0,L|261:85,1,48,10|0,2:1|2:0,2:0:0:0:
264,76,57250,6,0,P|242:35|198:17,2,96,10|2|8,2:0|2:0|2:0,2:0:0:0:
221,158,58450,2,0,P|162:155|126:118,1,96,12|0,1:2|2:0,2:0:0:0:
128,114,59050,2,0,L|110:176,1,48,2|10,2:3|2:1,2:0:0:0:
158,242,59650,6,0,P|135:283|91:301,2,96,8|0|8,3:2|2:0|2:0,2:0:0:0:
114,160,60850,2,0,P|55:163|19:200,1,96,12|0,1:2|2:0,2:0:0:0:
18,201,61450,1,2,2:3:0:0:
14,219,61650,2,0,P|18:256|30:277,1,48,10|0,2:1|2:0,2:0:0:0:
33,281,62050,1,14,2:0:0:0:
128,91,71250,6,0,L|61:80,1,48,8|8,2:3|2:3,2:0:0:0:
68,69,71650,2,0,P|24:99|10:156,1,96,12|0,2:1|2:0,2:0:0:0:
67,203,72450,2,0,L|134:192,1,48,10|0,2:1|2:0,2:0:0:0:
127,181,72850,2,0,P|171:211|185:268,1,96,12|0,1:2|2:0,2:0:0:0:
165,334,73650,1,8,2:0:0:0:
78,342,74050,5,8,3:2:0:0:
45,262,74450,1,2,2:0:0:0:
110,204,74850,1,8,2:0:0:0:
185,249,75250,2,0,B|243:257|255:201|322:213,1,144,12|0,1:2|3:0,2:0:0:0:
336,222,76050,2,0,L|384:230,1,48,8|0,2:0|2:0,2:0:0:0:
398,217,76450,6,0,L|512:202,2,96,12|0|8,2:1|2:0|2:0,2:0:0:0:
362,295,77650,2,0,B|359:351|306:367|306:367|266:327|283:279,1,192,12|8,1:2|2:0,2:0:0:0:
246,203,78850,6,0,L|132:188,2,96,8|2|8,3:2|2:0|2:0,2:0:0:0:
282,281,80050,2,0,B|294:312|328:321|328:321|373:296|375:239|340:198,1,192,12|8,1:2|2:0,2:0:0:0:
384,131,81250,6,0,L|498:116,2,96,12|2|8,2:0|2:3|2:0,2:0:0:0:
348,209,82450,2,0,B|308:195|291:166|289:122|289:122|257:161,1,144,12|8,1:2|2:1,2:0:0:0:
257,161,83250,1,0,1:0:0:0:
245,176,83450,1,0,1:0:0:0:
233,191,83650,1,4,2:3:0:0:
12,25,86050,6,0,B|44:7|44:7|91:22|99:78|81:112,1,161.999995056153,12|8,2:1|2:1,2:0:0:0:
71,123,86850,1,6,1:0:0:0:
42,215,87250,2,0,B|115:237|134:178|199:197,1,161.999995056153,12|2,3:2|2:0,2:0:0:0:
208,209,88050,2,0,L|229:281,1,53.9999983520508,8|8,1:2|2:1,2:0:0:0:
238,271,88450,6,0,L|222:378,2,107.999996704102,14|2|6,2:0|2:0|1:0,2:0:0:0:
251,174,89650,1,14,1:2:0:0:
267,78,90050,2,0,L|242:25,2,35.9999989013672,0|0|0,1:0|1:0|1:0,2:0:0:0:
292,45,90450,2,0,L|311:-10,2,35.9999989013672,4|8|8,3:0|2:1|2:1,2:0:0:0:
331,43,90850,6,0,P|378:63|398:135,1,107.999996704102,12|2,2:1|2:0,2:0:0:0:
398,128,91450,2,0,P|431:88|499:87,1,107.999996704102,0|8,1:0|2:1,2:0:0:0:
499,85,92050,1,6,3:2:0:0:
442,226,92650,1,0,1:0:0:0:
454,236,92850,2,0,L|471:298,1,53.9999983520508,8|0,2:0|2:0,2:0:0:0:
478,301,93250,6,0,P|441:356|385:359,1,107.999996704102,4|2,3:1|2:0,2:0:0:0:
389,354,93850,1,0,1:0:0:0:
389,354,94050,1,8,2:0:0:0:
335,273,94450,2,0,P|278:238|226:259,1,107.999996704102,4|8,1:2|2:3,2:0:0:0:
229,259,95050,1,8,2:1:0:0:
219,272,95250,1,12,1:2:0:0:
213,287,95450,1,0,2:0:0:0:
211,303,95650,6,0,B|212:336|190:355|190:355|128:366|98:319,1,161.999995056153,12|0,2:1|2:0,2:0:0:0:
92,305,96450,1,6,1:0:0:0:
11,250,96850,2,0,L|40:78,1,161.999995056153,6|2,3:2|2:0,2:0:0:0:
50,100,97650,2,0,P|89:119|131:106,1,53.9999983520508,8|8,1:2|2:1,2:0:0:0:
112,111,98050,6,0,P|146:86|197:85,1,53.9999983520508,14|0,2:0|2:0,2:0:0:0:
173,81,98450,2,0,P|181:143|240:181,1,107.999996704102,2|6,2:0|1:0,2:0:0:0:
306,145,99250,2,0,P|316:91|274:39,1,107.999996704102,14|8,1:2|2:1,2:0:0:0:
386,46,100050,2,0,P|422:31|454:-2,1,53.9999983520508,8|8,1:2|2:1,2:0:0:0:
449,27,100450,6,0,P|504:31|487:122,1,161.999995056153,12|0,1:1|1:0,2:0:0:0:
487,130,101250,2,0,L|416:121,1,53.9999983520508,8|8,2:0|2:1,2:0:0:0:
420,133,101650,2,0,P|365:137|382:228,1,161.999995056153,12|8,2:0|2:1,2:0:0:0:
381,237,102450,2,0,L|456:225,1,53.9999983520508,8|8,1:2|2:1,2:0:0:0:
450,226,102850,5,14,1:1:0:0:
303,353,103650,1,8,2:0:0:0:
278,258,104050,1,12,1:2:0:0:
360,204,104450,1,2,2:3:0:0:
436,266,104850,1,0,1:0:0:0:
401,358,105250,6,0,B|390:373|390:373|345:346|360:262,1,107.999996704102,12|0,2:1|2:0,2:0:0:0:
289,112,106450,6,0,B|307:114|307:114|306:166|226:195,1,107.999996704102,12|0,2:1|2:0,2:0:0:0:
132,332,107650,6,0,B|124:314|124:314|170:289|235:344,1,107.999996704102,12|8,2:1|2:1,2:0:0:0:
217,338,108250,2,0,L|196:213,1,107.999996704102,4|8,1:2|2:1,2:0:0:0:
214,187,108850,2,0,L|236:132,2,35.9999989013672,12|8|0,2:1|1:0|1:0,2:0:0:0:
184,141,109250,2,0,L|160:86,2,35.9999989013672,0|8|8,1:0|1:3|1:3,2:0:0:0:
131,156,109650,2,0,L|76:134,2,35.9999989013672,4|4|4,2:3|2:3|2:3,2:0:0:0:
128,210,110050,5,0,2:0:0:0:
330,303,111250,1,0,2:0:0:0:
315,71,112450,2,0,P|282:53|223:49,2,83.9999974365235,2|0|0,2:0|2:0|2:0,2:0:0:0:
357,138,113650,1,0,2:0:0:0:
164,29,114850,6,0,B|181:2|209:6|209:6|245:31|239:74|214:102,1,161.999995056153,12|0,2:1|2:0,2:0:0:0:
200,117,115650,1,8,2:0:0:0:
227,210,116050,2,0,L|76:242,1,107.999996704102,12|0,3:2|2:0,2:0:0:0:
107,215,116650,1,10,2:1:0:0:
94,199,116850,2,0,L|26:187,1,53.9999983520508,14|0,1:0|2:0,2:0:0:0:
27,174,117250,6,0,P|-3:99|89:40,1,161.999995056153,14|2,2:0|2:0,2:0:0:0:
65,34,118050,1,8,2:0:0:0:
150,82,118450,2,0,B|224:96|232:31|304:48,1,161.999995056153,12|2,3:2|2:3,2:0:0:0:
322,59,119250,1,8,2:0:0:0:
340,72,119450,1,0,2:0:0:0:
359,83,119650,6,0,P|399:11|477:30,1,161.999995056153,12|2,2:1|2:0,2:0:0:0:
482,37,120450,1,8,2:0:0:0:
502,132,120850,2,0,B|536:169|514:212|491:228|491:228|464:224|448:199,1,161.999995056153,12|8,3:2|2:1,2:0:0:0:
433,185,121650,2,0,L|373:171,1,53.9999983520508,14|8,1:0|2:1,2:0:0:0:
362,184,122050,6,0,B|327:141|277:148|259:174|291:179,2,107.999996704102,14|2|8,2:0|2:0|2:0,2:0:0:0:
415,265,123250,2,0,B|392:316|416:363|453:376|497:363|497:341|451:336,1,161.999995056153,14|0,3:2|2:0,2:0:0:0:
451,330,124050,2,0,L|386:320,1,53.9999983520508,8|0,2:3|2:0,2:0:0:0:
379,309,124450,6,0,B|305:295|297:360|225:343,1,161.999995056153,12|0,2:1|2:0,2:0:0:0:
207,332,125250,1,8,2:0:0:0:
242,241,125650,2,0,P|186:161|129:178,1,161.999995056153,12|8,3:2|2:1,2:0:0:0:
120,188,126450,2,0,P|110:233|120:259,1,53.9999983520508,14|8,1:0|2:1,2:0:0:0:
121,258,126850,6,0,P|64:278|96:357,1,161.999995056153,14|2,2:0|2:0,2:0:0:0:
112,365,127650,2,0,P|145:369|165:344,1,53.9999983520508,8|8,2:0|2:1,2:0:0:0:
161,335,128050,1,14,3:2:0:0:
183,240,128450,2,0,L|203:191,2,35.9999989013672,8|0|0,2:1|1:0|1:0,2:0:0:0:
146,200,128850,2,0,L|125:151,2,35.9999989013672,8|4|4,2:3|2:3|2:3,2:0:0:0:
101,230,129250,6,0,P|56:259|-26:246,2,107.999996704102,12|2|8,2:1|2:0|2:0,2:0:0:0:
118,134,130450,2,0,P|90:88|43:63,2,107.999996704102,4|10|8,3:2|2:1|2:0,2:0:0:0:
186,65,131650,6,0,P|224:27|276:16,1,107.999996704102,12|8,1:0|2:1,2:0:0:0:
292,31,132250,2,0,P|290:101|252:136,1,107.999996704102,4|4,1:0|1:2,2:0:0:0:
262,148,132850,2,0,P|261:191|270:215,2,35.9999989013672,4|0|0,2:0|1:0|1:0,2:0:0:0:
287,195,133250,2,0,P|316:226|340:236,2,35.9999989013672,0|0|0,1:0|1:0|1:0,2:0:0:0:
341,196,133650,2,0,P|383:197|407:187,2,35.9999989013672,0|8|4,1:0|2:3|2:3,2:0:0:0:
373,152,134050,1,12,2:1:0:0:
