osu file format v14

[General]
AudioFilename: audio.mp3
AudioLeadIn: 0
PreviewTime: 84850
Countdown: 0
SampleSet: Soft
StackLeniency: 0.7
Mode: 0
LetterboxInBreaks: 0
WidescreenStoryboard: 1

[Editor]
Bookmarks: 62050,71250
DistanceSpacing: 1
BeatDivisor: 2
GridSize: 16
TimelineZoom: 0.8

[Metadata]
Title:Liblume
TitleUnicode:Liblume
Artist:Shimotsuki Haruka
ArtistUnicode:霜月はるか
Creator:ImpurePug
Version:Easy
Source:生命のスペア
Tags:scubdomino [keqing] anime girl natsume shiki jungkyuyoung fia pinkheart i was born for you inochi no spare musubine ribbon 結び音リボン ~Sora no Oto~ visual novel eroge japanese folk
BeatmapID:3237373
BeatmapSetID:1584913

[Difficulty]
HPDrainRate:2
CircleSize:2.7
OverallDifficulty:2
ApproachRate:3
SliderMultiplier:0.9
SliderTickRate:1

[Events]
//Background and Video events
0,0,"bg.jpg",0,0
//Break Periods
2,62250,69810
//Storyboard Layer 0 (Background)
//Storyboard Layer 1 (Fail)
//Storyboard Layer 2 (Pass)
//Storyboard Layer 3 (Foreground)
//Storyboard Layer 4 (Overlay)
//Storyboard Sound Samples

[TimingPoints]
3250,400,3,2,0,10,1,0
4450,-125,3,2,0,10,0,0
11250,-125,3,2,0,20,0,0
11650,-125,3,2,0,30,0,0
12050,-125,3,2,0,37,0,0
12450,-125,3,2,0,45,0,0
12850,-125,3,2,0,50,0,0
14050,-90.9090909090909,3,2,1,45,0,1
14150,-90.9090909090909,3,2,1,45,0,0
16050,-90.9090909090909,3,2,2,45,0,0
17250,-90.9090909090909,3,2,1,45,0,0
18850,-90.9090909090909,3,2,2,45,0,0
19650,-90.9090909090909,3,2,1,45,0,0
22450,-90.9090909090909,3,2,3,45,0,0
23650,-90.9090909090909,3,2,3,20,0,0
24450,-90.9090909090909,3,2,3,15,0,0
24850,-125,3,2,3,15,0,0
37650,-125,3,2,3,18,0,0
38050,-125,3,2,3,21,0,0
40050,-125,3,2,3,15,0,0
42450,-125,3,2,1,28,0,0
42850,-100,3,2,1,30,0,0
44850,-100,3,2,3,30,0,0
45250,-100,3,2,1,30,0,0
47250,-100,3,2,3,30,0,0
47650,-100,3,2,2,30,0,0
48450,-100,3,2,1,30,0,0
49650,-100,3,2,3,30,0,0
50050,-100,3,2,1,30,0,0
52050,-100,3,2,3,30,0,0
52450,-100,3,2,2,30,0,0
52850,-100,3,2,1,30,0,0
54450,-100,3,2,3,30,0,0
54850,-100,3,2,1,30,0,0
56850,-100,3,2,3,30,0,0
57250,-100,3,2,2,30,0,0
58050,-100,3,2,1,30,0,0
59250,-100,3,2,3,30,0,0
59650,-100,3,2,1,30,0,0
62050,-100,3,2,2,30,0,0
71250,-100,3,2,1,30,0,0
71650,-100,3,2,1,38,0,0
72450,-100,3,2,2,38,0,0
72850,-100,3,2,1,38,0,0
76450,-100,3,2,2,38,0,0
77250,-100,3,2,1,38,0,0
78050,-100,3,2,1,42,0,0
81250,-100,3,2,2,42,0,0
82050,-100,3,2,1,42,0,0
82850,-100,3,2,3,42,0,0
83650,-100,3,2,3,15,0,0
86050,-100,3,2,1,42,0,1
86850,-100,3,2,2,42,0,1
87250,-83.3333333333333,3,2,1,42,0,1
88450,-83.3333333333333,3,2,2,42,0,1
88849,-83.3333333333333,3,2,1,42,0,1
89250,-83.3333333333333,3,2,2,42,0,1
89650,-83.3333333333333,3,2,4,42,0,1
90449,-83.3333333333333,3,2,1,42,0,1
90850,-90.9090909090909,3,2,1,42,0,1
92050,-90.9090909090909,3,2,4,42,0,1
92450,-90.9090909090909,3,2,1,42,0,1
93250,-90.9090909090909,3,2,4,42,0,1
93650,-90.9090909090909,3,2,1,42,0,1
95250,-90.9090909090909,3,2,4,42,0,1
95650,-90.9090909090909,3,2,1,42,0,1
96450,-90.9090909090909,3,2,2,42,0,1
96850,-83.3333333333333,3,2,1,42,0,1
98050,-83.3333333333333,3,2,2,42,0,1
98449,-83.3333333333333,3,2,1,42,0,1
98850,-83.3333333333333,3,2,2,42,0,1
99250,-83.3333333333333,3,2,4,42,0,1
100450,-90.9090909090909,3,2,1,42,0,1
102850,-90.9090909090909,3,2,2,42,0,1
103650,-90.9090909090909,3,2,1,42,0,1
106050,-90.9090909090909,3,2,1,42,0,0
106450,-90.9090909090909,3,2,2,42,0,1
107250,-90.9090909090909,3,2,1,42,0,0
107650,-90.9090909090909,3,2,1,42,0,1
108250,-90.9090909090909,3,2,2,42,0,1
108850,-90.9090909090909,3,2,1,42,0,1
110050,-125,3,2,1,15,0,0
112450,-125,3,2,1,15,0,0
114850,-90.9090909090909,3,2,1,35,0,0
116850,-90.9090909090909,3,2,2,45,0,0
118050,-90.9090909090909,3,2,1,45,0,0
121650,-90.9090909090909,3,2,2,45,0,0
122850,-90.9090909090909,3,2,1,45,0,0
126450,-90.9090909090909,3,2,2,45,0,0
127650,-90.9090909090909,3,2,1,45,0,0
158540,400,3,2,1,45,1,0

[Colours]
Combo1 : 255,213,236
Combo2 : 255,85,140
Combo3 : 255,128,169
Combo4 : 255,170,200

[HitObjects]
484,45,4050,5,0,2:0:0:0:
416,99,4450,2,0,L|431:246,1,144,2|0,2:0|2:0,2:0:0:0:
386,316,5650,6,0,P|332:346|311:347,2,72,0|0|2,2:0|2:0|2:0,2:0:0:0:
430,242,6850,1,0,2:0:0:0:
345,221,7250,2,0,P|275:180|279:109,1,144,0|0,2:0|2:0,2:0:0:0:
140,10,8850,5,0,2:0:0:0:
78,71,9250,2,0,L|63:218,1,144,2|0,2:0|2:0,2:0:0:0:
47,300,10450,2,0,P|5:288|-37:294,2,72,0|0|2,2:0|2:0|2:0,2:0:0:0:
112,357,11650,5,0,2:0:0:0:
201,368,12050,1,0,2:0:0:0:
283,323,12450,1,0,2:0:0:0:
313,230,12850,1,2,2:0:0:0:
497,36,14050,6,0,B|451:46|429:101|429:101|392:60|330:67,1,198.000006042481,12|8,2:1|2:0,2:0:0:0:
259,124,15250,2,0,L|242:235,1,99.0000030212403,12|0,3:2|2:0,2:0:0:0:
257,319,16050,1,14,1:0:0:0:
351,349,16450,6,0,B|385:386|452:389|482:359|482:359|463:338|435:332,1,198.000006042481,14|8,2:0|2:0,2:0:0:0:
380,250,17650,2,0,P|393:182|423:144,1,99.0000030212403,12|2,3:2|2:0,2:0:0:0:
482,91,18450,1,0,1:0:0:0:
397,39,18850,6,0,B|344:72|301:30|313:21|273:-24|216:7,1,198.000006042481,12|8,2:0|2:0,2:0:0:0:
175,95,20050,2,0,P|193:169|182:296,1,198.000006042481,4|8,3:2|2:0,2:0:0:0:
102,346,21250,6,0,P|-1:339|73:213,1,297.000009063721,12|8,2:1|2:0,2:0:0:0:
339,88,23650,5,4,2:3:0:0:
363,259,24450,1,2,2:0:0:0:
416,326,24850,2,0,P|468:294|474:208,1,144,0|0,2:0|3:0,2:0:0:0:
418,153,26050,2,0,P|357:159|305:225,1,144,2|0,2:0|2:0,2:0:0:0:
286,303,27250,2,0,L|271:387,2,72,0|2|0,2:0|2:0|3:0,2:0:0:0:
202,279,28450,5,0,2:0:0:0:
100,358,29050,2,0,B|115:256|22:303|35:189,1,180,2|0,2:0|2:0,2:0:0:0:
51,117,30450,1,0,3:0:0:0:
131,149,30850,2,0,P|180:142|237:96,2,108,2|0|2,2:0|3:0|2:0,2:0:0:0:
12,22,32850,5,2,2:0:0:0:
30,106,33250,2,0,L|54:252,1,144,2|0,2:0|2:0,2:0:0:0:
139,250,34450,2,0,L|242:355,1,144,2|0,2:0|3:0,2:0:0:0:
310,305,35650,2,0,L|423:326,2,108,0|0|0,2:0|3:0|2:0,2:0:0:0:
275,225,37250,5,2,2:0:0:0:
327,156,37650,1,0,3:0:0:0:
412,166,38050,2,0,P|475:148|496:74,1,144,2|2,2:0|2:0,2:0:0:0:
415,49,39250,2,0,P|367:3|293:22,1,144,0|0,2:0|3:0,2:0:0:0:
311,104,40450,5,0,2:0:0:0:
261,174,40850,2,0,P|214:207|189:209,1,72,0|2,3:2|2:0,2:0:0:0:
114,204,41650,2,0,B|128:135|70:103|70:103|54:134,1,144,0|8,2:0|2:3,2:0:0:0:
6,209,42850,6,0,B|-14:238|-14:238|43:278|39:371,1,180,12|8,2:1|2:0,2:0:0:0:
122,312,44050,2,0,P|177:276|214:274,1,90,12|0,1:2|2:0,2:0:0:0:
297,288,44850,1,10,2:1:0:0:
324,192,45250,6,0,P|299:127|195:116,1,180,8|8,3:2|2:0,2:0:0:0:
146,197,46450,1,12,1:2:0:0:
45,26,47250,5,10,2:1:0:0:
1,114,47650,2,0,P|4:157|47:197,1,90,10|0,2:1|2:0,2:0:0:0:
126,156,48450,1,8,2:0:0:0:
203,217,48850,2,0,L|186:320,1,90,12|0,1:2|2:0,2:0:0:0:
270,361,49650,5,10,2:1:0:0:
347,298,50050,2,0,P|400:300|439:327,2,90,8|0|8,3:2|2:0|2:0,2:0:0:0:
316,203,51250,1,12,1:2:0:0:
494,118,52050,5,10,2:1:0:0:
435,38,52450,2,0,P|397:9|354:6,1,90,12|2,2:0|2:0,2:0:0:0:
285,74,53250,1,8,2:0:0:0:
336,158,53650,2,0,P|365:196|368:239,1,90,12|0,1:2|2:0,2:0:0:0:
335,330,54450,1,10,2:1:0:0:
243,292,54850,2,0,P|162:260|64:279,1,180,8|8,3:2|2:0,2:0:0:0:
26,362,56050,1,12,1:2:0:0:
142,202,56850,5,10,2:1:0:0:
52,159,57250,2,0,B|-3:107|39:35|39:35|82:69,1,180,10|8,2:0|2:0,2:0:0:0:
164,100,58450,2,0,L|263:78,1,90,12|0,1:2|2:0,2:0:0:0:
310,0,59250,1,10,2:1:0:0:
354,88,59650,6,0,B|357:142|416:200|480:180|480:180|497:123|456:89,2,270,8|12|14,3:2|1:2|2:0,2:0:0:0:
256,10,71250,5,8,2:3:0:0:
299,99,71650,2,0,P|376:99|436:189,1,180,12|10,2:1|2:1,2:0:0:0:
496,252,72850,2,0,P|486:304|440:319,1,90,12|0,1:2|2:0,2:0:0:0:
369,367,73650,5,8,2:0:0:0:
325,278,74050,2,0,P|294:239|242:222,2,90,8|2|8,3:2|2:0|2:0,2:0:0:0:
416,240,75250,2,0,L|476:67,1,180,12|8,1:2|2:0,2:0:0:0:
391,16,76450,6,0,B|294:-12|329:81|223:52,1,180,12|8,2:1|2:0,2:0:0:0:
136,10,77650,1,12,1:2:0:0:
58,71,78050,2,0,L|38:163,1,90,0|8,2:0|2:0,2:0:0:0:
104,233,78850,6,0,P|151:238|168:129,1,180,8|8,3:2|2:0,2:0:0:0:
74,118,80050,1,12,1:2:0:0:
1,185,80450,2,0,L|21:280,1,90,2|8,2:0|2:0,2:0:0:0:
43,369,81250,1,12,2:0:0:0:
187,234,82050,5,8,2:0:0:0:
192,135,82450,1,12,1:2:0:0:
287,109,82850,1,8,2:0:0:0:
341,192,83250,1,0,1:0:0:0:
279,268,83650,1,4,2:3:0:0:
256,192,86050,5,12,2:1:0:0:
264,84,86450,1,2,2:0:0:0:
370,65,86850,1,6,1:0:0:0:
428,155,87250,2,0,B|437:276|519:220|525:343,1,215.999993408203,12|8,3:2|1:2,2:0:0:0:
420,359,88450,6,0,P|368:365|304:347,1,107.999996704102,14|2,2:0|2:0,2:0:0:0:
237,276,89250,1,6,1:0:0:0:
261,170,89650,2,0,B|290:122|251:66|251:66|188:85|174:137,1,215.999993408203,14|4,1:2|3:0,2:0:0:0:
175,132,90850,6,0,P|139:57|76:31,2,148.50000453186,12|0|6,2:1|1:0|3:2,2:0:0:0:
83,162,92450,2,0,B|57:148|57:148|22:145|-13:195,1,99.0000030212403,4|8,2:3|2:0,2:0:0:0:
1,278,93250,6,0,B|-13:304|-13:304|-16:339|34:374,1,99.0000030212403,4|2,3:1|2:0,2:0:0:0:
113,303,94050,1,8,2:0:0:0:
202,364,94450,2,0,B|251:381|295:338|295:338|288:290|329:252,1,198.000006042481,4|12,1:2|1:2,2:0:0:0:
400,333,95650,5,12,2:1:0:0:
489,136,96450,1,6,1:0:0:0:
459,33,96850,2,0,B|389:64|384:134|384:134|357:92|307:90,1,215.999993408203,6|8,3:2|1:2,2:0:0:0:
233,13,98050,6,0,P|174:34|145:85,1,107.999996704102,14|2,2:0|2:0,2:0:0:0:
59,139,98850,1,6,1:0:0:0:
131,219,99250,2,0,B|156:249|163:320|114:357|114:357|90:336|88:294,1,215.999993408203,14|8,1:2|1:2,2:0:0:0:
89,302,100450,6,0,P|131:296|213:357,2,148.50000453186,12|0|12,1:1|1:0|2:0,2:0:0:0:
7,238,102050,2,0,B|0:216|0:188|0:188|9:158|25:147,1,99.0000030212403,0|8,1:0|1:2,2:0:0:0:
80,65,102850,2,0,B|67:106|87:155|135:164|135:164|169:141|165:100,1,198.000006042481,14|8,1:1|2:0,2:0:0:0:
215,19,104050,1,12,1:2:0:0:
313,52,104450,1,2,2:3:0:0:
313,155,104850,1,0,1:0:0:0:
214,189,105250,6,0,P|171:249|262:344,1,198.000006042481,12|2,2:1|2:0,2:0:0:0:
315,288,106450,6,0,B|393:254|451:313|451:313|492:271,1,198.000006042481,12|2,2:1|2:0,2:0:0:0:
500,179,107650,6,0,P|459:115|476:48,2,148.50000453186,12|4|12,2:1|1:2|2:1,2:0:0:0:
403,199,109250,5,0,1:0:0:0:
333,269,109650,1,4,2:3:0:0:
336,367,110050,1,0,2:0:0:0:
152,253,111250,5,0,2:0:0:0:
338,144,112450,2,0,P|329:92|309:61,2,72,2|0|0,2:0|2:0|2:0,2:0:0:0:
338,144,113650,1,0,2:0:0:0:
220,58,114850,6,0,B|167:52|130:93|130:93|108:38|62:28,1,198.000006042481,12|8,2:1|2:0,2:0:0:0:
0,106,116050,2,0,L|17:217,1,99.0000030212403,12|0,3:2|2:0,2:0:0:0:
33,301,116850,1,14,1:0:0:0:
119,349,117250,6,0,B|153:386|220:389|250:359|250:359|231:338|203:332,1,198.000006042481,14|8,2:0|2:0,2:0:0:0:
163,241,118450,1,12,3:2:0:0:
285,85,119250,5,8,2:0:0:0:
365,27,119650,2,0,B|399:-10|466:-13|496:17|496:17|477:38|449:44,1,198.000006042481,12|8,2:1|2:0,2:0:0:0:
397,127,120850,2,0,P|379:201|384:251,1,99.0000030212403,12|0,3:2|2:0,2:0:0:0:
456,285,121650,1,14,1:0:0:0:
503,198,122050,6,0,B|431:212|369:169|369:169|309:228,1,198.000006042481,14|8,2:0|2:0,2:0:0:0:
286,299,123250,2,0,B|286:353|223:384|188:358|188:358|177:311|205:291,1,198.000006042481,14|8,3:2|2:3,2:0:0:0:
222,214,124450,5,12,2:1:0:0:
6,22,125650,2,0,P|-1:73|36:127,1,99.0000030212403,12|0,3:2|2:0,2:0:0:0:
100,171,126450,1,14,1:0:0:0:
172,103,126850,2,0,B|217:81|230:28|230:28|288:24|320:62,1,198.000006042481,14|8,2:0|2:0,2:0:0:0:
393,128,128050,1,14,3:2:0:0:
213,364,129250,6,0,P|161:305|43:305,1,198.000006042481,12|8,2:1|2:0,2:0:0:0:
92,203,130450,2,0,P|126:148|27:119,1,198.000006042481,4|8,3:2|2:0,2:0:0:0:
5,19,131650,1,12,1:0:0:0:
256,192,132050,12,12,134050,2:1:0:0:
