osu file format v14

[General]
AudioFilename: audio.mp3
AudioLeadIn: 0
PreviewTime: 9491
Countdown: 0
SampleSet: Normal
StackLeniency: 0.7
Mode: 1
LetterboxInBreaks: 0
WidescreenStoryboard: 0

[Editor]
DistanceSpacing: 0.8
BeatDivisor: 2
GridSize: 32
TimelineZoom: 0.2999999

[Metadata]
Title:Konna Haru no Sora o
TitleUnicode:こんな春の空を
Artist:Shimotsuki Haruka
ArtistUnicode:霜月はるか
Creator:Renka
Version:Kantan
Source:タユタマ -kiss on my deity-
Tags:chaica Roger ][ -GH- ][ eroge galgame visual novel Lump of Sugar op opening Tayutama short ver taiko SHIMOTSUKIN 10th Anniversary BEST PREMIUM COMPLETE BOX オリジナルサウンドトラック Original Soundtrack
BeatmapID:2166418
BeatmapSetID:1036090

[Difficulty]
HPDrainRate:8
CircleSize:6
OverallDifficulty:3
ApproachRate:9
SliderMultiplier:1.4
SliderTickRate:1

[Events]
//Background and Video events
0,0,"tayutama.jpg",0,70
//Break Periods
//Storyboard Layer 0 (Background)
//Storyboard Layer 1 (Fail)
//Storyboard Layer 2 (Pass)
//Storyboard Layer 3 (Foreground)
//Storyboard Layer 4 (Overlay)
//Storyboard Sound Samples

[TimingPoints]
1214,479.846449136276,4,1,0,60,1,0
9611,-100,4,1,0,80,0,0
10810,479.846449136276,4,1,0,100,1,1
23286,479.846449136276,4,1,0,70,1,0
30963,-100,4,1,0,80,0,0
46318,-100,4,1,0,90,0,0
65512,479.846449136276,4,1,0,100,1,1
93343,479.846449136276,4,1,0,70,1,0
100780,-100,4,1,0,70,0,0
101740,-100,4,1,0,60,0,0
102460,-100,4,1,0,50,0,0
103179,-100,4,1,0,40,0,0
103899,-100,4,1,0,30,0,0
104619,-100,4,1,0,20,0,0

[HitObjects]
256,192,1214,5,0,0:0:0:0:
256,192,3133,1,8,0:0:0:0:
256,192,5052,1,0,0:0:0:0:
256,192,6012,1,8,0:0:0:0:
256,192,6972,1,0,0:0:0:0:
256,192,7931,1,8,0:0:0:0:
256,192,8891,1,4,0:0:0:0:
256,192,10331,1,8,0:0:0:0:
256,192,10810,1,4,0:0:0:0:
256,192,11769,1,8,0:0:0:0:
256,192,12729,1,0,0:0:0:0:
256,192,13209,1,8,0:0:0:0:
256,192,14168,1,8,0:0:0:0:
256,192,14648,1,0,0:0:0:0:
256,192,15608,1,8,0:0:0:0:
256,192,16568,1,0,0:0:0:0:
256,192,17527,1,8,0:0:0:0:
256,192,18007,1,0,0:0:0:0:
256,192,18487,1,12,0:0:0:0:
256,192,19447,1,12,0:0:0:0:
256,192,20406,1,4,0:0:0:0:
256,192,21366,1,0,0:0:0:0:
256,192,21846,1,12,0:0:0:0:
256,192,23286,1,12,0:0:0:0:
256,192,24725,1,0,0:0:0:0:
256,192,25205,1,8,0:0:0:0:
256,192,26644,1,0,0:0:0:0:
256,192,27124,1,12,0:0:0:0:
256,192,28084,1,8,0:0:0:0:
256,192,28804,1,4,0:0:0:0:
256,192,30963,1,4,0:0:0:0:
256,192,31683,1,8,0:0:0:0:
256,192,32882,1,0,0:0:0:0:
256,192,33842,1,8,0:0:0:0:
256,192,34802,1,0,0:0:0:0:
256,192,35522,1,8,0:0:0:0:
256,192,36241,1,0,0:0:0:0:
256,192,36721,1,8,0:0:0:0:
256,192,37681,1,0,0:0:0:0:
256,192,38641,1,8,0:0:0:0:
256,192,39360,1,0,0:0:0:0:
256,192,40080,1,8,0:0:0:0:
256,192,40560,1,0,0:0:0:0:
256,192,41520,1,8,0:0:0:0:
256,192,42479,1,0,0:0:0:0:
256,192,43199,1,8,0:0:0:0:
256,192,43919,1,0,0:0:0:0:
256,192,44399,1,8,0:0:0:0:
256,192,45358,1,8,0:0:0:0:
256,192,45838,1,0,0:0:0:0:
256,192,46318,1,12,0:0:0:0:
256,192,47758,1,8,0:0:0:0:
256,192,48238,1,8,0:0:0:0:
256,192,49677,1,8,0:0:0:0:
256,192,50157,1,0,0:0:0:0:
256,192,51117,1,8,0:0:0:0:
256,192,52076,1,0,0:0:0:0:
256,192,52556,1,8,0:0:0:0:
256,192,53996,1,0,0:0:0:0:
256,192,54955,1,8,0:0:0:0:
256,192,55915,1,0,0:0:0:0:
256,192,56395,1,8,0:0:0:0:
256,192,57355,1,8,0:0:0:0:
256,192,57834,1,0,0:0:0:0:
256,192,58794,1,8,0:0:0:0:
256,192,59754,1,0,0:0:0:0:
256,192,60234,1,8,0:0:0:0:
256,192,60714,1,0,0:0:0:0:
256,192,61673,1,8,0:0:0:0:
256,192,62633,1,0,0:0:0:0:
256,192,63593,1,4,0:0:0:0:
256,192,65032,1,8,0:0:0:0:
256,192,65512,1,4,0:0:0:0:
256,192,66471,1,8,0:0:0:0:
256,192,67431,1,0,0:0:0:0:
256,192,67911,1,8,0:0:0:0:
256,192,68870,1,8,0:0:0:0:
256,192,69350,1,0,0:0:0:0:
256,192,70310,1,8,0:0:0:0:
256,192,71270,1,0,0:0:0:0:
256,192,71750,1,8,0:0:0:0:
256,192,72229,1,0,0:0:0:0:
256,192,73189,1,12,0:0:0:0:
256,192,74629,1,0,0:0:0:0:
256,192,75108,1,8,0:0:0:0:
256,192,76068,1,8,0:0:0:0:
256,192,77028,1,4,0:0:0:0:
256,192,77748,1,8,0:0:0:0:
256,192,78707,1,4,0:0:0:0:
256,192,79667,1,12,0:0:0:0:
256,192,80387,1,8,0:0:0:0:
256,192,80867,1,4,0:0:0:0:
256,192,81826,1,8,0:0:0:0:
256,192,82786,1,0,0:0:0:0:
256,192,83266,1,8,0:0:0:0:
256,192,84226,1,8,0:0:0:0:
256,192,84705,1,0,0:0:0:0:
256,192,85665,1,8,0:0:0:0:
256,192,86625,1,0,0:0:0:0:
256,192,87105,1,0,0:0:0:0:
256,192,87584,1,8,0:0:0:0:
256,192,88064,1,0,0:0:0:0:
256,192,88544,1,12,0:0:0:0:
256,192,89504,1,12,0:0:0:0:
256,192,90464,1,4,0:0:0:0:
256,192,91423,1,0,0:0:0:0:
256,192,91903,1,12,0:0:0:0:
256,192,93343,1,12,0:0:0:0:
256,192,94782,1,0,0:0:0:0:
256,192,95262,1,8,0:0:0:0:
256,192,96701,1,0,0:0:0:0:
256,192,97181,1,12,0:0:0:0:
256,192,98141,1,8,0:0:0:0:
256,192,98861,1,4,0:0:0:0:
256,192,99581,1,0,0:0:0:0:
256,192,100060,1,8,0:0:0:0:
256,192,100780,1,4,0:0:0:0:
256,192,101260,12,0,104859,0:0:0:0:
