osu file format v14

[General]
AudioFilename: audio.mp3
AudioLeadIn: 0
PreviewTime: 66089
Countdown: 0
SampleSet: Soft
StackLeniency: 0.7
Mode: 0
LetterboxInBreaks: 0
WidescreenStoryboard: 1

[Editor]
Bookmarks: 7964,18985,33679,48373,63066,63143,63220,66740,81434,92454,99801,107148,114495,121842,134546,136536,151230,154903,169597,176944,180618,182454,184291,187964,190720,191638,205413,206332,217352,217429,232046,243066,250413,257148
DistanceSpacing: 1.1
BeatDivisor: 16
GridSize: 32
TimelineZoom: 2.100001

[Metadata]
Title:Kienai Kakera
TitleUnicode:消えない欠片
Artist:Shimotsuki Haruka
ArtistUnicode:霜月はるか
Creator:Lasse
Version:Normal
Source:
Tags:グリオットの眠り姫 guriotto no nemuri hime griotte japanese doujin folk pop fantasy craftscape tindharia
BeatmapID:2334759
BeatmapSetID:1116423

[Difficulty]
HPDrainRate:4
CircleSize:3.4
OverallDifficulty:4.8
ApproachRate:5.8
SliderMultiplier:0.9
SliderTickRate:1

[Events]
//Background and Video events
0,0,"a1.jpg",0,0
//Break Periods
2,92654,98722
2,100001,104232
2,191838,204334
//Storyboard Layer 0 (Background)
//Storyboard Layer 1 (Fail)
//Storyboard Layer 2 (Pass)
//Storyboard Layer 3 (Foreground)
//Storyboard Layer 4 (Overlay)
//Storyboard Sound Samples

[TimingPoints]
618,306.122448979592,6,2,1,42,1,0
618,-125,6,2,1,42,0,0
2454,-125,6,2,2,42,0,0
2760,-125,6,2,1,42,0,0
3985,-125,6,2,1,40,0,0
4061,-125,6,2,1,20,0,0
4138,-125,6,2,1,40,0,0
4214,-125,6,2,1,20,0,0
4291,-125,6,2,1,44,0,0
6128,-111.111111111111,6,2,2,44,0,0
6434,-111.111111111111,6,2,1,44,0,0
7046,-111.111111111111,6,2,1,50,0,0
7352,-111.111111111111,6,2,1,52,0,0
7658,-111.111111111111,6,2,1,20,0,0
7811,-111.111111111111,6,2,1,54,0,0
7888,-111.111111111111,6,2,1,20,0,0
7964,-100,6,2,1,54,0,0
10107,-100,6,2,1,28,0,0
10260,-100,6,2,1,54,0,0
10949,-100,6,2,1,20,0,0
11026,-100,6,2,1,54,0,0
14623,-100,6,2,1,20,0,0
14699,-100,6,2,1,54,0,0
15082,-100,6,2,1,20,0,0
15158,-100,6,2,1,54,0,0
15235,-100,6,2,1,20,0,0
15311,-100,6,2,1,54,0,0
17454,-100,6,2,1,28,0,0
17607,-100,6,2,1,54,0,0
18679,-100,6,2,1,48,0,0
18985,-125,6,2,1,40,0,0
30005,-125,6,2,1,42,0,0
30924,-125,6,2,1,44,0,0
31842,-125,6,2,1,46,0,0
33066,-125,6,2,1,48,0,0
33373,-125,6,2,1,50,0,0
33679,-111.111111111111,6,2,1,50,0,0
46536,-111.111111111111,6,2,1,52,0,0
48066,-111.111111111111,6,2,1,50,0,0
48220,-111.111111111111,6,2,1,48,0,0
48373,-142.857142857143,6,2,1,42,0,0
48679,-142.857142857143,6,2,1,16,0,0
48832,-142.857142857143,6,2,1,42,0,0
49291,-142.857142857143,6,2,4,42,0,0
49597,-142.857142857143,6,2,1,42,0,0
50515,-142.857142857143,6,2,1,16,0,0
50668,-142.857142857143,6,2,1,42,0,0
51434,-142.857142857143,6,2,4,42,0,0
51510,-142.857142857143,6,2,1,42,0,0
52964,-142.857142857143,6,2,4,42,0,0
53271,-142.857142857143,6,2,1,42,0,0
55107,-142.857142857143,6,2,4,42,0,0
55413,-142.857142857143,6,2,1,42,0,0
55720,-142.857142857143,6,2,1,44,0,0
56026,-142.857142857143,6,2,1,18,0,0
56179,-142.857142857143,6,2,1,44,0,0
56638,-142.857142857143,6,2,4,44,0,0
56944,-142.857142857143,6,2,1,44,0,0
58781,-142.857142857143,6,2,4,44,0,0
58857,-142.857142857143,6,2,1,44,0,0
59393,-125,6,2,1,46,0,0
60311,-125,6,2,4,46,0,0
60618,-125,6,2,1,46,0,0
61230,-111.111111111111,6,2,1,48,0,0
62148,-111.111111111111,6,2,1,50,0,0
62760,-111.111111111111,6,2,1,52,0,0
63066,-100,6,2,1,56,0,0
63373,-100,6,2,1,50,0,0
63526,-100,6,2,1,54,0,0
63832,-100,6,2,1,50,0,0
63985,-100,6,2,4,54,0,0
64291,-100,6,2,1,50,0,0
64750,-100,6,2,1,48,0,0
64903,-100,6,2,1,52,0,0
66128,-100,6,2,1,54,0,0
66434,-100,6,2,1,56,0,0
66510,-100,6,2,1,20,0,0
66587,-100,6,2,1,56,0,0
66663,-100,6,2,1,20,0,0
66740,-90.9090909090909,6,2,1,60,0,1
67582,-90.9090909090909,6,2,1,20,0,1
67658,-90.9090909090909,6,2,1,60,0,1
67888,-90.9090909090909,6,2,1,20,0,1
67964,-90.9090909090909,6,2,1,60,0,1
68577,-90.9090909090909,6,2,3,60,0,1
68883,-90.9090909090909,6,2,1,60,0,1
69725,-90.9090909090909,6,2,1,20,0,1
69801,-90.9090909090909,6,2,1,60,0,1
70413,-90.9090909090909,6,2,3,60,0,1
70720,-90.9090909090909,6,2,1,60,0,1
71255,-90.9090909090909,6,2,1,20,0,1
71332,-90.9090909090909,6,2,1,60,0,1
71561,-90.9090909090909,6,2,1,20,0,1
71638,-90.9090909090909,6,2,1,60,0,1
72250,-90.9090909090909,6,2,3,60,0,1
72556,-90.9090909090909,6,2,1,60,0,1
72786,-90.9090909090909,6,2,1,30,0,1
72862,-90.9090909090909,6,2,1,60,0,1
73092,-90.9090909090909,6,2,1,20,0,1
73169,-90.9090909090909,6,2,1,60,0,1
74316,-90.9090909090909,6,2,1,20,0,1
74393,-90.9090909090909,6,2,1,60,0,1
74929,-90.9090909090909,6,2,1,20,0,1
75005,-90.9090909090909,6,2,1,60,0,1
75235,-90.9090909090909,6,2,1,20,0,1
75311,-90.9090909090909,6,2,1,60,0,1
75924,-90.9090909090909,6,2,3,60,0,1
76230,-90.9090909090909,6,2,1,60,0,1
76459,-90.9090909090909,6,2,1,20,0,1
76536,-90.9090909090909,6,2,1,60,0,1
76765,-90.9090909090909,6,2,1,20,0,1
76842,-90.9090909090909,6,2,1,60,0,1
77760,-90.9090909090909,6,2,3,60,0,1
77990,-90.9090909090909,6,2,1,20,0,1
78066,-90.9090909090909,6,2,1,60,0,1
78602,-90.9090909090909,6,2,1,20,0,1
78679,-90.9090909090909,6,2,1,60,0,1
78908,-90.9090909090909,6,2,1,20,0,1
78985,-90.9090909090909,6,2,1,60,0,1
79597,-90.9090909090909,6,2,1,60,0,1
81357,-90.9090909090909,6,2,1,60,0,0
81434,-90.9090909090909,6,2,1,60,0,1
82276,-90.9090909090909,6,2,1,20,0,1
82352,-90.9090909090909,6,2,1,60,0,1
83271,-90.9090909090909,6,2,3,60,0,1
83577,-90.9090909090909,6,2,1,60,0,1
84419,-90.9090909090909,6,2,1,20,0,1
84495,-90.9090909090909,6,2,1,60,0,1
85107,-90.9090909090909,6,2,3,60,0,1
85413,-90.9090909090909,6,2,1,60,0,1
85949,-90.9090909090909,6,2,1,20,0,1
86026,-90.9090909090909,6,2,1,60,0,1
86255,-90.9090909090909,6,2,1,20,0,1
86332,-90.9090909090909,6,2,1,60,0,1
86944,-90.9090909090909,6,2,3,60,0,1
87148,-90.9090909090909,6,2,1,50,0,1
87250,-90.9090909090909,6,2,1,60,0,1
87786,-90.9090909090909,6,2,1,20,0,1
87862,-90.9090909090909,6,2,1,60,0,1
89623,-90.9090909090909,6,2,1,20,0,1
89699,-90.9090909090909,6,2,1,60,0,1
89929,-90.9090909090909,6,2,1,20,0,1
90005,-90.9090909090909,6,2,1,60,0,1
90618,-90.9090909090909,6,2,1,60,0,1
90847,-90.9090909090909,6,2,1,20,0,1
90924,-90.9090909090909,6,2,1,60,0,1
91000,-90.9090909090909,6,2,1,20,0,1
91077,-90.9090909090909,6,2,1,60,0,1
92454,-100,6,2,1,44,0,0
92760,-200,6,2,1,18,0,0
93066,-200,6,2,1,40,0,0
94597,-200,6,2,1,18,0,0
94903,-200,6,2,1,40,0,0
98271,-200,6,2,1,18,0,0
98577,-200,6,2,1,40,0,0
99801,-142.857142857143,6,2,1,42,0,0
103475,-181.818181818182,6,2,1,44,0,0
104699,-181.818181818182,6,2,1,20,0,0
105005,-181.818181818182,6,2,1,44,0,0
105311,-125,6,2,1,50,0,0
105771,-125,6,2,1,46,0,0
106230,-125,6,2,1,50,0,0
106536,-125,6,2,1,48,0,0
106842,-125,6,2,1,46,0,0
107148,-111.111111111111,6,2,1,46,0,0
114495,-111.111111111111,6,2,1,48,0,0
114801,-111.111111111111,6,2,1,32,0,0
114954,-111.111111111111,6,2,1,48,0,0
115260,-111.111111111111,6,2,1,32,0,0
115413,-111.111111111111,6,2,1,48,0,0
116638,-111.111111111111,6,2,1,32,0,0
116791,-111.111111111111,6,2,1,48,0,0
117097,-111.111111111111,6,2,1,32,0,0
117250,-111.111111111111,6,2,1,48,0,0
118475,-111.111111111111,6,2,1,32,0,0
118628,-111.111111111111,6,2,1,48,0,0
118934,-111.111111111111,6,2,1,32,0,0
119087,-111.111111111111,6,2,1,48,0,0
120005,-111.111111111111,6,2,1,48,0,0
121842,-104.166666666667,6,2,1,52,0,0
134699,-104.166666666667,6,2,1,54,0,0
136536,-125,6,2,3,44,0,0
136995,-125,6,2,1,44,0,0
137454,-125,6,2,3,44,0,0
137760,-125,6,2,1,44,0,0
138066,-125,6,2,4,44,0,0
138373,-125,6,2,1,44,0,0
139291,-125,6,2,3,44,0,0
139597,-125,6,2,1,44,0,0
141128,-125,6,2,3,44,0,0
141434,-125,6,2,1,44,0,0
141740,-125,6,2,4,44,0,0
142046,-125,6,2,1,44,0,0
142505,-125,6,2,1,40,0,0
142658,-125,6,2,1,42,0,0
142964,-125,6,2,3,44,0,0
143271,-125,6,2,1,44,0,0
143883,-125,6,2,3,44,0,0
144342,-125,6,2,1,44,0,0
144801,-125,6,2,3,44,0,0
145107,-125,6,2,1,44,0,0
145413,-125,6,2,4,44,0,0
145566,-125,6,2,4,40,0,0
145720,-125,6,2,1,44,0,0
146638,-125,6,2,3,44,0,0
146944,-125,6,2,1,44,0,0
147046,-125,6,2,1,42,0,0
147250,-125,6,2,1,44,0,0
147556,-125,6,2,3,44,0,0
147557,-125,6,2,3,46,0,0
148015,-125,6,2,1,46,0,0
148475,-125,6,2,3,46,0,0
148781,-125,6,2,1,46,0,0
149087,-125,6,2,4,46,0,0
149393,-125,6,2,1,46,0,0
150158,-125,6,2,1,42,0,0
150311,-125,6,2,3,46,0,0
150618,-125,6,2,1,46,0,0
151230,-117.647058823529,6,2,1,48,0,0
152148,-117.647058823529,6,2,3,48,0,0
152454,-117.647058823529,6,2,1,48,0,0
153066,-111.111111111111,6,2,1,50,0,0
153985,-111.111111111111,6,2,3,52,0,0
154291,-111.111111111111,6,2,1,52,0,0
154903,-100,6,2,1,54,0,0
169597,-95.2380952380952,6,2,1,56,0,0
176944,-95.2380952380952,6,2,1,57,0,0
182454,-95.2380952380952,6,2,1,58,0,0
183985,-95.2380952380952,6,2,4,58,0,0
184291,-95.2380952380952,6,2,1,59,0,0
187964,-95.2380952380952,6,2,1,60,0,0
190720,-111.111111111111,6,2,1,58,0,0
191026,-95.2380952380952,6,2,1,26,0,0
191332,-95.2380952380952,6,2,1,20,0,0
191638,-95.2380952380952,6,2,99,30,0,0
205413,-100,6,2,1,52,0,0
205452,-100,6,2,1,5,0,0
205720,-100,6,2,1,54,0,0
206026,-100,6,2,1,56,0,0
206332,-90.9090909090909,6,2,1,60,0,1
207174,-90.9090909090909,6,2,1,20,0,1
207250,-90.9090909090909,6,2,1,60,0,1
207480,-90.9090909090909,6,2,1,20,0,1
207556,-90.9090909090909,6,2,1,60,0,1
208169,-90.9090909090909,6,2,3,60,0,1
208475,-90.9090909090909,6,2,1,60,0,1
209316,-90.9090909090909,6,2,1,20,0,1
209393,-90.9090909090909,6,2,1,60,0,1
210005,-90.9090909090909,6,2,3,60,0,1
210311,-90.9090909090909,6,2,1,60,0,1
210847,-90.9090909090909,6,2,1,20,0,1
210924,-90.9090909090909,6,2,1,60,0,1
211153,-90.9090909090909,6,2,1,20,0,1
211230,-90.9090909090909,6,2,1,60,0,1
211842,-90.9090909090909,6,2,3,60,0,1
212148,-90.9090909090909,6,2,1,60,0,1
212684,-90.9090909090909,6,2,1,20,0,1
212760,-90.9090909090909,6,2,1,60,0,1
214521,-90.9090909090909,6,2,1,20,0,1
214597,-90.9090909090909,6,2,1,60,0,1
214827,-90.9090909090909,6,2,1,20,0,1
214903,-90.9090909090909,6,2,1,60,0,1
215515,-90.9090909090909,6,2,1,60,0,1
215745,-90.9090909090909,6,2,1,20,0,1
215822,-90.9090909090909,6,2,1,60,0,1
215898,-90.9090909090909,6,2,1,20,0,1
215975,-90.9090909090909,6,2,1,60,0,1
217276,-90.9090909090909,6,2,1,60,0,0
217352,-86.9565217391304,6,2,2,60,0,1
217658,-86.9565217391304,6,2,1,60,0,1
218194,-86.9565217391304,6,2,1,20,0,1
218271,-86.9565217391304,6,2,3,60,0,1
218500,-86.9565217391304,6,2,1,20,0,1
218577,-86.9565217391304,6,2,1,60,0,1
219189,-86.9565217391304,6,2,3,60,0,1
219495,-86.9565217391304,6,2,1,60,0,1
220107,-86.9565217391304,6,2,3,60,0,1
220337,-86.9565217391304,6,2,1,20,0,1
220413,-86.9565217391304,6,2,1,60,0,1
221026,-86.9565217391304,6,2,3,60,0,1
221332,-86.9565217391304,6,2,1,60,0,1
221868,-86.9565217391304,6,2,1,20,0,1
221944,-86.9565217391304,6,2,3,60,0,1
222174,-86.9565217391304,6,2,1,20,0,1
222250,-86.9565217391304,6,2,1,60,0,1
222862,-86.9565217391304,6,2,3,60,0,1
223169,-86.9565217391304,6,2,1,60,0,1
223398,-86.9565217391304,6,2,1,30,0,1
223475,-86.9565217391304,6,2,1,60,0,1
223704,-86.9565217391304,6,2,1,20,0,1
223781,-86.9565217391304,6,2,3,60,0,1
223934,-86.9565217391304,6,2,1,60,0,1
224929,-86.9565217391304,6,2,1,20,0,1
225005,-86.9565217391304,6,2,1,60,0,1
225541,-86.9565217391304,6,2,1,20,0,1
225618,-86.9565217391304,6,2,3,60,0,1
225847,-86.9565217391304,6,2,1,20,0,1
225924,-86.9565217391304,6,2,1,60,0,1
226536,-86.9565217391304,6,2,3,60,0,1
226842,-86.9565217391304,6,2,1,60,0,1
227378,-86.9565217391304,6,2,1,20,0,1
227454,-86.9565217391304,6,2,3,60,0,1
227607,-86.9565217391304,6,2,1,60,0,1
228373,-86.9565217391304,6,2,3,60,0,1
228602,-86.9565217391304,6,2,1,20,0,1
228679,-86.9565217391304,6,2,1,60,0,1
229214,-86.9565217391304,6,2,1,20,0,1
229291,-86.9565217391304,6,2,3,60,0,1
229521,-86.9565217391304,6,2,1,20,0,1
229597,-86.9565217391304,6,2,1,60,0,1
230209,-86.9565217391304,6,2,1,60,0,1
230439,-86.9565217391304,6,2,1,20,0,1
230515,-86.9565217391304,6,2,1,60,0,1
231128,-86.9565217391304,6,2,3,60,0,1
231281,-86.9565217391304,6,2,1,60,0,1
231970,-86.9565217391304,6,2,1,60,0,0
232046,-86.9565217391304,6,2,2,60,0,1
232352,-86.9565217391304,6,2,1,60,0,1
232888,-86.9565217391304,6,2,1,20,0,1
232964,-86.9565217391304,6,2,3,60,0,1
233118,-86.9565217391304,6,2,1,60,0,1
233883,-86.9565217391304,6,2,3,60,0,1
234189,-86.9565217391304,6,2,1,60,0,1
234801,-86.9565217391304,6,2,3,60,0,1
235031,-86.9565217391304,6,2,1,20,0,1
235107,-86.9565217391304,6,2,1,60,0,1
235720,-86.9565217391304,6,2,3,60,0,1
236026,-86.9565217391304,6,2,1,60,0,1
236561,-86.9565217391304,6,2,1,20,0,1
236638,-86.9565217391304,6,2,3,60,0,1
236868,-86.9565217391304,6,2,1,20,0,1
236944,-86.9565217391304,6,2,1,60,0,1
237556,-86.9565217391304,6,2,3,60,0,1
237862,-86.9565217391304,6,2,1,60,0,1
238398,-86.9565217391304,6,2,1,20,0,1
238475,-86.9565217391304,6,2,3,60,0,1
238628,-86.9565217391304,6,2,1,60,0,1
240235,-86.9565217391304,6,2,1,20,0,1
240311,-86.9565217391304,6,2,3,60,0,1
240541,-86.9565217391304,6,2,1,20,0,1
240618,-86.9565217391304,6,2,1,60,0,1
241230,-86.9565217391304,6,2,1,60,0,1
241459,-86.9565217391304,6,2,1,20,0,1
241536,-86.9565217391304,6,2,1,60,0,1
241612,-86.9565217391304,6,2,1,20,0,1
241689,-86.9565217391304,6,2,1,60,0,1
242148,-86.9565217391304,6,2,3,60,0,1
242301,-86.9565217391304,6,2,1,60,0,1
243066,-95.2380952380952,6,2,1,55,0,0
255924,-90.9090909090909,6,2,1,55,0,0
256230,-90.9090909090909,6,2,1,52,0,0
256383,-90.9090909090909,6,2,1,56,0,0
256842,-90.9090909090909,6,2,1,58,0,0

[Colours]
Combo1 : 250,180,240
Combo2 : 120,200,230
Combo3 : 255,230,130
Combo4 : 160,230,150

[HitObjects]
0,100,618,6,0,P|57:87|115:94,1,108,14|0,0:1|0:1,0:0:0:0:
214,138,1536,1,2,0:0:0:0:
163,198,1842,1,0,0:0:0:0:
179,275,2148,1,0,0:0:0:0:
256,321,2454,6,0,B|293:317|293:317|312:324|312:324|370:319,1,108,14|0,0:0|0:0,0:0:0:0:
427,273,3220,1,0,0:0:0:0:
427,273,3373,2,0,P|437:235|428:194,2,72,2|0|2,0:0|0:0|0:3,0:0:0:0:
365,336,4291,6,0,B|328:332|328:332|309:339|309:339|258:334,1,108,6|0,0:0|0:0,0:0:0:0:
142,357,5209,1,2,0:0:0:0:
157,279,5515,1,0,0:0:0:0:
124,206,5822,1,0,0:0:0:0:
34,162,6128,6,0,B|21:136|21:136|32:84,1,80.9999975280763,14|0,0:0|0:0,0:0:0:0:
48,57,6587,2,0,P|78:67|127:41,1,80.9999975280763,8|0,0:0|0:0,0:0:0:0:
144,24,7046,1,10,0:3:0:0:
174,110,7352,1,10,0:0:0:0:
266,80,7658,1,10,0:0:0:0:
272,48,7811,1,10,0:0:0:0:
281,16,7964,6,0,B|334:29|334:29|346:53|346:53|398:90,1,135,14|2,0:1|0:0,0:0:0:0:
504,155,8883,1,10,0:0:0:0:
450,227,9189,1,10,0:1:0:0:
472,314,9495,1,10,0:1:0:0:
386,366,9801,6,0,L|237:343,1,135,10|8,0:1|0:1,0:0:0:0:
225,328,10413,2,0,P|241:282|233:227,2,90,2|10|8,0:0|0:0|0:1,0:0:0:0:
138,367,11332,1,10,0:1:0:0:
106,368,11485,1,8,0:1:0:0:
74,365,11638,6,0,P|58:323|61:278,1,90,14|0,0:1|0:0,0:0:0:0:
74,250,12097,2,0,B|104:210|104:210|76:177|88:118,1,135,2|8,0:0|0:0,0:0:0:0:
135,54,12862,2,0,L|229:43,1,90,2|10,0:0|0:1,0:0:0:0:
314,0,13475,5,10,0:1:0:0:
307,89,13781,1,2,0:0:0:0:
346,169,14087,1,4,0:3:0:0:
306,255,14393,2,0,P|298:295|310:354,1,90,14|8,0:0|0:3,0:0:0:0:
396,384,15005,1,6,0:3:0:0:
426,376,15158,1,10,0:2:0:0:
454,362,15311,6,0,B|469:342|474:328|474:328|469:283|445:225,1,135,14|2,0:1|0:0,0:0:0:0:
383,118,16230,1,10,0:0:0:0:
311,172,16536,1,10,0:1:0:0:
230,132,16842,1,10,0:1:0:0:
150,200,17148,6,0,B|92:229|92:229|51:172,1,135,10|8,0:1|0:1,0:0:0:0:
33,145,17760,2,0,P|33:101|61:55,1,90,2|10,0:0|0:0,0:0:0:0:
79,41,18220,1,8,0:0:0:0:
109,31,18373,2,0,P|150:48|211:39,1,90,8|8,0:1|2:1,0:0:0:0:
276,20,18985,6,0,P|305:10|351:11,2,72,2|0|0,0:0|0:0|0:0,0:0:0:0:
208,60,19903,1,2,0:0:0:0:
242,131,20209,2,0,P|249:180|236:241,1,108,2|0,0:0|0:0,0:0:0:0:
219,255,20822,2,0,B|162:233|106:281|106:281|44:260|34:209,1,216,2|0,0:0|0:0,0:0:0:0:
26,143,22046,1,2,0:0:0:0:
171,80,22658,6,0,L|180:4,2,72,2|0|0,0:0|0:0|0:0,0:0:0:0:
201,153,23577,2,0,P|222:170|331:139,1,144,2|0,0:0|0:0,0:0:0:0:
385,93,24495,2,0,B|409:48|455:44|455:44|493:103|458:172,1,216,2|2,0:0|0:0,0:0:0:0:
288,327,26332,6,0,L|206:336,2,72,2|0|0,0:0|0:0|0:0,0:0:0:0:
359,361,27250,1,2,0:0:0:0:
416,307,27556,2,0,P|423:275|409:198,1,108,2|0,0:0|0:0,0:0:0:0:
394,183,28169,2,0,L|315:171,1,72,2|0,0:0|0:0,0:0:0:0:
251,206,28781,1,2,0:0:0:0:
171,85,29393,1,2,0:0:0:0:
61,178,30005,6,0,P|46:218|57:284,1,108,2|2,0:0|0:0,0:0:0:0:
144,360,30924,2,0,P|186:366|225:371,2,72,2|2|2,0:0|0:0|0:0,0:0:0:0:
84,306,31842,2,0,P|76:260|89:228,1,72,2|8,3:2|0:3,0:0:0:0:
97,211,32301,2,0,B|127:232|127:232|208:204,1,108,8|4,0:3|1:3,0:0:0:0:
256,158,33066,1,8,2:3:0:0:
243,79,33373,1,4,3:3:0:0:
312,34,33679,6,0,P|358:17|390:26,2,80.9999975280763,6|2|0,3:1|2:0|1:0,0:0:0:0:
251,88,34597,1,2,3:0:0:0:
276,166,34903,1,0,1:0:0:0:
222,276,35362,5,2,0:0:0:0:
222,276,35515,2,0,B|167:340|75:300|75:300|85:260|66:215,1,242.999992584229,2|0,3:1|1:0,0:0:0:0:
13,157,36740,1,2,3:0:0:0:
12,74,37046,1,2,3:0:0:0:
88,22,37352,6,0,B|142:17|142:17|172:64|226:84,1,161.999995056153,2|0,3:0|1:0,0:0:0:0:
306,95,38271,1,2,3:0:0:0:
365,38,38577,1,0,1:0:0:0:
447,35,38883,1,0,3:0:0:0:
500,105,39189,6,0,B|517:161|504:222|504:222|489:248|461:264,1,161.999995056153,2|0,3:0|1:0,0:0:0:0:
395,232,40107,2,0,P|366:218|300:210,1,80.9999975280763,2|2,1:0|3:0,0:0:0:0:
237,223,40720,1,0,1:0:0:0:
228,250,40873,1,0,1:0:0:0:
220,276,41026,6,0,P|181:292|134:294,2,80.9999975280763,2|2|0,3:0|0:0|1:0,0:0:0:0:
281,220,41944,1,2,3:0:0:0:
296,138,42250,1,2,1:0:0:0:
413,190,42709,5,2,0:0:0:0:
413,190,42862,2,0,B|441:210|467:206|467:206|503:169|468:101,1,161.999995056153,2|0,3:0|1:0,0:0:0:0:
430,36,43781,1,2,1:0:0:0:
354,70,44087,1,0,3:0:0:0:
281,30,44393,1,0,3:0:0:0:
202,75,44699,6,0,B|176:112|176:112|193:196,1,121.499996292114,2|0,3:0|3:0,0:0:0:0:
245,255,45464,1,0,0:0:0:0:
245,255,45618,2,0,P|280:238|334:236,1,80.9999975280763,2|2,3:0|1:0,0:0:0:0:
395,271,46230,1,0,3:0:0:0:
357,344,46536,6,0,B|342:363|316:371|316:371|262:369|195:344,1,161.999995056153,2|0,3:0|1:0,0:0:0:0:
154,284,47454,2,0,P|172:233|162:196,1,80.9999975280763,2|0,3:0|1:0,0:0:0:0:
146,127,48066,1,0,1:0:0:0:
120,139,48220,1,0,1:0:0:0:
92,146,48373,6,0,B|74:157|50:154|50:154|26:126|33:96,2,94.499997116089,6|0|4,3:2|3:0|0:0,0:0:0:0:
265,71,50209,2,0,P|316:49|361:147,1,188.999994232178,2|2,3:2|0:0,0:0:0:0:
198,242,52046,6,0,B|154:226|154:226|99:235,2,94.499997116089,2|0|4,3:0|3:0|0:0,0:0:0:0:
371,316,53883,2,0,P|424:343|448:241,1,188.999994232178,2|2,3:0|0:0,0:0:0:0:
306,132,55720,6,0,B|271:128|271:128|259:132|259:132|207:125,2,94.499997116089,2|0|4,3:0|3:0|0:0,0:0:0:0:
436,268,57556,2,0,B|442:318|385:363|385:363|368:326|325:306,1,188.999994232178,2|2,3:0|0:0,0:0:0:0:
147,272,59393,6,0,B|136:303|110:317|110:317|66:314|28:283,1,144,2|0,3:0|0:0,0:0:0:0:
0,213,60311,2,0,P|9:156|69:81,1,144,4|0,0:0|0:0,0:0:0:0:
134,57,61230,6,0,B|138:106|176:125|176:125|230:111,1,121.499996292114,2|0,3:0|3:0,0:0:0:0:
332,96,62148,1,2,3:0:0:0:
375,27,62454,1,10,0:0:0:0:
451,54,62760,1,10,0:3:0:0:
465,78,62913,1,8,0:0:0:0:
474,105,63066,6,0,B|486:135|488:155|488:155|482:193|460:235,1,135,6|2,3:1|3:2,0:0:0:0:
358,321,63985,2,0,P|289:296|227:298,1,135,4|2,1:2|3:0,0:0:0:0:
95,372,64903,5,2,1:2:0:0:
23,257,65362,1,2,1:2:0:0:
60,127,65822,1,2,1:2:0:0:
139,84,66128,2,0,B|177:108|177:108|225:91,1,90,10|10,0:0|0:3,0:0:0:0:
248,82,66587,1,8,0:2:0:0:
278,71,66740,6,0,P|327:49|431:63,1,148.50000453186,14|2,0:1|0:0,0:0:0:0:
503,183,67658,1,10,0:0:0:0:
505,281,67964,1,2,3:1:0:0:
465,372,68271,1,2,1:0:0:0:
372,332,68577,6,0,B|315:310|253:308|253:308|241:312|216:330,1,148.50000453186,12|2,0:1|0:1,0:0:0:0:
202,342,69189,2,0,P|160:360|95:367,2,99.0000030212403,10|10|2,2:1|0:0|3:2,0:0:0:0:
268,269,70107,1,2,1:2:0:0:
284,238,70260,1,0,1:0:0:0:
297,206,70413,6,0,P|305:120|236:30,1,198.000006042481,10|10,0:1|0:1,0:0:0:0:
145,10,71332,1,10,0:0:0:0:
70,74,71638,1,2,3:2:0:0:
71,172,71944,1,2,1:2:0:0:
162,229,72250,6,0,P|230:244|301:280,2,148.50000453186,12|2|10,0:1|0:0|0:0,0:0:0:0:
78,281,73475,1,2,3:2:0:0:
11,207,73781,1,0,1:0:0:0:
28,177,73934,1,0,1:0:0:0:
44,146,74087,6,0,P|57:97|61:42,2,99.0000030212403,14|2|10,0:1|0:0|0:1,0:0:0:0:
9,238,75005,2,0,B|-10:280|-5:335|-5:335|17:361|85:380,1,198.000006042481,10|2,0:0|1:2,0:0:0:0:
116,373,75771,1,0,1:0:0:0:
147,356,75924,6,0,P|223:320|305:334,1,148.50000453186,12|2,0:1|0:0,0:0:0:0:
423,379,76842,1,10,0:2:0:0:
477,296,77148,1,2,3:2:0:0:
433,207,77454,1,2,1:0:0:0:
336,182,77760,6,0,B|276:171|276:171|217:222|217:222|145:205,1,198.000006042481,10|10,0:1|0:1,0:0:0:0:
67,168,78679,1,10,0:0:0:0:
69,69,78985,1,2,3:2:0:0:
157,25,79291,1,2,1:2:0:0:
234,99,79597,6,0,P|290:119|340:99,1,99.0000030212403,14|0,0:1|0:0,0:0:0:0:
357,93,80056,2,0,P|401:73|449:83,1,99.0000030212403,10|10,0:0|0:1,0:0:0:0:
476,104,80515,1,10,0:0:0:0:
512,196,80822,2,0,L|501:254,1,49.5000015106202,10|8,0:3|0:3,0:0:0:0:
510,278,81128,2,0,L|499:336,1,49.5000015106202,6|4,0:3|0:3,0:0:0:0:
475,350,81434,6,0,P|420:368|338:323,1,148.50000453186,14|2,0:1|0:0,0:0:0:0:
248,215,82352,1,10,0:0:0:0:
310,138,82658,1,2,3:1:0:0:
282,42,82964,1,2,1:0:0:0:
189,95,83271,6,0,B|165:124|124:125|124:125|111:86|69:66,1,148.50000453186,12|2,0:1|0:1,0:0:0:0:
41,68,83883,2,0,P|13:104|13:175,2,99.0000030212403,2|10|2,0:0|0:0|3:2,0:0:0:0:
122,5,84801,1,2,1:2:0:0:
142,32,84954,1,0,1:0:0:0:
175,42,85107,6,0,B|243:35|243:35|286:66|286:66|373:61,1,198.000006042481,10|10,0:1|0:1,0:0:0:0:
458,37,86026,1,10,0:0:0:0:
511,122,86332,1,2,3:2:0:0:
446,198,86638,1,2,1:2:0:0:
347,167,86944,6,0,B|315:144|291:136|291:136|234:138|144:174,1,198.000006042481,12|10,0:1|0:1,0:0:0:0:
74,213,87862,1,10,0:0:0:0:
63,311,88169,1,2,3:2:0:0:
128,384,88475,1,0,1:0:0:0:
158,368,88628,1,0,1:0:0:0:
190,356,88781,6,0,P|237:338|336:343,1,148.50000453186,14|2,0:1|0:0,0:0:0:0:
365,354,89393,1,10,0:1:0:0:
435,284,89699,1,10,0:0:0:0:
388,196,90005,1,2,3:2:0:0:
446,116,90311,1,2,1:2:0:0:
453,82,90464,1,0,1:0:0:0:
446,46,90618,6,0,P|403:23|355:26,1,99.0000030212403,14|8,0:1|0:0,0:0:0:0:
323,40,91077,2,0,P|279:63|231:60,1,99.0000030212403,6|0,3:2|3:0,0:0:0:0:
197,51,91536,2,0,P|153:28|104:31,2,99.0000030212403,10|10|4,0:2|2:3|2:3,0:0:0:0:
260,133,92454,5,14,0:1:0:0:
256,192,99801,5,6,0:0:0:0:
70,345,105311,5,10,0:0:0:0:
70,345,105464,2,0,P|66:310|79:272,1,72,8|8,0:0|0:3,0:0:0:0:
86,252,105924,2,0,P|96:217|92:182,1,72,8|8,0:3|0:0,0:0:0:0:
56,112,106536,2,0,L|27:72,2,36,8|8|4,0:3|0:3|0:3,0:0:0:0:
112,180,107148,5,10,0:1:0:0:
162,116,107454,1,8,0:0:0:0:
271,235,108066,1,8,0:1:0:0:
221,299,108373,1,8,0:0:0:0:
362,378,108985,6,0,P|411:380|439:368,1,80.9999975280763,10|8,0:0|0:3,0:0:0:0:
462,350,109444,2,0,B|469:256,1,80.9999975280763,8|8,0:3|0:3,0:0:0:0:
485,246,109903,2,0,B|478:152,1,80.9999975280763,8|2,0:0|1:2,0:0:0:0:
435,87,110515,1,8,0:0:0:0:
411,103,110669,1,8,0:0:0:0:
383,108,110822,6,0,P|343:107|300:90,1,80.9999975280763,14|8,0:1|0:0,0:0:0:0:
142,19,111740,1,10,0:1:0:0:
114,103,112046,1,8,0:1:0:0:
163,177,112352,1,8,0:0:0:0:
132,267,112658,6,0,P|104:285|54:282,1,80.9999975280763,10|8,0:1|0:3,0:0:0:0:
2,161,113424,1,8,0:3:0:0:
2,161,113577,2,0,L|19:74,1,80.9999975280763,8|8,0:1|0:1,0:0:0:0:
83,21,114189,1,8,0:3:0:0:
105,38,114342,1,8,0:3:0:0:
129,53,114495,6,0,B|145:79|173:84|173:84|195:60|241:55,1,121.499996292114,14|8,0:1|0:0,0:0:0:0:
315,144,115413,2,0,L|320:241,1,80.9999975280763,10|10,3:1|2:1,0:0:0:0:
359,295,116026,1,0,1:3:0:0:
381,312,116179,1,0,1:3:0:0:
405,325,116332,6,0,B|446:341|446:341|482:322|481:267,1,121.499996292114,10|8,0:1|0:0,0:0:0:0:
455,157,117250,2,0,B|445:72,1,80.9999975280763,10|8,3:1|0:1,0:0:0:0:
393,14,117862,1,8,0:0:0:0:
369,29,118015,1,8,0:3:0:0:
345,45,118169,6,0,B|304:64|304:64|276:38|231:27,1,121.499996292114,10|8,0:1|0:0,0:0:0:0:
118,52,119087,1,10,3:1:0:0:
147,127,119393,1,8,0:1:0:0:
141,207,119699,1,8,0:0:0:0:
84,273,120005,6,0,B|57:291|30:300|30:300|13:276|-2:237,2,121.499996292114,10|8|8,0:1|0:0|0:0,0:0:0:0:
144,218,121230,2,0,L|159:167,1,40.4999987640381,8|8,0:0|0:0,0:0:0:0:
177,161,121536,2,0,L|192:110,1,40.4999987640381,8|8,0:3|0:3,0:0:0:0:
211,101,121842,6,0,P|257:84|298:98,2,86.4000021093751,14|2|2,0:1|0:0|0:0,0:0:0:0:
144,155,122760,1,10,0:0:0:0:
128,240,123066,1,10,2:1:0:0:
218,332,123526,5,2,0:0:0:0:
218,332,123679,2,0,B|380:302|303:384|475:365,1,259.200006328125,10|10,0:1|0:1,0:0:0:0:
509,289,124903,1,10,0:3:0:0:
503,202,125209,1,8,0:0:0:0:
435,140,125515,6,0,B|356:101|355:179|269:150,1,172.80000421875,10|10,0:1|0:1,0:0:0:0:
188,122,126434,1,10,0:0:0:0:
141,49,126740,1,8,0:1:0:0:
55,38,127046,1,8,0:0:0:0:
0,113,127352,6,0,L|10:255,1,129.600003164063,10|8,0:1|0:0,0:0:0:0:
69,350,128270,2,0,P|98:336|166:332,1,86.4000021093751,8|8,0:0|0:3,0:0:0:0:
235,350,128883,1,8,0:3:0:0:
263,360,129036,1,8,0:0:0:0:
293,362,129189,6,0,P|335:358|375:341,2,86.4000021093751,14|2|2,0:1|0:0|0:0,0:0:0:0:
208,342,130107,1,10,0:0:0:0:
189,257,130413,1,8,0:1:0:0:
276,161,130872,5,2,3:3:0:0:
276,161,131025,2,0,B|304:181|357:182|370:105|322:60,1,172.80000421875,10|2,0:1|0:0,0:0:0:0:
257,5,131944,1,10,2:2:0:0:
183,49,132250,1,8,0:1:0:0:
99,26,132556,1,8,0:0:0:0:
69,19,132709,1,8,0:2:0:0:
39,27,132862,6,0,P|14:73|31:164,1,129.600003164063,10|8,0:1|0:0,0:0:0:0:
87,211,133627,1,8,0:1:0:0:
87,211,133781,2,0,P|133:198|178:199,1,86.4000021093751,10|8,0:0|0:1,0:0:0:0:
251,230,134393,1,8,0:0:0:0:
264,257,134546,1,8,0:3:0:0:
275,285,134699,6,0,B|304:312|349:313|349:313|399:282,1,129.600003164063,14|8,0:1|0:0,0:0:0:0:
465,245,135464,1,10,2:1:0:0:
465,245,135617,2,0,L|460:153,1,86.4000021093751,8|8,0:0|0:3,0:0:0:0:
421,81,136229,1,8,0:3:0:0:
392,92,136383,1,8,0:3:0:0:
361,88,136536,6,0,P|323:70|252:69,1,108,12|4,0:3|0:3,0:0:0:0:
177,138,137454,2,0,P|185:177|154:282,1,144,10|8,0:3|0:3,0:0:0:0:
100,329,138373,2,0,B|47:340|47:340|12:279,1,108,10|4,0:3|0:3,0:0:0:0:
6,175,139291,1,10,0:3:0:0:
28,98,139597,1,4,0:3:0:0:
91,51,139903,1,8,0:2:0:0:
176,49,140209,6,0,B|241:44|218:81|283:80,1,108,10|4,0:3|0:3,0:0:0:0:
382,61,141128,2,0,P|420:45|460:125,1,144,10|8,0:3|0:3,0:0:0:0:
413,178,142046,2,0,B|376:170|376:170|351:180|351:180|300:179,1,108,10|8,0:3|2:3,0:0:0:0:
201,172,142964,1,10,0:0:0:0:
227,97,143271,1,8,0:3:0:0:
187,28,143577,1,4,0:3:0:0:
103,24,143883,6,0,B|61:44|61:44|75:117,1,108,12|4,0:3|0:3,0:0:0:0:
59,212,144801,2,0,L|75:297,1,72,10|4,0:3|0:3,0:0:0:0:
112,350,145413,1,8,0:3:0:0:
188,372,145720,2,0,P|236:370|295:343,1,108,10|4,0:3|0:3,0:0:0:0:
350,256,146638,1,10,0:3:0:0:
289,205,146944,1,10,0:3:0:0:
293,125,147250,1,8,0:2:0:0:
359,65,147556,6,0,B|410:47|410:47|466:60,1,108,12|4,0:3|0:3,0:0:0:0:
500,160,148475,2,0,L|490:233,1,72,10|4,0:3|0:3,0:0:0:0:
476,309,149087,1,8,0:3:0:0:
421,366,149393,2,0,B|368:378|368:378|317:360,1,108,10|4,0:3|0:3,0:0:0:0:
245,266,150311,1,10,0:3:0:0:
278,194,150618,1,4,0:3:0:0:
259,117,150924,1,4,0:3:0:0:
193,60,151230,6,0,B|149:37|149:37|87:91,1,114.750002188683,14|6,0:1|0:3,0:0:0:0:
28,169,152148,1,10,0:3:0:0:
49,246,152454,1,8,0:3:0:0:
127,228,152760,1,4,0:3:0:0:
195,277,153066,6,0,B|226:302|226:302|279:288,2,80.9999975280763,14|10|10,0:1|0:1|0:0,0:0:0:0:
131,220,153985,1,10,0:0:0:0:
186,155,154291,1,10,0:0:0:0:
138,84,154597,1,8,0:3:0:0:
210,30,154903,6,0,B|231:74|280:77|280:77|305:33|352:25,1,180,14|8,0:1|0:1,0:0:0:0:
440,14,155822,1,10,0:0:0:0:
508,72,156128,1,2,3:1:0:0:
491,160,156434,1,2,3:1:0:0:
401,200,156740,6,0,B|352:191|352:191|327:202|327:202|269:192,1,135,10|8,0:1|0:1,0:0:0:0:
238,189,157352,1,2,0:0:0:0:
193,267,157658,2,0,P|213:348|296:347,1,180,10|0,0:0|3:0,0:0:0:0:
372,283,158577,6,0,L|393:98,1,180,10|0,0:1|3:0,0:0:0:0:
341,30,159495,1,10,0:0:0:0:
270,86,159801,1,2,3:2:0:0:
203,25,160107,1,2,3:2:0:0:
116,76,160413,6,0,P|84:158|100:246,1,180,10|0,0:1|3:0,0:0:0:0:
155,317,161332,2,0,P|202:297|251:298,1,90,10|10,0:0|0:3,0:0:0:0:
328,311,161944,1,4,0:3:0:0:
349,333,162097,1,8,0:0:0:0:
371,354,162250,6,0,P|454:343|465:260,1,180,14|0,0:1|3:1,0:0:0:0:
439,174,163169,1,10,0:0:0:0:
351,153,163475,1,2,3:0:0:0:
275,202,163781,1,2,3:0:0:0:
213,128,164087,6,0,P|217:64|159:39,1,135,10|0,0:1|0:0,0:0:0:0:
129,45,164699,1,2,3:0:0:0:
50,88,165005,2,0,B|14:114|14:114|32:198|32:198|39:204|39:204|40:215|40:215|48:246,1,180,10|8,0:0|2:3,0:0:0:0:
101,329,165924,6,0,B|134:368|182:357|182:357|207:319|269:311,1,180,10|0,0:1|3:0,0:0:0:0:
345,297,166842,1,10,0:0:0:0:
415,353,167148,1,2,3:0:0:0:
490,304,167454,1,2,3:0:0:0:
442,216,167760,6,0,P|432:172|442:126,1,90,10|0,0:1|0:0,0:0:0:0:
466,110,168220,2,0,P|475:66|465:22,1,90,10|8,0:3|0:1,0:0:0:0:
437,15,168679,1,10,0:0:0:0:
365,69,168985,1,10,0:3:0:0:
282,33,169291,1,10,0:1:0:0:
250,28,169444,1,8,0:0:0:0:
219,35,169597,6,0,B|199:52|188:66|188:66|176:140|216:217,1,188.999994232178,14|8,0:1|0:1,0:0:0:0:
268,281,170515,1,10,0:0:0:0:
241,371,170822,1,2,0:0:0:0:
145,384,171128,1,10,0:1:0:0:
74,312,171434,6,0,B|58:289|52:266|52:266|56:208|91:129,1,188.999994232178,10|8,0:1|0:1,0:0:0:0:
165,78,172352,2,0,B|216:101|216:101|248:57|297:40|297:40|297:89,1,188.999994232178,10|8,0:0|0:0,0:0:0:0:
305,175,173271,6,0,B|279:247|288:307|288:307|295:323|334:362,1,188.999994232178,10|0,0:1|3:0,0:0:0:0:
412,375,174189,1,10,0:0:0:0:
481,311,174495,1,2,0:0:0:0:
431,230,174801,1,2,0:0:0:0:
489,145,175107,6,0,B|519:76|485:22|485:22|456:17|425:49,1,188.999994232178,10|8,0:1|0:1,0:0:0:0:
357,103,176026,2,0,P|304:117|261:95,1,94.499997116089,10|8,0:0|0:3,0:0:0:0:
199,38,176638,1,4,0:3:0:0:
167,28,176791,1,8,0:0:0:0:
134,32,176944,6,0,P|103:67|86:117,2,94.499997116089,14|2|10,0:1|0:0|2:1,0:0:0:0:
222,0,177862,1,10,0:0:0:0:
279,74,178169,1,2,0:0:0:0:
230,155,178475,1,8,0:1:0:0:
290,236,178781,6,0,P|334:253|387:241,1,94.499997116089,10|0,0:1|0:0,0:0:0:0:
411,237,179240,2,0,L|430:136,1,94.499997116089,10|8,0:1|0:1,0:0:0:0:
436,112,179699,1,14,0:0:0:0:
380,35,180005,1,8,0:3:0:0:
295,76,180311,1,4,0:3:0:0:
262,80,180464,1,8,0:0:0:0:
232,65,180618,6,0,B|207:41|182:31|182:31|126:27|43:61,1,188.999994232178,14|0,0:1|3:0,0:0:0:0:
6,135,181536,1,10,0:0:0:0:
22,228,181842,2,0,L|29:288,1,47.2499985580445,10|8,0:1|0:0,0:0:0:0:
40,303,182148,2,0,P|61:315|84:314,1,47.2499985580445,8|8,0:3|0:3,0:0:0:0:
114,328,182454,6,0,B|140:312|174:308|174:308|205:327,1,94.499997116089,14|8,0:1|0:1,0:0:0:0:
226,344,182913,2,0,P|266:364|316:338,1,94.499997116089,10|8,0:0|0:1,0:0:0:0:
339,331,183373,1,6,0:3:0:0:
370,242,183679,1,4,0:3:0:0:
353,213,183832,1,4,0:3:0:0:
346,180,183985,1,8,0:3:0:0:
413,100,184291,6,0,L|522:84,2,94.499997116089,14|2|10,0:1|2:0|2:1,0:0:0:0:
334,47,185209,1,10,0:0:0:0:
261,107,185515,1,2,2:0:0:0:
188,45,185822,1,10,2:1:0:0:
101,100,186128,6,0,P|65:112|13:93,2,94.499997116089,10|2|10,0:1|0:0|0:1,0:0:0:0:
186,59,187046,1,10,0:0:0:0:
258,119,187352,1,10,0:3:0:0:
226,208,187658,1,6,0:3:0:0:
219,240,187811,1,4,0:3:0:0:
208,271,187964,6,0,B|165:324|165:324|93:322|62:253,1,188.999994232178,14|0,0:1|3:0,0:0:0:0:
14,185,188883,1,14,0:0:0:0:
52,98,189189,1,10,0:1:0:0:
74,73,189342,1,8,0:0:0:0:
94,47,189495,1,8,0:1:0:0:
188,18,189801,6,0,L|194:75,1,47.2499985580445,8|8,0:0|0:0,0:0:0:0:
213,90,190107,2,0,L|219:147,1,47.2499985580445,8|8,0:3|0:3,0:0:0:0:
238,162,190413,2,0,L|244:219,1,47.2499985580445,4|4,0:3|0:3,0:0:0:0:
260,237,190720,6,0,B|298:252|324:286|324:286|332:241|368:222|368:222|346:191|360:145,1,242.999992584229,8|0,0:0|0:0,0:0:0:0:
70,383,205413,5,14,0:0:0:0:
14,312,205720,2,0,L|18:255,1,45,10|8,0:3|0:3,0:0:0:0:
34,241,206026,2,0,L|38:184,1,45,6|4,0:3|0:3,0:0:0:0:
60,170,206332,6,0,B|83:195|127:197|127:197|132:159|174:133,1,148.50000453186,14|2,0:1|0:0,0:0:0:0:
301,73,207250,1,10,0:0:0:0:
315,170,207556,1,2,3:2:0:0:
380,243,207862,1,2,1:0:0:0:
481,201,208169,6,0,B|490:190|504:156|504:156|504:122|478:56,1,148.50000453186,12|2,0:1|0:1,0:0:0:0:
452,41,208781,2,0,L|343:28,2,99.0000030212403,10|10|2,0:1|0:0|3:2,0:0:0:0:
511,120,209699,1,0,1:2:0:0:
505,154,209852,1,0,1:0:0:0:
492,186,210005,6,0,B|448:217|448:217|292:176,1,198.000006042481,10|10,0:1|0:1,0:0:0:0:
212,156,210924,1,10,0:0:0:0:
203,57,211230,1,2,3:2:0:0:
112,16,211536,1,2,1:2:0:0:
31,82,211842,6,0,B|14:109|6:136|6:136|10:195|40:271,1,198.000006042481,12|10,0:1|0:1,0:0:0:0:
108,340,212760,2,0,P|159:324|214:329,1,99.0000030212403,10|2,0:0|3:2,0:0:0:0:
301,347,213373,1,0,1:0:0:0:
334,357,213526,1,0,1:0:0:0:
366,369,213679,6,0,P|421:375|453:256,1,198.000006042481,14|10,0:1|0:1,0:0:0:0:
393,184,214597,1,10,0:0:0:0:
307,234,214903,1,2,3:2:0:0:
237,164,215209,1,2,1:2:0:0:
139,211,215515,6,0,P|88:215|37:183,1,99.0000030212403,14|8,0:1|0:0,0:0:0:0:
16,176,215975,2,0,L|38:71,1,99.0000030212403,10|8,0:2|0:1,0:0:0:0:
50,47,216434,1,10,0:2:0:0:
141,85,216740,2,0,L|202:80,1,49.5000015106202,10|8,2:3|2:3,0:0:0:0:
220,97,217046,2,0,L|281:92,1,49.5000015106202,4|4,2:3|2:3,0:0:0:0:
301,76,217352,6,0,P|331:37|442:45,2,155.250002961159,14|2|10,0:1|0:0|0:0,0:0:0:0:
276,176,218576,1,2,3:1:0:0:
325,267,218883,1,2,1:0:0:0:
247,350,219189,6,0,B|235:362|215:368|215:368|158:370|94:333,1,155.250002961159,12|2,0:1|0:1,0:0:0:0:
74,314,219801,2,0,P|59:274|59:214,2,103.500001974106,10|10|2,2:1|0:0|3:2,0:0:0:0:
157,374,220719,1,2,1:2:0:0:
185,351,220872,1,0,1:0:0:0:
218,337,221026,6,0,B|338:308|294:374|418:358,1,207.000003948212,10|10,0:1|0:1,0:0:0:0:
499,294,221944,1,10,0:0:0:0:
503,190,222250,1,2,3:2:0:0:
425,121,222556,1,2,1:2:0:0:
323,163,222862,6,0,P|272:171|223:155,1,103.500001974106,12|0,0:1|0:0,0:0:0:0:
190,140,223322,1,2,3:0:0:0:
158,121,223475,2,0,P|168:70|151:20,1,103.500001974106,10|10,0:1|0:0,0:0:0:0:
49,7,224087,1,2,3:2:0:0:
4,100,224393,1,2,1:0:0:0:
14,134,224546,1,0,1:0:0:0:
26,167,224699,6,0,B|32:200|32:200|27:232|27:232|35:273,1,103.500001974106,14|2,0:1|0:0,0:0:0:0:
99,349,225311,1,10,0:1:0:0:
191,301,225618,2,0,B|205:237|205:237|197:181|197:181|218:93,1,207.000003948212,10|2,0:0|1:2,0:0:0:0:
305,31,226536,6,0,P|400:50|421:146,1,207.000003948212,10|10,0:1|0:1,0:0:0:0:
368,235,227454,1,10,0:2:0:0:
441,307,227760,1,2,3:2:0:0:
369,381,228066,1,2,1:0:0:0:
289,313,228373,6,0,B|265:297|227:293|182:323|201:338|186:360|139:370|97:338,1,207.000003948212,10|10,0:1|0:1,0:0:0:0:
12,295,229291,1,10,0:0:0:0:
4,191,229597,1,2,3:2:0:0:
79,120,229903,1,2,1:2:0:0:
185,158,230209,6,0,B|229:181|229:181|291:158,1,103.500001974106,14|10,0:1|0:3,0:0:0:0:
307,138,230668,2,0,P|297:101|326:40,1,103.500001974106,10|10,0:0|0:3,0:0:0:0:
353,25,231127,1,10,0:0:0:0:
441,78,231434,2,0,L|434:140,1,51.7500009870529,10|8,0:3|0:3,0:0:0:0:
450,162,231740,2,0,L|443:224,1,51.7500009870529,6|4,0:3|0:3,0:0:0:0:
458,246,232046,6,0,B|413:280|413:280|316:255,1,155.250002961159,14|2,0:1|0:0,0:0:0:0:
215,138,232964,1,10,0:0:0:0:
207,34,233270,1,2,3:1:0:0:
107,5,233576,1,2,1:0:0:0:
29,85,233883,6,0,B|16:105|8:121|8:121|-1:170|32:241,1,155.250002961159,12|10,0:1|0:1,0:0:0:0:
46,261,234495,2,0,P|63:310|60:375,2,103.500001974106,2|10|2,0:0|0:0|3:2,0:0:0:0:
3,166,235413,1,2,1:2:0:0:
16,132,235566,1,0,1:0:0:0:
38,103,235719,6,0,B|70:84|114:94|114:94|144:121|144:121|185:133|232:111,1,207.000003948212,10|10,0:1|0:1,0:0:0:0:
321,62,236638,1,10,0:0:0:0:
423,45,236944,1,2,3:2:0:0:
505,107,237250,1,2,1:2:0:0:
498,210,237556,6,0,B|485:259|421:281|373:243|373:243|376:212|354:172,1,207.000003948212,12|8,0:1|0:1,0:0:0:0:
320,96,238474,1,10,0:0:0:0:
224,54,238781,1,10,3:3:0:0:
124,82,239087,1,0,1:0:0:0:
108,114,239240,1,0,1:0:0:0:
92,146,239393,6,0,B|73:168|62:193|62:193|62:258|111:346,1,207.000003948212,14|10,0:1|0:1,0:0:0:0:
202,373,240311,1,10,0:0:0:0:
291,321,240617,1,2,3:2:0:0:
385,363,240923,1,2,1:2:0:0:
419,352,241076,1,0,1:0:0:0:
455,349,241230,6,0,P|471:294|456:242,1,103.500001974106,14|8,0:1|0:0,0:0:0:0:
431,228,241689,2,0,P|390:233|334:202,1,103.500001974106,10|8,0:2|0:1,0:0:0:0:
306,184,242148,2,0,P|262:157|211:160,2,103.500001974106,10|10|4,0:2|2:3|2:3,0:0:0:0:
388,262,243066,6,0,B|428:286|428:286|474:275,1,94.499997116089,14|0,0:1|3:3,0:0:0:0:
496,250,243526,2,0,L|504:148,1,94.499997116089,2|0,1:2|2:0,0:0:0:0:
498,123,243985,1,10,0:0:0:0:
434,53,244291,1,2,0:0:0:0:
350,96,244597,1,2,1:0:0:0:
261,43,244903,6,0,P|232:33|152:38,1,94.499997116089,10|0,0:1|3:3,0:0:0:0:
139,48,245362,2,0,L|125:153,1,94.499997116089,2|0,1:0|1:0,0:0:0:0:
109,170,245822,2,0,L|123:275,1,94.499997116089,10|2,0:0|0:0,0:0:0:0:
156,353,246434,1,2,1:0:0:0:
188,361,246587,1,0,1:0:0:0:
219,350,246740,6,0,B|253:329|290:328|290:328|326:351|360:361,1,141.749995674133,14|2,0:1|1:2,0:0:0:0:
491,351,247658,1,10,0:0:0:0:
447,267,247964,1,2,0:0:0:0:
467,174,248271,1,2,1:0:0:0:
422,83,248577,6,0,P|391:68|317:75,1,94.499997116089,10|0,0:1|3:3,0:0:0:0:
306,89,249036,2,0,L|294:186,1,94.499997116089,2|0,1:0|1:0,0:0:0:0:
274,209,249495,1,10,0:0:0:0:
187,246,249801,1,2,3:0:0:0:
97,215,250107,1,2,1:0:0:0:
90,182,250260,1,0,1:0:0:0:
85,149,250413,6,0,P|82:114|110:49,1,94.499997116089,14|0,0:1|3:3,0:0:0:0:
131,43,250873,2,0,B|165:37|165:37|183:43|183:43|237:32,1,94.499997116089,2|0,1:2|2:0,0:0:0:0:
247,57,251332,1,10,0:0:0:0:
334,22,251638,1,2,0:0:0:0:
424,49,251944,1,2,1:0:0:0:
479,136,252250,6,0,P|489:187|479:233,1,94.499997116089,10|0,0:1|3:3,0:0:0:0:
455,248,252709,2,0,L|349:234,1,94.499997116089,2|0,1:0|1:0,0:0:0:0:
346,265,253169,2,0,L|252:277,1,94.499997116089,10|2,0:0|0:0,0:0:0:0:
178,217,253781,1,2,1:0:0:0:
165,186,253934,1,0,1:0:0:0:
161,153,254087,6,0,P|134:110|43:114,1,141.749995674133,14|2,0:1|1:2,0:0:0:0:
6,243,255005,1,10,0:0:0:0:
30,334,255311,1,2,0:0:0:0:
121,359,255618,1,2,1:0:0:0:
213,302,255924,6,0,L|226:184,1,99.0000030212403,10|8,1:1|1:3,0:0:0:0:
244,175,256383,2,0,P|294:200|345:170,1,99.0000030212403,10|10,2:0|2:3,0:0:0:0:
358,163,256842,1,14,2:0:0:0:
326,58,257148,1,14,2:2:0:0:
