osu file format v14

[General]
AudioFilename: audio.mp3
AudioLeadIn: 0
PreviewTime: 66089
Countdown: 0
SampleSet: Soft
StackLeniency: 0.7
Mode: 0
LetterboxInBreaks: 0
WidescreenStoryboard: 1

[Editor]
Bookmarks: 7964,18985,33679,48373,63066,63143,63220,66740,81434,92454,99801,107148,114495,121842,136536,151230,154903,169597,176944,180618,182454,184291,187964,190720,191638,205413,206332,217352,217429,232046,243066,250413,257148
DistanceSpacing: 1.3
BeatDivisor: 4
GridSize: 32
TimelineZoom: 2.100001

[Metadata]
Title:Kienai Kakera
TitleUnicode:消えない欠片
Artist:Shimotsuki Haruka
ArtistUnicode:霜月はるか
Creator:Lasse
Version:Hard
Source:
Tags:グリオットの眠り姫 guriotto no nemuri hime griotte japanese doujin folk pop fantasy craftscape tindharia
BeatmapID:2333880
BeatmapSetID:1116423

[Difficulty]
HPDrainRate:5
CircleSize:4
OverallDifficulty:6.8
ApproachRate:8
SliderMultiplier:1.2
SliderTickRate:1

[Events]
//Background and Video events
0,0,"a1.jpg",0,0
//Break Periods
2,92654,99051
2,191838,204663
//Storyboard Layer 0 (Background)
//Storyboard Layer 1 (Fail)
//Storyboard Layer 2 (Pass)
//Storyboard Layer 3 (Foreground)
//Storyboard Layer 4 (Overlay)
//Storyboard Sound Samples

[TimingPoints]
618,306.122448979592,6,2,1,42,1,0
618,-133.333333333333,6,2,1,42,0,0
2454,-133.333333333333,6,2,2,42,0,0
2760,-133.333333333333,6,2,1,42,0,0
3985,-133.333333333333,6,2,1,40,0,0
4061,-133.333333333333,6,2,1,20,0,0
4138,-133.333333333333,6,2,1,40,0,0
4214,-133.333333333333,6,2,1,20,0,0
4291,-133.333333333333,6,2,1,44,0,0
6128,-133.333333333333,6,2,2,44,0,0
6434,-133.333333333333,6,2,1,44,0,0
7046,-133.333333333333,6,2,1,50,0,0
7352,-133.333333333333,6,2,1,52,0,0
7658,-133.333333333333,6,2,1,20,0,0
7811,-133.333333333333,6,2,1,54,0,0
7888,-133.333333333333,6,2,1,20,0,0
7964,-100,6,2,1,54,0,0
10107,-100,6,2,1,28,0,0
10260,-100,6,2,1,54,0,0
10949,-100,6,2,1,20,0,0
11026,-100,6,2,1,54,0,0
14623,-100,6,2,1,20,0,0
14699,-100,6,2,1,54,0,0
15082,-100,6,2,1,20,0,0
15158,-100,6,2,1,54,0,0
15235,-100,6,2,1,20,0,0
15311,-100,6,2,1,54,0,0
17454,-100,6,2,1,28,0,0
17607,-100,6,2,1,54,0,0
18679,-100,6,2,1,48,0,0
18985,-200,6,2,1,40,0,0
30005,-166.666666666667,6,2,1,42,0,0
30924,-166.666666666667,6,2,1,44,0,0
31842,-166.666666666667,6,2,1,46,0,0
33066,-166.666666666667,6,2,1,48,0,0
33373,-166.666666666667,6,2,1,50,0,0
33679,-111.111111111111,6,2,1,50,0,0
46536,-100,6,2,1,52,0,0
48066,-100,6,2,1,50,0,0
48220,-100,6,2,1,48,0,0
48373,-200,6,2,1,42,0,0
48679,-200,6,2,1,16,0,0
48832,-200,6,2,1,42,0,0
49291,-200,6,2,4,42,0,0
49597,-200,6,2,1,42,0,0
50515,-200,6,2,1,16,0,0
50668,-200,6,2,1,42,0,0
51434,-200,6,2,4,42,0,0
51510,-200,6,2,1,42,0,0
52964,-200,6,2,4,42,0,0
53271,-200,6,2,1,42,0,0
55107,-200,6,2,4,42,0,0
55413,-200,6,2,1,42,0,0
55720,-200,6,2,1,44,0,0
56026,-200,6,2,1,18,0,0
56179,-200,6,2,1,44,0,0
56638,-200,6,2,4,44,0,0
56944,-200,6,2,1,44,0,0
58781,-200,6,2,4,44,0,0
58857,-200,6,2,1,44,0,0
59393,-200,6,2,1,46,0,0
60311,-200,6,2,4,46,0,0
60618,-200,6,2,1,46,0,0
61230,-166.666666666667,6,2,1,48,0,0
62148,-166.666666666667,6,2,1,50,0,0
62760,-166.666666666667,6,2,1,52,0,0
63066,-111.111111111111,6,2,1,56,0,0
63373,-111.111111111111,6,2,1,50,0,0
63526,-111.111111111111,6,2,1,54,0,0
63832,-111.111111111111,6,2,1,50,0,0
63985,-111.111111111111,6,2,4,54,0,0
64291,-133.333333333333,6,2,1,50,0,0
64750,-133.333333333333,6,2,1,48,0,0
64903,-133.333333333333,6,2,1,52,0,0
66128,-133.333333333333,6,2,1,54,0,0
66434,-133.333333333333,6,2,1,56,0,0
66510,-133.333333333333,6,2,1,20,0,0
66587,-133.333333333333,6,2,1,56,0,0
66663,-133.333333333333,6,2,1,20,0,0
66740,-83.3333333333333,6,2,1,60,0,1
67582,-83.3333333333333,6,2,1,20,0,1
67658,-83.3333333333333,6,2,1,60,0,1
67888,-83.3333333333333,6,2,1,20,0,1
67964,-83.3333333333333,6,2,1,60,0,1
68577,-83.3333333333333,6,2,3,60,0,1
68883,-83.3333333333333,6,2,1,60,0,1
69725,-83.3333333333333,6,2,1,20,0,1
69801,-83.3333333333333,6,2,1,60,0,1
70413,-83.3333333333333,6,2,3,60,0,1
70720,-83.3333333333333,6,2,1,60,0,1
71255,-83.3333333333333,6,2,1,20,0,1
71332,-83.3333333333333,6,2,1,60,0,1
71561,-83.3333333333333,6,2,1,20,0,1
71638,-83.3333333333333,6,2,1,60,0,1
72250,-83.3333333333333,6,2,3,60,0,1
72556,-83.3333333333333,6,2,1,60,0,1
72786,-83.3333333333333,6,2,1,30,0,1
72862,-83.3333333333333,6,2,1,60,0,1
73092,-83.3333333333333,6,2,1,20,0,1
73169,-83.3333333333333,6,2,1,60,0,1
74316,-83.3333333333333,6,2,1,20,0,1
74393,-83.3333333333333,6,2,1,60,0,1
74929,-83.3333333333333,6,2,1,20,0,1
75005,-83.3333333333333,6,2,1,60,0,1
75235,-83.3333333333333,6,2,1,20,0,1
75311,-83.3333333333333,6,2,1,60,0,1
75924,-83.3333333333333,6,2,3,60,0,1
76230,-83.3333333333333,6,2,1,60,0,1
76459,-83.3333333333333,6,2,1,20,0,1
76536,-83.3333333333333,6,2,1,60,0,1
76765,-83.3333333333333,6,2,1,20,0,1
76842,-83.3333333333333,6,2,1,60,0,1
77760,-83.3333333333333,6,2,3,60,0,1
77990,-83.3333333333333,6,2,1,20,0,1
78066,-83.3333333333333,6,2,1,60,0,1
78602,-83.3333333333333,6,2,1,20,0,1
78679,-83.3333333333333,6,2,1,60,0,1
78908,-83.3333333333333,6,2,1,20,0,1
78985,-83.3333333333333,6,2,1,60,0,1
79597,-76.9230769230769,6,2,1,60,0,1
81357,-80,6,2,1,60,0,0
81434,-83.3333333333333,6,2,1,60,0,1
82276,-83.3333333333333,6,2,1,20,0,1
82352,-83.3333333333333,6,2,1,60,0,1
83271,-83.3333333333333,6,2,3,60,0,1
83577,-83.3333333333333,6,2,1,60,0,1
84419,-83.3333333333333,6,2,1,20,0,1
84495,-83.3333333333333,6,2,1,60,0,1
85107,-83.3333333333333,6,2,3,60,0,1
85413,-83.3333333333333,6,2,1,60,0,1
85949,-83.3333333333333,6,2,1,20,0,1
86026,-83.3333333333333,6,2,1,60,0,1
86255,-83.3333333333333,6,2,1,20,0,1
86332,-83.3333333333333,6,2,1,60,0,1
86944,-83.3333333333333,6,2,3,60,0,1
87148,-83.3333333333333,6,2,1,50,0,1
87250,-83.3333333333333,6,2,1,60,0,1
87786,-83.3333333333333,6,2,1,20,0,1
87862,-83.3333333333333,6,2,1,60,0,1
89623,-83.3333333333333,6,2,1,20,0,1
89699,-83.3333333333333,6,2,1,60,0,1
89929,-83.3333333333333,6,2,1,20,0,1
90005,-83.3333333333333,6,2,1,60,0,1
90618,-76.9230769230769,6,2,1,60,0,1
90847,-76.9230769230769,6,2,1,20,0,1
90924,-76.9230769230769,6,2,1,60,0,1
91000,-76.9230769230769,6,2,1,20,0,1
91077,-76.9230769230769,6,2,1,60,0,1
92454,-200,6,2,1,44,0,0
92760,-200,6,2,1,18,0,0
93066,-200,6,2,1,40,0,0
94597,-200,6,2,1,18,0,0
94903,-200,6,2,1,40,0,0
98271,-200,6,2,1,18,0,0
98577,-200,6,2,1,40,0,0
99801,-181.818181818182,6,2,1,42,0,0
103475,-181.818181818182,6,2,1,44,0,0
104699,-181.818181818182,6,2,1,20,0,0
105005,-181.818181818182,6,2,1,44,0,0
105311,-181.818181818182,6,2,1,50,0,0
105771,-181.818181818182,6,2,1,46,0,0
106230,-181.818181818182,6,2,1,50,0,0
106536,-181.818181818182,6,2,1,48,0,0
106842,-181.818181818182,6,2,1,46,0,0
107148,-133.333333333333,6,2,1,46,0,0
114495,-125,6,2,1,48,0,0
114801,-125,6,2,1,32,0,0
114954,-125,6,2,1,48,0,0
115260,-125,6,2,1,32,0,0
115413,-125,6,2,1,48,0,0
116638,-125,6,2,1,32,0,0
116791,-125,6,2,1,48,0,0
117097,-125,6,2,1,32,0,0
117250,-125,6,2,1,48,0,0
118475,-125,6,2,1,32,0,0
118628,-125,6,2,1,48,0,0
118934,-125,6,2,1,32,0,0
119087,-125,6,2,1,48,0,0
120005,-111.111111111111,6,2,1,48,0,0
121842,-99.9999999999999,6,2,1,52,0,0
134699,-99.9999999999999,6,2,1,54,0,0
136536,-166.666666666667,6,2,3,44,0,0
136995,-166.666666666667,6,2,1,44,0,0
137454,-166.666666666667,6,2,3,44,0,0
137760,-166.666666666667,6,2,1,44,0,0
138066,-166.666666666667,6,2,4,44,0,0
138373,-166.666666666667,6,2,1,44,0,0
139291,-166.666666666667,6,2,3,44,0,0
139597,-166.666666666667,6,2,1,44,0,0
141128,-166.666666666667,6,2,3,44,0,0
141434,-166.666666666667,6,2,1,44,0,0
141740,-166.666666666667,6,2,4,44,0,0
142046,-166.666666666667,6,2,1,44,0,0
142505,-166.666666666667,6,2,1,40,0,0
142658,-166.666666666667,6,2,1,42,0,0
142964,-166.666666666667,6,2,3,44,0,0
143271,-166.666666666667,6,2,1,44,0,0
143883,-153.846153846154,6,2,3,44,0,0
144342,-153.846153846154,6,2,1,44,0,0
144801,-153.846153846154,6,2,3,44,0,0
145107,-153.846153846154,6,2,1,44,0,0
145413,-153.846153846154,6,2,4,44,0,0
145566,-153.846153846154,6,2,4,40,0,0
145720,-153.846153846154,6,2,1,44,0,0
146638,-153.846153846154,6,2,3,44,0,0
146944,-153.846153846154,6,2,1,44,0,0
147046,-153.846153846154,6,2,1,42,0,0
147250,-153.846153846154,6,2,1,44,0,0
147556,-142.857142857143,6,2,3,44,0,0
147557,-142.857142857143,6,2,3,46,0,0
148015,-142.857142857143,6,2,1,46,0,0
148475,-142.857142857143,6,2,3,46,0,0
148781,-142.857142857143,6,2,1,46,0,0
149087,-142.857142857143,6,2,4,46,0,0
149393,-142.857142857143,6,2,1,46,0,0
150158,-142.857142857143,6,2,1,42,0,0
150311,-142.857142857143,6,2,3,46,0,0
150618,-142.857142857143,6,2,1,46,0,0
151230,-105.263157894737,6,2,1,48,0,0
152148,-105.263157894737,6,2,3,48,0,0
152454,-105.263157894737,6,2,1,48,0,0
153066,-105.263157894737,6,2,1,50,0,0
153985,-105.263157894737,6,2,3,52,0,0
154291,-105.263157894737,6,2,1,52,0,0
154903,-90.9090909090909,6,2,1,54,0,0
169597,-90.9090909090909,6,2,1,56,0,0
176944,-86.9565217391304,6,2,1,57,0,0
182454,-86.9565217391304,6,2,1,58,0,0
183985,-86.9565217391304,6,2,4,58,0,0
184291,-83.3333333333333,6,2,1,59,0,0
187964,-83.3333333333333,6,2,1,60,0,0
190720,-111.111111111111,6,2,1,58,0,0
191026,-111.111111111111,6,2,1,26,0,0
191332,-111.111111111111,6,2,1,20,0,0
191638,-111.111111111111,6,2,99,30,0,0
205413,-111.111111111111,6,2,1,52,0,0
205452,-111.111111111111,6,2,1,5,0,0
205720,-111.111111111111,6,2,1,54,0,0
206026,-111.111111111111,6,2,1,56,0,0
206332,-83.3333333333333,6,2,1,60,0,1
207174,-83.3333333333333,6,2,1,20,0,1
207250,-83.3333333333333,6,2,1,60,0,1
207480,-83.3333333333333,6,2,1,20,0,1
207556,-83.3333333333333,6,2,1,60,0,1
208169,-83.3333333333333,6,2,3,60,0,1
208475,-83.3333333333333,6,2,1,60,0,1
209316,-83.3333333333333,6,2,1,20,0,1
209393,-83.3333333333333,6,2,1,60,0,1
210005,-83.3333333333333,6,2,3,60,0,1
210311,-83.3333333333333,6,2,1,60,0,1
210847,-83.3333333333333,6,2,1,20,0,1
210924,-83.3333333333333,6,2,1,60,0,1
211153,-83.3333333333333,6,2,1,20,0,1
211230,-83.3333333333333,6,2,1,60,0,1
211842,-83.3333333333333,6,2,3,60,0,1
212148,-83.3333333333333,6,2,1,60,0,1
212684,-83.3333333333333,6,2,1,20,0,1
212760,-83.3333333333333,6,2,1,60,0,1
214521,-83.3333333333333,6,2,1,20,0,1
214597,-83.3333333333333,6,2,1,60,0,1
214827,-83.3333333333333,6,2,1,20,0,1
214903,-83.3333333333333,6,2,1,60,0,1
215515,-76.9230769230769,6,2,1,60,0,1
215745,-76.9230769230769,6,2,1,20,0,1
215822,-76.9230769230769,6,2,1,60,0,1
215898,-76.9230769230769,6,2,1,20,0,1
215975,-76.9230769230769,6,2,1,60,0,1
217276,-100,6,2,1,60,0,0
217352,-76.9230769230769,6,2,2,60,0,1
217658,-76.9230769230769,6,2,1,60,0,1
218194,-76.9230769230769,6,2,1,20,0,1
218271,-76.9230769230769,6,2,3,60,0,1
218500,-76.9230769230769,6,2,1,20,0,1
218577,-76.9230769230769,6,2,1,60,0,1
219189,-76.9230769230769,6,2,3,60,0,1
219495,-76.9230769230769,6,2,1,60,0,1
220107,-76.9230769230769,6,2,3,60,0,1
220337,-76.9230769230769,6,2,1,20,0,1
220413,-76.9230769230769,6,2,1,60,0,1
221026,-76.9230769230769,6,2,3,60,0,1
221332,-76.9230769230769,6,2,1,60,0,1
221868,-76.9230769230769,6,2,1,20,0,1
221944,-76.9230769230769,6,2,3,60,0,1
222174,-76.9230769230769,6,2,1,20,0,1
222250,-76.9230769230769,6,2,1,60,0,1
222862,-76.9230769230769,6,2,3,60,0,1
223169,-76.9230769230769,6,2,1,60,0,1
223398,-76.9230769230769,6,2,1,30,0,1
223475,-76.9230769230769,6,2,1,60,0,1
223704,-76.9230769230769,6,2,1,20,0,1
223781,-76.9230769230769,6,2,3,60,0,1
223934,-76.9230769230769,6,2,1,60,0,1
224929,-76.9230769230769,6,2,1,20,0,1
225005,-76.9230769230769,6,2,1,60,0,1
225541,-76.9230769230769,6,2,1,20,0,1
225618,-76.9230769230769,6,2,3,60,0,1
225847,-76.9230769230769,6,2,1,20,0,1
225924,-76.9230769230769,6,2,1,60,0,1
226536,-76.9230769230769,6,2,3,60,0,1
226842,-76.9230769230769,6,2,1,60,0,1
227378,-76.9230769230769,6,2,1,20,0,1
227454,-76.9230769230769,6,2,3,60,0,1
227607,-76.9230769230769,6,2,1,60,0,1
228373,-76.9230769230769,6,2,3,60,0,1
228602,-76.9230769230769,6,2,1,20,0,1
228679,-76.9230769230769,6,2,1,60,0,1
229214,-76.9230769230769,6,2,1,20,0,1
229291,-76.9230769230769,6,2,3,60,0,1
229521,-76.9230769230769,6,2,1,20,0,1
229597,-76.9230769230769,6,2,1,60,0,1
230209,-71.4285714285714,6,2,1,60,0,1
230439,-71.4285714285714,6,2,1,20,0,1
230515,-71.4285714285714,6,2,1,60,0,1
231128,-71.4285714285714,6,2,3,60,0,1
231281,-71.4285714285714,6,2,1,60,0,1
231970,-76.9230769230769,6,2,1,60,0,0
232046,-76.9230769230769,6,2,2,60,0,1
232352,-76.9230769230769,6,2,1,60,0,1
232888,-76.9230769230769,6,2,1,20,0,1
232964,-76.9230769230769,6,2,3,60,0,1
233118,-76.9230769230769,6,2,1,60,0,1
233883,-76.9230769230769,6,2,3,60,0,1
234189,-76.9230769230769,6,2,1,60,0,1
234801,-76.9230769230769,6,2,3,60,0,1
235031,-76.9230769230769,6,2,1,20,0,1
235107,-76.9230769230769,6,2,1,60,0,1
235720,-76.9230769230769,6,2,3,60,0,1
236026,-76.9230769230769,6,2,1,60,0,1
236561,-76.9230769230769,6,2,1,20,0,1
236638,-76.9230769230769,6,2,3,60,0,1
236868,-76.9230769230769,6,2,1,20,0,1
236944,-76.9230769230769,6,2,1,60,0,1
237556,-76.9230769230769,6,2,3,60,0,1
237862,-76.9230769230769,6,2,1,60,0,1
238398,-76.9230769230769,6,2,1,20,0,1
238475,-76.9230769230769,6,2,3,60,0,1
238628,-76.9230769230769,6,2,1,60,0,1
240235,-76.9230769230769,6,2,1,20,0,1
240311,-76.9230769230769,6,2,3,60,0,1
240541,-76.9230769230769,6,2,1,20,0,1
240618,-76.9230769230769,6,2,1,60,0,1
241230,-71.4285714285714,6,2,1,60,0,1
241459,-71.4285714285714,6,2,1,20,0,1
241536,-71.4285714285714,6,2,1,60,0,1
241612,-71.4285714285714,6,2,1,20,0,1
241689,-71.4285714285714,6,2,1,60,0,1
242148,-71.4285714285714,6,2,3,60,0,1
242301,-71.4285714285714,6,2,1,60,0,1
243066,-90.9090909090909,6,2,1,55,0,0
255924,-83.3333333333333,6,2,1,55,0,0
256230,-83.3333333333333,6,2,1,52,0,0
256383,-83.3333333333333,6,2,1,56,0,0
256842,-83.3333333333333,6,2,1,58,0,0

[Colours]
Combo1 : 250,180,240
Combo2 : 120,200,230
Combo3 : 255,230,130
Combo4 : 160,230,150

[HitObjects]
187,59,464,5,2,0:0:0:0:
187,59,541,1,2,0:0:0:0:
187,59,618,2,0,B|162:66|141:56|141:56|133:37|113:23,1,90.0000034332277,14|0,0:1|0:0,0:0:0:0:
69,87,1077,2,0,B|67:112|51:129|51:129|31:131|12:145,1,90.0000034332277,0|0,0:1|0:0,0:0:0:0:
59,207,1536,2,0,B|83:216|94:236|94:236|89:256|97:278,2,90.0000034332277,2|0|0,0:0|0:0|0:0,0:0:0:0:
63,211,2454,6,0,P|103:218|155:189,1,90.0000034332277,14|0,0:0|0:0,0:0:0:0:
208,152,2913,2,0,P|247:132|291:139,1,90.0000034332277,0|0,0:0|0:0,0:0:0:0:
359,175,3373,2,0,P|398:194|442:187,1,90.0000034332277,2|0,0:0|0:0,0:0:0:0:
512,66,3985,5,2,0:3:0:0:
512,66,4138,1,2,0:3:0:0:
441,94,4291,6,0,B|410:83|410:83|400:67|400:67|349:50,1,90.0000034332277,6|0,0:0|0:0,0:0:0:0:
293,23,4750,2,0,B|263:37|263:37|244:32|244:32|196:56,1,90.0000034332277,0|0,0:0|0:0,0:0:0:0:
138,77,5209,2,0,B|126:108|126:108|110:117|110:117|94:169,2,90.0000034332277,2|0|0,0:0|0:0|0:0,0:0:0:0:
142,81,6128,6,0,B|183:99|183:99|222:78,1,90.0000034332277,14|0,0:0|0:0,0:0:0:0:
304,95,6587,1,8,0:0:0:0:
304,95,6663,1,8,0:0:0:0:
304,95,6740,2,0,L|296:40,1,45.0000017166138,8|0,0:0|0:0,0:0:0:0:
234,0,7046,5,10,0:3:0:0:
186,147,7352,1,10,0:0:0:0:
260,280,7658,1,10,0:0:0:0:
260,280,7811,1,10,0:0:0:0:
190,349,7964,6,0,B|162:369|162:369|61:353,1,120,14|0,0:1|0:0,0:0:0:0:
13,299,8424,2,0,P|15:260|36:234,1,60,2|8,0:0|0:1,0:0:0:0:
176,134,8883,6,0,P|189:160|188:190,1,60,10|0,0:0|0:0,0:0:0:0:
194,133,9189,2,0,P|206:159|206:189,1,60,10|0,0:1|0:0,0:0:0:0:
212,132,9495,2,0,P|225:159|225:189,1,60,10|0,0:1|0:1,0:0:0:0:
149,261,9801,6,0,B|103:218|22:238|22:238|69:268,1,180,10|8,0:1|0:1,0:0:0:0:
108,348,10413,2,0,L|116:387,2,30,2|2|2,0:0|0:0|0:0,0:0:0:0:
159,259,10720,2,0,B|169:227|169:227|165:200|165:200|185:143,1,120,10|8,0:0|0:1,0:0:0:0:
296,23,11332,5,10,0:1:0:0:
296,23,11485,1,8,0:1:0:0:
363,82,11638,6,0,B|391:108|438:96|438:96|471:63,1,120,14|0,0:1|0:0,0:0:0:0:
455,177,12097,1,2,0:0:0:0:
455,177,12250,2,0,P|469:222|464:305,1,120,8|8,0:1|0:0,0:0:0:0:
327,373,12862,6,0,B|316:310,1,60,2|0,0:0|0:0,0:0:0:0:
314,383,13169,2,0,B|303:320,1,60,10|0,0:1|0:0,0:0:0:0:
237,237,13475,6,0,P|222:274|147:269,1,120,10|0,0:1|0:0,0:0:0:0:
89,321,13934,1,10,0:3:0:0:
40,260,14087,2,0,L|35:176,1,60,4|8,0:3|0:3,0:0:0:0:
59,103,14393,6,0,B|84:141|136:137|136:137|165:116,1,120,14|8,0:0|0:3,0:0:0:0:
290,10,15005,1,6,0:3:0:0:
290,10,15158,1,10,0:2:0:0:
365,78,15311,6,0,B|379:102|384:118|384:118|385:144|367:191,1,120,14|0,0:1|0:0,0:0:0:0:
294,245,15771,2,0,B|277:262|277:262|289:226,1,60,2|8,0:0|0:1,0:0:0:0:
448,349,16230,6,0,P|453:319|447:290,1,60,10|0,0:0|0:0,0:0:0:0:
436,353,16536,2,0,P|441:323|435:294,1,60,10|0,0:1|0:0,0:0:0:0:
424,357,16842,2,0,P|429:327|423:298,1,60,10|0,0:1|0:0,0:0:0:0:
319,237,17148,6,0,B|302:261|264:255|264:255|239:195|283:143,1,180,10|8,0:1|0:1,0:0:0:0:
332,49,17760,2,0,L|323:5,2,30,2|2|2,0:0|0:0|0:0,0:0:0:0:
408,128,18066,5,10,0:0:0:0:
476,89,18220,1,8,0:0:0:0:
460,12,18373,1,8,0:1:0:0:
339,56,18679,5,8,2:1:0:0:
339,56,18832,1,8,2:1:0:0:
339,56,18985,2,0,P|309:56|279:49,2,60,2|0|0,0:0|0:0|0:0,0:0:0:0:
426,16,19903,1,2,0:0:0:0:
478,95,20209,2,0,P|486:123|488:153,1,60,2|0,0:0|0:0,0:0:0:0:
455,224,20669,5,0,0:0:0:0:
455,224,20822,2,0,B|397:214|397:214|345:246|345:246|281:233,1,180,2|0,0:0|0:0,0:0:0:0:
215,188,22046,1,2,0:0:0:0:
238,107,22352,1,0,0:0:0:0:
190,31,22658,6,0,P|163:19|120:15,2,60,2|0|0,0:0|0:0|0:0,0:0:0:0:
238,107,23577,2,0,P|233:136|240:178,1,60,2|0,0:0|0:0,0:0:0:0:
276,240,24189,1,0,0:0:0:0:
203,299,24495,6,0,P|180:305|141:310,2,60,2|0|0,0:0|0:0|0:0,0:0:0:0:
274,254,25413,1,2,0:0:0:0:
309,320,25720,1,0,0:0:0:0:
377,350,26026,1,0,0:0:0:0:
457,308,26332,6,0,P|483:290|517:280,2,60,2|0|0,0:0|0:0|0:0,0:0:0:0:
389,367,27250,1,2,0:0:0:0:
338,292,27556,2,0,P|331:256|334:229,1,60,2|0,0:0|0:0,0:0:0:0:
350,162,28015,5,0,0:0:0:0:
350,162,28169,2,0,P|383:158|411:151,1,60,2|0,0:0|0:0,0:0:0:0:
486,118,28781,1,2,0:0:0:0:
478,34,29087,1,0,0:0:0:0:
395,15,29393,1,0,0:0:0:0:
351,88,29699,1,0,0:0:0:0:
262,36,30005,6,0,P|229:23|183:24,1,71.9999978027344,2|0,0:0|0:0,0:0:0:0:
124,53,30464,2,0,P|101:80|88:124,1,71.9999978027344,2|0,0:0|0:0,0:0:0:0:
101,189,30924,2,0,P|115:221|118:257,2,71.9999978027344,2|2|2,0:0|0:0|0:0,0:0:0:0:
21,60,31842,5,2,3:2:0:0:
136,11,32148,5,8,0:3:0:0:
136,11,32301,1,8,0:3:0:0:
174,125,32607,5,8,0:3:0:0:
177,133,32684,1,8,0:3:0:0:
180,141,32760,1,4,1:3:0:0:
283,66,33066,5,8,2:3:0:0:
283,66,33220,1,8,2:3:0:0:
312,143,33373,5,4,3:3:0:0:
312,143,33526,1,4,3:3:0:0:
388,108,33679,6,0,P|441:85|499:96,1,107.999996704102,6|0,3:1|2:0,0:0:0:0:
451,172,34138,2,0,P|472:206|475:231,1,53.9999983520508,0|0,3:0|1:0,0:0:0:0:
372,345,34597,6,0,P|330:334|259:329,2,107.999996704102,2|0|0,3:0|1:0|3:0,0:0:0:0:
444,380,35362,1,0,0:0:0:0:
496,308,35515,6,0,P|503:260|480:192,1,107.999996704102,2|0,3:1|0:0,0:0:0:0:
455,128,35975,1,0,3:0:0:0:
382,163,36128,2,0,B|361:172|339:173|339:173|312:165|293:130,1,107.999996704102,0|0,1:0|1:0,0:0:0:0:
293,130,36740,6,0,L|300:64,1,53.9999983520508,2|0,3:0|0:0,0:0:0:0:
258,10,37046,1,2,3:0:0:0:
258,10,37199,1,0,3:0:0:0:
183,60,37352,6,0,B|159:73|128:67|128:67|114:49|87:35,1,107.999996704102,2|0,3:0|0:0,0:0:0:0:
12,87,37811,2,0,P|3:108|0:144,1,53.9999983520508,0|0,3:0|1:0,0:0:0:0:
115,243,38271,6,0,L|175:229,1,53.9999983520508,2|0,3:0|0:0,0:0:0:0:
167,244,38577,2,0,L|115:257,1,53.9999983520508,0|0,1:0|0:0,0:0:0:0:
115,271,38883,2,0,L|175:257,1,53.9999983520508,0|0,3:0|0:0,0:0:0:0:
243,303,39189,6,0,B|238:360|283:371|283:371|317:356,1,107.999996704102,2|0,3:0|0:0,0:0:0:0:
378,320,39648,2,0,L|387:261,1,53.9999983520508,0|0,3:0|1:0,0:0:0:0:
167,258,40107,6,0,L|158:199,1,53.9999983520508,2|0,1:0|0:0,0:0:0:0:
96,152,40413,2,0,L|62:146,2,26.9999991760254,2|0|0,3:0|0:0|0:0,0:0:0:0:
164,105,40720,1,0,1:0:0:0:
164,105,40873,1,0,1:0:0:0:
243,155,41026,6,0,P|293:155|323:96,1,107.999996704102,2|0,3:0|0:0,0:0:0:0:
313,31,41485,2,0,L|256:21,1,53.9999983520508,0|0,3:0|1:0,0:0:0:0:
99,43,41944,6,0,P|74:91|80:144,2,107.999996704102,2|2|0,3:0|1:0|3:0,0:0:0:0:
169,4,42709,1,0,0:0:0:0:
260,45,42862,6,0,P|307:54|375:27,1,107.999996704102,2|0,3:0|0:0,0:0:0:0:
428,73,43322,2,0,P|440:48|438:21,1,53.9999983520508,0|0,3:0|1:0,0:0:0:0:
317,140,43781,6,0,P|315:166|326:191,1,53.9999983520508,2|0,1:0|0:0,0:0:0:0:
340,189,44087,2,0,P|329:165|330:139,1,53.9999983520508,0|0,3:0|0:0,0:0:0:0:
342,137,44393,2,0,P|341:164|353:188,1,53.9999983520508,0|0,3:0|2:0,0:0:0:0:
440,233,44699,6,0,B|480:250|480:250|458:223|454:191,1,107.999996704102,2|0,3:0|0:0,0:0:0:0:
476,113,45158,2,0,L|487:38,1,53.9999983520508,0|0,3:0|1:0,0:0:0:0:
346,0,45464,5,0,0:0:0:0:
346,0,45618,2,0,P|319:15|283:14,1,53.9999983520508,2|0,3:0|0:0,0:0:0:0:
263,90,45924,2,0,P|239:76|223:55,1,53.9999983520508,2|0,1:0|0:0,0:0:0:0:
143,63,46230,2,0,P|142:36|153:11,1,53.9999983520508,0|0,3:0|3:0,0:0:0:0:
225,74,46536,6,0,B|247:112|247:112|221:187,1,120,2|0,3:0|0:0,0:0:0:0:
167,255,46995,1,0,3:0:0:0:
88,210,47148,1,0,1:0:0:0:
21,355,47454,5,2,3:0:0:0:
88,210,47760,1,0,1:0:0:0:
52,81,48066,5,0,1:0:0:0:
52,81,48220,1,0,1:0:0:0:
52,81,48373,2,0,B|75:100|75:100|145:82,1,90,6|0,3:2|3:0,0:0:0:0:
257,63,49291,2,0,P|258:36|274:3,2,60,4|0|0,0:0|0:0|0:0,0:0:0:0:
300,134,50209,6,0,P|315:166|320:227,1,90,2|0,3:2|3:0,0:0:0:0:
249,324,51128,2,0,P|221:344|200:367,2,60,2|2|8,0:0|0:3|0:0,0:0:0:0:
330,303,52046,6,0,P|358:316|399:319,1,60,2|0,3:0|0:0,0:0:0:0:
418,347,52505,2,0,P|435:338|447:323,1,30,0|0,3:0|0:0,0:0:0:0:
495,264,52964,1,4,0:0:0:0:
458,188,53271,1,0,0:0:0:0:
498,114,53577,1,0,0:0:0:0:
441,38,53883,6,0,P|410:45|375:46,1,60,2|0,3:0|0:0,0:0:0:0:
352,71,54342,2,0,P|322:64|292:62,1,60,0|0,3:0|0:0,0:0:0:0:
257,78,54801,2,0,P|227:85|197:87,2,60,2|2|12,0:0|0:3|0:0,0:0:0:0:
345,47,55720,6,0,P|381:30|431:25,1,90,2|0,3:0|3:0,0:0:0:0:
499,130,56638,2,0,P|497:174|492:191,1,60,4|0,0:0|0:0,0:0:0:0:
439,264,57250,5,2,0:0:0:0:
439,264,57403,1,0,0:0:0:0:
439,264,57556,2,0,P|394:249|375:246,1,60,2|0,3:0|0:0,0:0:0:0:
344,252,58015,2,0,P|333:262|322:275,1,30,0|0,3:0|0:0,0:0:0:0:
261,330,58475,2,0,P|224:343|196:344,2,60,2|2|8,0:0|0:3|0:0,0:0:0:0:
324,265,59393,6,0,P|322:230|330:193,1,60,2|0,3:0|0:0,0:0:0:0:
347,180,59852,2,0,L|383:168,1,30,0|0,3:0|0:0,0:0:0:0:
436,113,60311,1,4,0:0:0:0:
414,31,60618,1,0,0:0:0:0:
332,11,60924,1,0,0:0:0:0:
258,90,61230,6,0,B|248:103|240:107|240:107|229:88|197:73,1,71.9999978027344,2|0,3:0|0:0,0:0:0:0:
143,38,61689,2,0,P|126:40|104:44,1,35.9999989013672,0|0,3:0|0:0,0:0:0:0:
20,94,62148,1,2,3:0:0:0:
25,205,62454,1,10,0:0:0:0:
130,251,62760,1,10,0:3:0:0:
130,251,62913,1,8,0:0:0:0:
208,202,63066,6,0,P|204:145|223:98,1,107.999996704102,6|0,3:1|0:0,0:0:0:0:
289,41,63526,2,0,B|313:65|340:62|340:62|349:33|379:19,1,107.999996704102,2|0,3:2|0:0,0:0:0:0:
454,2,63985,1,4,1:2:0:0:
512,175,64291,5,2,3:0:0:0:
451,217,64444,2,0,B|420:226|420:226|435:169,1,90.0000034332277,2|0,3:0|3:0,0:0:0:0:
456,91,64903,5,2,1:2:0:0:
487,299,65362,1,2,1:2:0:0:
456,91,65822,1,2,1:2:0:0:
268,213,66128,5,10,0:0:0:0:
324,17,66434,1,10,0:3:0:0:
324,17,66587,1,8,0:2:0:0:
247,83,66740,6,0,B|223:102|194:102|194:102|194:55|152:29,1,143.999995605469,14|0,0:1|0:0,0:0:0:0:
72,0,67199,1,2,0:0:0:0:
14,64,67352,2,0,P|3:100|4:136,1,71.9999978027344,8|0,0:1|0:0,0:0:0:0:
71,208,67658,6,0,P|111:197|158:191,1,71.9999978027344,10|0,0:0|0:0,0:0:0:0:
174,276,67964,2,0,P|211:285|261:293,1,71.9999978027344,2|0,3:1|3:1,0:0:0:0:
323,237,68271,1,2,1:0:0:0:
323,237,68424,1,0,1:0:0:0:
409,299,68577,6,0,B|445:321|445:321|414:221,1,143.999995605469,12|0,0:1|0:0,0:0:0:0:
374,139,69036,1,2,0:1:0:0:
444,77,69189,2,0,P|485:74|513:51,1,71.9999978027344,10|2,2:1|2:2,0:0:0:0:
350,37,69495,6,0,P|284:11|213:13,1,143.999995605469,10|2,0:0|3:2,0:0:0:0:
128,53,69954,1,0,3:0:0:0:
198,114,70107,1,2,1:2:0:0:
198,114,70260,1,0,1:0:0:0:
117,179,70413,6,0,B|75:148|15:167|15:167|56:203,1,143.999995605469,10|0,0:1|0:0,0:0:0:0:
110,267,70873,1,2,0:0:0:0:
194,227,71026,2,0,P|206:195|205:158,1,71.9999978027344,10|0,0:1|0:0,0:0:0:0:
167,65,71332,6,0,L|68:50,1,71.9999978027344,10|0,0:0|0:0,0:0:0:0:
251,23,71638,2,0,L|350:8,1,71.9999978027344,2|0,3:2|3:2,0:0:0:0:
419,39,71944,1,2,1:2:0:0:
419,39,72097,1,0,1:2:0:0:
348,118,72250,6,0,B|330:137|327:158|327:158|327:204|364:247,1,143.999995605469,12|0,0:1|0:0,0:0:0:0:
438,303,72709,2,0,B|477:313|477:313|457:289,1,71.9999978027344,2|10,0:0|0:1,0:0:0:0:
245,190,73169,6,0,P|204:182|161:185,1,71.9999978027344,10|0,0:0|3:0,0:0:0:0:
144,275,73475,2,0,P|103:283|60:280,1,71.9999978027344,2|0,3:2|3:0,0:0:0:0:
0,224,73781,1,0,1:0:0:0:
0,224,73934,1,0,1:0:0:0:
91,160,74087,6,0,P|105:125|106:84,1,71.9999978027344,14|0,0:1|0:0,0:0:0:0:
190,114,74393,2,0,P|187:149|173:182,1,71.9999978027344,2|0,0:0|0:0,0:0:0:0:
256,206,74699,2,0,P|270:173|272:137,1,71.9999978027344,10|0,0:1|0:0,0:0:0:0:
188,94,75005,6,0,B|166:111|128:108|128:108|114:60|153:17,1,143.999995605469,10|0,0:0|3:0,0:0:0:0:
335,0,75618,1,2,1:2:0:0:
335,0,75771,1,0,1:0:0:0:
289,91,75924,6,0,B|271:139|271:139|304:233,1,143.999995605469,12|0,0:1|0:0,0:0:0:0:
383,275,76383,2,0,P|418:263|466:258,1,71.9999978027344,2|10,0:0|0:1,0:0:0:0:
298,376,76842,6,0,P|262:370|228:359,1,71.9999978027344,10|0,0:2|3:0,0:0:0:0:
161,293,77148,2,0,P|154:257|155:221,1,71.9999978027344,2|0,3:2|3:0,0:0:0:0:
177,130,77454,1,2,1:0:0:0:
177,130,77607,1,0,1:0:0:0:
256,64,77760,6,0,B|280:97|325:96|325:96|336:61|358:40,1,143.999995605469,10|2,0:1|3:2,0:0:0:0:
432,0,78220,1,0,3:2:0:0:
484,68,78373,2,0,P|489:110|474:160,1,71.9999978027344,10|0,0:1|0:0,0:0:0:0:
408,223,78679,6,0,B|373:213|373:213|347:222|347:222|297:210,1,107.999996704102,10|0,0:0|0:0,0:0:0:0:
300,201,78985,2,0,P|303:165|291:131,1,71.9999978027344,2|0,3:2|3:0,0:0:0:0:
172,225,79291,2,0,P|160:258|163:294,1,71.9999978027344,2|0,1:2|1:0,0:0:0:0:
265,369,79597,6,0,B|310:348|310:348|350:376|418:375,1,155.999992858887,14|0,0:1|0:0,0:0:0:0:
493,304,80056,2,0,P|503:257|462:148,1,155.999992858887,10|10,0:0|0:1,0:0:0:0:
442,65,80515,2,0,B|417:80|417:80|353:61,1,77.9999964294435,10|10,0:0|0:1,0:0:0:0:
277,4,80822,5,10,0:3:0:0:
277,4,80975,1,8,0:3:0:0:
258,95,81128,5,6,0:3:0:0:
258,95,81281,1,4,0:3:0:0:
197,164,81434,6,0,B|167:181|167:181|167:125|167:125|138:75,1,143.999995605469,14|0,0:1|0:0,0:0:0:0:
86,11,81893,1,2,0:0:0:0:
33,79,82046,2,0,B|15:111|15:111|22:160,1,71.9999978027344,8|0,0:1|0:0,0:0:0:0:
76,239,82352,6,0,P|120:226|174:233,1,71.9999978027344,10|2,0:0|3:2,0:0:0:0:
156,229,82582,1,2,3:2:0:0:
165,233,82658,2,0,P|198:244|234:245,1,71.9999978027344,2|0,3:1|3:1,0:0:0:0:
337,206,82964,1,2,1:0:0:0:
337,206,83118,1,0,1:0:0:0:
254,137,83271,6,0,B|231:130|212:104|212:104|222:47|270:28,1,143.999995605469,12|0,0:1|0:0,0:0:0:0:
341,4,83730,1,2,0:1:0:0:
419,40,83883,2,0,P|432:67|437:123,1,71.9999978027344,2|2,0:0|0:1,0:0:0:0:
369,195,84189,6,0,P|346:231|351:332,1,143.999995605469,10|2,0:0|3:2,0:0:0:0:
424,384,84648,1,0,3:0:0:0:
502,339,84801,2,0,P|511:309|504:267,1,71.9999978027344,2|0,1:2|1:0,0:0:0:0:
445,166,85107,6,0,B|424:171|406:184|406:184|303:144,1,143.999995605469,10|0,0:1|0:0,0:0:0:0:
237,191,85566,1,2,0:0:0:0:
195,114,85720,2,0,B|208:80|208:80|194:46,1,71.9999978027344,10|0,0:1|0:0,0:0:0:0:
83,10,86026,6,0,B|62:39|62:39|65:74,1,71.9999978027344,10|0,0:0|0:0,0:0:0:0:
113,168,86332,2,0,B|116:203|116:203|95:232,1,71.9999978027344,2|0,3:2|3:2,0:0:0:0:
21,297,86638,1,2,1:2:0:0:
21,297,86791,1,0,1:2:0:0:
91,367,86944,6,0,P|161:342|247:352,1,143.999995605469,12|2,0:1|0:0,0:0:0:0:
322,379,87403,2,0,B|359:387|359:387|333:363,1,71.9999978027344,2|10,0:0|0:1,0:0:0:0:
185,256,87862,6,0,P|172:221|183:171,1,71.9999978027344,10|0,0:0|3:0,0:0:0:0:
182,178,88092,1,0,3:0:0:0:
189,169,88169,2,0,P|201:135|198:100,1,71.9999978027344,2|0,3:2|3:0,0:0:0:0:
151,9,88475,1,0,1:0:0:0:
151,9,88628,1,0,1:0:0:0:
80,112,88781,6,0,B|56:121|23:115|23:115|15:57|61:31,1,143.999995605469,14|0,0:1|0:0,0:0:0:0:
151,9,89240,1,2,0:0:0:0:
197,99,89393,2,0,P|200:135|189:169,1,71.9999978027344,10|0,0:1|0:0,0:0:0:0:
88,241,89699,6,0,L|17:227,1,71.9999978027344,10|0,0:0|0:0,0:0:0:0:
126,337,90005,2,0,L|196:350,1,71.9999978027344,2|0,3:2|3:0,0:0:0:0:
292,302,90311,1,2,1:2:0:0:
292,302,90464,1,0,1:0:0:0:
217,220,90618,6,0,B|194:208|178:186|178:186|185:142|236:86,1,155.999992858887,14|8,0:1|0:0,0:0:0:0:
317,42,91077,2,0,B|350:84|402:81|402:81|420:48|456:20,1,155.999992858887,6|0,3:2|3:0,0:0:0:0:
484,152,91536,2,0,P|491:189|480:226,1,77.9999964294435,10|0,0:2|3:0,0:0:0:0:
400,296,91842,5,10,2:3:0:0:
400,296,91995,1,8,2:3:0:0:
311,254,92148,5,4,2:3:0:0:
311,254,92301,1,4,2:3:0:0:
263,331,92454,5,14,0:1:0:0:
0,299,99801,6,0,B|120:270|68:355|182:342,1,198.000006042481,6|0,0:0|0:0,0:0:0:0:
268,309,101026,1,0,0:0:0:0:
239,221,101332,1,0,0:0:0:0:
293,146,101638,2,0,P|314:99|289:12,2,132.00000402832,2|0|0,0:0|0:0|0:0,0:0:0:0:
142,253,103475,6,0,B|102:221|43:241|43:241|71:256,1,132.00000402832,2|0,0:0|0:0,0:0:0:0:
156,276,104393,2,0,P|208:278|223:201,1,132.00000402832,2|0,0:0|0:0,0:0:0:0:
192,116,105311,5,10,0:0:0:0:
192,116,105464,1,8,0:0:0:0:
230,26,105771,5,8,0:3:0:0:
230,26,105924,1,8,0:3:0:0:
333,4,106230,5,8,0:0:0:0:
409,85,106536,5,8,0:3:0:0:
355,133,106689,1,8,0:3:0:0:
364,204,106842,1,4,0:3:0:0:
461,285,107148,5,10,0:1:0:0:
495,192,107454,1,8,0:0:0:0:
495,192,108066,5,8,0:1:0:0:
467,96,108373,1,8,0:0:0:0:
290,0,108985,5,10,0:0:0:0:
249,99,109291,5,8,0:3:0:0:
249,99,109444,2,0,B|239:131|239:131|243:157|243:157|231:204,1,90.0000034332277,8|8,0:3|0:3,0:0:0:0:
212,260,109903,1,8,0:0:0:0:
123,379,110209,5,2,1:2:0:0:
80,292,110515,5,8,0:0:0:0:
80,292,110669,1,8,0:0:0:0:
8,326,110822,6,0,P|1:276|24:231,1,90.0000034332277,14|8,0:1|0:0,0:0:0:0:
85,206,111281,1,8,0:3:0:0:
85,206,111434,2,0,L|136:200,1,45.0000017166138,8|4,0:3|0:3,0:0:0:0:
203,228,111740,5,10,0:1:0:0:
221,94,112046,1,8,0:1:0:0:
200,244,112352,1,8,0:0:0:0:
324,192,112658,5,10,0:1:0:0:
221,94,112964,1,8,0:3:0:0:
389,5,113424,5,8,0:3:0:0:
389,5,113577,2,0,P|377:44|392:101,1,90.0000034332277,8|8,0:1|0:1,0:0:0:0:
450,212,114189,5,8,0:3:0:0:
450,212,114342,1,8,0:3:0:0:
388,270,114495,6,0,B|376:281|360:285|360:285|335:285|289:254,1,96,14|0,0:1|0:0,0:0:0:0:
266,193,114954,2,0,P|297:156|296:109,1,96,8|8,0:0|0:3,0:0:0:0:
266,39,115413,5,10,3:1:0:0:
174,141,115720,1,10,2:1:0:0:
101,26,116026,1,0,1:3:0:0:
101,26,116179,1,0,1:3:0:0:
38,77,116332,6,0,B|18:100|18:100|27:185,1,96,10|0,0:1|0:0,0:0:0:0:
52,236,116791,2,0,B|60:268|60:268|56:290|56:290|67:335,1,96,8|8,0:0|0:3,0:0:0:0:
128,373,117250,5,10,3:1:0:0:
271,317,117556,2,0,L|259:256,1,48,8|8,0:1|0:1,0:0:0:0:
239,200,117862,1,8,0:0:0:0:
239,200,118015,1,8,0:3:0:0:
173,146,118169,6,0,B|151:129|151:129|147:99|179:61,1,96,10|0,0:1|0:0,0:0:0:0:
250,54,118628,2,0,P|285:74|339:60,1,96,8|8,0:0|0:3,0:0:0:0:
401,19,119087,5,10,3:1:0:0:
502,121,119393,1,8,0:1:0:0:
386,206,119699,2,0,L|318:193,1,48,8|2,0:0|0:0,0:0:0:0:
357,288,120005,6,0,B|357:330|385:354|385:354|429:346,1,107.999996704102,10|0,0:1|0:0,0:0:0:0:
490,311,120464,2,0,L|496:194,1,107.999996704102,8|8,0:0|0:1,0:0:0:0:
499,122,120924,5,8,0:0:0:0:
380,180,121230,5,8,0:0:0:0:
380,180,121383,1,8,0:0:0:0:
367,99,121536,5,8,0:3:0:0:
367,99,121689,1,8,0:3:0:0:
301,39,121842,6,0,B|287:61|260:66|260:66|240:35|202:27,1,120,14|0,0:1|0:0,0:0:0:0:
117,51,122301,2,0,P|85:101|86:160,1,120,8|0,1:1|0:0,0:0:0:0:
138,233,122760,6,0,B|178:227|178:227|195:239|195:239|263:232,1,120,10|0,0:0|2:1,0:0:0:0:
319,294,123220,1,8,0:1:0:0:
395,246,123373,2,0,P|404:221|400:174,1,60,8|2,0:0|0:0,0:0:0:0:
346,114,123679,6,0,B|313:142|313:142|227:115,1,120,10|0,0:1|0:0,0:0:0:0:
157,82,124138,2,0,P|159:40|87:18,1,120,8|0,0:0|0:0,0:0:0:0:
8,37,124597,1,10,0:1:0:0:
69,206,124903,6,0,L|60:271,1,60,10|8,0:3|0:3,0:0:0:0:
52,355,125209,1,8,0:0:0:0:
52,355,125362,1,8,0:3:0:0:
150,349,125515,6,0,B|167:365|187:374|187:374|240:361|259:331,1,120,10|0,0:1|0:0,0:0:0:0:
302,263,125975,2,0,P|294:234|300:197,1,60,8|10,0:0|0:1,0:0:0:0:
419,94,126434,6,0,L|492:89,1,60,10|0,0:0|0:0,0:0:0:0:
413,79,126740,2,0,L|486:74,1,60,8|0,0:1|0:0,0:0:0:0:
408,65,127046,2,0,L|481:60,1,60,8|0,0:0|0:0,0:0:0:0:
361,0,127352,6,0,B|381:57|342:96|342:96|312:77,1,120,10|0,0:1|0:0,0:0:0:0:
246,123,127811,2,0,P|220:88|125:97,1,120,8|8,0:0|0:1,0:0:0:0:
68,123,128271,1,8,0:0:0:0:
110,297,128577,5,8,0:3:0:0:
110,297,128730,1,4,0:3:0:0:
190,272,128883,5,8,0:3:0:0:
190,272,129036,1,8,0:0:0:0:
248,334,129189,6,0,B|269:368|309:365|309:365|324:334|346:318,1,120,14|0,0:1|0:0,0:0:0:0:
423,341,129648,2,0,B|458:350|458:350|423:313|424:261,1,120,8|0,1:1|0:0,0:0:0:0:
473,199,130107,1,10,0:0:0:0:
357,61,130413,6,0,L|361:-6,2,60,8|8|8,0:1|0:1|3:2,0:0:0:0:
356,147,130873,1,2,3:3:0:0:
291,210,131026,6,0,B|267:236|267:236|284:185|271:149,1,120,10|0,0:1|0:3,0:0:0:0:
223,77,131485,2,0,B|208:97|188:104|188:104|155:97|104:62,1,120,8|8,1:1|0:1,0:0:0:0:
54,11,131944,5,10,2:2:0:0:
4,175,132250,1,8,0:1:0:0:
72,341,132556,1,8,0:0:0:0:
72,341,132709,1,8,0:2:0:0:
151,310,132862,6,0,P|167:275|154:176,1,120,10|0,0:1|0:0,0:0:0:0:
101,129,133322,2,0,B|61:150|61:150|95:64,1,120,8|8,0:0|0:1,0:0:0:0:
149,14,133781,5,10,0:0:0:0:
163,195,134087,1,8,0:1:0:0:
284,62,134393,1,8,0:0:0:0:
284,62,134546,1,8,0:3:0:0:
327,129,134699,6,0,B|358:148|385:144|385:144|378:109|391:76,1,120,14|0,0:1|0:0,0:0:0:0:
457,29,135158,1,8,0:0:0:0:
512,187,135464,5,10,2:1:0:0:
512,187,135541,1,10,2:1:0:0:
512,187,135618,2,0,P|511:223|489:263,1,60,8|0,0:0|0:0,0:0:0:0:
445,299,135924,5,8,0:3:0:0:
445,299,136077,1,4,0:3:0:0:
366,266,136230,5,8,0:3:0:0:
366,266,136383,1,8,0:3:0:0:
294,312,136536,6,0,B|263:337|263:337|282:268,1,107.999996704102,12|4,0:3|0:3,0:0:0:0:
328,150,137454,1,10,0:3:0:0:
407,184,137760,1,4,0:3:0:0:
470,125,138066,1,8,0:3:0:0:
405,55,138373,6,0,B|395:65|375:69|375:69|349:65|294:47,1,107.999996704102,10|4,0:3|0:3,0:0:0:0:
182,1,139291,1,10,0:3:0:0:
210,82,139597,1,4,0:3:0:0:
119,145,139903,1,8,0:2:0:0:
194,227,140209,6,0,B|205:246|208:263|208:263|204:293|179:325,1,107.999996704102,10|4,0:3|0:3,0:0:0:0:
61,379,141128,1,10,0:3:0:0:
34,296,141434,1,4,0:3:0:0:
82,224,141740,1,8,0:3:0:0:
26,139,142046,6,0,P|20:109|43:37,1,107.999996704102,10|8,0:3|2:3,0:0:0:0:
110,0,142658,1,4,0:3:0:0:
110,0,142811,1,4,0:3:0:0:
161,59,142964,6,0,P|174:80|229:81,1,71.9999978027344,10|8,0:0|0:3,0:0:0:0:
303,46,143577,1,4,0:3:0:0:
303,46,143730,1,4,0:3:0:0:
366,94,143883,6,0,B|376:110|382:125|382:125|382:163|366:210,1,116.999994644165,12|4,0:3|0:3,0:0:0:0:
303,330,144801,1,10,0:3:0:0:
222,281,145107,1,4,0:3:0:0:
138,322,145413,1,8,0:3:0:0:
138,322,145566,1,8,0:3:0:0:
74,278,145720,6,0,B|64:262|58:247|58:247|58:209|74:162,1,116.999994644165,10|4,0:3|0:3,0:0:0:0:
168,63,146638,1,10,0:3:0:0:
228,138,146944,1,10,0:3:0:0:
297,36,147250,1,8,0:2:0:0:
371,113,147556,6,0,B|402:134|402:134|494:113,1,125.999996154785,12|4,0:3|0:3,0:0:0:0:
454,261,148475,1,10,0:3:0:0:
360,235,148781,1,4,0:3:0:0:
310,309,149087,1,8,0:3:0:0:
236,230,149393,6,0,P|224:167|241:97,1,125.999996154785,10|4,0:3|0:3,0:0:0:0:
312,19,150158,5,4,0:3:0:0:
331,90,150311,1,10,0:3:0:0:
432,149,150618,5,4,0:3:0:0:
432,149,150771,1,8,0:3:0:0:
412,222,150924,5,4,0:3:0:0:
412,222,151077,1,4,0:3:0:0:
350,272,151230,6,0,B|322:293|322:293|321:247|277:222,1,113.999996955872,14|0,0:1|0:0,0:0:0:0:
220,180,151689,2,0,B|186:199|186:199|100:178,1,113.999996955872,6|8,0:3|0:1,0:0:0:0:
57,124,152148,1,10,0:3:0:0:
10,276,152454,5,8,0:3:0:0:
10,276,152607,1,8,0:3:0:0:
23,358,152760,5,4,0:3:0:0:
23,358,152913,1,4,0:3:0:0:
100,339,153066,5,14,0:1:0:0:
63,194,153373,1,10,0:1:0:0:
124,59,153679,1,10,0:0:0:0:
276,7,153985,5,10,0:0:0:0:
223,157,154291,1,10,0:0:0:0:
300,296,154597,1,8,0:3:0:0:
464,212,154903,6,0,B|483:200|493:180|493:180|493:136|463:91,1,132.00000402832,14|0,0:1|3:0,0:0:0:0:
414,28,155362,2,0,B|405:44|394:46|394:46|387:27|363:13,1,66.0000020141602,0|8,3:0|0:1,0:0:0:0:
207,91,155822,6,0,P|191:119|185:151,1,66.0000020141602,10|0,0:0|0:0,0:0:0:0:
200,166,156128,2,0,P|206:134|223:106,1,66.0000020141602,2|0,3:1|0:0,0:0:0:0:
239,119,156434,2,0,P|222:147|216:180,1,66.0000020141602,2|0,3:1|0:0,0:0:0:0:
270,263,156740,6,0,B|316:258|316:258|339:275|339:275|398:293,1,132.00000402832,10|0,0:1|3:0,0:0:0:0:
457,348,157199,1,8,0:1:0:0:
504,276,157352,2,0,P|513:236|502:198,1,66.0000020141602,2|0,0:0|0:0,0:0:0:0:
468,126,157658,2,0,P|454:68|483:-14,2,132.00000402832,10|0|0,0:0|3:0|3:0,0:0:0:0:
363,270,158577,6,0,P|359:204|325:149,2,132.00000402832,10|0|0,0:1|3:0|3:0,0:0:0:0:
199,378,159495,6,0,L|123:361,1,66.0000020141602,10|0,0:0|0:0,0:0:0:0:
120,356,159801,2,0,L|196:339,1,66.0000020141602,2|0,3:2|0:0,0:0:0:0:
199,334,160107,2,0,L|123:317,1,66.0000020141602,2|0,3:2|0:0,0:0:0:0:
45,262,160413,6,0,P|31:198|55:138,1,132.00000402832,10|0,0:1|3:0,0:0:0:0:
120,81,160873,2,0,B|137:100|137:100|192:89,1,66.0000020141602,0|0,3:0|3:0,0:0:0:0:
339,62,161332,6,0,P|349:31|340:0,1,66.0000020141602,10|0,0:0|0:0,0:0:0:0:
262,100,161638,2,0,P|251:130|260:162,1,66.0000020141602,10|0,0:3|0:0,0:0:0:0:
325,241,161944,1,4,0:3:0:0:
325,241,162097,1,8,0:0:0:0:
427,193,162250,6,0,B|442:178|450:164|450:164|447:125|422:65,1,132.00000402832,14|0,0:1|0:0,0:0:0:0:
340,0,162709,2,0,B|316:37|316:37|230:16,1,132.00000402832,10|0,0:1|0:0,0:0:0:0:
122,66,163169,6,0,P|109:92|107:135,1,66.0000020141602,10|0,0:0|0:0,0:0:0:0:
122,135,163475,2,0,P|124:102|138:72,1,66.0000020141602,2|0,3:0|0:0,0:0:0:0:
153,78,163781,2,0,P|139:108|138:141,1,66.0000020141602,2|0,3:0|0:0,0:0:0:0:
200,220,164087,6,0,P|260:202|332:209,1,132.00000402832,10|0,0:1|3:0,0:0:0:0:
200,332,164699,2,0,P|165:320|135:318,1,66.0000020141602,2|0,3:0|0:0,0:0:0:0:
56,353,165005,2,0,B|49:367|22:380|22:380|19:334|55:295,1,132.00000402832,10|0,0:0|3:0,0:0:0:0:
109,236,165464,1,8,0:0:0:0:
136,317,165618,1,8,2:3:0:0:
295,229,165924,6,0,B|316:214|325:194|325:194|323:151|296:102,1,132.00000402832,10|0,0:1|0:0,0:0:0:0:
250,43,166383,2,0,B|243:65|223:78|223:78|207:47,1,66.0000020141602,0|0,3:0|3:0,0:0:0:0:
26,21,166842,6,0,P|14:51|13:84,1,66.0000020141602,10|0,0:0|0:0,0:0:0:0:
20,102,167148,2,0,P|37:73|62:53,1,66.0000020141602,2|0,3:0|0:0,0:0:0:0:
78,64,167454,2,0,P|82:96|98:125,1,66.0000020141602,2|0,3:0|0:0,0:0:0:0:
192,180,167760,6,0,P|239:148|331:152,1,132.00000402832,10|0,0:1|0:0,0:0:0:0:
366,224,168220,2,0,B|347:240|341:264|341:264|345:298|374:348,1,132.00000402832,10|8,0:3|0:1,0:0:0:0:
477,384,168679,6,0,P|486:347|479:300,1,66.0000020141602,10|0,0:0|0:0,0:0:0:0:
459,230,168985,2,0,P|457:197|466:165,1,66.0000020141602,10|0,0:3|0:0,0:0:0:0:
505,79,169291,1,10,0:1:0:0:
505,79,169444,1,8,0:0:0:0:
437,15,169597,6,0,B|428:31|404:44|404:44|376:10|325:11,1,132.00000402832,14|0,0:1|3:0,0:0:0:0:
263,68,170056,2,0,P|269:110|256:141,1,66.0000020141602,0|8,3:0|0:1,0:0:0:0:
149,270,170515,6,0,L|69:259,1,66.0000020141602,10|0,0:0|0:0,0:0:0:0:
83,245,170822,2,0,L|148:253,1,66.0000020141602,2|0,0:0|0:0,0:0:0:0:
147,236,171128,2,0,L|82:228,1,66.0000020141602,10|0,0:1|0:0,0:0:0:0:
13,150,171434,6,0,B|0:129|-4:115|-4:115|8:67|49:34,1,132.00000402832,10|0,0:1|0:0,0:0:0:0:
122,6,171893,1,0,3:0:0:0:
183,75,172046,2,0,B|208:92|208:92|254:79,1,66.0000020141602,8|0,0:1|0:0,0:0:0:0:
338,49,172352,6,0,B|374:25|374:25|469:47,1,132.00000402832,10|0,0:0|0:0,0:0:0:0:
391,121,172811,1,0,3:0:0:0:
457,174,172964,2,0,P|472:214|471:257,1,66.0000020141602,8|8,0:0|0:1,0:0:0:0:
412,307,173271,6,0,P|362:291|252:286,2,132.00000402832,10|0|0,0:1|3:0|3:0,0:0:0:0:
493,139,174189,6,0,P|489:107|478:76,1,66.0000020141602,10|0,0:0|0:0,0:0:0:0:
470,58,174495,2,0,P|464:90|451:120,1,66.0000020141602,2|0,0:0|0:0,0:0:0:0:
440,137,174801,2,0,P|426:107|405:81,1,66.0000020141602,2|0,0:0|0:0,0:0:0:0:
315,36,175107,6,0,B|297:74|297:74|193:49,1,132.00000402832,10|0,0:1|0:0,0:0:0:0:
125,14,175566,2,0,B|111:35|92:35|92:35|95:22|113:15,1,66.0000020141602,8|8,0:0|0:1,0:0:0:0:
270,106,176026,5,10,0:0:0:0:
223,257,176332,1,8,0:3:0:0:
98,168,176638,1,4,0:3:0:0:
98,168,176791,1,8,0:0:0:0:
22,235,176944,6,0,P|13:261|12:322,1,69.0000013160706,14|0,0:1|0:0,0:0:0:0:
81,366,177250,2,0,P|115:350|157:340,1,69.0000013160706,2|0,0:0|0:0,0:0:0:0:
241,356,177556,2,0,P|277:367|320:372,1,69.0000013160706,10|0,2:1|0:0,0:0:0:0:
402,352,177862,5,10,0:0:0:0:
477,173,178169,1,2,0:0:0:0:
497,244,178322,1,8,0:0:0:0:
461,176,178475,1,8,0:1:0:0:
303,262,178781,6,0,B|276:286|259:291|259:291|231:249|175:247,1,138.000002632141,10|0,0:1|0:0,0:0:0:0:
92,239,179240,2,0,B|46:265|46:265|71:178,1,138.000002632141,10|8,0:1|0:1,0:0:0:0:
113,97,179699,5,14,0:0:0:0:
188,248,180005,1,8,0:3:0:0:
299,128,180311,1,4,0:3:0:0:
299,128,180464,1,8,0:0:0:0:
372,166,180618,6,0,B|403:181|403:181|432:128|390:85,1,138.000002632141,14|0,0:1|0:0,0:0:0:0:
319,21,181077,2,0,B|303:40|281:43|281:43|284:25|295:16,1,69.0000013160706,2|0,3:0|3:0,0:0:0:0:
457,127,181536,5,10,0:0:0:0:
410,314,181842,1,10,0:1:0:0:
410,314,181995,1,8,0:0:0:0:
345,267,182148,1,8,0:3:0:0:
345,267,182301,1,8,0:3:0:0:
290,326,182454,6,0,B|261:356|261:356|148:336,1,138.000002632141,14|8,0:1|0:1,0:0:0:0:
114,257,182913,2,0,B|132:241|138:219|138:219|135:177|108:128,1,138.000002632141,10|8,0:0|0:1,0:0:0:0:
50,71,183373,6,0,B|19:91|19:91|27:56,1,69.0000013160706,6|8,0:3|0:3,0:0:0:0:
89,6,183679,1,4,0:3:0:0:
171,13,183832,1,4,0:3:0:0:
215,83,183985,1,8,0:3:0:0:
429,100,184291,6,0,P|438:65|427:32,1,71.9999978027344,14|0,0:1|0:0,0:0:0:0:
413,106,184597,2,0,P|422:71|411:38,1,71.9999978027344,2|0,2:0|0:0,0:0:0:0:
397,112,184903,2,0,P|406:77|395:44,1,71.9999978027344,10|0,2:1|0:0,0:0:0:0:
294,22,185209,6,0,P|294:58|275:87,1,71.9999978027344,10|0,0:0|0:0,0:0:0:0:
280,12,185515,2,0,P|280:48|261:77,1,71.9999978027344,2|8,2:0|2:0,0:0:0:0:
266,2,185822,2,0,P|266:38|247:67,1,71.9999978027344,10|0,2:1|0:0,0:0:0:0:
160,127,186128,6,0,B|131:95|131:95|19:115,1,143.999995605469,10|2,0:1|0:0,0:0:0:0:
101,189,186587,1,8,0:0:0:0:
45,252,186740,2,0,P|28:292|30:331,1,71.9999978027344,10|8,0:1|0:1,0:0:0:0:
130,382,187046,6,0,P|161:365|197:363,1,71.9999978027344,10|0,0:0|0:0,0:0:0:0:
303,340,187352,2,0,P|334:356|370:358,1,71.9999978027344,10|0,0:3|0:0,0:0:0:0:
469,330,187658,1,6,0:3:0:0:
469,330,187811,1,4,0:3:0:0:
420,232,187964,6,0,B|400:214|391:191|391:191|414:154|406:85,1,143.999995605469,14|0,0:1|0:0,0:0:0:0:
379,18,188424,1,2,3:0:0:0:
314,75,188577,2,0,B|308:102|287:120|287:120|278:103,1,71.9999978027344,0|0,3:0|3:0,0:0:0:0:
239,26,188883,5,14,0:0:0:0:
182,191,189189,5,10,0:1:0:0:
262,200,189342,1,8,0:0:0:0:
184,175,189495,1,8,0:1:0:0:
63,322,189801,6,0,L|55:244,1,71.9999978027344,8|8,0:0|0:0,0:0:0:0:
184,175,190107,2,0,L|176:246,1,71.9999978027344,8|8,0:3|0:3,0:0:0:0:
284,362,190413,2,0,L|291:290,1,71.9999978027344,4|4,0:3|0:3,0:0:0:0:
369,201,190720,6,0,B|394:252|456:252|456:252|480:193|448:148|448:148|452:148|452:148|420:115|434:50,1,323.999990112305,8|0,0:0|0:0,0:0:0:0:
0,263,205413,5,14,0:0:0:0:
101,358,205720,5,10,0:3:0:0:
101,358,205873,1,8,0:3:0:0:
168,319,206026,5,6,0:3:0:0:
168,319,206179,1,4,0:3:0:0:
238,358,206332,6,0,B|268:375|268:375|317:349|297:269,1,143.999995605469,14|0,0:1|0:0,0:0:0:0:
241,209,206791,1,2,0:0:0:0:
162,229,206944,2,0,B|73:220,1,71.9999978027344,8|0,0:1|0:0,0:0:0:0:
207,137,207250,6,0,P|203:100|216:60,1,71.9999978027344,10|0,0:0|0:0,0:0:0:0:
337,127,207556,2,0,P|341:162|331:197,1,71.9999978027344,2|2,3:2|3:2,0:0:0:0:
326,206,207786,1,2,3:2:0:0:
322,216,207862,2,0,P|312:250|316:286,1,71.9999978027344,2|0,1:0|1:0,0:0:0:0:
429,365,208169,6,0,B|480:369|480:369|449:325|458:255,1,143.999995605469,12|0,0:1|0:0,0:0:0:0:
475,196,208628,1,2,0:1:0:0:
498,112,208781,2,0,P|499:79|488:33,1,71.9999978027344,10|2,0:1|0:1,0:0:0:0:
409,138,209087,6,0,P|359:110|292:106,1,107.999996704102,10|0,0:0|0:0,0:0:0:0:
298,110,209393,2,0,P|281:149|277:185,1,71.9999978027344,2|0,3:2|3:0,0:0:0:0:
304,273,209699,1,0,1:2:0:0:
304,273,209852,1,0,1:0:0:0:
243,347,210005,6,0,B|231:360|203:371|203:371|163:372|107:331,1,143.999995605469,10|0,0:1|0:0,0:0:0:0:
43,286,210464,1,2,0:0:0:0:
100,220,210618,2,0,P|111:187|104:136,1,71.9999978027344,10|0,0:1|0:0,0:0:0:0:
8,71,210924,6,0,P|-3:105|0:140,1,71.9999978027344,10|0,0:0|0:0,0:0:0:0:
100,220,211230,2,0,P|145:204|197:211,1,71.9999978027344,2|0,3:2|3:2,0:0:0:0:
262,252,211536,1,2,1:2:0:0:
262,252,211689,1,0,1:2:0:0:
341,193,211842,6,0,B|355:179|365:153|365:153|364:123|342:59,1,143.999995605469,12|0,0:1|0:0,0:0:0:0:
281,8,212301,2,0,B|256:44|256:44|257:-10,1,71.9999978027344,2|10,0:0|0:1,0:0:0:0:
404,139,212760,6,0,P|441:133|485:139,1,71.9999978027344,10|0,0:0|3:0,0:0:0:0:
487,144,212990,1,0,3:0:0:0:
497,153,213066,2,0,P|508:188|509:233,1,71.9999978027344,2|0,3:2|3:0,0:0:0:0:
506,326,213373,1,0,1:0:0:0:
506,326,213526,1,0,1:0:0:0:
409,366,213679,6,0,B|364:359|364:359|339:369|339:369|264:357,1,143.999995605469,14|0,0:1|0:0,0:0:0:0:
207,287,214138,1,2,3:0:0:0:
261,210,214291,2,0,P|273:177|262:136,1,71.9999978027344,10|0,0:1|0:0,0:0:0:0:
182,64,214597,6,0,B|156:59|156:59|143:63|143:63|111:57,1,71.9999978027344,10|0,0:0|0:0,0:0:0:0:
265,13,214903,2,0,B|291:8|291:8|304:12|304:12|335:6,1,71.9999978027344,2|0,3:2|3:0,0:0:0:0:
437,41,215209,1,2,1:2:0:0:
437,41,215362,1,0,1:0:0:0:
487,134,215515,6,0,B|499:192|458:245|458:245|429:188,1,155.999992858887,14|8,0:1|0:0,0:0:0:0:
362,135,215975,2,0,P|319:102|213:108,1,155.999992858887,10|8,0:2|0:1,0:0:0:0:
134,152,216434,2,0,B|126:160|104:161|104:161|109:139|131:120,1,77.9999964294435,10|0,0:2|3:0,0:0:0:0:
220,103,216740,5,10,2:3:0:0:
220,103,216893,1,8,2:3:0:0:
239,195,217046,5,4,2:3:0:0:
239,195,217199,1,4,2:3:0:0:
271,277,217352,6,0,B|290:293|315:292|315:292|316:224|368:201,1,155.999992858887,14|0,0:1|0:0,0:0:0:0:
444,251,217811,1,2,0:0:0:0:
498,174,217964,2,0,P|502:137|488:95,1,77.9999964294435,8|0,0:1|0:0,0:0:0:0:
384,19,218271,6,0,P|353:19|301:9,1,77.9999964294435,10|0,0:0|0:0,0:0:0:0:
264,110,218577,2,0,P|225:110|186:117,1,77.9999964294435,2|0,3:1|3:1,0:0:0:0:
100,175,218883,1,2,1:0:0:0:
100,175,219036,1,0,1:0:0:0:
151,256,219189,6,0,B|179:288|224:280|224:280|242:242|284:235,1,155.999992858887,12|0,0:1|0:0,0:0:0:0:
368,202,219648,1,2,0:1:0:0:
425,275,219801,2,0,B|415:307|424:330|424:330|445:308,1,77.9999964294435,10|2,2:1|2:2,0:0:0:0:
496,204,220107,6,0,P|506:132|464:41,1,155.999992858887,10|2,0:0|3:2,0:0:0:0:
393,0,220566,1,0,3:0:0:0:
341,68,220720,1,2,1:2:0:0:
276,11,220873,1,0,1:0:0:0:
213,92,221026,6,0,B|203:107|180:123|180:123|137:123|72:77,1,155.999992858887,10|0,0:1|0:0,0:0:0:0:
114,187,221485,1,2,0:0:0:0:
44,249,221638,2,0,P|26:265|10:328,1,77.9999964294435,10|0,0:1|0:0,0:0:0:0:
102,373,221944,6,0,L|193:362,1,77.9999964294435,10|0,0:0|0:0,0:0:0:0:
274,377,222250,2,0,L|365:366,1,77.9999964294435,2|0,3:2|3:2,0:0:0:0:
436,317,222556,1,2,1:2:0:0:
436,317,222709,1,0,1:2:0:0:
356,233,222862,6,0,B|337:218|327:193|327:193|326:144|367:96,1,155.999992858887,12|0,0:1|0:0,0:0:0:0:
454,63,223322,2,0,B|462:81|488:83|488:83|483:54|461:49,1,77.9999964294435,2|10,3:0|0:1,0:0:0:0:
275,12,223781,6,0,L|191:0,1,77.9999964294435,10|0,0:0|3:0,0:0:0:0:
132,78,224087,2,0,L|54:89,1,77.9999964294435,2|0,3:2|3:0,0:0:0:0:
116,180,224393,1,2,1:0:0:0:
42,236,224546,1,0,1:0:0:0:
121,317,224699,6,0,P|152:328|210:327,1,77.9999964294435,14|0,0:1|0:0,0:0:0:0:
284,384,225005,2,0,P|309:362|337:311,1,77.9999964294435,2|0,0:0|3:0,0:0:0:0:
423,276,225311,2,0,P|417:243|387:193,1,77.9999964294435,10|0,0:1|0:0,0:0:0:0:
301,132,225618,6,0,B|282:141|235:131|233:54|297:27,1,155.999992858887,10|0,0:0|3:0,0:0:0:0:
438,131,226230,1,2,1:2:0:0:
438,131,226383,1,0,1:0:0:0:
395,204,226536,6,0,B|365:236|365:236|232:211,1,155.999992858887,10|0,0:1|0:0,0:0:0:0:
172,240,226995,1,2,0:0:0:0:
193,156,227148,1,10,0:1:0:0:
174,72,227301,1,2,0:0:0:0:
88,33,227454,6,0,B|58:30|58:30|40:39|40:39|-4:38,1,77.9999964294435,10|0,0:2|3:0,0:0:0:0:
117,150,227760,2,0,B|147:147|147:147|165:156|165:156|209:155,1,77.9999964294435,2|0,3:2|3:0,0:0:0:0:
273,85,228066,1,2,1:0:0:0:
273,85,228220,1,0,1:0:0:0:
352,166,228373,6,0,P|371:217|335:318,1,155.999992858887,10|2,0:1|3:2,0:0:0:0:
256,365,228832,1,0,3:2:0:0:
171,310,228985,2,0,P|157:278|156:235,1,77.9999964294435,10|0,0:1|0:0,0:0:0:0:
239,163,229291,6,0,B|280:158|280:158|305:170|305:170|351:165,1,116.999994644165,10|0,0:0|0:0,0:0:0:0:
366,159,229597,2,0,P|377:123|364:87,1,77.9999964294435,2|0,3:2|3:0,0:0:0:0:
277,24,229903,2,0,L|197:13,1,77.9999964294435,2|0,1:2|1:0,0:0:0:0:
81,63,230209,6,0,B|56:79|44:103|44:103|39:165|69:217,1,167.999994873047,14|10,0:1|0:3,0:0:0:0:
153,278,230669,2,0,P|231:252|316:259,1,167.999994873047,10|10,0:0|0:3,0:0:0:0:
408,325,231128,2,0,B|403:362|427:379|427:379|432:353,1,83.9999974365235,10|10,0:0|0:1,0:0:0:0:
509,271,231434,5,10,0:3:0:0:
509,271,231587,1,8,0:3:0:0:
483,181,231740,5,6,0:3:0:0:
483,181,231893,1,4,0:3:0:0:
423,109,232046,6,0,B|404:127|395:142|395:142|272:119,1,155.999992858887,14|0,0:1|0:0,0:0:0:0:
198,158,232505,1,2,0:0:0:0:
137,86,232658,2,0,B|148:50|148:50|134:11,1,77.9999964294435,8|0,0:1|0:0,0:0:0:0:
39,126,232964,6,0,B|25:164|25:164|36:200,1,77.9999964294435,10|2,0:0|3:2,0:0:0:0:
42,210,233194,1,2,3:2:0:0:
47,220,233271,2,0,L|128:214,1,77.9999964294435,2|0,3:1|3:1,0:0:0:0:
209,280,233577,1,2,1:0:0:0:
209,280,233730,1,0,1:0:0:0:
306,212,233883,6,0,P|288:156|323:51,1,155.999992858887,12|0,0:1|0:0,0:0:0:0:
393,3,234342,1,10,0:1:0:0:
479,56,234495,2,0,P|492:83|497:141,1,77.9999964294435,2|2,0:0|0:1,0:0:0:0:
449,254,234801,6,0,B|414:318|454:373|454:373|463:361|468:345,1,155.999992858887,10|2,0:0|3:2,0:0:0:0:
360,288,235260,1,0,3:0:0:0:
295,344,235413,1,2,1:2:0:0:
213,317,235566,1,0,1:0:0:0:
184,218,235720,6,0,B|197:206|209:189|209:189|220:134|195:64,1,155.999992858887,10|0,0:1|0:0,0:0:0:0:
125,14,236179,1,2,0:0:0:0:
39,52,236332,2,0,P|24:83|27:131,1,77.9999964294435,10|0,0:1|0:0,0:0:0:0:
107,210,236638,6,0,B|199:219,1,77.9999964294435,10|0,0:0|0:0,0:0:0:0:
211,326,236944,2,0,B|303:335,1,77.9999964294435,2|0,3:2|3:2,0:0:0:0:
377,293,237250,1,2,1:2:0:0:
377,293,237403,1,0,1:2:0:0:
315,208,237556,6,0,B|300:188|293:172|293:172|293:121|342:63,1,155.999992858887,12|0,0:1|0:0,0:0:0:0:
415,24,238015,2,0,B|448:39|448:39|421:-3,1,77.9999964294435,2|8,0:0|0:1,0:0:0:0:
237,79,238475,6,0,P|211:65|155:57,1,77.9999964294435,10|0,0:0|3:0,0:0:0:0:
153,61,238704,1,0,3:0:0:0:
143,67,238781,2,0,P|121:87|96:138,1,77.9999964294435,10|0,3:3|3:0,0:0:0:0:
70,225,239087,1,0,1:0:0:0:
70,225,239240,1,0,1:0:0:0:
122,314,239393,6,0,B|152:345|152:345|273:320,1,155.999992858887,14|0,0:1|0:0,0:0:0:0:
342,384,239852,1,2,0:0:0:0:
428,328,240005,2,0,P|437:281|423:249,1,77.9999964294435,10|0,0:1|0:0,0:0:0:0:
350,188,240311,6,0,B|323:184|323:184|311:188|311:188|270:182,1,77.9999964294435,10|0,0:0|0:0,0:0:0:0:
358,95,240618,2,0,B|385:91|385:91|397:95|397:95|438:89,1,77.9999964294435,2|0,3:2|3:0,0:0:0:0:
312,17,240924,1,2,1:2:0:0:
312,17,241077,1,0,1:0:0:0:
237,78,241230,6,0,B|222:100|199:104|199:104|183:37|100:25,1,167.999994873047,14|8,0:1|0:0,0:0:0:0:
89,145,241689,2,0,P|41:192|40:299,1,167.999994873047,10|8,0:2|0:1,0:0:0:0:
109,363,242148,2,0,P|154:348|207:347,1,83.9999974365235,10|0,0:2|3:0,0:0:0:0:
308,379,242454,5,10,2:3:0:0:
308,379,242607,1,8,2:3:0:0:
274,292,242760,5,4,2:3:0:0:
274,292,242913,1,4,2:3:0:0:
351,222,243066,6,0,B|370:208|375:189|375:189|372:156|348:82,1,132.00000402832,14|0,0:1|3:3,0:0:0:0:
295,38,243526,2,0,B|283:69|259:77|259:77|235:41|187:32,1,132.00000402832,2|0,1:2|2:0,0:0:0:0:
93,64,243985,6,0,P|75:98|74:143,1,66.0000020141602,10|0,0:0|0:0,0:0:0:0:
110,214,244291,2,0,P|140:206|189:207,1,66.0000020141602,2|0,0:0|0:0,0:0:0:0:
251,267,244597,5,2,1:0:0:0:
251,267,244750,1,0,1:0:0:0:
337,212,244903,6,0,B|354:199|359:173|359:173|334:140|343:90,1,132.00000402832,10|0,0:1|3:3,0:0:0:0:
405,1,245362,1,2,1:0:0:0:
430,75,245515,1,0,3:0:0:0:
496,118,245669,1,0,1:0:0:0:
424,189,245822,6,0,B|401:185|401:185|386:190|386:190|349:182,1,66.0000020141602,10|0,0:0|0:0,0:0:0:0:
303,104,246128,2,0,P|309:86|312:41,2,44.0000013427735,2|0|0,0:0|0:0|0:0,0:0:0:0:
258,163,246434,5,2,1:0:0:0:
258,163,246587,1,0,1:0:0:0:
181,107,246740,6,0,P|136:76|46:88,1,132.00000402832,14|0,0:1|3:3,0:0:0:0:
102,168,247199,2,0,B|81:169|63:183|63:183|41:222|40:273,1,132.00000402832,2|0,1:2|2:0,0:0:0:0:
104,353,247658,6,0,P|134:334|169:329,1,66.0000020141602,10|0,0:0|0:0,0:0:0:0:
257,358,247964,2,0,P|287:377|322:382,1,66.0000020141602,2|0,0:0|3:0,0:0:0:0:
415,340,248271,5,2,1:0:0:0:
415,340,248424,1,0,1:0:0:0:
337,259,248577,6,0,P|318:210|343:119,1,132.00000402832,10|0,0:1|3:3,0:0:0:0:
385,53,249036,1,2,1:0:0:0:
429,117,249189,1,0,3:0:0:0:
397,44,249342,1,0,1:0:0:0:
305,60,249495,6,0,B|278:56|278:56|265:60|265:60|234:56,1,66.0000020141602,10|0,0:0|0:0,0:0:0:0:
158,2,249801,2,0,B|131:6|131:6|118:2|118:2|87:6,1,66.0000020141602,2|0,3:0|0:0,0:0:0:0:
28,77,250107,5,2,1:0:0:0:
28,77,250260,1,0,1:0:0:0:
79,159,250413,6,0,B|99:190|99:190|191:167,1,132.00000402832,14|0,0:1|3:3,0:0:0:0:
265,222,250873,2,0,P|242:294|292:347,1,132.00000402832,2|0,1:2|2:0,0:0:0:0:
377,384,251332,6,0,L|451:379,1,66.0000020141602,10|0,0:0|0:0,0:0:0:0:
512,315,251638,2,0,P|514:282|505:251,1,66.0000020141602,2|0,0:0|0:0,0:0:0:0:
460,172,251944,5,2,1:0:0:0:
460,172,252097,1,0,1:0:0:0:
385,227,252250,6,0,B|366:244|346:250|346:250|306:244|257:217,1,132.00000402832,10|0,0:1|3:3,0:0:0:0:
203,155,252709,1,2,1:0:0:0:
240,85,252862,1,0,3:0:0:0:
210,11,253015,1,0,1:0:0:0:
131,54,253169,6,0,L|57:38,1,66.0000020141602,10|0,0:0|0:0,0:0:0:0:
70,135,253475,2,0,L|-4:151,1,66.0000020141602,2|0,0:0|0:0,0:0:0:0:
54,230,253781,5,2,1:0:0:0:
54,230,253934,1,0,1:0:0:0:
121,294,254087,6,0,B|143:310|164:305|164:305|150:268|177:224,1,132.00000402832,14|0,0:1|3:3,0:0:0:0:
256,169,254546,2,0,B|276:189|295:199|295:199|337:200|378:163,1,132.00000402832,2|0,1:2|2:0,0:0:0:0:
436,77,255005,6,0,P|443:44|427:1,1,66.0000020141602,10|0,0:0|0:0,0:0:0:0:
328,35,255311,2,0,P|321:68|337:111,1,66.0000020141602,2|0,0:0|3:0,0:0:0:0:
389,195,255618,5,2,1:0:0:0:
389,195,255771,1,0,1:0:0:0:
338,278,255924,6,0,B|325:299|307:312|307:312|258:314|190:281,1,143.999995605469,10|8,1:1|1:3,0:0:0:0:
138,226,256383,5,10,2:0:0:0:
186,154,256536,1,10,2:3:0:0:
179,60,256689,1,10,2:3:0:0:
97,0,256842,5,14,2:0:0:0:
138,226,257148,5,14,2:2:0:0:
