osu file format v14

[General]
AudioFilename: audio.mp3
AudioLeadIn: 0
PreviewTime: 66089
Countdown: 0
SampleSet: Soft
StackLeniency: 0.7
Mode: 0
LetterboxInBreaks: 0
WidescreenStoryboard: 1

[Editor]
Bookmarks: 7964,18985,33679,48373,63066,63143,63220,66740,81434,92454,99801,107148,114495,121842,136536,151230,154903,169597,176944,180618,182454,184291,187964,190720,191638,205413,206332,217352,232046,243066,250413,257148
DistanceSpacing: 1.2
BeatDivisor: 4
GridSize: 32
TimelineZoom: 2.100001

[Metadata]
Title:Kienai Kakera
TitleUnicode:消えない欠片
Artist:Shimotsuki Haruka
ArtistUnicode:霜月はるか
Creator:Lasse
Version:Blossom
Source:
Tags:グリオットの眠り姫 guriotto no nemuri hime griotte japanese doujin folk pop fantasy craftscape tindharia
BeatmapID:2332234
BeatmapSetID:1116423

[Difficulty]
HPDrainRate:6
CircleSize:4.6
OverallDifficulty:8
ApproachRate:9
SliderMultiplier:1.2
SliderTickRate:1

[Events]
//Background and Video events
0,0,"a1.jpg",0,0
//Break Periods
2,191838,204813
//Storyboard Layer 0 (Background)
//Storyboard Layer 1 (Fail)
//Storyboard Layer 2 (Pass)
//Storyboard Layer 3 (Foreground)
//Storyboard Layer 4 (Overlay)
//Storyboard Sound Samples

[TimingPoints]
618,306.122448979592,6,2,1,42,1,0
618,-133.333333333333,6,2,1,42,0,0
2454,-133.333333333333,6,2,2,42,0,0
2760,-133.333333333333,6,2,1,42,0,0
3985,-100,6,2,1,40,0,0
4061,-100,6,2,1,20,0,0
4138,-100,6,2,1,40,0,0
4214,-100,6,2,1,20,0,0
4291,-117.647058823529,6,2,1,44,0,0
6128,-117.647058823529,6,2,2,44,0,0
6434,-117.647058823529,6,2,1,44,0,0
7046,-133.333333333333,6,2,1,50,0,0
7352,-133.333333333333,6,2,1,52,0,0
7658,-100,6,2,1,20,0,0
7735,-100,6,2,1,20,0,0
7811,-100,6,2,1,54,0,0
7888,-100,6,2,1,20,0,0
7964,-80,6,2,1,54,0,0
8424,-100,6,2,1,54,0,0
8883,-80,6,2,1,54,0,0
9801,-100,6,2,1,54,0,0
10107,-100,6,2,1,28,0,0
10260,-100,6,2,1,54,0,0
10720,-80,6,2,1,54,0,0
10949,-80,6,2,1,20,0,0
11026,-100,6,2,1,54,0,0
11638,-80,6,2,1,54,0,0
12097,-100,6,2,1,54,0,0
12862,-90.9090909090909,6,2,1,54,0,0
13475,-80,6,2,1,54,0,0
14393,-74.0740740740741,6,2,1,54,0,0
14623,-74.0740740740741,6,2,1,20,0,0
14699,-100,6,2,1,54,0,0
15005,-84.7457627118644,6,2,1,54,0,0
15082,-84.7457627118644,6,2,1,20,0,0
15158,-84.7457627118644,6,2,1,54,0,0
15235,-84.7457627118644,6,2,1,20,0,0
15311,-80,6,2,1,54,0,0
15924,-100,6,2,1,54,0,0
16230,-80,6,2,1,54,0,0
17148,-100,6,2,1,54,0,0
17454,-100,6,2,1,28,0,0
17607,-100,6,2,1,54,0,0
18679,-100,6,2,1,48,0,0
18985,-200,6,2,1,40,0,0
30005,-166.666666666667,6,2,1,42,0,0
30924,-133.333333333333,6,2,1,44,0,0
31842,-125,6,2,1,46,0,0
33066,-125,6,2,1,48,0,0
33373,-125,6,2,1,50,0,0
33679,-100,6,2,1,50,0,0
46536,-90.9090909090909,6,2,1,52,0,0
48066,-90.9090909090909,6,2,1,50,0,0
48220,-90.9090909090909,6,2,1,48,0,0
48373,-200,6,2,1,42,0,0
48679,-200,6,2,1,16,0,0
48832,-200,6,2,1,42,0,0
49291,-200,6,2,4,42,0,0
49597,-200,6,2,1,42,0,0
50515,-200,6,2,1,16,0,0
50668,-200,6,2,1,42,0,0
51434,-200,6,2,4,42,0,0
51510,-200,6,2,1,42,0,0
52964,-200,6,2,4,42,0,0
53271,-200,6,2,1,42,0,0
55107,-200,6,2,4,42,0,0
55413,-200,6,2,1,42,0,0
55720,-181.818181818182,6,2,1,44,0,0
56026,-181.818181818182,6,2,1,18,0,0
56179,-181.818181818182,6,2,1,44,0,0
56638,-181.818181818182,6,2,4,44,0,0
56944,-181.818181818182,6,2,1,44,0,0
58781,-181.818181818182,6,2,4,44,0,0
58857,-181.818181818182,6,2,1,44,0,0
59393,-166.666666666667,6,2,1,46,0,0
60311,-166.666666666667,6,2,4,46,0,0
60618,-166.666666666667,6,2,1,46,0,0
61230,-153.846153846154,6,2,1,48,0,0
62148,-153.846153846154,6,2,1,50,0,0
62760,-153.846153846154,6,2,1,52,0,0
63066,-100,6,2,1,56,0,0
63373,-100,6,2,1,50,0,0
63526,-100,6,2,1,54,0,0
63832,-100,6,2,1,50,0,0
63985,-100,6,2,4,54,0,0
64291,-133.333333333333,6,2,1,50,0,0
64750,-133.333333333333,6,2,1,48,0,0
64903,-133.333333333333,6,2,1,52,0,0
66128,-133.333333333333,6,2,1,54,0,0
66434,-117.647058823529,6,2,1,56,0,0
66510,-117.647058823529,6,2,1,20,0,0
66587,-86.9565217391303,6,2,1,56,0,0
66663,-86.9565217391303,6,2,1,20,0,0
66740,-50,6,2,1,60,0,1
67352,-100,6,2,1,60,0,1
67582,-100,6,2,1,20,0,1
67658,-66.6666666666667,6,2,1,60,0,1
67888,-100,6,2,1,20,0,1
67964,-66.6666666666667,6,2,1,60,0,1
68577,-57.1428571428571,6,2,3,60,0,1
68883,-57.1428571428571,6,2,1,60,0,1
69495,-66.6666666666667,6,2,1,60,0,1
69725,-100,6,2,1,20,0,1
69801,-80,6,2,1,60,0,1
70107,-100,6,2,1,60,0,1
70413,-57.1428571428571,6,2,3,60,0,1
70720,-57.1428571428571,6,2,1,60,0,1
71026,-100,6,2,1,60,0,1
71255,-100,6,2,1,20,0,1
71332,-66.6666666666667,6,2,1,60,0,1
71561,-100,6,2,1,20,0,1
71638,-66.6666666666667,6,2,1,60,0,1
72250,-57.1428571428571,6,2,3,60,0,1
72556,-57.1428571428571,6,2,1,60,0,1
72709,-66.6666666666667,6,2,1,60,0,1
72786,-66.6666666666667,6,2,1,30,0,1
72862,-100,6,2,1,60,0,1
73092,-100,6,2,1,20,0,1
73169,-66.6666666666667,6,2,1,60,0,1
74087,-50,6,2,1,60,0,1
74316,-100,6,2,1,20,0,1
74393,-66.6666666666667,6,2,1,60,0,1
74699,-80,6,2,1,60,0,1
74929,-100,6,2,1,20,0,1
75005,-66.6666666666667,6,2,1,60,0,1
75235,-100,6,2,1,20,0,1
75311,-80,6,2,1,60,0,1
75924,-57.1428571428571,6,2,3,60,0,1
76230,-57.1428571428571,6,2,1,60,0,1
76383,-66.6666666666667,6,2,1,60,0,1
76459,-100,6,2,1,20,0,1
76536,-100,6,2,1,60,0,1
76765,-100,6,2,1,20,0,1
76842,-66.6666666666667,6,2,1,60,0,1
77760,-57.1428571428571,6,2,3,60,0,1
77990,-100,6,2,1,20,0,1
78066,-66.6666666666667,6,2,1,60,0,1
78373,-100,6,2,1,60,0,1
78602,-100,6,2,1,20,0,1
78679,-57.1428571428571,6,2,1,60,0,1
78908,-100,6,2,1,20,0,1
78985,-66.6666666666667,6,2,1,60,0,1
79291,-80,6,2,1,60,0,1
79597,-50,6,2,1,60,0,1
80056,-66.6666666666667,6,2,1,60,0,1
81128,-57.1428571428571,6,2,1,60,0,1
81357,-57.1428571428571,6,2,1,60,0,0
81434,-50,6,2,1,60,0,1
82046,-100,6,2,1,60,0,1
82276,-100,6,2,1,20,0,1
82352,-66.6666666666667,6,2,1,60,0,1
82658,-66.6666666666667,6,2,1,60,0,1
83271,-57.1428571428571,6,2,3,60,0,1
83577,-57.1428571428571,6,2,1,60,0,1
84189,-66.6666666666667,6,2,1,60,0,1
84419,-100,6,2,1,20,0,1
84495,-80,6,2,1,60,0,1
84801,-100,6,2,1,60,0,1
85107,-57.1428571428571,6,2,3,60,0,1
85413,-57.1428571428571,6,2,1,60,0,1
85720,-100,6,2,1,60,0,1
85949,-100,6,2,1,20,0,1
86026,-66.6666666666667,6,2,1,60,0,1
86255,-100,6,2,1,20,0,1
86332,-66.6666666666667,6,2,1,60,0,1
86944,-57.1428571428571,6,2,3,60,0,1
87148,-57.1428571428571,6,2,1,50,0,1
87250,-80,6,2,1,60,0,1
87786,-50,6,2,1,20,0,1
87862,-66.6666666666667,6,2,1,60,0,1
88781,-50,6,2,1,60,0,1
89240,-100,6,2,1,60,0,1
89623,-50,6,2,1,20,0,1
89699,-66.6666666666667,6,2,1,60,0,1
89929,-50,6,2,1,20,0,1
90005,-80,6,2,1,60,0,1
90618,-50,6,2,1,60,0,1
90847,-50,6,2,1,20,0,1
90924,-100,6,2,1,60,0,1
91000,-100,6,2,1,20,0,1
91077,-66.6666666666667,6,2,1,60,0,1
91536,-66.6666666666667,6,2,1,60,0,1
92454,-200,6,2,1,44,0,0
92760,-200,6,2,1,18,0,0
93066,-200,6,2,1,40,0,0
94597,-200,6,2,1,18,0,0
94903,-200,6,2,1,40,0,0
98271,-200,6,2,1,18,0,0
98577,-200,6,2,1,40,0,0
99801,-181.818181818182,6,2,1,42,0,0
103475,-166.666666666667,6,2,1,44,0,0
104699,-166.666666666667,6,2,1,20,0,0
105005,-166.666666666667,6,2,1,44,0,0
105311,-166.666666666667,6,2,1,50,0,0
105771,-166.666666666667,6,2,1,46,0,0
106230,-166.666666666667,6,2,1,50,0,0
106536,-166.666666666667,6,2,1,48,0,0
106689,-166.666666666667,6,2,1,48,0,0
106842,-166.666666666667,6,2,1,46,0,0
107148,-133.333333333333,6,2,1,46,0,0
114495,-125,6,2,1,48,0,0
114801,-125,6,2,1,32,0,0
114954,-125,6,2,1,48,0,0
115260,-125,6,2,1,32,0,0
115413,-125,6,2,1,48,0,0
116638,-125,6,2,1,32,0,0
116791,-125,6,2,1,48,0,0
117097,-125,6,2,1,32,0,0
117250,-125,6,2,1,48,0,0
118475,-125,6,2,1,32,0,0
118628,-125,6,2,1,48,0,0
118934,-125,6,2,1,32,0,0
119087,-125,6,2,1,48,0,0
120005,-111.111111111111,6,2,1,48,0,0
121842,-90.9090909090909,6,2,1,52,0,0
128271,-83.3333333333333,6,2,1,52,0,0
129189,-90.9090909090909,6,2,1,52,0,0
134699,-83.3333333333333,6,2,1,54,0,0
136536,-166.666666666667,6,2,3,44,0,0
136995,-166.666666666667,6,2,1,44,0,0
137454,-166.666666666667,6,2,3,44,0,0
137760,-166.666666666667,6,2,1,44,0,0
138066,-166.666666666667,6,2,4,44,0,0
138373,-166.666666666667,6,2,1,44,0,0
138832,-166.666666666667,6,2,1,44,0,0
139291,-166.666666666667,6,2,3,44,0,0
139597,-166.666666666667,6,2,1,44,0,0
139903,-166.666666666667,6,2,1,44,0,0
140209,-166.666666666667,6,2,1,44,0,0
140669,-166.666666666667,6,2,1,44,0,0
141128,-166.666666666667,6,2,3,44,0,0
141434,-166.666666666667,6,2,1,44,0,0
141740,-166.666666666667,6,2,4,44,0,0
142046,-166.666666666667,6,2,1,44,0,0
142505,-166.666666666667,6,2,1,40,0,0
142658,-166.666666666667,6,2,1,42,0,0
142964,-166.666666666667,6,2,3,44,0,0
143271,-166.666666666667,6,2,1,44,0,0
143883,-166.666666666667,6,2,3,44,0,0
144342,-166.666666666667,6,2,1,44,0,0
144801,-166.666666666667,6,2,3,44,0,0
145107,-166.666666666667,6,2,1,44,0,0
145413,-166.666666666667,6,2,4,44,0,0
145566,-166.666666666667,6,2,4,40,0,0
145720,-166.666666666667,6,2,1,44,0,0
146179,-166.666666666667,6,2,1,44,0,0
146638,-166.666666666667,6,2,3,44,0,0
146944,-166.666666666667,6,2,1,44,0,0
147046,-166.666666666667,6,2,1,42,0,0
147148,-166.666666666667,6,2,1,42,0,0
147250,-166.666666666667,6,2,1,44,0,0
147556,-166.666666666667,6,2,3,44,0,0
147557,-166.666666666667,6,2,3,46,0,0
148015,-166.666666666667,6,2,1,46,0,0
148475,-166.666666666667,6,2,3,46,0,0
148781,-166.666666666667,6,2,1,46,0,0
149087,-166.666666666667,6,2,4,46,0,0
149393,-166.666666666667,6,2,1,46,0,0
149852,-166.666666666667,6,2,1,46,0,0
150158,-166.666666666667,6,2,1,42,0,0
150311,-166.666666666667,6,2,3,46,0,0
150618,-166.666666666667,6,2,1,46,0,0
150924,-166.666666666667,6,2,1,46,0,0
151230,-100,6,2,1,48,0,0
152148,-100,6,2,3,48,0,0
152454,-100,6,2,1,48,0,0
153066,-100,6,2,1,50,0,0
153985,-100,6,2,3,52,0,0
154291,-100,6,2,1,52,0,0
154903,-83.3333333333333,6,2,1,54,0,0
169597,-76.9230769230769,6,2,1,56,0,0
176944,-71.4285714285714,6,2,1,57,0,0
180618,-68.9655172413793,6,2,1,57,0,0
182454,-66.6666666666667,6,2,1,58,0,0
183985,-66.6666666666667,6,2,4,58,0,0
184291,-64.5161290322581,6,2,1,59,0,0
187964,-62.5,6,2,1,60,0,0
190720,-100,6,2,1,58,0,0
191026,-100,6,2,1,26,0,0
191332,-100,6,2,1,20,0,0
191638,-200,6,2,99,30,0,0
205413,-133.333333333333,6,2,1,52,0,0
205452,-100,6,2,1,5,0,0
205720,-100,6,2,1,54,0,0
206026,-100,6,2,1,56,0,0
206332,-50,6,2,1,60,0,1
206944,-100,6,2,1,60,0,1
207174,-100,6,2,1,20,0,1
207250,-66.6666666666667,6,2,1,60,0,1
207480,-66.6666666666667,6,2,1,20,0,1
207556,-66.6666666666667,6,2,1,60,0,1
208169,-57.1428571428571,6,2,3,60,0,1
208475,-57.1428571428571,6,2,1,60,0,1
209087,-66.6666666666667,6,2,1,60,0,1
209316,-100,6,2,1,20,0,1
209393,-80,6,2,1,60,0,1
209699,-100,6,2,1,60,0,1
210005,-57.1428571428571,6,2,3,60,0,1
210311,-57.1428571428571,6,2,1,60,0,1
210618,-100,6,2,1,60,0,1
210847,-100,6,2,1,20,0,1
210924,-66.6666666666667,6,2,1,60,0,1
211153,-100,6,2,1,20,0,1
211230,-66.6666666666667,6,2,1,60,0,1
211842,-57.1428571428571,6,2,3,60,0,1
212148,-80,6,2,1,60,0,1
212684,-50,6,2,1,20,0,1
212760,-66.6666666666667,6,2,1,60,0,1
213679,-50,6,2,1,60,0,1
214138,-100,6,2,1,60,0,1
214521,-50,6,2,1,20,0,1
214597,-66.6666666666667,6,2,1,60,0,1
214827,-50,6,2,1,20,0,1
214903,-80,6,2,1,60,0,1
215515,-50,6,2,1,60,0,1
215745,-50,6,2,1,20,0,1
215822,-100,6,2,1,60,0,1
215898,-100,6,2,1,20,0,1
215975,-66.6666666666667,6,2,1,60,0,1
216434,-66.6666666666667,6,2,1,60,0,1
217276,-100,6,2,1,60,0,0
217352,-50,6,2,2,60,0,1
217658,-50,6,2,1,60,0,1
217964,-100,6,2,1,60,0,1
218194,-100,6,2,1,20,0,1
218271,-66.6666666666667,6,2,3,60,0,1
218500,-100,6,2,1,20,0,1
218577,-66.6666666666667,6,2,1,60,0,1
219189,-57.1428571428571,6,2,3,60,0,1
219495,-57.1428571428571,6,2,1,60,0,1
220107,-66.6666666666667,6,2,3,60,0,1
220337,-100,6,2,1,20,0,1
220413,-80,6,2,1,60,0,1
221026,-57.1428571428571,6,2,3,60,0,1
221332,-57.1428571428571,6,2,1,60,0,1
221638,-100,6,2,1,60,0,1
221868,-100,6,2,1,20,0,1
221944,-66.6666666666667,6,2,3,60,0,1
222174,-100,6,2,1,20,0,1
222250,-66.6666666666667,6,2,1,60,0,1
222862,-57.1428571428571,6,2,3,60,0,1
223169,-57.1428571428571,6,2,1,60,0,1
223322,-66.6666666666667,6,2,1,60,0,1
223398,-66.6666666666667,6,2,1,30,0,1
223475,-100,6,2,1,60,0,1
223704,-100,6,2,1,20,0,1
223781,-66.6666666666667,6,2,3,60,0,1
223934,-66.6666666666667,6,2,1,60,0,1
224699,-50,6,2,1,60,0,1
224929,-100,6,2,1,20,0,1
225005,-66.6666666666667,6,2,1,60,0,1
225311,-80,6,2,1,60,0,1
225541,-100,6,2,1,20,0,1
225618,-66.6666666666667,6,2,3,60,0,1
225847,-100,6,2,1,20,0,1
225924,-80,6,2,1,60,0,1
226536,-57.1428571428571,6,2,3,60,0,1
226842,-57.1428571428571,6,2,1,60,0,1
226995,-66.6666666666667,6,2,1,60,0,1
227148,-100,6,2,1,60,0,1
227378,-100,6,2,1,20,0,1
227454,-66.6666666666667,6,2,3,60,0,1
227607,-66.6666666666667,6,2,1,60,0,1
228373,-57.1428571428571,6,2,3,60,0,1
228602,-100,6,2,1,20,0,1
228679,-66.6666666666667,6,2,1,60,0,1
228985,-100,6,2,1,60,0,1
229214,-100,6,2,1,20,0,1
229291,-57.1428571428571,6,2,3,60,0,1
229521,-100,6,2,1,20,0,1
229597,-66.6666666666667,6,2,1,60,0,1
229903,-80,6,2,1,60,0,1
230209,-50,6,2,1,60,0,1
230439,-50,6,2,1,20,0,1
230515,-50,6,2,1,60,0,1
230669,-66.6666666666667,6,2,1,60,0,1
231128,-66.6666666666667,6,2,3,60,0,1
231281,-66.6666666666667,6,2,1,60,0,1
231740,-57.1428571428571,6,2,1,60,0,1
231970,-57.1428571428571,6,2,1,60,0,0
232046,-50,6,2,2,60,0,1
232352,-50,6,2,1,60,0,1
232658,-100,6,2,1,60,0,1
232888,-100,6,2,1,20,0,1
232964,-66.6666666666667,6,2,3,60,0,1
233118,-66.6666666666667,6,2,1,60,0,1
233271,-66.6666666666667,6,2,1,60,0,1
233883,-57.1428571428571,6,2,3,60,0,1
234189,-57.1428571428571,6,2,1,60,0,1
234801,-66.6666666666667,6,2,3,60,0,1
235031,-100,6,2,1,20,0,1
235107,-80,6,2,1,60,0,1
235413,-100,6,2,1,60,0,1
235720,-57.1428571428571,6,2,3,60,0,1
236026,-57.1428571428571,6,2,1,60,0,1
236332,-100,6,2,1,60,0,1
236561,-100,6,2,1,20,0,1
236638,-66.6666666666667,6,2,3,60,0,1
236868,-100,6,2,1,20,0,1
236944,-66.6666666666667,6,2,1,60,0,1
237556,-57.1428571428571,6,2,3,60,0,1
237862,-80,6,2,1,60,0,1
238398,-50,6,2,1,20,0,1
238475,-66.6666666666667,6,2,3,60,0,1
238628,-66.6666666666667,6,2,1,60,0,1
239393,-50,6,2,1,60,0,1
239852,-100,6,2,1,60,0,1
240235,-50,6,2,1,20,0,1
240311,-66.6666666666667,6,2,3,60,0,1
240541,-50,6,2,1,20,0,1
240618,-80,6,2,1,60,0,1
241230,-50,6,2,1,60,0,1
241459,-50,6,2,1,20,0,1
241536,-100,6,2,1,60,0,1
241612,-100,6,2,1,20,0,1
241689,-66.6666666666667,6,2,1,60,0,1
242148,-66.6666666666667,6,2,3,60,0,1
242301,-66.6666666666667,6,2,1,60,0,1
243066,-66.6666666666667,6,2,1,55,0,0
243526,-73.5294117647059,6,2,1,55,0,0
243985,-83.3333333333333,6,2,1,55,0,0
244903,-66.6666666666667,6,2,1,55,0,0
245362,-73.5294117647059,6,2,1,55,0,0
245822,-83.3333333333333,6,2,1,55,0,0
246740,-66.6666666666667,6,2,1,55,0,0
247199,-73.5294117647059,6,2,1,55,0,0
247658,-83.3333333333333,6,2,1,55,0,0
248577,-66.6666666666667,6,2,1,55,0,0
249036,-73.5294117647059,6,2,1,55,0,0
249495,-83.3333333333333,6,2,1,55,0,0
250413,-66.6666666666667,6,2,1,55,0,0
250873,-73.5294117647059,6,2,1,55,0,0
251331,-83.3333333333333,6,2,1,55,0,0
252250,-66.6666666666667,6,2,1,55,0,0
252709,-73.5294117647059,6,2,1,55,0,0
253169,-83.3333333333333,6,2,1,55,0,0
254087,-66.6666666666667,6,2,1,55,0,0
254546,-73.5294117647059,6,2,1,55,0,0
255005,-83.3333333333333,6,2,1,55,0,0
255924,-66.6666666666667,6,2,1,55,0,0
256230,-66.6666666666667,6,2,1,52,0,0
256383,-73.5294117647059,6,2,1,56,0,0
256842,-58.8235294117647,6,2,1,58,0,0

[Colours]
Combo1 : 250,180,240
Combo2 : 120,200,230
Combo3 : 255,230,130
Combo4 : 160,230,150

[HitObjects]
126,114,464,5,2,0:0:0:0:
126,114,541,1,2,0:0:0:0:
126,114,618,2,0,B|155:112|174:132|174:132|174:113|157:99,1,90.0000034332277,14|0,0:1|0:0,0:0:0:0:
253,27,1077,2,0,B|224:29|205:9|205:9|205:28|221:41,1,90.0000034332277,0|0,0:1|0:0,0:0:0:0:
294,96,1536,2,0,L|398:88,2,90.0000034332277,2|0|0,0:0|0:0|0:0,0:0:0:0:
80,271,2454,6,0,P|62:311|34:285,1,90.0000034332277,14|0,0:0|0:0,0:0:0:0:
101,247,2913,2,0,B|154:240|130:271|191:276,1,90.0000034332277,0|0,0:0|0:0,0:0:0:0:
259,239,3373,2,0,L|270:135,1,90.0000034332277,2|0,0:0|0:0,0:0:0:0:
422,37,3985,6,0,P|405:33|398:20,1,30,2|0,0:3|0:0,0:0:0:0:
488,121,4138,2,0,P|494:136|520:142,1,30,2|0,0:3|0:0,0:0:0:0:
490,52,4291,6,0,P|433:76|420:132,1,102.000001945496,6|0,0:0|0:0,0:0:0:0:
433,203,4750,2,0,B|459:268|459:268|467:223,1,102.000001945496,0|0,0:0|0:0,0:0:0:0:
369,165,5209,2,0,B|314:149|325:192|261:171,2,102.000001945496,2|0|0,0:0|0:0|0:0,0:0:0:0:
512,27,6128,6,0,B|479:46|479:46|416:10,1,102.000001945496,14|0,0:0|0:0,0:0:0:0:
298,68,6587,1,8,0:0:0:0:
306,76,6663,1,8,0:0:0:0:
316,83,6740,2,0,P|344:89|375:74,1,51.0000009727478,8|0,0:0|0:0,0:0:0:0:
228,0,7046,5,10,0:3:0:0:
163,366,7352,5,10,0:0:0:0:
507,165,7658,6,0,P|485:165|472:183,1,30,10|0,0:0|0:0,0:0:0:0:
350,278,7811,2,0,P|372:278|385:296,1,30,10|0,0:0|0:0,0:0:0:0:
468,246,7964,6,0,B|391:224|435:171|354:161,1,150,14|0,0:1|0:0,0:0:0:0:
468,246,8424,1,2,0:0:0:0:
443,115,8577,2,0,B|461:116|474:118|474:118|479:105|508:76,1,60,8|0,0:1|0:0,0:0:0:0:
346,44,8883,6,0,P|318:13|259:17,1,75,10|0,0:0|0:0,0:0:0:0:
164,141,9189,2,0,P|192:110|251:114,1,75,10|0,0:1|0:0,0:0:0:0:
354,238,9495,2,0,P|326:207|267:211,1,75,10|0,0:1|0:1,0:0:0:0:
110,321,9801,6,0,B|214:302|214:302|252:332|232:369,1,180,10|8,0:1|0:1,0:0:0:0:
89,350,10413,1,2,0:0:0:0:
75,326,10490,1,2,0:0:0:0:
82,301,10566,1,2,0:0:0:0:
207,212,10720,6,0,B|236:215|265:231|265:231|275:203|290:186,1,112.5,10|0,0:0|0:0,0:0:0:0:
297,175,11026,2,0,P|308:143|299:104,1,60,8|0,0:1|0:0,0:0:0:0:
230,2,11332,5,10,0:1:0:0:
230,2,11485,1,8,0:1:0:0:
149,67,11638,6,0,B|120:98|79:86|79:86|72:49|32:33,1,150,14|0,0:1|0:0,0:0:0:0:
149,67,12097,1,2,0:0:0:0:
54,172,12250,2,0,B|13:208|13:256|13:256|27:273,1,120,8|8,0:1|0:0,0:0:0:0:
37,285,12862,6,0,B|70:291|70:291|98:277,1,66.0000020141602,2|0,0:0|0:0,0:0:0:0:
239,375,13169,2,0,B|206:381|206:381|177:367,1,66.0000020141602,10|0,0:1|0:0,0:0:0:0:
177,367,13475,6,0,B|207:292|149:301|183:221,1,150,10|0,0:1|0:0,0:0:0:0:
251,90,13934,1,10,0:3:0:0:
179,131,14087,1,4,0:3:0:0:
99,108,14240,1,8,0:3:0:0:
260,17,14393,6,0,B|269:68|304:83|304:83|346:69,1,121.500000463486,14|0,0:0|0:0,0:0:0:0:
356,59,14699,2,0,L|364:0,1,60,8|0,0:3|0:0,0:0:0:0:
512,125,15005,6,0,B|508:108|508:108|485:124,1,35.3999987576294,6|0,0:3|0:0,0:0:0:0:
430,254,15158,2,0,B|444:264|444:264|448:247,1,35.3999987576294,10|0,0:2|0:0,0:0:0:0:
373,171,15311,6,0,B|341:159|341:159|319:163|319:163|299:157|299:157|225:184,1,150,14|0,0:1|0:0,0:0:0:0:
373,171,15771,1,2,0:0:0:0:
274,250,15924,2,0,B|279:264|297:270|297:270|309:256|291:237,1,60,8|0,0:1|0:0,0:0:0:0:
194,152,16230,6,0,B|155:156|155:156|122:123,1,75,10|0,0:0|0:0,0:0:0:0:
302,117,16536,2,0,B|317:82|317:82|352:72,1,75,10|0,0:1|0:0,0:0:0:0:
274,250,16842,2,0,B|296:280|296:280|286:316,1,75,10|0,0:1|0:0,0:0:0:0:
114,373,17148,6,0,B|72:380|72:380|79:303|79:303|58:240,1,180,10|8,0:1|0:1,0:0:0:0:
0,98,17760,1,2,0:0:0:0:
4,124,17837,1,2,0:0:0:0:
17,146,17913,1,2,0:0:0:0:
177,40,18066,1,10,0:0:0:0:
55,19,18220,1,8,0:0:0:0:
114,175,18373,1,8,0:1:0:0:
311,19,18679,5,8,2:1:0:0:
311,19,18832,1,8,2:1:0:0:
380,100,18985,6,0,P|346:93|311:95,1,60,2|0,0:0|0:0,0:0:0:0:
258,130,19444,2,0,L|252:170,1,30,2|0,0:0|0:0,0:0:0:0:
362,309,19903,5,2,0:0:0:0:
398,239,20209,1,2,0:0:0:0:
400,245,20362,1,0,0:0:0:0:
402,251,20515,1,0,0:0:0:0:
463,288,20669,1,0,0:0:0:0:
495,224,20822,6,0,P|500:197|497:163,3,60,2|0|0|0,0:0|0:0|0:0|0:0,0:0:0:0:
428,91,22046,5,2,0:0:0:0:
383,155,22352,1,0,0:0:0:0:
311,103,22658,6,0,P|316:77|308:44,1,60,2|0,0:0|0:0,0:0:0:0:
242,15,23118,2,0,L|208:10,1,30,2|0,0:0|0:0,0:0:0:0:
74,50,23577,5,2,0:0:0:0:
115,115,23883,1,0,0:0:0:0:
82,184,24189,1,0,0:0:0:0:
150,247,24495,6,0,L|209:244,2,60,2|0|0,0:0|0:0|0:0,0:0:0:0:
47,292,25413,5,2,0:0:0:0:
121,321,25720,2,0,L|146:317,2,15
58,370,26026,1,0,0:0:0:0:
34,282,26332,6,0,P|31:254|44:220,1,60,2|0,0:0|0:0,0:0:0:0:
91,172,26791,2,0,L|128:169,1,30,2|0,0:0|0:0,0:0:0:0:
225,216,27250,5,2,0:0:0:0:
282,168,27556,1,2,0:0:0:0:
280,162,27709,1,0,0:0:0:0:
278,156,27862,1,0,0:0:0:0:
217,113,28015,1,0,0:0:0:0:
259,52,28169,6,0,L|320:44,1,60,2|0,0:0|0:0,0:0:0:0:
454,2,28781,5,2,0:0:0:0:
392,59,29087,1,0,0:0:0:0:
435,144,29393,1,0,0:0:0:0:
385,239,29699,1,0,0:0:0:0:
460,373,30005,6,0,P|468:341|462:295,1,71.9999978027344,2|0,0:0|0:0,0:0:0:0:
420,244,30464,2,0,L|371:236,1,35.9999989013672,2|0,0:0|0:0,0:0:0:0:
334,183,30771,1,0,0:0:0:0:
371,106,30924,6,0,P|380:83|380:62,1,45.0000017166138,2|0,0:0|0:0,0:0:0:0:
301,153,31230,2,0,P|314:170|333:182,1,45.0000017166138,2|0,0:0|0:0,0:0:0:0:
295,68,31536,2,0,P|272:70|253:81,1,45.0000017166138,2|0,0:0|0:0,0:0:0:0:
371,106,31842,5,2,3:2:0:0:
374,117,32148,5,8,0:3:0:0:
295,68,32301,1,8,0:3:0:0:
289,57,32607,5,8,0:3:0:0:
283,46,32684,1,8,0:3:0:0:
277,35,32760,1,4,1:3:0:0:
271,24,33066,5,8,2:3:0:0:
184,142,33220,1,8,2:3:0:0:
271,179,33373,5,4,3:3:0:0:
182,2,33526,1,4,3:3:0:0:
74,108,33679,6,0,P|59:170|60:244,1,120,6|0,3:1|2:0,0:0:0:0:
70,321,34138,1,0,3:0:0:0:
154,367,34291,2,0,P|185:360|221:357,1,60,0|0,1:0|0:0,0:0:0:0:
327,297,34597,6,0,P|368:318|461:341,2,120,2|0|0,3:0|1:0|3:0,0:0:0:0:
270,234,35362,1,0,0:0:0:0:
350,153,35515,6,0,B|379:128|379:128|340:37,1,120,2|0,3:1|0:0,0:0:0:0:
395,0,35975,1,0,3:0:0:0:
338,61,36128,2,0,P|308:87|229:76,1,120,0|0,1:0|1:0,0:0:0:0:
232,79,36740,6,0,L|220:3,1,60,2|0,3:0|0:0,0:0:0:0:
147,121,37046,1,2,3:0:0:0:
147,121,37199,1,0,3:0:0:0:
244,170,37352,6,0,B|267:149|304:157|304:157|323:178|363:184,1,120,2|0,3:0|0:0,0:0:0:0:
459,138,37811,1,0,3:0:0:0:
374,80,37964,1,0,1:0:0:0:
305,298,38271,6,0,P|305:331|320:374,1,60,2|0,3:0|0:0,0:0:0:0:
209,250,38577,2,0,P|200:281|174:319,1,60,0|0,1:0|0:0,0:0:0:0:
352,182,38883,2,0,P|368:210|402:240,1,60,0|0,3:0|0:0,0:0:0:0:
247,91,39189,6,0,B|245:146|204:164|204:164|153:137,1,120,2|0,3:0|0:0,0:0:0:0:
110,192,39648,2,0,L|30:205,1,60,0|0,3:0|1:0,0:0:0:0:
252,347,40107,6,0,L|332:360,1,60,2|0,1:0|0:0,0:0:0:0:
385,383,40413,2,0,L|417:374,2,30,2|0|0,3:0|0:0|0:0,0:0:0:0:
316,342,40720,5,0,1:0:0:0:
423,282,40873,1,0,1:0:0:0:
324,177,41026,6,0,B|307:206|312:245|335:253|335:253|344:234|330:211,1,120,2|0,3:0|0:0,0:0:0:0:
232,225,41485,1,0,3:0:0:0:
324,177,41638,2,0,P|339:151|345:122,1,60,0|0,1:0|0:0,0:0:0:0:
175,105,41944,6,0,P|157:47|118:-4,2,120,2|2|0,3:0|1:0|3:0,0:0:0:0:
189,200,42709,1,0,0:0:0:0:
105,280,42862,6,0,B|69:262|69:262|33:296|0:299,1,120,2|0,3:0|0:0,0:0:0:0:
59,384,43322,1,0,3:0:0:0:
119,289,43475,1,0,1:0:0:0:
134,298,43781,6,0,P|165:303|205:284,1,60,2|0,1:0|0:0,0:0:0:0:
255,222,44087,2,0,P|261:193|280:170,1,60,0|0,3:0|0:0,0:0:0:0:
285,312,44393,2,0,P|306:332|316:360,1,60,0|0,3:0|2:0,0:0:0:0:
163,209,44699,6,0,P|124:163|151:89,1,120,2|0,3:0|0:0,0:0:0:0:
212,17,45158,2,0,L|205:94,1,60,0|0,3:0|1:0,0:0:0:0:
202,0,45464,5,0,0:0:0:0:
283,86,45618,2,0,P|313:90|342:79,1,60,2|0,3:0|0:0,0:0:0:0:
133,107,45924,2,0,P|103:103|74:114,1,60,2|0,1:0|0:0,0:0:0:0:
223,193,46230,1,0,3:0:0:0:
223,193,46383,1,0,3:0:0:0:
166,342,46536,6,0,B|159:375|126:362|104:323|169:257,1,132.00000402832,2|0,3:0|0:0,0:0:0:0:
223,193,46995,1,0,3:0:0:0:
279,360,47148,1,0,1:0:0:0:
315,107,47378,5,2,2:0:0:0:
315,107,47454,1,2,3:0:0:0:
237,281,47760,1,0,1:0:0:0:
231,78,48066,5,0,1:0:0:0:
332,195,48220,1,0,1:0:0:0:
414,123,48373,6,0,B|434:97|434:97|417:41,1,90,6|0,3:2|3:0,0:0:0:0:
420,33,49291,2,0,B|417:43|417:43|368:34,2,60,4|0|0,0:0|0:0|0:0,0:0:0:0:
489,130,50209,6,0,P|496:158|489:224,1,90,2|0,3:2|3:0,0:0:0:0:
506,362,51128,2,0,P|494:355|470:342,1,30,2|0,0:0|0:0,0:0:0:0:
413,357,51434,2,0,L|395:363,2,15,2|0|0,0:3|0:0|0:0,0:0:0:0:
478,333,51740,1,8,0:0:0:0:
372,262,52046,6,0,P|363:241|359:197,1,60,2|0,3:0|0:0,0:0:0:0:
377,137,52505,2,0,P|394:128|405:115,1,30,0|0,3:0|0:0,0:0:0:0:
311,0,52964,1,4,0:0:0:0:
260,83,53271,1,0,0:0:0:0:
184,21,53577,1,0,0:0:0:0:
100,82,53883,6,0,P|91:105|90:153,1,60,2|0,3:0|0:0,0:0:0:0:
115,206,54342,2,0,P|125:234|126:263,1,60,0|0,3:0|0:0,0:0:0:0:
86,323,54801,2,0,P|58:341|33:368,2,60,2|2|12,0:0|0:3|0:0,0:0:0:0:
260,284,55720,6,0,B|270:302|292:301|292:301|296:268|313:244,1,99.0000030212403,2|0,3:0|3:0,0:0:0:0:
322,234,56638,2,0,B|328:245|351:248|351:248|344:227|328:222,1,66.0000020141602,4|0,0:0|0:0,0:0:0:0:
255,134,57250,1,2,0:0:0:0:
255,134,57403,1,0,0:0:0:0:
193,176,57556,6,0,B|180:188|180:188|121:175,1,66.0000020141602,2|0,3:0|0:0,0:0:0:0:
71,142,58015,2,0,L|62:100,1,33.0000010070801,0|0,3:0|0:0,0:0:0:0:
152,264,58475,2,0,L|145:296,1,33.0000010070801,2|0,0:0|0:0,0:0:0:0:
86,339,58781,2,0,L|58:346,2,16.5000005035401,2|0|0,0:3|0:0|0:0,0:0:0:0:
154,308,59087,1,8,0:0:0:0:
285,354,59393,6,0,B|304:372|328:372|328:372|338:360|359:352,1,71.9999978027344,2|0,3:0|0:0,0:0:0:0:
412,318,59852,2,0,L|415:274,1,35.9999989013672,0|0,3:0|0:0,0:0:0:0:
451,116,60311,5,4,0:0:0:0:
512,212,60618,1,0,0:0:0:0:
457,97,60924,1,0,0:0:0:0:
378,200,61230,6,0,B|367:212|356:217|356:217|332:215|307:195,1,77.9999964294435,2|0,3:0|0:0,0:0:0:0:
241,224,61689,2,0,L|234:181,1,38.9999982147218,0|0,3:0|0:0,0:0:0:0:
201,0,62148,5,2,3:0:0:0:
123,194,62454,1,10,0:0:0:0:
69,102,62760,5,10,0:3:0:0:
113,287,62913,1,8,0:0:0:0:
241,351,63066,6,0,B|309:334|309:334|321:349|359:369,1,120,6|0,3:1|0:0,0:0:0:0:
308,235,63526,2,0,P|353:197|359:139,1,120,2|0,3:2|0:0,0:0:0:0:
308,23,63985,5,4,1:2:0:0:
296,19,64291,5,2,3:0:0:0:
405,80,64444,2,0,L|513:68,1,90.0000034332277,2|0,3:0|3:0,0:0:0:0:
284,15,64903,5,2,1:2:0:0:
256,220,65362,5,2,1:2:0:0:
74,299,65822,5,2,1:2:0:0:
316,370,66128,5,10,0:0:0:0:
109,234,66434,6,0,P|97:229|75:225,1,25.5000004863739,10|0,0:3|0:0,0:0:0:0:
139,367,66587,6,0,P|156:364|171:357,1,34.5000006580353,8|0,0:2|0:0,0:0:0:0:
74,299,66740,6,0,B|23:327|23:327|134:348|194:290,1,240,14|0,0:1|0:0,0:0:0:0:
281,141,67199,5,2,0:0:0:0:
339,198,67352,2,0,P|300:221|245:216,1,90,8|0,0:1|0:0,0:0:0:0:
197,169,67658,6,0,P|151:121|59:134,1,135.000005149841,10|0,0:0|0:0,0:0:0:0:
76,124,67964,1,2,3:1:0:0:
200,98,68118,1,0,3:1:0:0:
150,38,68271,5,2,1:0:0:0:
277,0,68424,1,0,1:0:0:0:
394,87,68577,6,0,P|434:192|518:168,1,210.000002002716,12|0,0:1|0:0,0:0:0:0:
430,16,69036,1,2,0:1:0:0:
419,15,69112,1,2,0:0:0:0:
408,14,69189,1,10,2:1:0:0:
313,145,69342,1,2,2:2:0:0:
200,98,69495,6,0,P|199:48|105:23,1,135.000005149841,10|0,0:0|0:0,0:0:0:0:
121,15,69801,2,0,P|95:33|96:102,1,75,2|0,3:2|3:0,0:0:0:0:
184,215,70107,2,0,L|263:204,1,60,2|0,1:2|1:0,0:0:0:0:
126,368,70413,6,0,P|45:365|27:252,1,210.000002002716,10|0,0:1|0:0,0:0:0:0:
190,107,70873,5,2,0:0:0:0:
122,142,71026,2,0,B|79:154|79:154|23:132,1,90,10|0,0:1|0:0,0:0:0:0:
127,67,71332,6,0,P|180:34|244:56,1,135.000005149841,10|0,0:0|0:0,0:0:0:0:
252,66,71638,1,2,3:2:0:0:
321,190,71791,1,0,3:2:0:0:
243,222,71944,5,2,1:2:0:0:
332,55,72097,1,0,1:2:0:0:
442,147,72250,6,0,B|491:174|491:174|497:96|418:40,1,210.000002002716,12|0,0:1|0:0,0:0:0:0:
321,190,72709,2,0,P|330:217|365:257,1,45.0000017166138,2|2,0:0|0:0,0:0:0:0:
392,279,72862,2,0,P|427:297|490:305,1,90,10|0,0:1|0:0,0:0:0:0:
338,231,73169,6,0,P|303:213|240:205,1,90,10|0,0:0|3:0,0:0:0:0:
246,209,73398,1,0,3:0:0:0:
239,215,73475,1,2,3:2:0:0:
118,300,73628,1,0,3:0:0:0:
76,226,73781,5,0,1:0:0:0:
274,285,73934,1,0,1:0:0:0:
87,375,74087,6,0,P|39:304|76:226,1,180,14|0,0:1|0:0,0:0:0:0:
140,179,74393,2,0,L|233:168,1,90.0000034332277,2|0,0:0|0:0,0:0:0:0:
73,42,74699,2,0,P|51:92|66:145,1,112.5,10|0,0:1|0:0,0:0:0:0:
140,179,75005,6,0,B|219:161|193:220|273:200,1,135.000005149841,10|0,0:0|0:0,0:0:0:0:
278,193,75311,2,0,L|291:112,1,75,0|0,3:0|3:0,0:0:0:0:
389,0,75618,5,2,1:2:0:0:
389,0,75771,1,0,1:0:0:0:
462,138,75924,6,0,B|507:156|507:156|459:92|459:92|364:123,1,210.000002002716,12|0,0:1|0:0,0:0:0:0:
278,193,76383,2,0,L|287:246,1,45.0000017166138,2|2,0:0|0:0,0:0:0:0:
337,292,76536,2,0,P|384:297|419:264,1,90,10|0,0:1|0:0,0:0:0:0:
286,238,76842,6,0,P|242:231|207:258,1,90,10|0,0:2|3:0,0:0:0:0:
203,265,77072,1,0,3:0:0:0:
199,273,77148,1,2,3:2:0:0:
122,169,77301,1,0,3:0:0:0:
49,211,77454,5,2,1:0:0:0:
128,43,77607,1,0,1:0:0:0:
212,105,77760,6,0,B|247:135|290:123|290:123|312:91|350:80,1,157.500001502037,10|0,0:1|0:0,0:0:0:0:
359,78,78066,1,2,3:2:0:0:
378,188,78220,1,0,3:2:0:0:
438,93,78373,2,0,P|434:49|404:10,1,90,10|0,0:1|0:0,0:0:0:0:
291,123,78679,6,0,P|266:175|320:275,1,157.500001502037,10|0,0:0|0:0,0:0:0:0:
309,275,78985,2,0,B|361:273|341:299|393:298,1,90.0000034332277,2|0,3:2|3:0,0:0:0:0:
229,361,79291,2,0,B|184:359|205:382|147:381,1,75,2|0,1:2|1:0,0:0:0:0:
397,314,79597,6,0,B|471:360|521:276|521:276|480:252|476:193,1,240,14|0,0:1|0:0,0:0:0:0:
309,84,80056,2,0,P|327:40|317:-3,1,90.0000034332277,10|0,0:0|0:0,0:0:0:0:
241,36,80362,5,10,0:1:0:0:
349,159,80515,5,10,0:0:0:0:
211,215,80669,1,10,0:1:0:0:
186,140,80822,5,10,0:3:0:0:
370,238,80975,1,8,0:3:0:0:
423,183,81128,5,6,0:3:0:0:
134,200,81281,1,4,0:3:0:0:
285,343,81434,6,0,P|360:305|259:292,1,240,14|0,0:1|0:0,0:0:0:0:
118,337,81893,5,2,0:0:0:0:
181,384,82046,2,0,P|196:338|177:284,1,90,8|0,0:1|0:0,0:0:0:0:
121,247,82352,6,0,B|87:244|87:244|74:249|74:249|2:239,1,90.0000034332277,10|2,0:0|3:2,0:0:0:0:
23,243,82582,1,2,3:2:0:0:
14,242,82658,1,2,3:1:0:0:
124,165,82811,1,0,3:1:0:0:
66,98,82964,5,2,1:0:0:0:
176,0,83118,1,0,1:0:0:0:
281,85,83271,6,0,B|290:167|363:179|363:179|395:139|445:142,1,210.000002002716,12|0,0:1|0:0,0:0:0:0:
512,277,83730,1,2,0:1:0:0:
501,274,83806,1,2,0:0:0:0:
490,271,83883,1,2,0:0:0:0:
404,377,84036,1,2,0:1:0:0:
289,273,84189,6,0,P|309:218|267:156,1,135.000005149841,10|0,0:0|0:0,0:0:0:0:
260,159,84495,2,0,P|233:183|244:234,1,75,2|0,3:2|3:0,0:0:0:0:
334,384,84801,2,0,P|344:354|329:310,1,60,2|0,1:2|1:0,0:0:0:0:
246,21,85107,6,0,B|123:-15|174:75|48:47,1,210.000002002716,10|0,0:1|0:0,0:0:0:0:
159,175,85566,5,2,0:0:0:0:
92,216,85720,2,0,B|77:175|77:175|101:120,1,90,10|0,0:1|0:0,0:0:0:0:
159,175,86026,6,0,B|237:168|203:221|281:225,1,135.000005149841,10|0,0:0|0:0,0:0:0:0:
286,223,86332,1,2,3:2:0:0:
171,298,86485,1,0,3:2:0:0:
252,340,86638,5,2,1:2:0:0:
112,379,86791,1,0,1:2:0:0:
264,343,86944,6,0,B|315:339|355:374|355:374|343:359|331:327,1,140.000001335144,12|2,0:1|0:0,0:0:0:0:
368,271,87250,1,2,0:0:0:0:
396,250,87352,1,2,0:0:0:0:
430,245,87454,1,2,0:0:0:0:
464,250,87556,2,0,P|490:211|463:132,1,112.5,10|0,0:1|0:0,0:0:0:0:
419,96,87862,6,0,B|388:91|388:91|373:98|373:98|322:90,1,90.0000034332277,10|0,0:0|3:0,0:0:0:0:
322,90,88092,1,0,3:0:0:0:
313,88,88169,1,2,3:2:0:0:
404,9,88322,1,0,3:0:0:0:
323,176,88475,5,0,1:0:0:0:
265,15,88628,1,0,1:0:0:0:
116,144,88781,6,0,B|58:174|3:136|3:136|27:74|93:68,1,240,14|0,0:1|0:0,0:0:0:0:
199,164,89240,5,2,0:0:0:0:
141,226,89393,2,0,P|117:189|116:144,1,90,10|0,0:1|0:0,0:0:0:0:
246,91,89699,6,0,P|283:145|271:211,1,135.000005149841,10|0,0:0|0:0,0:0:0:0:
268,223,90005,1,2,3:2:0:0:
199,164,90158,1,0,3:0:0:0:
264,235,90311,5,2,1:2:0:0:
377,135,90464,1,0,1:0:0:0:
477,309,90618,6,0,B|509:286|495:246|456:233|456:233|360:266,1,180,14|0,0:1|0:0,0:0:0:0:
374,270,90924,2,0,L|364:311,1,30,8|0,0:0|0:0,0:0:0:0:
291,362,91077,6,0,B|215:387|215:387|175:375|165:338|194:311,1,180.000006866455,6|0,3:2|3:0,0:0:0:0:
284,134,91536,6,0,P|291:89|253:43,1,90.0000034332277,10|0,0:2|3:0,0:0:0:0:
259,43,91765,1,0,3:0:0:0:
247,35,91842,1,10,2:3:0:0:
92,145,91995,1,8,2:3:0:0:
120,38,92148,5,4,2:3:0:0:
284,134,92301,1,4,2:3:0:0:
66,241,92454,6,0,B|34:267|0:253|0:253|20:235|49:240,1,120,14|0,0:1|0:0,0:0:0:0:
91,305,93373,2,0,P|86:334|91:363,2,60
159,228,94291,6,0,B|181:200|181:200|158:106,1,120,2|0,0:0|0:0,0:0:0:0:
101,75,95209,2,0,P|76:77|40:67,2,60
248,42,96128,5,2,0:0:0:0:
184,1,96434,1,0,0:0:0:0:
180,77,96740,1,0,0:0:0:0:
276,154,97046,5,0,0:0:0:0:
271,149,97148,1,0,0:0:0:0:
267,144,97250,1,0,0:0:0:0:
262,139,97352,2,0,B|250:131|250:131|199:149,1,60
289,228,97964,6,0,B|315:247|315:247|410:233,1,120,2|0,0:0|0:0,0:0:0:0:
503,137,98883,1,2,0:0:0:0:
405,104,99189,1,0,0:0:0:0:
482,35,99495,1,0,0:0:0:0:
512,152,99801,6,0,P|517:193|510:225,2,66.0000020141602,6|0|0,0:0|0:0|0:0,0:0:0:0:
482,79,100720,1,0,0:0:0:0:
376,117,101026,1,0,0:0:0:0:
395,6,101332,1,0,0:0:0:0:
283,39,101638,6,0,P|246:36|216:27,1,66.0000020141602,2|0,0:0|0:0,0:0:0:0:
311,128,102250,2,0,P|342:119|375:116,1,66.0000020141602
280,248,102862,2,0,P|271:218|251:182,1,66.0000020141602
148,116,103475,6,0,B|111:122|111:122|75:103,2,71.9999978027344,2|0|0,0:0|0:0|0:0,0:0:0:0:
247,62,104393,2,0,P|300:25|379:22,1,143.999995605469,2|0,0:0|0:0,0:0:0:0:
512,184,105311,5,10,0:0:0:0:
348,151,105464,1,8,0:0:0:0:
354,171,105771,5,8,0:3:0:0:
498,200,105924,1,8,0:3:0:0:
413,319,106230,5,8,0:0:0:0:
358,191,106536,5,8,0:3:0:0:
415,297,106689,5,8,0:3:0:0:
372,384,106842,5,4,0:3:0:0:
237,261,107148,5,10,0:1:0:0:
201,352,107454,1,8,0:0:0:0:
203,365,108066,5,8,0:1:0:0:
159,192,108373,1,8,0:0:0:0:
369,5,108985,5,10,0:0:0:0:
316,155,109291,5,8,0:3:0:0:
291,85,109444,1,8,0:3:0:0:
283,73,109750,5,8,0:3:0:0:
251,190,109903,1,8,0:0:0:0:
93,82,110209,5,2,1:2:0:0:
105,307,110515,1,8,0:0:0:0:
105,307,110669,1,8,0:0:0:0:
6,234,110822,6,0,B|49:250|49:250|85:224,1,90.0000034332277,14|8,0:1|0:0,0:0:0:0:
137,176,111281,1,8,0:3:0:0:
85,125,111434,1,8,0:3:0:0:
89,48,111587,1,4,0:3:0:0:
156,3,111740,5,10,0:1:0:0:
227,147,112046,1,8,0:1:0:0:
330,0,112352,1,8,0:0:0:0:
436,104,112658,5,10,0:1:0:0:
238,61,112964,1,8,0:3:0:0:
242,73,113424,5,8,0:3:0:0:
384,52,113577,1,8,0:1:0:0:
168,20,113883,5,8,0:1:0:0:
331,141,114189,1,8,0:3:0:0:
331,141,114342,1,8,0:3:0:0:
271,193,114495,6,0,B|246:204|246:204|172:188,1,96,14|0,0:1|0:0,0:0:0:0:
191,267,114954,2,0,P|152:301|157:350,1,96,8|8,0:0|0:3,0:0:0:0:
220,384,115413,5,10,3:1:0:0:
179,189,115720,1,10,2:1:0:0:
60,331,116026,1,0,1:3:0:0:
60,331,116179,1,0,1:3:0:0:
3,255,116332,6,0,B|-8:227|-8:227|14:151,1,96,10|0,0:1|0:0,0:0:0:0:
59,104,116791,2,0,B|80:124|81:147|81:147|95:128|81:98,1,96,8|8,0:0|0:3,0:0:0:0:
9,52,117250,5,10,3:1:0:0:
79,229,117556,5,8,0:1:0:0:
79,229,117709,1,8,0:1:0:0:
163,189,117862,5,8,0:0:0:0:
111,312,118015,1,8,0:3:0:0:
243,234,118169,6,0,B|258:229|268:216|268:216|269:187|242:140,1,96,10|0,0:1|0:0,0:2:0:0:
199,96,118628,2,0,B|174:110|174:110|109:92,1,96,8|8,0:0|0:3,0:0:0:0:
243,32,119087,5,10,3:1:0:0:
94,88,119393,1,8,0:1:0:0:
250,154,119699,1,8,0:0:0:0:
336,95,119852,5,2,0:0:0:0:
336,95,119929,1,2,0:0:0:0:
336,95,120005,2,0,B|356:88|356:71|356:71|320:61|289:96,1,107.999996704102,10|0,0:1|0:0,0:0:0:0:
331,179,120464,2,0,B|314:193|308:212|308:212|309:245|337:281,1,107.999996704102,8|8,0:0|0:1,0:0:0:0:
413,368,120924,5,8,0:0:0:0:
512,136,121230,5,8,0:0:0:0:
494,216,121383,1,8,0:0:0:0:
444,107,121536,5,8,0:3:0:0:
480,224,121689,1,8,0:3:0:0:
374,82,121842,6,0,B|341:106|341:106|243:75,1,132.00000402832,14|0,0:1|0:0,0:0:0:0:
148,36,122301,2,0,B|127:36|119:68|152:76|193:58|207:4,1,132.00000402832,8|0,1:1|0:0,0:0:0:0:
115,133,122760,2,0,B|98:139|88:158|88:158|81:199|114:262,1,132.00000402832,10|0,0:0|2:1,0:0:0:0:
210,325,123220,5,8,0:1:0:0:
116,263,123373,1,8,0:0:0:0:
109,375,123526,1,2,0:0:0:0:
224,332,123679,6,0,B|246:323|259:306|259:306|256:267|229:218,1,132.00000402832,10|0,0:1|0:0,0:0:0:0:
144,129,124138,2,0,B|138:144|126:151|126:151|114:130|114:88|152:53,1,132.00000402832,8|0,0:0|0:0,0:0:0:0:
198,0,124597,1,10,0:1:0:0:
331,101,124903,5,10,0:3:0:0:
245,125,125056,1,8,0:3:0:0:
337,112,125209,5,8,0:0:0:0:
238,113,125362,1,8,0:3:0:0:
384,176,125515,6,0,B|414:172|448:191|448:191|471:162|502:160,1,132.00000402832,10|0,0:1|0:0,0:0:0:0:
423,50,125975,1,8,0:0:0:0:
374,189,126128,1,10,0:1:0:0:
367,203,126434,6,0,L|441:195,1,66.0000020141602,10|0,0:0|0:0,0:0:0:0:
274,102,126740,2,0,L|348:94,1,66.0000020141602,8|0,0:1|0:0,0:0:0:0:
251,284,127046,2,0,L|325:276,1,66.0000020141602,8|0,0:0|0:0,0:0:0:0:
175,159,127352,6,0,B|204:121|172:66|172:66|154:81|153:97,1,132.00000402832,10|0,0:1|0:0,0:0:0:0:
123,243,127811,2,0,B|100:286|117:320|117:320|136:300|129:262,1,132.00000402832,8|8,0:0|0:1,0:0:0:0:
67,156,128271,6,0,B|30:142|30:160|-4:151,1,71.9999978027344,8|0,0:0|0:0,0:0:0:0:
146,20,128577,5,8,0:3:0:0:
185,174,128730,1,4,0:3:0:0:
246,6,128883,5,8,0:3:0:0:
196,160,129036,1,8,0:0:0:0:
330,108,129189,6,0,B|343:79|348:45|320:20|320:20|317:49|342:63,1,132.00000402832,14|0,0:1|0:0,0:0:0:0:
420,124,129648,2,0,P|479:128|487:68,1,132.00000402832,8|0,1:1|0:0,0:0:0:0:
335,124,130107,1,10,0:0:0:0:
512,313,130413,5,8,0:1:0:0:
512,313,130566,1,8,0:1:0:0:
454,231,130720,5,8,3:2:0:0:
435,365,130873,1,2,3:3:0:0:
351,256,131026,6,0,B|328:278|309:279|309:279|269:273|234:244,1,132.00000402832,10|0,0:1|0:3,0:1:0:0:
180,156,131485,2,0,B|194:146|200:125|200:125|199:71|152:35,1,132.00000402832,8|8,1:1|0:1,0:0:0:0:
70,0,131944,5,10,2:2:0:0:
0,219,132250,1,8,0:1:0:0:
75,148,132556,5,8,0:0:0:0:
89,287,132709,1,8,0:2:0:0:
173,366,132862,6,0,B|202:391|239:381|239:381|257:351|289:345,1,132.00000402832,10|0,0:1|0:0,0:0:0:0:
450,358,133322,2,0,B|457:371|474:378|474:378|481:327|436:284,1,132.00000402832,8|8,0:0|0:1,0:0:0:0:
336,170,133781,5,10,0:0:0:0:
286,345,134087,1,8,0:1:0:0:
257,109,134393,5,8,0:0:0:0:
276,246,134546,1,8,0:3:0:0:
158,103,134699,6,0,P|217:110|221:40,1,143.999995605469,14|0,0:1|0:0,0:0:0:0:
124,0,135158,1,8,0:0:0:0:
76,175,135464,5,10,2:1:0:0:
74,185,135541,1,10,2:1:0:0:
71,195,135618,2,0,B|42:210|42:210|60:166,1,71.9999978027344,8|0,0:0|0:0,0:0:0:0:
141,93,135924,5,8,0:3:0:0:
174,210,136077,1,4,0:3:0:0:
243,138,136230,5,8,0:3:0:0:
206,306,136383,1,8,0:3:0:0:
324,234,136536,5,12,0:3:0:0:
365,308,136995,1,4,0:3:0:0:
449,292,137454,1,10,0:3:0:0:
460,208,137760,1,4,0:3:0:0:
383,171,138066,1,8,0:3:0:0:
337,88,138373,5,10,0:3:0:0:
383,171,138832,1,4,0:3:0:0:
478,153,139291,1,10,0:3:0:0:
490,58,139597,1,4,0:3:0:0:
383,171,139903,5,8,0:2:0:0:
307,67,140209,5,10,0:3:0:0:
281,176,140669,1,4,0:3:0:0:
186,236,141128,1,10,0:3:0:0:
77,206,141434,1,4,0:3:0:0:
22,108,141740,1,8,0:3:0:0:
157,16,142046,5,10,0:3:0:0:
281,176,142505,5,8,2:3:0:0:
316,110,142658,1,4,0:3:0:0:
242,113,142811,1,4,0:3:0:0:
355,173,142964,5,10,0:0:0:0:
242,113,143271,5,8,0:3:0:0:
277,47,143424,1,8,0:3:0:0:
316,110,143577,1,4,0:3:0:0:
281,176,143730,1,4,0:3:0:0:
203,50,143883,5,12,0:3:0:0:
281,176,144342,1,4,0:3:0:0:
351,44,144801,1,10,0:3:0:0:
203,50,145107,1,4,0:3:0:0:
285,180,145413,5,8,0:3:0:0:
285,180,145566,1,8,0:3:0:0:
365,134,145720,5,10,0:3:0:0:
293,270,146179,1,4,0:3:0:0:
446,264,146638,1,10,0:3:0:0:
365,134,146944,5,10,0:3:0:0:
360,125,147046,1,2,0:3:0:0:
358,115,147148,1,2,0:3:0:0:
359,105,147250,1,8,0:2:0:0:
420,14,147556,5,12,0:3:0:0:
359,105,148015,1,4,0:3:0:0:
261,154,148475,1,10,0:3:0:0:
152,148,148781,1,4,0:3:0:0:
61,89,149087,1,8,0:3:0:0:
196,0,149393,5,10,0:3:0:0:
261,154,149852,1,4,0:3:0:0:
330,112,150158,5,4,0:3:0:0:
303,223,150311,1,10,0:3:0:0:
297,243,150618,5,4,0:3:0:0:
261,154,150771,1,8,0:3:0:0:
228,283,150924,5,4,0:3:0:0:
252,134,151077,1,4,0:3:0:0:
150,271,151230,6,0,B|128:282|109:285|109:285|71:279|42:248,1,120,14|0,0:1|0:0,0:0:0:0:
154,174,151689,2,0,P|148:111|173:60,1,120,6|8,0:3|0:1,0:0:0:0:
256,0,152148,1,10,0:3:0:0:
403,120,152454,5,8,0:3:0:0:
307,109,152607,1,8,0:3:0:0:
410,136,152760,5,4,0:3:0:0:
309,190,152913,1,4,0:3:0:0:
425,245,153066,5,14,0:1:0:0:
295,95,153373,1,10,0:1:0:0:
265,363,153679,1,10,0:0:0:0:
116,213,153985,5,10,0:0:0:0:
410,136,154291,1,10,0:0:0:0:
181,21,154597,1,8,0:3:0:0:
290,151,154903,6,0,B|317:185|361:175|361:175|376:145|409:135,1,143.999995605469,14|0,0:1|3:0,0:0:0:0:
512,252,155362,1,0,3:0:0:0:
479,372,155515,1,8,0:1:0:0:
316,218,155822,6,0,P|350:219|388:203,1,71.9999978027344,10|0,0:0|0:0,0:0:0:0:
240,260,156128,2,0,P|222:288|216:329,1,71.9999978027344,2|0,3:1|0:0,0:0:0:0:
241,172,156434,2,0,P|224:142|192:117,1,71.9999978027344,2|0,3:1|0:0,0:0:0:0:
53,178,156740,6,0,B|42:210|4:208|-12:145|41:103,1,143.999995605469,10|0,0:1|3:0,0:0:0:0:
160,27,157199,1,8,0:1:0:0:
160,205,157352,2,0,B|157:239|139:252|139:252|136:241|141:233,1,71.9999978027344,2|0,0:0|0:0,0:0:0:0:
262,106,157658,2,0,P|329:83|401:83,2,143.999995605469,10|0|0,0:0|3:0|3:0,0:0:0:0:
373,318,158577,6,0,P|440:341|512:341,2,143.999995605469,10|0|0,0:1|3:0|3:0,0:0:0:0:
262,106,159495,6,0,L|270:28,1,71.9999978027344,10|0,0:0|0:0,0:0:0:0:
161,188,159801,2,0,L|153:110,1,71.9999978027344,2|0,3:2|0:0,0:0:0:0:
305,283,160107,2,0,L|313:205,1,71.9999978027344,2|0,3:2|0:0,0:0:0:0:
177,370,160413,6,0,B|161:352|133:343|133:343|76:348|46:371,1,143.999995605469,10|0,0:1|3:0,0:0:0:0:
140,309,160873,1,0,3:0:0:0:
182,214,161026,1,0,3:0:0:0:
153,116,161179,1,0,3:0:0:0:
46,43,161332,6,0,P|28:73|25:109,1,71.9999978027344,10|0,0:0|0:0,0:0:0:0:
238,132,161638,2,0,P|234:96|217:65,1,71.9999978027344,10|0,0:3|0:0,0:0:0:0:
97,228,161944,1,4,0:3:0:0:
161,340,162097,1,8,0:0:0:0:
342,295,162250,6,0,P|384:274|486:274,1,143.999995605469,14|0,0:1|0:0,0:0:0:0:
327,165,162709,2,0,P|365:104|376:34,1,143.999995605469,10|0,0:1|0:0,0:0:0:0:
214,168,163169,6,0,P|220:203|237:234,1,71.9999978027344,10|0,0:0|0:0,0:0:0:0:
152,87,163475,2,0,P|118:75|82:73,1,71.9999978027344,2|0,3:0|0:0,0:0:0:0:
253,73,163781,2,0,P|280:49|299:19,1,71.9999978027344,2|0,3:0|0:0,0:0:0:0:
208,190,164087,6,0,B|181:214|166:255|183:291|183:291|201:277|198:251,1,143.999995605469,10|0,0:1|3:0,0:0:0:0:
198,263,164699,2,0,P|165:247|125:244,1,71.9999978027344,2|0,3:0|0:0,0:0:0:0:
256,355,165005,2,0,B|284:375|306:381|306:381|346:377|386:343,1,143.999995605469,10|0,0:0|3:0,0:0:0:0:
320,163,165464,1,8,0:0:0:0:
191,280,165618,1,8,2:3:0:0:
180,292,165924,6,0,B|152:312|130:318|130:318|90:314|51:281,1,143.999995605469,10|0,0:1|0:0,0:0:0:0:
5,176,166383,1,0,3:0:0:0:
56,73,166536,1,0,3:0:0:0:
275,3,166842,6,0,L|366:-2,1,71.9999978027344,10|0,0:0|0:0,0:0:0:0:
234,105,167148,2,0,L|325:100,1,71.9999978027344,2|0,3:0|0:0,0:0:0:0:
193,207,167454,2,0,L|284:202,1,71.9999978027344,2|0,3:0|0:0,0:0:0:0:
84,114,167760,6,0,B|103:88|98:43|63:23|63:23|42:28|27:50,1,143.999995605469,10|0,0:1|0:0,0:0:0:0:
32,198,168220,2,0,B|11:223|9:242|9:242|11:285|35:331,1,143.999995605469,10|8,0:3|0:1,0:0:0:0:
203,384,168679,6,0,L|209:300,1,71.9999978027344,10|0,0:0|0:0,0:0:0:0:
304,116,168985,2,0,L|309:187,1,71.9999978027344,10|0,0:3|0:0,0:0:0:0:
423,314,169291,5,10,0:1:0:0:
512,276,169444,1,8,0:0:0:0:
417,168,169597,6,0,P|343:178|304:113,1,155.999992858887,14|0,0:1|3:0,0:0:0:0:
281,26,170056,1,0,3:0:0:0:
227,165,170209,1,8,0:1:0:0:
6,84,170515,6,0,L|0:3,1,77.9999964294435,10|0,0:0|0:0,0:0:0:0:
134,173,170822,2,0,L|140:92,1,77.9999964294435,2|0,0:0|0:0,0:0:0:0:
31,276,171128,2,0,L|25:195,1,77.9999964294435,10|0,0:1|0:0,0:0:0:0:
145,346,171434,6,0,B|193:330|230:364|230:364|262:366|285:331,1,155.999992858887,10|0,0:1|0:0,0:0:0:0:
354,240,171893,1,0,3:0:0:0:
287,142,172046,2,0,P|268:108|272:70,1,77.9999964294435,8|0,0:1|0:0,0:0:0:0:
438,16,172352,6,0,B|468:50|452:97|419:116|419:116|380:100,1,155.999992858887,10|0,0:0|0:0,0:0:0:0:
272,70,172811,1,0,3:0:0:0:
183,166,172964,1,8,0:0:0:0:
266,223,173118,1,8,0:1:0:0:
171,296,173271,6,0,P|109:283|11:275,2,155.999992858887,10|0|0,0:1|3:0|3:0,0:0:0:0:
381,359,174189,6,0,P|408:370|466:376,1,77.9999964294435,10|0,0:0|0:0,0:0:0:0:
446,231,174495,2,0,P|469:213|503:165,1,77.9999964294435,2|0,0:0|0:0,0:0:0:0:
367,110,174801,2,0,P|363:81|339:27,1,77.9999964294435,2|0,0:0|0:0,0:0:0:0:
198,143,175107,6,0,B|174:160|138:140|138:140|140:85|187:66,1,155.999992858887,10|0,0:1|0:0,0:0:0:0:
295,170,175566,1,8,0:0:0:0:
290,264,175720,1,8,0:1:0:0:
225,332,175873,1,0,3:0:0:0:
113,223,176026,5,10,0:0:0:0:
401,284,176332,1,8,0:3:0:0:
277,37,176638,5,4,0:3:0:0:
219,212,176791,1,8,0:0:0:0:
118,127,176944,6,0,P|82:106|22:95,1,83.9999974365235,14|0,0:1|0:0,0:0:0:0:
94,256,177250,2,0,P|93:297|114:355,1,83.9999974365235,2|0,0:0|0:0,0:0:0:0:
219,212,177556,2,0,P|255:191|294:144,1,83.9999974365235,10|0,2:1|0:0,0:0:0:0:
29,89,177862,5,10,0:0:0:0:
318,36,178169,5,2,0:0:0:0:
284,161,178322,1,8,0:0:0:0:
256,86,178475,1,8,0:1:0:0:
370,297,178781,6,0,B|405:327|449:318|449:318|471:274|511:270,1,167.999994873047,10|0,0:1|0:0,0:0:0:0:
395,156,179240,2,0,P|386:76|317:35,1,167.999994873047,10|8,0:1|0:1,0:0:0:0:
110,93,179699,5,14,0:0:0:0:
385,175,180005,1,8,0:3:0:0:
170,230,180311,5,4,0:3:0:0:
317,35,180464,1,8,0:0:0:0:
396,192,180618,6,0,B|421:216|458:211|458:211|495:170|474:104,1,174.000005310059,14|0,0:1|0:0,0:0:0:0:
397,0,181077,1,2,3:0:0:0:
319,56,181230,1,0,3:0:0:0:
229,22,181383,1,0,3:0:0:0:
132,128,181536,5,10,0:0:0:0:
119,142,181842,5,10,0:1:0:0:
249,123,181995,1,8,0:0:0:0:
104,155,182148,5,8,0:3:0:0:
255,206,182301,1,8,0:3:0:0:
88,167,182454,6,0,B|61:150|52:128|52:128|52:56|98:15,1,180.000006866455,14|8,0:1|0:1,0:0:0:0:
336,75,182913,2,0,B|382:115|382:187|382:187|373:209|346:226,1,180.000006866455,10|8,0:0|0:1,0:0:0:0:
177,294,183373,5,6,0:3:0:0:
301,318,183526,1,8,0:3:0:0:
105,261,183679,5,4,0:3:0:0:
263,245,183832,1,4,0:3:0:0:
59,319,183985,5,8,0:3:0:0:
406,367,184291,6,0,B|419:377|438:377|438:377|437:346|404:332,1,93.0000007095337,14|0,0:1|0:0,0:0:0:0:
243,218,184597,2,0,B|226:217|211:228|211:228|230:253|264:245,1,93.0000007095337,2|0,2:0|0:0,0:0:0:0:
461,239,184903,2,0,B|474:229|480:211|480:211|450:203|427:229,1,93.0000007095337,10|0,2:1|0:0,0:0:0:0:
301,338,185209,6,0,B|298:373|269:384|269:384|263:366|269:351,1,93.0000007095337,10|0,0:0|0:0,0:0:0:0:
427,229,185515,2,0,B|450:203|480:211|480:211|474:229|461:239,1,93.0000007095337,2|8,2:0|2:0,0:0:0:0:
264,245,185822,2,0,B|230:253|211:228|211:228|226:217|243:218,1,93.0000007095337,10|0,2:1|0:0,0:0:0:0:
406,333,186128,5,10,0:1:0:0:
338,176,186434,5,2,0:0:0:0:
301,338,186587,1,8,0:0:0:0:
428,229,186740,1,10,0:1:0:0:
264,245,186893,1,8,0:1:0:0:
406,333,187046,6,0,B|431:356|464:355|464:355|480:346|500:321,1,93.0000007095337,10|0,0:0|0:0,0:0:0:0:
423,142,187352,2,0,B|452:125|461:93|461:93|458:75|440:48,1,93.0000007095337,10|0,0:3|0:0,0:0:0:0:
249,0,187658,5,6,0:3:0:0:
221,131,187811,1,4,0:3:0:0:
88,222,187964,6,0,B|65:245|36:241|36:241|13:209|15:153|60:114,1,192,14|0,0:1|0:0,0:0:0:0:
168,14,188424,1,2,3:0:0:0:
258,46,188577,1,0,3:0:0:0:
352,27,188730,1,0,3:0:0:0:
449,124,188883,5,14,0:0:0:0:
456,141,189189,5,10,0:1:0:0:
359,44,189342,1,8,0:0:0:0:
324,177,189495,1,8,0:1:0:0:
12,260,189801,5,8,0:0:0:0:
176,306,189954,1,8,0:0:0:0:
72,200,190107,5,8,0:3:0:0:
115,365,190260,1,8,0:3:0:0:
154,223,190413,5,4,0:3:0:0:
33,342,190566,1,4,0:3:0:0:
193,315,190720,6,0,B|259:321|276:247|276:247|211:212|217:150|217:150|261:117|260:64|199:66|200:103|220:112,1,360,8|0,0:0|0:0,0:0:0:0:
58,288,205413,6,0,L|43:286,1,11.2500004291535,14|0,0:0|0:0,0:0:0:0:
150,101,205720,5,10,0:3:0:0:
239,244,205873,1,8,0:3:0:0:
234,70,206026,5,6,0:3:0:0:
158,283,206179,1,4,0:3:0:0:
331,323,206332,6,0,B|365:313|379:293|379:293|382:203|315:119,1,240,14|0,0:1|0:0,0:0:0:0:
150,7,206791,5,2,0:0:0:0:
83,53,206944,2,0,P|65:92|78:141,1,90,8|0,0:1|0:0,0:0:0:0:
140,179,207250,6,0,B|219:178|174:122|251:118,1,135.000005149841,10|0,0:0|2:2,0:0:0:0:
264,120,207556,1,2,3:2:0:0:
187,257,207709,1,2,3:2:0:0:
178,254,207786,1,2,3:2:0:0:
169,251,207862,1,2,1:0:0:0:
205,379,208015,1,0,1:0:0:0:
360,345,208169,6,0,B|404:327|403:269|403:269|366:223|390:150,1,210.000002002716,12|0,0:1|0:0,0:0:0:0:
471,46,208628,1,2,0:1:0:0:
505,202,208781,1,10,0:1:0:0:
387,158,208934,1,2,0:1:0:0:
262,249,209087,6,0,P|326:266|385:235,1,135.000005149841,10|0,0:0|0:0,0:0:0:0:
394,230,209393,2,0,P|399:194|388:159,1,75,2|0,3:2|3:0,0:0:0:0:
479,314,209699,2,0,P|498:291|505:262,1,60,0|0,1:2|1:0,0:0:0:0:
441,42,210005,6,0,B|407:89|351:80|351:80|331:28|274:11,1,210.000002002716,10|0,0:1|0:0,0:0:0:0:
147,75,210464,5,2,0:0:0:0:
69,96,210618,2,0,P|69:51|91:13,1,90,10|0,0:1|0:0,0:0:0:0:
158,86,210924,6,0,B|186:112|186:112|160:215,1,135.000005149841,10|0,0:0|0:0,0:0:0:0:
159,216,211230,1,2,3:2:0:0:
36,252,211383,1,0,3:2:0:0:
171,312,211536,5,2,1:2:0:0:
20,257,211689,1,0,1:2:0:0:
176,324,211842,6,0,B|203:348|241:345|241:345|282:292|240:209,1,210.000002002716,12|0,0:1|0:0,0:0:0:0:
176,107,212301,1,2,0:0:0:0:
161,124,212378,1,2,0:0:0:0:
143,138,212454,2,0,B|130:150|109:145|109:145|73:110|103:64,1,112.5,10|0,0:1|0:0,0:0:0:0:
160,22,212760,6,0,B|195:18|195:18|207:23|207:23|256:16,1,90.0000034332277,10|0,0:0|3:0,0:0:0:0:
257,16,212990,1,0,3:0:0:0:
265,15,213066,1,2,3:2:0:0:
363,132,213220,1,0,3:0:0:0:
378,3,213373,5,0,1:0:0:0:
260,143,213526,1,0,1:0:0:0:
378,263,213679,6,0,B|426:306|489:284|489:284|482:218|419:195,1,240,14|0,0:1|0:0,0:0:0:0:
206,298,214138,5,2,3:0:0:0:
279,342,214291,2,0,P|292:300|281:256,1,90,10|0,0:1|0:0,0:0:0:0:
168,194,214597,6,0,P|153:129|183:70,1,135.000005149841,10|0,0:0|0:0,0:0:0:0:
192,64,214903,1,2,3:2:0:0:
260,143,215056,1,0,3:0:0:0:
299,0,215209,5,2,1:2:0:0:
259,153,215362,1,0,1:0:0:0:
489,84,215515,6,0,B|499:71|498:60|498:60|404:24|368:102,1,180,14|0,0:1|0:0,0:0:0:0:
367,114,215822,2,0,L|363:155,1,30,8|0,0:0|0:0,0:0:0:0:
342,239,215975,6,0,B|303:319|213:280|213:280|212:269|221:256,1,180.000006866455,10|8,0:2|0:1,0:0:0:0:
209,119,216434,6,0,B|219:123|230:114|230:114|234:80|207:44,1,90.0000034332277,10|0,0:2|3:0,0:0:0:0:
204,39,216663,1,0,3:0:0:0:
193,30,216740,1,10,2:3:0:0:
50,117,216893,1,8,2:3:0:0:
122,171,217046,5,4,2:3:0:0:
108,1,217199,1,4,2:3:0:0:
40,209,217352,6,0,B|16:278|56:327|105:338|105:338|127:298|175:285,1,240,14|0,0:1|0:0,0:0:0:0:
349,290,217811,5,2,0:0:0:0:
386,366,217964,2,0,P|341:373|291:349,1,90,8|0,0:1|0:0,0:0:0:0:
248,286,218271,6,0,P|263:215|220:147,1,135.000005149841,10|0,0:0|0:0,0:0:0:0:
227,150,218577,1,2,3:1:0:0:
118,208,218730,1,0,3:1:0:0:
137,60,218883,5,2,1:0:0:0:
115,194,219036,1,0,1:0:0:0:
257,77,219189,6,0,B|237:110|173:135|111:99|111:99|117:70|141:57,1,210.000002002716,12|0,0:1|0:0,0:0:0:0:
269,180,219648,1,2,0:1:0:0:
271,190,219725,1,2,0:0:0:0:
272,200,219801,1,10,2:1:0:0:
354,82,219954,1,2,2:2:0:0:
460,233,220107,6,0,B|466:253|495:256|507:229|507:190|469:152,1,135.000005149841,10|0,0:0|0:0,0:0:0:0:
461,145,220413,1,2,3:2:0:0:
344,246,220566,1,0,3:0:0:0:
421,367,220720,1,2,1:2:0:0:
460,233,220873,1,0,1:0:0:0:
299,157,221026,6,0,B|272:186|232:178|232:178|248:101|201:42,1,210.000002002716,10|0,0:1|0:0,0:0:0:0:
23,95,221485,5,2,0:0:0:0:
24,180,221638,2,0,P|11:133|33:83,1,90,10|0,0:1|0:0,0:0:0:0:
126,74,221944,6,0,P|159:127|137:191,1,135.000005149841,10|0,0:0|0:0,0:0:0:0:
127,201,222250,1,2,3:2:0:0:
24,180,222403,1,0,3:2:0:0:
113,293,222556,5,2,1:2:0:0:
27,193,222709,1,0,1:2:0:0:
198,325,222862,6,0,B|249:329|295:363|295:363|327:316|379:300,1,210.000002002716,12|0,0:1|0:0,0:0:0:0:
266,159,223322,2,0,P|260:138|249:118,1,45.0000017166138,2|0,3:0|0:0,0:0:0:0:
195,70,223475,2,0,P|159:55|98:51,1,90,10|0,0:1|0:0,0:0:0:0:
249,118,223781,6,0,P|287:132|349:126,1,90.0000034332277,10|0,0:0|3:0,0:0:0:0:
345,126,224010,1,0,3:0:0:0:
354,121,224087,1,2,3:2:0:0:
444,22,224240,1,0,3:0:0:0:
434,166,224393,5,2,1:0:0:0:
357,2,224546,1,0,1:0:0:0:
265,158,224699,6,0,B|238:197|235:266|254:289|254:289|256:265|235:237,1,180,14|0,0:1|0:0,0:0:0:0:
174,209,225005,2,0,P|133:194|81:198,1,90.0000034332277,2|0,0:0|3:0,0:0:0:0:
200,353,225311,2,0,P|252:371|314:354,1,112.5,10|0,0:1|0:0,0:0:0:0:
380,306,225618,6,0,B|397:286|395:263|395:263|368:234|374:179,1,135.000005149841,10|0,0:0|0:0,0:0:0:0:
378,169,225924,2,0,P|391:140|385:79,1,75,0|0,3:0|3:0,0:0:0:0:
204,4,226230,5,2,1:2:0:0:
204,4,226383,1,0,1:0:0:0:
105,153,226536,6,0,B|87:168|52:169|27:137|35:65|107:15,1,210.000002002716,10|0,0:1|0:0,0:0:0:0:
207,133,226995,1,2,0:0:0:0:
140,251,227148,1,10,0:1:0:0:
169,362,227301,1,2,0:0:0:0:
297,287,227454,6,0,P|308:244|277:193,1,90.0000034332277,10|0,0:2|3:0,0:0:0:0:
283,197,227684,1,0,3:0:0:0:
275,191,227760,1,2,3:2:0:0:
140,251,227913,1,0,3:0:0:0:
23,252,228066,5,2,1:0:0:0:
93,163,228220,1,0,1:0:0:0:
0,57,228373,6,0,B|26:97|80:83|80:83|87:47|116:28,1,157.500001502037,10|0,0:1|0:0,0:0:0:0:
128,24,228679,1,2,3:2:0:0:
182,157,228832,1,0,3:2:0:0:
289,69,228985,2,0,B|315:50|299:9|299:9|280:25|291:49,1,90,10|0,0:1|0:0,0:0:0:0:
342,145,229291,6,0,B|310:197|309:252|309:252|315:271|332:291,1,157.500001502037,10|0,0:0|0:0,0:0:0:0:
340,299,229597,2,0,P|378:322|429:316,1,90.0000034332277,2|0,3:2|3:0,0:0:0:0:
505,185,229903,2,0,P|507:153|496:105,1,75,2|0,1:2|1:0,0:0:0:0:
284,19,230209,6,0,B|258:50|213:71|155:46|155:46|174:39|205:47,1,180,14|0,0:1|0:0,0:0:0:0:
194,129,230515,5,10,0:3:0:0:
97,98,230669,2,0,P|80:56|85:12,1,90.0000034332277,10|0,0:0|0:0,0:0:0:0:
192,44,230975,5,10,0:3:0:0:
291,155,231128,5,10,0:0:0:0:
59,198,231281,1,10,0:1:0:0:
97,98,231434,5,10,0:3:0:0:
227,269,231587,1,8,0:3:0:0:
129,271,231740,5,6,0:3:0:0:
211,52,231893,1,4,0:3:0:0:
367,204,232046,6,0,B|385:233|437:229|437:229|466:140|392:63,1,240,14|0,0:1|0:0,0:0:0:0:
291,230,232505,5,2,0:0:0:0:
348,287,232658,2,0,P|370:243|359:187,1,90,8|0,0:1|0:0,0:0:0:0:
311,124,232964,6,0,P|295:82|303:38,1,90.0000034332277,10|2,0:0|3:2,0:0:0:0:
310,32,233194,1,2,3:2:0:0:
317,27,233271,1,2,3:1:0:0:
406,78,233424,1,0,3:1:0:0:
234,152,233577,5,2,1:0:0:0:
206,0,233730,1,0,1:0:0:0:
102,152,233883,6,0,B|83:194|10:188|-1:107|86:53,1,210.000002002716,12|0,0:1|0:0,0:0:0:0:
234,152,234342,1,10,0:1:0:0:
223,154,234419,1,2,0:0:0:0:
212,156,234495,1,2,0:0:0:0:
308,54,234648,1,2,0:1:0:0:
392,182,234801,6,0,B|409:174|423:155|423:155|423:110|390:68,1,135.000005149841,10|0,0:0|0:0,0:0:0:0:
382,61,235107,2,0,B|356:56|356:56|342:60|342:60|286:50,1,75,2|0,3:2|3:0,0:0:0:0:
236,233,235413,2,0,B|257:230|257:230|265:233|265:233|306:228,1,60,2|0,1:2|1:0,0:0:0:0:
104,131,235720,6,0,B|146:96|134:26|88:1|88:1|57:12|48:43,1,210.000002002716,10|0,0:1|0:0,0:0:0:0:
71,230,236179,5,2,0:0:0:0:
149,251,236332,2,0,P|193:249|235:232,1,90,10|0,0:1|0:0,0:0:0:0:
282,155,236638,6,0,B|262:139|255:123|255:123|253:72|287:35,1,135.000005149841,10|0,0:0|0:0,0:0:0:0:
293,31,236944,1,2,3:2:0:0:
365,147,237097,1,0,3:2:0:0:
448,114,237250,5,2,1:2:0:0:
357,265,237403,1,0,1:2:0:0:
436,367,237556,6,0,B|459:392|503:380|513:338|519:285|466:228,1,210.000002002716,12|0,0:1|0:0,0:0:0:0:
357,265,238015,1,2,0:0:0:0:
269,164,238169,2,0,P|264:108|292:60,1,112.5,8|0,0:1|0:0,0:0:0:0:
372,24,238475,6,0,B|407:28|407:28|417:38|417:38|476:45,1,90.0000034332277,10|0,0:0|3:0,0:0:0:0:
466,43,238704,1,0,3:0:0:0:
474,44,238781,1,10,3:3:0:0:
366,133,238934,1,0,3:0:0:0:
292,60,239087,5,0,1:0:0:0:
265,213,239240,1,0,1:0:0:0:
121,86,239393,6,0,B|139:147|207:160|207:160|234:99|192:48,1,240,14|0,0:1|0:0,0:0:0:0:
58,226,239852,5,2,0:0:0:0:
116,279,240005,2,0,P|161:290|215:261,1,90,10|0,0:1|0:0,0:0:0:0:
265,213,240311,6,0,B|248:204|237:189|237:189|230:129|263:76,1,135.000005149841,10|0,0:0|0:0,0:0:0:0:
261,86,240618,1,2,3:2:0:0:
372,248,240771,1,0,3:0:0:0:
382,143,240924,5,2,1:2:0:0:
297,302,241077,1,0,1:0:0:0:
454,359,241230,6,0,B|472:374|500:370|500:370|531:332|527:280|495:249,1,180,14|0,0:1|0:0,0:0:0:0:
485,244,241536,2,0,L|448:211,1,30,8|0,0:0|0:0,0:0:0:0:
382,143,241689,6,0,B|350:112|346:60|377:22|377:22|405:18|423:33,1,180,10|8,0:2|0:1,0:0:0:0:
310,177,242148,6,0,P|272:202|229:200,1,90.0000034332277,10|0,0:2|3:0,0:0:0:0:
215,197,242378,1,0,3:0:0:0:
202,191,242454,1,10,2:3:0:0:
90,65,242607,1,8,2:3:0:0:
102,224,242760,5,4,2:3:0:0:
195,38,242913,1,4,2:3:0:0:
310,177,243066,6,0,B|326:200|365:198|365:198|389:128|334:81,1,180.000006866455,14|0,0:1|3:3,0:0:0:0:
228,199,243526,2,0,B|201:238|190:275|204:312|204:312|210:290|195:263,1,163.200000996094,2|0,1:2|2:0,2:0:0:0:
120,194,243985,6,0,P|88:178|51:175,1,71.9999978027344,10|0,0:0|0:0,0:0:0:0:
204,311,244291,2,0,P|233:324|272:329,1,71.9999978027344,2|0,0:0|0:0,0:0:0:0:
403,303,244597,5,2,1:0:0:0:
403,303,244750,1,0,1:0:0:0:
324,201,244903,6,0,B|302:180|297:149|297:149|303:89|339:37,1,180.000006866455,10|0,0:1|3:3,0:0:0:0:
268,135,245362,1,2,1:0:0:0:
179,150,245515,1,0,3:0:0:0:
95,115,245669,1,0,1:0:0:0:
213,54,245822,6,0,B|232:43|234:10|234:10|217:11|197:34,1,71.9999978027344,10|0,0:0|0:0,0:0:0:0:
79,125,246128,2,0,P|69:143|62:184,2,47.9999985351563,2|0|0,0:0|0:0|0:0,0:0:0:0:
135,58,246434,5,2,1:0:0:0:
135,58,246587,1,0,1:0:0:0:
229,166,246740,6,0,B|269:220|346:205|346:205|337:181|309:176,1,180.000006866455,14|0,0:1|3:3,0:0:0:0:
198,252,247199,2,0,B|166:288|153:340|174:365|174:365|192:351|189:324,1,163.200000996094,2|0,1:2|2:0,2:0:0:0:
90,254,247658,6,0,P|60:235|23:230,1,71.9999978027344,10|0,0:0|0:0,0:0:0:0:
189,330,247964,2,0,P|224:334|258:323,1,71.9999978027344,2|0,0:0|3:0,0:0:0:0:
364,247,248271,5,2,1:0:0:0:
364,247,248424,1,0,1:0:0:0:
473,349,248577,6,0,B|477:364|503:369|529:344|523:292|516:260|478:220,1,180.000006866455,10|0,0:1|3:3,0:0:0:0:
341,141,249036,1,2,1:0:0:0:
364,247,249189,1,0,3:0:0:0:
450,124,249342,1,0,1:0:0:0:
357,34,249495,6,0,B|330:30|330:30|318:34|318:34|286:30,1,71.9999978027344,10|0,0:0|0:0,0:0:0:0:
207,193,249801,2,0,B|234:189|234:189|246:193|246:193|278:189,1,71.9999978027344,2|0,3:0|0:0,0:0:0:0:
131,62,250107,5,2,1:0:0:0:
131,62,250260,1,0,1:0:0:0:
79,217,250413,6,0,B|55:238|9:230|-15:168|50:106,1,180.000006866455,14|0,0:1|3:3,0:0:0:0:
196,3,250873,2,0,B|214:52|214:52|325:34,1,163.200000996094,2|0,1:2|2:0,2:0:0:0:
449,83,251332,6,0,P|459:49|455:14,1,71.9999978027344,10|0,0:0|0:0,0:0:0:0:
327,122,251638,2,0,P|323:157|333:191,1,71.9999978027344,2|0,0:0|0:0,0:0:0:0:
437,275,251944,5,2,1:0:0:0:
437,275,252097,1,0,1:0:0:0:
325,349,252250,6,0,B|230:307|250:382|151:355,1,180.000006866455,10|0,0:1|3:3,0:0:0:0:
55,279,252709,1,2,1:0:0:0:
113,211,252862,1,0,3:0:0:0:
99,122,253015,1,0,1:0:0:0:
208,61,253169,6,0,B|228:35|223:10|186:4|203:45,1,71.9999978027344,10|0,0:0|0:0,0:0:0:0:
217,205,253475,2,0,B|204:236|221:259|221:259|240:243,1,71.9999978027344,2|0,0:0|0:0,0:0:0:0:
355,153,253781,5,2,1:0:0:0:
355,153,253934,1,0,1:0:0:0:
460,264,254087,6,0,B|473:278|489:288|489:288|527:214|482:145,1,180.000006866455,14|0,0:1|3:3,0:0:0:0:
369,55,254546,2,0,B|340:92|322:134|331:175|331:175|350:166|357:146,1,163.200000996094,2|0,1:2|2:0,2:0:0:0:
257,53,255005,6,0,P|228:37|179:36,1,71.9999978027344,10|0,0:0|0:0,0:0:0:0:
287,172,255311,2,0,P|322:169|354:152,1,71.9999978027344,2|0,0:0|3:0,0:0:0:0:
193,37,255618,5,2,1:0:0:0:
193,37,255771,1,0,1:0:0:0:
114,190,255924,6,0,B|96:213|55:217|32:185|35:137|50:107|82:89,1,180.000006866455,10|8,1:1|1:3,0:0:0:0:
193,37,256383,5,10,2:0:0:0:
260,233,256536,1,10,2:3:0:0:
397,77,256689,1,10,2:3:0:0:
135,170,256842,5,14,2:0:0:0:
404,327,257148,5,14,2:2:0:0:
