osu file format v14

[General]
AudioFilename: audio.mp3
AudioLeadIn: 0
PreviewTime: 56385
Countdown: 1
SampleSet: Soft
StackLeniency: 0.7
Mode: 2
LetterboxInBreaks: 0
WidescreenStoryboard: 0

[Editor]
Bookmarks: 380,11740,23101,34462,45823,57184,68545,79906,95530
DistanceSpacing: 1
BeatDivisor: 16
GridSize: 32
TimelineZoom: 1

[Metadata]
Title:Kibou no Sora
TitleUnicode:キボウのソラ
Artist:Shimotsuki Haruka
ArtistUnicode:霜月はるか
Creator:celerih
Version:To You
Source:キミへ贈る、ソラの花
Tags:Kimi e Okuru, Sora no Hana cabbit galgame opening op short ver.
BeatmapID:1712919
BeatmapSetID:816841

[Difficulty]
HPDrainRate:6
CircleSize:4
OverallDifficulty:9
ApproachRate:9
SliderMultiplier:1.9
SliderTickRate:2

[Events]
//Background and Video events
0,0,"X.jpg",0,0
//Break Periods
//Storyboard Layer 0 (Background)
//Storyboard Layer 1 (Fail)
//Storyboard Layer 2 (Pass)
//Storyboard Layer 3 (Foreground)
//Storyboard Sound Samples

[TimingPoints]
380,355.029585798817,4,2,80,30,1,0
87007,600,4,2,81,30,1,0
87609,563.380281690141,4,2,88,30,1,0
88172,428.571428571429,4,2,89,30,1,0
88600,674.157303370787,4,2,84,30,1,0
89274,895.522388059701,4,2,86,30,1,0
89721,779.220779220779,4,2,83,30,1,0
90500,1043.47826086957,4,2,81,26,1,0
91021,1176.47058823529,4,2,90,26,1,0
91609,1379.31034482759,4,2,86,22,1,0
92988,2926.82926829268,4,2,81,20,1,0
93353,1796.40718562874,4,2,1,20,1,0
94026,2105.26315789474,4,2,1,20,1,0
94289,2479.33884297521,4,2,1,20,1,0
94598,2985.07462686567,4,2,91,20,1,0

[Colours]
Combo1 : 127,134,221
Combo2 : 206,146,200
Combo3 : 255,252,126
Combo4 : 238,96,136

[HitObjects]
142,165,380,6,0,L|249:178,2,95
395,141,912,1,0,0:0:0:0:
248,241,1267,2,0,L|359:258,1,95
78,274,1622,1,0,0:0:0:0:
181,167,1977,5,0,0:0:0:0:
200,140,2066,1,0,0:0:0:0:
218,112,2155,1,0,0:0:0:0:
36,152,2332,1,0,0:0:0:0:
207,258,2687,1,0,0:0:0:0:
290,240,2865,1,0,0:0:0:0:
312,157,3042,1,0,0:0:0:0:
47,222,3220,6,0,L|150:206,2,95
296,283,3752,1,0,0:0:0:0:
109,259,4107,2,0,L|78:68,1,190
256,184,4817,5,0,0:0:0:0:
171,167,4995,1,0,0:0:0:0:
347,126,5172,1,0,0:0:0:0:
359,84,5261,1,0,0:0:0:0:
222,170,5527,1,0,0:0:0:0:
320,275,5705,2,0,L|339:164,1,95
288,187,5971,1,0,0:0:0:0:
85,247,6060,6,0,B|-1:196|0:87|106:79|106:79|162:97|213:59|213:59|159:1|92:48,1,475
371,188,7125,1,0,0:0:0:0:
469,161,7303,1,0,0:0:0:0:
163,293,7480,6,0,P|61:240|176:183,1,285
227,218,8072,1,0,0:0:0:0:
365,288,8368,1,0,0:0:0:0:
446,249,8545,2,0,L|467:147,1,95
157,287,8900,6,0,P|147:234|265:188,1,190
12,116,9433,2,0,L|217:146,1,190
482,206,9965,1,0,0:0:0:0:
434,213,10054,1,0,0:0:0:0:
386,220,10143,1,0,0:0:0:0:
338,227,10232,1,0,0:0:0:0:
130,158,10320,5,0,0:0:0:0:
284,138,10498,2,0,L|369:54,1,95
107,287,10853,2,0,P|42:236|115:183,1,190
386,250,11385,1,0,0:0:0:0:
434,243,11474,1,0,0:0:0:0:
482,235,11563,1,0,0:0:0:0:
149,286,11740,6,0,L|118:75,1,190
216,148,12273,1,0,0:0:0:0:
404,173,12451,2,0,L|301:186,1,95
100,138,12806,1,0,0:0:0:0:
187,160,12983,1,0,0:0:0:0:
461,236,13161,6,0,L|488:136,1,95
189,247,13516,2,0,L|74:254,1,95
302,92,13871,2,0,L|275:202,1,95
90,55,14226,2,0,L|117:165,1,95
380,253,14581,6,0,P|400:176|282:156,1,190
228,170,15113,1,0,0:0:0:0:
410,151,15291,2,0,L|307:178,1,95
42,256,15646,2,0,L|69:156,1,95
387,315,16001,6,0,L|317:171,1,142.5
481,171,16356,2,0,L|370:149,1,95
340,160,16622,1,0,0:0:0:0:
172,192,16711,2,0,L|77:165,1,95
351,298,17066,1,0,0:0:0:0:
396,283,17155,1,0,0:0:0:0:
423,244,17243,1,0,0:0:0:0:
423,196,17332,1,0,0:0:0:0:
200,162,17421,6,0,L|73:184,1,95
392,205,17776,1,0,0:0:0:0:
214,253,17953,1,0,0:0:0:0:
128,231,18131,2,0,L|85:128,1,95
363,110,18486,2,0,L|457:190,1,95
120,229,18841,6,0,P|101:175|190:148,1,142.5
323,261,19196,2,0,L|136:240,1,142.5
368,205,19551,2,0,L|442:125,1,95
147,240,19906,1,0,0:0:0:0:
100,248,19995,1,0,0:0:0:0:
53,258,20084,1,0,0:0:0:0:
352,193,20261,6,0,L|383:71,1,95
202,164,20616,1,0,0:0:0:0:
481,250,20794,2,0,P|481:181|372:145,1,190
84,194,21326,1,0,0:0:0:0:
95,240,21415,1,0,0:0:0:0:
131,269,21504,1,0,0:0:0:0:
178,267,21593,1,0,0:0:0:0:
377,207,21681,6,0,L|411:85,1,95
122,165,22036,1,0,0:0:0:0:
397,253,22214,2,0,L|496:231,1,95
132,299,22569,2,0,P|72:241|92:79,1,237.5
208,134,23101,5,0,0:0:0:0:
309,218,24166,1,0,0:0:0:0:
214,203,24344,1,0,0:0:0:0:
382,168,24522,2,0,P|441:138|411:27,1,190
234,140,25054,1,0,0:0:0:0:
379,85,25409,1,0,0:0:0:0:
99,179,25764,6,0,L|64:116,2,47.5
228,173,26829,2,0,L|120:148,2,95
398,240,27362,2,0,L|416:130,1,95
325,163,27717,1,0,0:0:0:0:
55,135,27894,2,0,L|254:102,1,190
148,169,28427,1,0,0:0:0:0:
324,141,28604,6,0,L|374:94,2,47.5
159,183,30202,1,0,0:0:0:0:
100,122,30380,1,0,0:0:0:0:
159,183,30557,1,0,0:0:0:0:
327,119,30735,2,0,P|263:123|263:238,1,190
339,214,31267,1,0,0:0:0:0:
156,138,31445,6,0,L|92:121,2,47.5
265,204,32510,1,0,0:0:0:0:
271,166,32687,1,0,0:0:0:0:
276,128,32865,1,0,0:0:0:0:
101,149,33042,6,0,L|229:121,1,95
112,63,33397,1,0,0:0:0:0:
375,266,33575,2,0,P|442:218|374:169,1,190
91,203,34107,2,0,L|37:89,1,95
100,129,34374,1,0,0:0:0:0:
292,191,34462,6,0,L|486:150,1,190
392,135,34995,1,0,0:0:0:0:
217,234,35172,2,0,L|188:123,1,95
382,244,35527,1,0,0:0:0:0:
288,261,35705,1,0,0:0:0:0:
37,105,35882,6,0,L|16:11,1,95
123,79,36237,1,0,0:0:0:0:
300,77,36415,1,0,0:0:0:0:
389,224,36593,2,0,P|343:191|239:235,1,142.5
130,269,36948,2,0,L|234:248,1,95
274,281,37214,1,0,0:0:0:0:
75,195,37303,6,0,L|53:93,1,95
229,180,37658,1,0,0:0:0:0:
323,194,37835,1,0,0:0:0:0:
140,231,38013,1,0,0:0:0:0:
234,204,38190,2,0,L|103:183,1,95
416,215,38545,1,0,0:0:0:0:
501,184,38723,5,0,0:0:0:0:
344,196,38900,1,0,0:0:0:0:
265,162,39078,1,0,0:0:0:0:
263,78,39255,1,0,0:0:0:0:
340,31,39433,1,0,0:0:0:0:
239,185,39610,1,0,0:0:0:0:
191,177,39699,1,0,0:0:0:0:
312,146,39788,2,0,L|326:45,1,95
280,68,40054,1,0,0:0:0:0:
95,97,40143,6,0,P|27:136|109:157,1,190
172,141,40675,1,0,0:0:0:0:
354,174,40853,2,0,L|404:79,1,95
215,208,41208,2,0,L|313:218,1,95
30,124,41563,6,0,L|242:88,1,190
396,229,42095,2,0,P|401:164|293:126,1,190
193,142,42628,2,0,L|123:59,1,95
399,107,42983,6,0,P|333:113|331:228,1,190
169,143,43516,2,0,L|371:172,1,190
441,130,44048,1,0,0:0:0:0:
125,104,44226,1,0,0:0:0:0:
242,154,44403,6,0,L|292:61,1,95
26,164,44758,2,0,L|200:191,1,142.5
372,274,45113,2,0,L|393:173,1,95
105,126,45468,1,0,0:0:0:0:
30,179,45646,1,0,0:0:0:0:
414,205,45823,6,0,P|391:96|294:94,1,190
167,193,46533,2,0,L|281:206,1,95
99,242,46888,1,0,0:0:0:0:
349,237,47066,6,0,L|383:36,1,190
203,138,47598,2,0,L|315:120,1,95
45,248,47953,2,0,P|62:160|158:162,1,190
326,130,48486,1,0,0:0:0:0:
57,65,48664,5,0,0:0:0:0:
144,104,48841,2,0,L|245:84,2,95
320,232,49374,2,0,P|411:224|436:108,1,190
180,269,49906,6,0,L|389:291,1,190
206,185,50439,2,0,L|106:205,1,95
377,239,50794,1,0,0:0:0:0:
457,213,50971,1,0,0:0:0:0:
457,213,51149,1,0,0:0:0:0:
377,239,51326,1,0,0:0:0:0:
112,318,51504,6,0,P|19:243|124:152,1,285
415,201,52214,2,0,P|319:167|338:96,1,190
422,108,52746,1,0,0:0:0:0:
119,136,52924,5,0,0:0:0:0:
197,176,53101,2,0,L|296:168,2,95
381,253,53634,2,0,P|382:176|281:166,1,190
383,110,54166,1,0,0:0:0:0:
93,212,54344,6,0,L|296:235,1,190
189,190,54877,1,0,0:0:0:0:
463,116,55054,1,0,0:0:0:0:
368,134,55232,1,0,0:0:0:0:
189,86,55409,1,0,0:0:0:0:
488,46,55587,1,0,0:0:0:0:
342,170,56119,5,0,0:0:0:0:
359,138,56208,1,0,0:0:0:0:
252,230,56385,1,0,0:0:0:0:
232,198,56474,1,0,0:0:0:0:
493,130,56652,1,0,0:0:0:0:
335,219,56829,2,0,L|436:231,1,95
124,292,57184,6,0,P|65:287|47:171,1,190
129,175,57717,1,0,0:0:0:0:
174,187,57806,1,0,0:0:0:0:
401,219,57894,2,0,L|425:109,1,95
191,226,58249,1,0,0:0:0:0:
342,176,58427,6,0,L|354:78,1,95
79,201,58782,1,0,0:0:0:0:
385,202,58959,2,0,L|477:170,1,95
428,158,59226,1,0,0:0:0:0:
189,260,59314,2,0,L|96:214,1,95
361,123,59669,1,0,0:0:0:0:
482,138,59847,1,0,0:0:0:0:
435,147,59936,1,0,0:0:0:0:
143,216,60024,6,0,L|119:99,1,95
412,147,60380,1,0,0:0:0:0:
316,166,60557,2,0,L|418:185,1,95
232,115,60912,2,0,L|360:76,1,95
67,190,61267,1,0,0:0:0:0:
20,181,61356,1,0,0:0:0:0:
260,258,61445,6,0,P|341:232|338:108,1,190
184,153,61977,1,0,0:0:0:0:
136,157,62066,1,0,0:0:0:0:
375,239,62155,2,0,L|156:200,1,190
362,94,62687,1,0,0:0:0:0:
408,101,62776,1,0,0:0:0:0:
145,255,62865,6,0,P|82:251|79:126,1,190
146,144,63397,1,0,0:0:0:0:
191,156,63486,1,0,0:0:0:0:
237,166,63575,1,0,0:0:0:0:
505,69,63752,2,0,L|372:97,1,95
255,134,64107,1,0,0:0:0:0:
302,141,64196,1,0,0:0:0:0:
97,226,64285,6,0,L|78:116,1,95
344,240,64640,1,0,0:0:0:0:
427,208,64817,2,0,L|449:105,1,95
261,125,65172,1,0,0:0:0:0:
354,143,65350,1,0,0:0:0:0:
171,191,65527,1,0,0:0:0:0:
464,63,65705,5,0,0:0:0:0:
360,94,65882,2,0,L|454:106,1,95
200,230,66237,2,0,P|120:171|184:99,1,190
401,195,66770,2,0,L|422:88,1,95
106,153,67125,5,0,0:0:0:0:
473,98,67303,2,0,L|456:206,1,95
115,152,67658,2,0,L|229:166,1,95
480,79,68013,1,0,0:0:0:0:
387,170,68190,1,0,0:0:0:0:
370,125,68278,1,0,0:0:0:0:
386,80,68367,1,0,0:0:0:0:
429,61,68456,1,0,0:0:0:0:
200,222,68545,6,0,L|4:180,1,190
103,159,69078,1,0,0:0:0:0:
378,138,69255,2,0,L|270:188,2,95
191,120,69788,1,0,0:0:0:0:
143,113,69877,1,0,0:0:0:0:
342,237,69965,6,0,L|375:140,1,95
96,124,70320,2,0,P|78:190|118:224,1,95
339,119,70675,2,0,L|145:167,1,190
338,186,71208,1,0,0:0:0:0:
292,199,71297,1,0,0:0:0:0:
79,236,71385,6,0,L|55:110,1,95
330,130,71740,2,0,L|213:139,1,95
408,201,72095,1,0,0:0:0:0:
158,250,72273,2,0,L|131:134,1,95
319,105,72628,1,0,0:0:0:0:
365,115,72717,1,0,0:0:0:0:
147,233,72806,6,0,L|345:249,1,190
148,164,73338,1,0,0:0:0:0:
421,187,73516,1,0,0:0:0:0:
466,175,73604,1,0,0:0:0:0:
466,175,73693,1,0,0:0:0:0:
421,187,73782,1,0,0:0:0:0:
208,227,73871,1,0,0:0:0:0:
163,211,73959,1,0,0:0:0:0:
117,197,74048,1,0,0:0:0:0:
163,187,74137,1,0,0:0:0:0:
428,224,74226,6,0,P|469:185|392:91,1,190
162,98,74758,1,0,0:0:0:0:
114,101,74847,1,0,0:0:0:0:
71,106,74936,2,0,L|56:209,1,95
315,234,75291,2,0,L|333:120,1,95
283,149,75557,1,0,0:0:0:0:
65,198,75646,6,0,L|108:301,1,95
296,183,76001,1,0,0:0:0:0:
24,144,76178,2,0,L|132:174,1,95
384,90,76533,2,0,L|479:110,2,95
93,241,77066,6,0,L|317:210,1,190
452,264,77598,1,0,0:0:0:0:
407,280,77687,1,0,0:0:0:0:
204,298,77776,2,0,L|178:179,1,95
231,208,78042,1,0,0:0:0:0:
441,253,78131,1,0,0:0:0:0:
404,222,78220,1,0,0:0:0:0:
366,194,78308,1,0,0:0:0:0:
326,168,78397,1,0,0:0:0:0:
103,199,78486,5,0,0:0:0:0:
405,167,78664,2,0,L|438:57,1,95
78,109,79019,2,0,L|204:134,1,95
442,84,79374,1,0,0:0:0:0:
474,117,79462,1,0,0:0:0:0:
236,97,79551,1,0,0:0:0:0:
192,116,79640,1,0,0:0:0:0:
431,146,79729,1,0,0:0:0:0:
387,165,79818,1,0,0:0:0:0:
142,185,79906,6,0,L|28:169,2,95
317,110,80439,1,0,0:0:0:0:
82,173,81149,6,0,L|294:206,1,190
367,137,81681,1,0,0:0:0:0:
185,153,81859,1,0,0:0:0:0:
323,217,82214,1,0,0:0:0:0:
385,150,82391,1,0,0:0:0:0:
323,217,82569,1,0,0:0:0:0:
128,143,82746,6,0,L|253:158,2,95
308,73,83279,1,0,0:0:0:0:
172,190,83634,2,0,P|157:144|276:140,1,190
422,267,84344,1,0,0:0:0:0:
437,221,84433,1,0,0:0:0:0:
205,296,84699,2,0,L|409:316,1,190
308,275,85232,1,0,0:0:0:0:
121,262,85409,6,0,L|76:214,2,47.5
283,205,85942,1,0,0:0:0:0:
187,199,86119,2,0,L|152:8,1,190
271,78,87007,5,0,0:0:0:0:
166,146,87457,1,0,0:0:0:0:
289,169,87609,1,0,0:0:0:0:
97,258,88172,2,0,L|289:215,1,190
406,235,89274,5,0,0:0:0:0:
213,203,89721,1,0,0:0:0:0:
313,104,90500,1,0,0:0:0:0:
194,164,91021,6,0,L|117:151,2,47.5
256,192,92988,12,0,95530,0:0:0:0:
