osu file format v14

[General]
AudioFilename: audio.mp3
AudioLeadIn: 0
PreviewTime: 56385
Countdown: 0
SampleSet: Normal
StackLeniency: 0.7
Mode: 1
LetterboxInBreaks: 0
WidescreenStoryboard: 1

[Editor]
Bookmarks: 380,11740,23101,34462,45823,56119,57184,68545
DistanceSpacing: 1.5
BeatDivisor: 4
GridSize: 32
TimelineZoom: 1.100002

[Metadata]
Title:Kibou no Sora
TitleUnicode:キボウのソラ
Artist:Shimotsuki Haruka
ArtistUnicode:霜月はるか
Creator:Lasse
Version:Kantan
Source:キミへ贈る、ソラの花
Tags:kimi e okuru, sora no hana cabbit eroge visual novel opening op short version
BeatmapID:1655220
BeatmapSetID:788609

[Difficulty]
HPDrainRate:8
CircleSize:4
OverallDifficulty:3
ApproachRate:9
SliderMultiplier:1.4
SliderTickRate:1

[Events]
//Background and Video events
0,0,"X.jpg",0,86
//Break Periods
//Storyboard Layer 0 (Background)
//Storyboard Layer 1 (Fail)
//Storyboard Layer 2 (Pass)
//Storyboard Layer 3 (Foreground)
//Storyboard Sound Samples

[TimingPoints]
380,355.029585798817,4,1,0,44,1,0
6060,-100,4,1,0,50,0,0
7480,-100,4,1,0,55,0,0
8900,-100,4,1,0,60,0,0
10320,-100,4,1,0,65,0,0
11740,-100,4,1,0,70,0,0
23101,-100,4,1,0,55,0,0
34462,-100,4,1,0,60,0,0
45823,-100,4,1,0,70,0,0
57184,-100,4,1,0,80,0,1
79906,-100,4,1,0,65,0,0
82746,-100,4,1,0,60,0,0
85587,-100,4,1,0,55,0,0
87007,600,4,1,0,50,1,0
87007,-62.5,4,1,0,50,0,0
87609,563.380281690141,4,1,0,50,1,8
87609,-66.2514906585398,4,1,0,50,0,8
88172,428.571428571429,4,1,0,50,1,8
88172,-87.4967188730423,4,1,0,50,0,8
88600,674.157303370787,4,1,0,45,1,0
88600,-55.6250869141983,4,1,0,45,0,0
89274,895.522388059701,4,1,0,45,1,8
89274,-41.8760469011725,4,1,0,45,0,8
89721,779.220779220779,4,1,0,45,1,8
89721,-48.1255113335579,4,1,0,45,0,8
90500,1043.47826086957,4,1,0,40,1,0
90500,-35.9712230215827,4,1,0,40,0,0
91021,1176.47058823529,4,1,0,40,1,8
91021,-31.8775900541919,4,1,0,40,0,8
91609,1379.31034482759,4,1,0,40,1,8
91609,-27.1886895051659,4,1,0,40,0,8
92988,1463.41463414634,4,1,0,34,1,0
92988,-25.6410256410256,4,1,0,34,0,0
93353,1796.40718562874,4,1,0,32,1,8
94026,2105.26315789474,4,1,0,30,1,8
94289,2479.33884297521,4,1,0,28,1,8
94598,1492.53731343284,4,1,0,26,1,8
95530,1492.53731343284,4,1,0,24,1,0
95530,-25.1256281407035,4,1,0,24,0,0

[Colours]
Combo1 : 250,250,130
Combo2 : 160,150,230
Combo3 : 240,110,140
Combo4 : 150,220,140

[HitObjects]
256,192,380,5,8,0:0:0:0:
256,192,912,1,0,0:0:0:0:
256,192,1622,1,8,0:0:0:0:
256,192,3220,1,8,0:0:0:0:
256,192,3752,1,0,0:0:0:0:
256,192,4462,1,8,0:0:0:0:
256,192,6060,5,12,0:0:0:0:
256,192,7125,1,0,0:0:0:0:
256,192,7480,1,12,0:0:0:0:
256,192,8900,1,12,0:0:0:0:
256,192,9433,1,4,0:0:0:0:
256,192,9965,1,8,0:0:0:0:
256,192,10320,1,4,0:0:0:0:
256,192,10853,1,12,0:0:0:0:
256,192,11740,5,12,0:0:0:0:
256,192,12451,1,0,0:0:0:0:
256,192,12983,1,0,0:0:0:0:
256,192,13871,1,8,0:0:0:0:
256,192,14226,1,0,0:0:0:0:
256,192,14581,1,8,0:0:0:0:
256,192,16001,1,0,0:0:0:0:
256,192,16533,1,8,0:0:0:0:
256,192,17066,1,8,0:0:0:0:
256,192,17421,1,4,0:0:0:0:
256,192,17953,1,0,0:0:0:0:
256,192,18486,1,8,0:0:0:0:
256,192,18841,1,8,0:0:0:0:
256,192,20261,1,4,0:0:0:0:
256,192,20794,1,12,0:0:0:0:
256,192,21326,1,8,0:0:0:0:
256,192,21681,1,12,0:0:0:0:
256,192,22214,1,4,0:0:0:0:
256,192,22569,1,12,0:0:0:0:
256,192,23101,5,0,0:0:0:0:
256,192,24166,1,0,0:0:0:0:
256,192,24522,1,8,0:0:0:0:
256,192,25942,1,0,0:0:0:0:
256,192,26652,1,8,0:0:0:0:
256,192,27717,1,0,0:0:0:0:
256,192,28072,1,0,0:0:0:0:
256,192,28782,1,8,0:0:0:0:
256,192,29492,1,0,0:0:0:0:
256,192,30735,1,8,0:0:0:0:
256,192,31622,1,8,0:0:0:0:
256,192,32155,1,0,0:0:0:0:
256,192,33042,1,0,0:0:0:0:
256,192,33930,1,8,0:0:0:0:
256,192,34462,5,4,0:0:0:0:
256,192,35172,1,0,0:0:0:0:
256,192,35527,1,0,0:0:0:0:
256,192,35882,1,8,0:0:0:0:
256,192,37303,1,0,0:0:0:0:
256,192,37658,1,0,0:0:0:0:
256,192,38013,1,8,0:0:0:0:
256,192,38545,1,8,0:0:0:0:
256,192,39078,1,0,0:0:0:0:
256,192,40143,1,8,0:0:0:0:
256,192,40853,1,8,0:0:0:0:
256,192,41563,1,0,0:0:0:0:
256,192,42095,1,8,0:0:0:0:
256,192,42451,1,0,0:0:0:0:
256,192,42983,1,8,0:0:0:0:
256,192,44226,1,0,0:0:0:0:
256,192,44758,1,8,0:0:0:0:
256,192,45468,1,0,0:0:0:0:
256,192,45823,5,12,0:0:0:0:
256,192,46533,1,8,0:0:0:0:
256,192,47066,1,0,0:0:0:0:
256,192,47953,1,8,0:0:0:0:
256,192,48664,1,0,0:0:0:0:
256,192,49019,1,0,0:0:0:0:
256,192,49374,1,8,0:0:0:0:
256,192,49906,1,0,0:0:0:0:
256,192,50261,1,8,0:0:0:0:
256,192,51504,1,4,0:0:0:0:
256,192,52214,1,8,0:0:0:0:
256,192,52746,1,0,0:0:0:0:
256,192,53279,1,8,0:0:0:0:
256,192,54344,1,0,0:0:0:0:
256,192,54699,1,0,0:0:0:0:
256,192,55054,1,8,0:0:0:0:
256,192,55587,1,4,0:0:0:0:
256,192,57184,5,12,0:0:0:0:
256,192,57894,1,8,0:0:0:0:
256,192,58249,1,0,0:0:0:0:
256,192,58604,1,0,0:0:0:0:
256,192,58959,1,8,0:0:0:0:
256,192,60024,1,0,0:0:0:0:
256,192,60380,1,8,0:0:0:0:
256,192,60735,1,0,0:0:0:0:
256,192,61445,1,8,0:0:0:0:
256,192,61800,1,8,0:0:0:0:
256,192,62155,1,0,0:0:0:0:
256,192,62510,1,0,0:0:0:0:
256,192,62865,1,12,0:0:0:0:
256,192,63752,1,0,0:0:0:0:
256,192,64107,1,8,0:0:0:0:
256,192,64462,1,0,0:0:0:0:
256,192,64817,1,8,0:0:0:0:
256,192,65705,1,0,0:0:0:0:
256,192,66237,1,8,0:0:0:0:
256,192,66770,1,8,0:0:0:0:
256,192,67125,1,0,0:0:0:0:
256,192,67835,1,0,0:0:0:0:
256,192,68190,1,0,0:0:0:0:
256,192,68545,5,12,0:0:0:0:
256,192,69255,1,8,0:0:0:0:
256,192,69610,1,0,0:0:0:0:
256,192,69965,1,8,0:0:0:0:
256,192,70320,1,8,0:0:0:0:
256,192,71385,5,0,0:0:0:0:
256,192,71740,1,8,0:0:0:0:
256,192,72095,1,8,0:0:0:0:
256,192,72806,1,8,0:0:0:0:
256,192,73161,1,8,0:0:0:0:
256,192,73516,1,0,0:0:0:0:
256,192,73871,1,8,0:0:0:0:
256,192,74226,1,4,0:0:0:0:
256,192,75291,1,8,0:0:0:0:
256,192,75646,1,0,0:0:0:0:
256,192,76001,1,8,0:0:0:0:
256,192,76711,1,8,0:0:0:0:
256,192,77066,1,0,0:0:0:0:
256,192,77776,1,0,0:0:0:0:
256,192,78131,1,0,0:0:0:0:
256,192,78486,1,8,0:0:0:0:
256,192,79019,1,0,0:0:0:0:
256,192,79374,1,0,0:0:0:0:
256,192,79906,5,12,0:0:0:0:
256,192,80439,1,0,0:0:0:0:
256,192,81149,1,8,0:0:0:0:
256,192,82746,5,0,0:0:0:0:
256,192,83989,5,8,0:0:0:0:
256,192,85587,1,8,0:0:0:0:
256,192,87007,1,0,0:0:0:0:
256,192,88600,1,8,0:0:0:0:
256,192,89721,1,0,0:0:0:0:
256,192,90500,1,8,0:0:0:0:
256,192,91609,1,8,0:0:0:0:
256,192,92988,1,0,0:0:0:0:
