osu file format v14

[General]
AudioFilename: audio.mp3
AudioLeadIn: 0
PreviewTime: 124645
Countdown: 0
SampleSet: Soft
StackLeniency: 0.7
Mode: 0
LetterboxInBreaks: 0
WidescreenStoryboard: 1

[Editor]
DistanceSpacing: 1
BeatDivisor: 4
GridSize: 4
TimelineZoom: 1.8

[Metadata]
Title:Kibou no Sora
TitleUnicode:キボウのソラ
Artist:Shimotsuki Haruka
ArtistUnicode:霜月はるか
Creator:Lancien
Version:Normal
Source:キミへ贈る、ソラの花
Tags:kimi e okuru sora no hana cabbit galgame opening op visual novel vn j pop japanese jpop j-pop video game eroge
BeatmapID:4396437
BeatmapSetID:2096572

[Difficulty]
HPDrainRate:3.5
CircleSize:3
OverallDifficulty:4
ApproachRate:5
SliderMultiplier:1.1
SliderTickRate:1

[Events]
//Background and Video events
0,0,"bg.jpg",0,0
//Break Periods
2,162100,164941
//Storyboard Layer 0 (Background)
//Storyboard Layer 1 (Fail)
//Storyboard Layer 2 (Pass)
//Storyboard Layer 3 (Foreground)
//Storyboard Layer 4 (Overlay)
//Storyboard Sound Samples

[TimingPoints]
385,355.029585798816,4,2,1,45,1,0
385,-100,4,2,1,45,0,0
6065,-100,4,2,1,50,0,0
8461,-100,4,2,1,5,0,0
8550,-100,4,2,1,50,0,0
8639,-100,4,2,1,5,0,0
8728,-100,4,2,1,50,0,0
8905,-100,4,2,1,50,0,0
11745,-100,4,2,1,60,0,0
14142,-100,4,2,1,5,0,0
14231,-100,4,2,1,60,0,0
21065,-100,4,2,1,5,0,0
21154,-100,4,2,1,65,0,0
21775,-100,4,2,1,5,0,0
21864,-100,4,2,1,65,0,0
21953,-100,4,2,1,5,0,0
22041,-100,4,2,1,65,0,0
22130,-100,4,2,1,5,0,0
22219,-100,4,2,1,65,0,0
22308,-100,4,2,1,5,0,0
22396,-100,4,2,1,65,0,0
23018,-100,4,2,1,5,0,0
23106,-100,4,2,1,65,0,0
24349,-100,4,2,1,40,0,0
24704,-100,4,2,1,50,0,0
57189,-100,4,2,1,70,0,1
67219,-100,4,2,1,5,0,1
67308,-100,4,2,1,70,0,1
67396,-100,4,2,1,5,0,1
67485,-100,4,2,1,70,0,1
79911,-100,4,2,1,50,0,0
81864,-100,4,2,1,5,0,0
82041,-100,4,2,1,50,0,0
125355,-100,4,2,1,70,0,1
148077,-100,4,2,1,70,0,0
160858,-100,4,2,1,40,0,0
166538,-100,4,2,1,45,0,0
172130,-100,4,2,1,5,0,0
172219,-100,4,2,1,50,0,0
172308,-100,4,2,1,5,0,0
172396,-100,4,2,1,50,0,0
172485,-100,4,2,1,5,0,0
172574,-100,4,2,1,50,0,0
183580,-100,4,2,1,50,0,1
217663,-100,4,2,1,45,0,0
223343,-100,4,2,1,40,0,0
224763,600,4,2,1,40,1,0
224763,-100,4,2,1,40,0,0
225365,563.380281690141,4,2,1,40,1,8
225928,428.571428571429,4,2,1,40,1,8
225928,-100,4,2,1,40,0,0
226356,674.157303370787,4,2,1,40,1,0
227030,895.522388059701,4,2,1,40,1,8
227477,779.220779220779,4,2,1,40,1,8
227477,-100,4,2,1,40,0,0
227866,-100,4,2,1,40,0,0
228256,1043.47826086957,4,2,1,35,1,0
228256,-100,4,2,1,35,0,0
228516,-100,4,2,1,35,0,0
228777,1176.47058823529,4,2,1,35,1,8
229365,1379.31034482759,4,2,1,35,1,8
230744,1463.41463414634,4,2,1,30,1,0
230744,-100,4,2,1,30,0,0
231109,1796.40718562874,4,2,1,30,1,8
231782,2105.26315789474,4,2,1,30,1,8
232045,2479.33884297521,4,2,1,30,1,8
232354,1492.53731343284,4,2,1,30,1,8
233286,1492.53731343284,4,2,1,30,1,0
233286,-100,4,2,1,25,0,0

[Colours]
Combo1 : 255,98,98
Combo2 : 38,217,123
Combo3 : 193,221,34
Combo4 : 254,119,73

[HitObjects]
90,110,6065,5,6,1:2:0:0:
355,306,7130,2,0,L|371:235,1,55,8|4,0:0|0:3,0:0:0:0:
406,213,7485,1,6,1:2:0:0:
470,62,8018,1,8,0:0:0:0:
375,16,8373,1,8,0:3:0:0:
375,16,8550,1,8,0:3:0:0:
266,34,8905,6,0,L|246:152,1,110,6|8,1:2|0:0,0:0:0:0:
269,193,9438,1,6,1:2:0:0:
234,298,9793,1,0,0:0:0:0:
234,298,9970,1,8,0:0:0:0:
135,347,10325,2,0,L|65:324,1,55,6|8,1:2|0:3,0:0:0:0:
39,305,10680,1,8,0:0:0:0:
39,305,10858,2,0,P|25:257|74:153,1,165,4|8,1:2|0:0,0:0:0:0:
173,187,11745,6,0,B|266:204|242:148|347:163,1,165,6|0,1:2|0:0,0:0:0:0:
380,198,12456,1,2,1:2:0:0:
380,198,12633,1,2,0:0:0:0:
488,180,12988,2,0,L|478:65,1,110,2|0,0:0|0:0,0:0:0:0:
493,17,13521,1,8,0:0:0:0:
393,63,13876,1,2,1:2:0:0:
297,8,14231,1,10,0:0:0:0:
205,69,14586,6,0,P|222:153|234:255,1,165,2|0,1:2|0:0,0:0:0:0:
181,252,15296,1,0,1:2:0:0:
77,216,15651,1,8,3:0:0:0:
35,319,16006,1,2,1:2:0:0:
35,319,16183,2,0,L|110:342,1,55,0|10,0:0|0:0,0:0:0:0:
140,365,16538,1,10,0:0:0:0:
140,365,16716,1,2,1:2:0:0:
238,316,17071,2,0,L|306:299,1,55,6|10,0:3|0:0,0:0:0:0:
337,333,17426,5,6,1:2:0:0:
450,345,17781,1,8,0:0:0:0:
450,345,17958,2,0,P|489:293|505:227,1,110,2|0,0:0|1:2,0:0:0:0:
491,196,18491,1,10,0:0:0:0:
384,220,18846,2,0,L|312:205,1,55,2|2,1:2|0:2,0:0:0:0:
275,210,19201,2,0,L|237:293,2,55,10|2|2,0:0|1:2|1:2,0:0:0:0:
252,165,19734,1,2,1:2:0:0:
252,165,19911,1,10,0:0:0:0:
219,59,20266,6,0,L|286:40,1,55,6|2,1:2|0:2,0:0:0:0:
319,14,20621,1,10,0:0:0:0:
319,14,20799,2,0,P|408:17|439:40,1,110,6|6,1:2|0:3,0:0:0:0:
477,37,21331,1,10,0:0:0:0:
439,140,21686,2,0,L|423:208,1,55,14|10,0:2|0:0,0:0:0:0:
463,234,22041,2,0,L|480:300,1,55,10|10,0:0|0:0,0:0:0:0:
384,347,22574,1,14,0:0:0:0:
242,262,23106,6,0,P|161:273|106:309,1,110,6|2,1:2|0:0,0:0:0:0:
34,327,23816,1,2,3:2:0:0:
57,163,24349,2,0,P|120:163|190:127,1,110,2|2,3:2|0:0,0:0:0:0:
257,89,25059,2,0,P|330:130|337:172,1,110,0|0,3:2|0:0,0:0:0:0:
333,205,25592,1,0,3:2:0:0:
315,315,25947,6,0,P|374:314|407:301,1,55,2|2,3:2|0:0,0:0:0:0:
418,340,26302,1,2,0:0:0:0:
480,249,26657,2,0,L|474:174,1,55,2|2,3:2|0:0,0:0:0:0:
470,139,27012,2,0,P|494:120|509:92,2,55,0|2|0,3:2|3:2|0:0,0:0:0:0:
390,63,27722,1,2,3:2:0:0:
312,141,28077,2,0,P|238:113|195:100,1,110,2|2,0:0|3:2,0:0:0:0:
112,49,28787,5,2,3:2:0:0:
13,252,29497,2,0,P|22:302|39:341,1,55,2|0,3:2|0:0,0:0:0:0:
64,350,29852,1,2,3:2:0:0:
64,350,30029,2,0,P|123:313|242:343,1,165,2|2,3:2|3:2,0:0:0:0:
257,350,30740,1,0,3:2:0:0:
441,227,31450,5,2,0:0:0:0:
441,227,31627,2,0,P|454:261|468:302,2,55,2|0|2,3:2|0:0|0:0,0:0:0:0:
412,179,32160,2,0,P|457:144|475:73,1,110,2|0,3:2|0:0,0:0:0:0:
437,55,32692,1,2,3:2:0:0:
328,37,33047,2,0,L|263:20,1,55,0|2,0:0|0:0,0:0:0:0:
224,33,33402,1,2,0:0:0:0:
224,33,33580,1,2,0:0:0:0:
121,11,33935,1,0,1:2:0:0:
121,11,34112,1,8,0:3:0:0:
58,101,34467,6,0,L|-30:117,2,55,6|2|2,1:2|0:0|1:2,0:0:0:0:
158,142,35177,2,0,P|168:180|166:210,1,55,2|2,1:2|0:0,0:0:0:0:
135,240,35532,1,2,1:2:0:0:
135,240,35710,1,2,0:0:0:0:
44,301,36065,1,2,0:0:0:0:
128,371,36420,2,0,P|185:350|276:343,1,110,2|2,0:0|3:2,0:0:0:0:
281,370,36953,1,2,1:2:0:0:
264,261,37308,6,0,L|253:193,1,55,2|2,1:2|0:0,0:0:0:0:
210,174,37663,1,2,1:2:0:0:
247,70,38018,1,2,1:2:0:0:
247,70,38195,2,0,P|322:73|376:49,1,110,2|2,0:0|0:0,0:0:0:0:
409,63,38728,2,0,L|424:-4,2,55,2|2|2,1:2|0:0|1:2,0:0:0:0:
406,172,39438,1,2,1:2:0:0:
494,236,39793,1,2,1:2:0:0:
484,345,40148,6,0,B|364:360|408:308|251:332,1,220,2|2,1:2|1:2,0:0:0:0:
222,362,41035,1,2,0:0:0:0:
222,362,41213,1,2,1:2:0:0:
112,372,41568,2,0,P|54:332|25:267,1,110,2|0,1:2|1:2,0:0:0:0:
30,244,42100,1,2,0:0:0:0:
62,138,42456,2,0,P|119:155|177:157,1,110,2|0,0:0|0:0,0:0:0:0:
207,118,42988,5,2,1:2:0:0:
146,25,43343,1,2,1:2:0:0:
146,25,43521,2,0,P|210:5|277:7,1,110,2|2,0:0|0:0,0:0:0:0:
349,55,44231,1,2,0:0:0:0:
349,55,44408,1,2,1:2:0:0:
453,22,44763,2,0,L|465:84,1,55,10|10,0:2|0:0,0:0:0:0:
496,120,45118,2,0,L|482:190,2,55,8|10|4,0:0|0:3|0:3,0:0:0:0:
387,139,45828,6,0,B|354:145|354:145|310:173|310:173|254:188,1,110,4|0,1:2|1:2,0:0:0:0:
194,118,46538,2,0,L|201:56,1,55,10|2,0:0|0:0,0:0:0:0:
164,21,46893,1,2,0:0:0:0:
164,21,47071,1,2,1:2:0:0:
61,61,47426,1,2,0:0:0:0:
61,61,47603,2,0,L|39:138,1,55,2|2,1:2|0:0,0:0:0:0:
7,152,47958,2,0,P|15:231|72:274,1,110,8|0,0:0|1:2,0:0:0:0:
75,354,48669,5,2,1:2:0:0:
75,354,48846,2,0,L|5:369,2,55,0|2|2,0:0|1:2|0:0,0:0:0:0:
120,322,49379,1,8,0:0:0:0:
220,367,49734,1,2,0:0:0:0:
220,367,49911,2,0,P|286:333|352:328,1,110,2|10,1:2|0:0,0:0:0:0:
371,349,50444,2,0,P|403:367|436:371,1,55,2|2,1:2|0:0,0:0:0:0:
473,354,50799,1,8,0:0:0:0:
478,244,51154,2,0,L|497:177,1,55,8|8,0:0|0:0,0:0:0:0:
504,137,51509,6,0,P|477:68|420:36,1,110,6|0,1:2|0:0,0:0:0:0:
342,69,52219,2,0,L|274:58,1,55,10|2,0:0|0:0,0:0:0:0:
242,28,52574,1,2,0:0:0:0:
242,28,52751,2,0,L|115:70,1,110,2|8,1:2|0:2,0:0:0:0:
118,114,53284,1,2,1:2:0:0:
118,114,53461,2,0,L|138:175,1,55,2|10,0:0|0:2,0:0:0:0:
243,185,53994,1,2,0:0:0:0:
289,284,54349,5,2,1:2:0:0:
203,352,54704,1,2,1:2:0:0:
203,352,54882,2,0,P|129:338|74:335,1,110,2|10,0:0|0:0,0:0:0:0:
50,365,55414,1,10,0:0:0:0:
50,365,55592,1,6,1:2:0:0:
16,203,56124,1,8,0:3:0:0:
109,260,56479,2,0,P|149:233|159:212,1,55,10|0,0:0|1:2,0:0:0:0:
205,216,56834,2,0,P|220:187|219:153,1,55,6|4,0:3|0:3,0:0:0:0:
176,133,57189,6,0,P|135:74|226:13,1,165,6|0,1:2|0:0,0:0:0:0:
238,22,57899,1,2,1:2:0:0:
326,92,58254,1,10,0:0:0:0:
326,92,58432,2,0,L|461:66,1,110,2|2,0:0|0:0,0:0:0:0:
481,99,58964,1,10,0:0:0:0:
507,205,59319,1,0,1:2:0:0:
397,200,59674,2,0,L|388:266,1,55,8|10,0:0|0:0,0:0:0:0:
408,306,60029,6,0,B|350:301|371:332|275:328,1,110,2|10,1:2|0:0,0:0:0:0:
257,361,60562,1,2,0:0:0:0:
163,303,60917,1,2,0:0:0:0:
248,233,61272,1,2,0:0:0:0:
248,233,61450,2,0,L|258:159,1,55,2|0,1:2|0:0,0:0:0:0:
208,149,61805,2,0,L|217:88,1,55,10|8,0:0|0:0,0:0:0:0:
252,53,62160,1,2,1:2:0:0:
152,5,62515,1,10,0:0:0:0:
52,51,62870,6,0,P|11:140|19:258,1,165,6|0,1:2|0:0,0:0:0:0:
24,258,63580,1,0,1:2:0:0:
24,258,63757,1,2,0:0:0:0:
81,351,64112,2,0,P|145:328|206:325,1,110,2|2,0:0|0:0,0:0:0:0:
236,348,64645,2,0,L|255:285,1,55,10|10,0:0|0:0,0:0:0:0:
234,242,65000,1,0,1:2:0:0:
159,160,65355,2,0,L|177:95,1,55,8|2,0:0|0:0,0:0:0:0:
193,55,65710,6,0,P|265:35|324:42,1,110,2|10,1:2|0:0,0:0:0:0:
346,65,66242,1,10,0:0:0:0:
451,34,66598,1,2,0:0:0:0:
451,34,66775,2,0,L|468:100,1,55,10|2,0:0|0:2,0:0:0:0:
493,140,67130,1,8,0:3:0:0:
493,140,67308,1,8,0:3:0:0:
392,183,67663,1,8,0:0:0:0:
392,183,67840,2,0,L|324:153,1,55,6|8,1:2|0:3,0:0:0:0:
288,177,68195,2,0,L|225:157,1,55,10|8,1:2|0:0,0:0:0:0:
184,182,68550,6,0,P|116:217|94:332,1,165,6|0,1:2|0:0,0:0:0:0:
124,336,69260,1,2,1:2:0:0:
230,307,69615,1,10,0:0:0:0:
230,307,69793,2,0,L|347:341,1,110,2|2,0:0|0:0,0:0:0:0:
388,350,70325,1,10,0:0:0:0:
490,311,70680,2,0,P|510:229|509:170,1,110,2|8,1:2|0:0,0:0:0:0:
482,156,71213,1,10,0:0:0:0:
482,156,71390,5,2,1:2:0:0:
389,215,71745,2,0,L|312:197,1,55,10|2,0:0|0:0,0:0:0:0:
309,153,72100,1,2,1:2:0:0:
309,153,72278,2,0,P|268:84|196:65,1,110,2|0,0:0|0:0,0:0:0:0:
206,30,72811,1,2,1:2:0:0:
96,20,73166,1,10,0:0:0:0:
22,101,73521,2,0,L|32:164,1,55,2|8,1:2|0:3,0:0:0:0:
10,206,73876,2,0,L|22:265,1,55,10|8,1:2|0:0,0:0:0:0:
58,299,74231,6,0,P|131:301|244:367,1,165,6|0,1:2|0:0,0:0:0:0:
259,369,74941,1,0,1:2:0:0:
364,337,75296,2,0,L|356:263,1,55,10|0,0:0|0:0,0:0:0:0:
314,248,75651,2,0,P|228:234|170:235,1,110,2|10,1:2|0:0,0:0:0:0:
151,242,76183,1,2,0:0:0:0:
86,153,76538,2,0,L|107:90,1,55,2|8,0:0|0:0,0:0:0:0:
143,63,76893,1,10,0:0:0:0:
143,63,77071,6,0,P|229:60|330:80,1,165,2|0,1:2|0:0,0:0:0:0:
356,97,77781,1,2,1:2:0:0:
458,56,78136,2,0,L|468:122,1,55,8|10,0:0|0:3,0:0:0:0:
493,158,78491,1,10,0:0:0:0:
493,158,78669,1,10,0:0:0:0:
388,191,79024,2,0,P|302:206|285:251,1,110,10|10,0:2|0:0,0:0:0:0:
271,269,79556,2,0,L|288:333,1,55,8|8,0:0|0:0,0:0:0:0:
325,360,79911,1,6,1:2:0:0:
256,192,80089,12,0,81864,0:0:0:0:
252,368,85592,6,0,P|212:309|232:233,1,110,6|0,1:2|0:0,0:0:0:0:
235,223,86124,1,10,0:0:0:0:
343,243,86479,1,10,0:3:0:0:
343,243,86657,1,8,0:3:0:0:
411,157,87012,2,0,L|475:169,2,55,6|2|2,1:2|0:0|0:0,0:0:0:0:
377,121,87544,1,2,0:0:0:0:
377,121,87722,2,0,P|337:96|314:95,1,55,8|4,0:3|0:3,0:0:0:0:
276,107,88077,1,8,0:0:0:0:
196,29,88432,6,0,P|121:26|61:54,1,110,4|8,1:2|0:0,0:0:0:0:
35,22,88964,2,0,P|11:86|16:141,1,110,4|0,1:2|1:2,0:0:0:0:
35,176,89497,1,8,0:3:0:0:
125,239,89852,2,0,L|182:226,2,55,4|0|8,1:2|1:2|0:0,0:0:0:0:
79,268,90384,2,0,P|69:324|101:373,1,110,4|0,1:2|1:2,0:0:0:0:
149,374,90917,1,8,0:0:0:0:
256,349,91272,6,0,P|281:377|308:387,2,55,6|2|2,1:2|0:0|1:2,0:0:0:0:
279,241,91982,1,2,1:2:0:0:
279,241,92160,1,2,0:0:0:0:
375,294,92515,2,0,P|433:265|463:202,1,110,2|2,0:0|0:0,0:0:0:0:
500,127,93225,1,2,0:0:0:0:
427,52,93580,1,2,0:0:0:0:
427,52,93757,1,2,1:2:0:0:
326,97,94112,6,0,L|263:82,1,55,2|2,1:2|0:0,0:0:0:0:
219,97,94467,2,0,L|153:85,1,55,2|2,1:2|0:0,0:0:0:0:
125,48,94822,1,2,1:2:0:0:
125,48,95000,1,2,0:0:0:0:
34,109,95355,2,0,P|12:177|32:235,1,110,2|2,0:0|0:0,0:0:0:0:
62,247,95887,1,2,1:2:0:0:
158,193,96242,2,0,L|278:173,1,110,2|2,1:2|1:2,0:0:0:0:
359,115,96953,5,0,1:2:0:0:
508,276,97663,2,0,P|482:331|464:343,1,55,2|2,1:2|0:0,0:0:0:0:
463,377,98018,1,2,1:2:0:0:
463,377,98195,2,0,L|260:345,1,165,2|2,0:0|1:2,0:0:0:0:
250,376,98905,1,2,0:0:0:0:
37,342,99615,5,2,0:0:0:0:
37,342,99793,2,0,L|21:272,1,55,2|2,1:2|0:0,0:0:0:0:
68,253,100148,1,2,1:2:0:0:
68,253,100325,1,2,0:0:0:0:
45,150,100680,1,2,0:0:0:0:
45,150,100858,2,0,L|65:91,1,55,2|2,1:2|0:0,0:0:0:0:
52,43,101213,2,0,P|21:32|-1:9,2,55,2|2|2,0:2|0:0|0:2,0:0:0:0:
102,22,101745,1,2,0:0:0:0:
194,82,102100,1,2,1:2:0:0:
194,82,102278,1,8,0:3:0:0:
147,181,102633,6,0,L|123:246,2,55,6|2|2,1:2|0:0|1:2,0:0:0:0:
256,171,103343,1,10,0:2:0:0:
256,171,103521,2,0,P|295:185|320:215,1,55,2|0,0:0|1:2,0:0:0:0:
311,248,103876,1,2,0:0:0:0:
417,273,104231,1,2,0:0:0:0:
417,273,104408,1,2,1:2:0:0:
500,201,104763,2,0,P|486:129|485:68,1,110,8|0,0:2|1:2,0:0:0:0:
454,53,105296,1,8,0:0:0:0:
454,53,105473,6,0,P|477:16|499:-1,2,55,2|2|2,1:2|0:0|1:2,0:0:0:0:
403,59,106006,1,2,0:0:0:0:
403,59,106183,2,0,L|333:42,1,55,10|2,0:2|0:0,0:0:0:0:
245,26,106716,1,0,0:0:0:0:
245,26,106893,1,2,1:2:0:0:
142,65,107248,1,2,1:2:0:0:
43,16,107603,2,0,L|16:146,1,110,10|2,0:0|1:2,0:0:0:0:
129,175,108313,6,0,P|208:142|301:219,1,165,2|0,1:2|0:0,0:0:0:0:
321,205,109024,2,0,L|295:338,1,110,10|0,0:0|1:2,0:0:0:0:
206,371,109734,2,0,P|109:347|61:353,1,110,2|0,1:2|1:2,0:0:0:0:
45,346,110266,1,2,0:0:0:0:
41,236,110621,2,0,P|94:196|184:183,1,110,2|0,0:0|0:0,0:0:0:0:
179,216,111154,6,0,P|233:234|322:220,1,110,2|0,1:2|1:2,0:0:0:0:
330,263,111686,1,2,0:0:0:0:
403,181,112041,2,0,P|377:143|303:95,1,110,0|2,0:0|0:0,0:0:0:0:
299,56,112574,2,0,P|347:11|424:5,1,110,2|8,1:2|0:0,0:0:0:0:
442,28,113106,2,0,L|483:83,1,55,2|0,1:2|1:2,0:0:0:0:
499,121,113461,1,2,0:0:0:0:
499,121,113639,1,8,0:3:0:0:
478,229,113994,6,0,P|506:290|484:370,1,110,4|0,1:2|1:2,0:0:0:0:
401,371,114704,2,0,L|316:348,1,55,10|2,0:0|0:0,0:0:0:0:
294,343,115059,1,2,0:0:0:0:
294,343,115237,1,2,1:2:0:0:
365,259,115592,1,10,0:0:0:0:
365,259,115769,2,0,P|367:204|361:174,1,55,2|2,1:2|0:0,0:0:0:0:
337,157,116124,1,8,0:0:0:0:
249,224,116479,1,0,1:2:0:0:
157,173,116834,5,0,1:2:0:0:
157,173,117012,2,0,P|146:111|135:85,1,55,0|2,0:0|0:0,0:0:0:0:
134,65,117367,2,0,P|45:66|13:103,1,110,2|0,1:2|0:0,0:0:0:0:
18,129,117899,1,2,0:0:0:0:
18,129,118077,1,2,1:2:0:0:
25,243,118432,1,10,0:0:0:0:
25,243,118609,2,0,P|61:259|92:280,1,55,2|2,1:2|1:2,0:0:0:0:
74,322,118964,1,8,0:0:0:0:
183,327,119319,2,0,L|256:336,1,55,8|8,0:3|0:3,0:0:0:0:
290,316,119674,6,0,B|301:212|240:245|270:113,1,165,6|0,1:2|0:0,0:0:0:0:
256,101,120384,2,0,P|214:86|174:88,2,55,10|2|2,0:0|0:0|0:0,0:0:0:0:
297,65,120917,1,2,1:2:0:0:
405,46,121272,1,10,0:0:0:0:
405,46,121450,2,0,L|478:71,1,55,2|2,1:2|0:0,0:0:0:0:
485,111,121805,1,8,0:0:0:0:
402,184,122160,2,0,L|425:248,1,55,0|2,0:0|0:0,0:0:0:0:
468,263,122515,5,2,1:2:0:0:
413,360,122870,1,2,1:2:0:0:
413,360,123047,2,0,P|336:337|278:342,1,110,2|10,0:0|0:3,0:0:0:0:
261,365,123580,1,6,0:3:0:0:
261,365,123757,1,6,1:2:0:0:
194,213,124290,1,10,0:3:0:0:
294,167,124645,2,0,L|295:99,1,55,10|8,0:2|0:2,0:0:0:0:
321,63,125000,2,0,L|265:34,1,55,10|8,0:0|0:0,0:0:0:0:
229,3,125355,6,0,B|187:9|187:9|119:54|119:54|48:68,1,165,6|0,1:2|0:0,0:0:0:0:
23,57,126065,2,0,L|6:1,2,55,2|2|10,1:2|0:0|0:0,0:0:0:0:
2,108,126598,1,2,0:0:0:0:
88,176,126953,1,2,0:0:0:0:
88,176,127130,1,10,0:0:0:0:
167,100,127485,1,0,1:2:0:0:
251,170,127840,1,8,0:0:0:0:
202,262,128195,6,0,L|232:329,1,55,2|0,1:2|0:0,0:0:0:0:
271,340,128550,2,0,L|347:330,1,55,10|2,0:0|0:0,0:0:0:0:
381,356,128905,1,0,1:2:0:0:
490,355,129260,1,8,0:0:0:0:
496,238,129615,2,0,L|512:90,1,110,2|10,1:2|0:0,0:0:0:0:
403,119,130325,1,2,1:2:0:0:
461,25,130680,1,10,0:0:0:0:
352,4,131035,6,0,P|288:31|265:171,1,220,6|0,1:2|1:2,0:0:0:0:
302,205,131923,2,0,L|380:222,2,55,2|8|2,0:0|0:0|0:0,0:0:0:0:
220,279,132633,2,0,L|187:350,1,55,2|10,0:0|0:0,0:0:0:0:
147,354,132988,1,10,0:0:0:0:
8,264,133521,2,0,P|9:225|21:197,1,55,8|2,0:0|0:0,0:0:0:0:
53,172,133876,2,0,L|114:181,2,55,2|2|10,1:2|0:0|0:0,0:0:0:0:
22,126,134408,1,10,0:0:0:0:
77,30,134763,1,2,0:0:0:0:
77,30,134941,2,0,L|170:52,1,55,10|2,0:0|0:2,0:0:0:0:
183,28,135296,6,0,P|205:55|218:88,1,55,8|8,0:3|0:3,0:0:0:0:
204,127,135651,1,6,0:3:0:0:
122,200,136006,1,6,1:2:0:0:
182,291,136361,1,10,1:2:0:0:
286,256,136716,6,0,B|345:289|407:257|407:257|482:282,1,165,6|0,1:2|0:0,0:0:0:0:
498,262,137426,2,0,L|511:340,2,55,2|2|10,1:2|0:0|0:0,0:0:0:0:
507,208,137958,1,2,0:0:0:0:
438,129,138313,1,2,0:0:0:0:
438,129,138491,1,10,0:0:0:0:
364,210,138846,2,0,L|231:181,1,110,2|8,1:2|0:0,0:0:0:0:
215,222,139379,1,10,0:0:0:0:
215,222,139556,5,2,1:2:0:0:
184,327,139911,2,0,P|135:314|111:314,1,55,10|2,0:0|0:0,0:0:0:0:
79,334,140266,1,2,1:2:0:0:
79,334,140444,1,2,0:0:0:0:
7,185,140976,1,2,1:2:0:0:
64,91,141331,1,10,0:0:0:0:
151,158,141686,2,0,P|214:162|281:127,1,110,2|10,1:2|1:2,0:0:0:0:
287,101,142219,1,8,0:0:0:0:
287,101,142396,6,0,P|354:130|364:261,1,165,6|0,1:2|0:0,0:0:0:0:
335,240,143106,1,0,1:2:0:0:
391,334,143461,1,10,0:0:0:0:
493,294,143816,2,0,L|507:174,1,110,2|10,1:2|0:0,0:0:0:0:
466,145,144349,1,2,0:0:0:0:
481,36,144704,1,2,0:0:0:0:
372,55,145059,1,10,0:0:0:0:
372,55,145237,6,0,L|175:81,1,165,2|0,1:2|1:2,0:0:0:0:
162,45,145947,1,2,1:2:0:0:
59,6,146302,2,0,L|42:82,1,55,8|10,0:0|0:3,0:0:0:0:
5,96,146657,1,10,0:0:0:0:
5,96,146834,1,10,0:0:0:0:
103,145,147189,2,0,P|149:194|145:254,1,110,10|10,0:2|0:0,0:0:0:0:
106,265,147722,1,8,0:0:0:0:
193,331,148077,6,0,B|281:353|257:286|398:335,1,165,6|0,1:2|0:0,0:0:0:0:
402,349,148787,1,0,1:2:0:0:
453,252,149142,1,10,0:0:0:0:
453,252,149319,2,0,L|303:199,1,110,2|2,1:2|0:0,0:0:0:0:
295,228,149852,1,10,0:0:0:0:
197,279,150207,1,10,0:0:0:0:
121,198,150562,1,10,0:0:0:0:
161,95,150917,6,0,L|314:62,1,110,10|10,0:0|0:0,0:0:0:0:
318,95,151450,1,2,0:0:0:0:
411,37,151805,2,0,P|441:68|452:90,1,55,2|10,1:2|0:0,0:0:0:0:
485,117,152160,1,2,1:2:0:0:
415,202,152515,1,2,0:0:0:0:
415,202,152692,2,0,L|341:205,1,55,10|2,0:0|1:2,0:0:0:0:
326,247,153047,2,0,P|285:298|213:302,1,110,8|8,0:0|0:0,0:0:0:0:
201,282,153580,1,6,0:3:0:0:
201,282,153757,6,0,L|182:200,2,55,14|2|10,0:0|0:0|0:0,0:0:0:0:
120,357,154467,2,0,P|81:348|59:331,1,55,10|2,0:0|1:2,0:0:0:0:
42,291,154822,1,10,0:0:0:0:
84,191,155177,1,10,0:0:0:0:
84,191,155355,2,0,L|105:109,1,55,0|8,0:0|0:0,0:0:0:0:
57,99,155710,1,2,1:2:0:0:
57,99,155887,1,10,0:0:0:0:
132,18,156242,2,0,L|218:43,1,55,10|2,0:0|1:2,0:0:0:0:
240,38,156598,5,14,0:0:0:0:
240,38,156775,2,0,P|275:95|274:122,1,55,2|8,0:0|0:0,0:0:0:0:
283,140,157130,1,0,0:0:0:0:
283,140,157308,1,10,0:0:0:0:
174,125,157663,1,10,0:0:0:0:
111,215,158018,2,0,P|144:269|222:295,1,110,12|10,0:0|0:0,0:0:0:0:
224,327,158550,1,2,0:0:0:0:
224,327,158728,6,0,L|308:313,1,55,10|10,0:2|0:2,0:0:0:0:
331,331,159083,2,0,L|421:315,1,55,10|14,0:2|0:2,0:0:0:0:
256,192,159438,12,6,160858,1:2:0:0:
443,314,166538,6,0,P|331:295|302:223,1,165,6|10,1:2|0:0,0:0:0:0:
350,156,167426,1,10,0:3:0:0:
350,156,167603,1,6,0:3:0:0:
252,105,167958,1,6,1:2:0:0:
147,139,168313,2,0,P|100:173|38:183,2,110,8|8|6,0:0|0:3|0:3,0:0:0:0:
166,30,169379,5,6,1:2:0:0:
280,31,169734,1,8,0:0:0:0:
280,31,169911,2,0,P|336:73|396:96,1,110,6|0,1:2|1:2,0:0:0:0:
427,82,170444,1,10,0:0:0:0:
453,188,170799,2,0,P|438:263|426:314,1,110,6|8,1:2|0:0,0:0:0:0:
450,346,171331,1,4,1:2:0:0:
450,346,171509,1,2,0:0:0:0:
342,368,171864,1,14,0:0:0:0:
269,285,172219,5,14,0:0:0:0:
269,285,172396,1,14,0:0:0:0:
122,361,172929,1,10,0:0:0:0:
122,361,173106,2,0,L|54:339,1,55,10|6,0:3|0:3,0:0:0:0:
14,346,173461,2,0,P|48:262|49:200,1,110,6|2,1:2|1:2,0:0:0:0:
18,198,173994,1,8,0:0:0:0:
117,151,174349,2,0,L|181:144,1,55,8|8,0:3|0:3,0:0:0:0:
222,166,174704,2,0,L|278:159,1,55,8|6,0:3|0:3,0:0:0:0:
324,185,175059,6,0,P|369:251|418:255,1,110,6|2,1:2|0:0,0:0:0:0:
452,253,175592,1,10,0:0:0:0:
452,253,175769,2,0,L|466:183,1,55,2|10,0:0|0:0,0:0:0:0:
474,89,176302,1,0,1:2:0:0:
474,89,176479,2,0,L|343:67,1,110,2|2,1:2|1:2,0:0:0:0:
270,15,177189,2,0,P|232:38|205:42,1,55,10|0,0:0|1:2,0:0:0:0:
184,80,177544,2,0,P|145:67|124:52,1,55,10|8,0:3|0:2,0:0:0:0:
78,67,177899,6,0,P|13:108|6:211,1,165,6|8,1:2|0:0,0:0:0:0:
17,303,178787,1,10,0:0:0:0:
17,303,178964,2,0,L|36:367,1,55,2|2,0:0|1:2,0:0:0:0:
86,368,179319,2,0,P|141:348|201:349,1,110,2|0,1:2|0:0,0:0:0:0:
242,369,179852,1,10,0:0:0:0:
225,260,180207,1,0,1:2:0:0:
225,260,180384,2,0,L|216:187,1,55,8|2,0:0|0:0,0:0:0:0:
173,173,180740,5,6,1:2:0:0:
241,86,181095,1,2,0:0:0:0:
241,86,181272,2,0,P|312:102|364:108,1,110,10|2,0:0|1:2,0:0:0:0:
398,82,181805,2,0,L|458:91,1,55,10|2,0:0|0:0,0:0:0:0:
490,130,182160,1,10,0:3:0:0:
490,130,182337,1,10,0:3:0:0:
481,239,182692,1,10,0:0:0:0:
481,239,182870,1,10,0:2:0:0:
471,348,183225,2,0,L|411:343,1,55,10|8,0:0|0:0,0:0:0:0:
376,304,183580,6,0,B|280:296|321:355|190:345,1,165,6|0,1:2|0:0,0:0:0:0:
170,323,184290,1,2,1:2:0:0:
69,368,184645,2,0,L|47:302,1,55,10|2,0:0|0:0,0:0:0:0:
6,284,185000,2,0,L|30:154,1,110,2|10,1:2|0:0,0:0:0:0:
14,122,185532,1,8,0:0:0:0:
117,159,185887,1,0,0:0:0:0:
192,78,186242,1,10,0:0:0:0:
192,78,186420,6,0,P|240:153|245:215,1,110,2|10,1:2|0:0,0:0:0:0:
219,221,186953,1,2,0:0:0:0:
256,324,187308,1,2,0:0:0:0:
256,324,187485,2,0,P|294:333|324:349,1,55,8|0,0:0|0:0,0:0:0:0:
357,365,187840,1,2,1:2:0:0:
462,335,188195,1,10,0:0:0:0:
406,240,188550,1,2,1:2:0:0:
498,181,188905,2,0,L|508:110,1,55,10|8,1:2|0:0,0:0:0:0:
474,81,189260,6,0,B|365:57|417:116|292:84,1,165,6|0,1:2|0:0,0:0:0:0:
278,46,189970,1,0,1:2:0:0:
251,152,190325,2,0,L|238:217,1,55,10|2,0:0|0:0,0:0:0:0:
230,260,190680,1,2,1:2:0:0:
153,189,191035,1,10,0:0:0:0:
153,189,191213,2,0,L|145:129,1,55,2|0,0:0|1:2,0:0:0:0:
177,89,191568,2,0,L|130:47,1,55,2|8,0:0|0:0,0:0:0:0:
82,40,191923,1,10,0:0:0:0:
82,40,192100,6,0,P|31:87|18:190,1,165,2|0,1:2|1:2,0:0:0:0:
48,222,192811,1,2,1:2:0:0:
153,189,193166,2,0,L|236:178,1,55,8|10,0:0|0:3,0:0:0:0:
258,203,193521,1,10,0:0:0:0:
258,203,193698,2,0,L|326:222,1,55,10|10,0:0|0:0,0:0:0:0:
362,198,194053,1,10,0:2:0:0:
362,198,194231,1,4,1:2:0:0:
343,306,194586,2,0,P|351:346|356:371,1,55,8|8,0:0|0:0,0:0:0:0:
406,377,194941,6,0,P|469:344|494:241,1,165,6|0,1:2|0:0,0:0:0:0:
471,216,195651,1,2,1:2:0:0:
471,216,195828,2,0,L|472:136,1,55,2|10,0:0|0:0,0:0:0:0:
481,110,196183,1,2,0:0:0:0:
481,110,196361,1,2,1:2:0:0:
354,215,196893,1,8,0:0:0:0:
354,215,197071,2,0,P|280:203|196:149,1,165,0|10,1:2|0:0,0:0:0:0:
191,103,197781,5,2,1:2:0:0:
121,188,198136,1,10,0:0:0:0:
121,188,198313,2,0,L|139:243,1,55,2|0,0:0|1:2,0:0:0:0:
181,274,198669,2,0,P|151:335|80:346,1,110,2|2,0:0|0:0,0:0:0:0:
63,330,199201,1,2,1:2:0:0:
4,236,199556,1,10,0:0:0:0:
41,132,199911,2,0,L|124:113,1,55,2|0,1:2|0:0,0:0:0:0:
141,149,200266,2,0,L|209:130,1,55,10|10,0:0|0:0,0:0:0:0:
224,88,200621,6,0,P|287:99|342:196,1,165,6|0,1:2|0:2,0:0:0:0:
312,226,201331,1,0,1:2:0:0:
312,226,201509,1,2,0:0:0:0:
421,218,201864,2,0,L|442:340,1,110,2|2,0:0|0:0,0:0:0:0:
395,359,202396,2,0,P|348:369|329:356,1,55,10|10,0:0|0:0,0:0:0:0:
296,339,202751,1,0,1:2:0:0:
188,364,203106,2,0,L|110:352,1,55,8|2,0:0|0:0,0:0:0:0:
87,325,203461,6,0,P|57:366|41:371,2,55,2|2|10,1:2|0:0|0:0,0:0:0:0:
61,276,203994,1,10,0:0:0:0:
100,173,204349,1,2,0:0:0:0:
198,222,204704,1,2,0:2:0:0:
198,222,204882,2,0,L|272:207,1,55,8|8,0:3|0:3,0:0:0:0:
292,108,205414,1,8,0:0:0:0:
292,108,205592,1,6,1:2:0:0:
214,30,205947,1,10,1:2:0:0:
104,37,206302,6,0,B|50:84|49:183|49:183|100:233,1,220,6|2,1:2|1:2,0:0:0:0:
86,279,207189,1,2,0:0:0:0:
164,356,207544,2,0,P|228:330|301:317,1,110,2|2,0:0|0:0,0:0:0:0:
319,338,208077,1,10,0:0:0:0:
319,338,208254,1,0,0:0:0:0:
306,228,208609,1,0,0:0:0:0:
208,177,208964,5,10,0:0:0:0:
208,177,209142,2,0,P|205:94|209:76,1,55,2|0,1:2|0:0,0:0:0:0:
240,83,209497,2,0,P|256:52|271:35,1,55,10|2,0:0|0:0,0:0:0:0:
324,34,209852,1,2,1:2:0:0:
324,34,210029,1,2,0:0:0:0:
478,92,210562,1,2,1:2:0:0:
405,174,210917,1,10,0:0:0:0:
489,244,211272,2,0,L|500:318,1,55,2|8,1:2|0:3,0:0:0:0:
496,353,211627,1,10,1:2:0:0:
388,328,211982,6,0,B|294:322|326:370|207:367,1,165,6|0,1:2|0:0,0:0:0:0:
184,335,212692,1,0,1:2:0:0:
239,239,213047,1,10,0:0:0:0:
129,225,213402,2,0,P|46:204|19:169,1,110,2|10,1:2|0:0,0:0:0:0:
8,138,213935,1,2,0:0:0:0:
41,33,214290,1,2,0:0:0:0:
141,78,214645,1,10,0:0:0:0:
141,78,214822,5,6,1:2:0:0:
231,16,215177,1,8,0:0:0:0:
331,60,215532,2,0,L|470:86,1,110,2|8,1:2|0:0,0:0:0:0:
500,171,216242,2,0,L|490:243,1,55,10|10,0:0|0:0,0:0:0:0:
443,251,216598,1,10,0:0:0:0:
443,251,216775,1,14,0:2:0:0:
362,175,217130,2,0,L|236:145,1,110,10|8,0:0|0:0,0:0:0:0:
227,101,217663,5,6,1:2:0:0:
256,192,217840,12,2,220503,0:0:0:0:
