osu file format v14

[General]
AudioFilename: audio.mp3
AudioLeadIn: 0
PreviewTime: 124645
Countdown: 0
SampleSet: Soft
StackLeniency: 0.2
Mode: 0
LetterboxInBreaks: 0
WidescreenStoryboard: 0

[Editor]
DistanceSpacing: 0.8
BeatDivisor: 3
GridSize: 4
TimelineZoom: 1.8

[Metadata]
Title:Kibou no Sora
TitleUnicode:キボウのソラ
Artist:Shimotsuki Haruka
ArtistUnicode:霜月はるか
Creator:Lancien
Version:Extra
Source:キミへ贈る、ソラの花
Tags:kimi e okuru sora no hana cabbit galgame opening op visual novel vn j pop japanese jpop j-pop video game eroge
BeatmapID:4396434
BeatmapSetID:2096572

[Difficulty]
HPDrainRate:5
CircleSize:4
OverallDifficulty:8.4
ApproachRate:9.2
SliderMultiplier:1.5
SliderTickRate:1

[Events]
//Background and Video events
0,0,"bg.jpg",0,0
//Break Periods
2,162100,164941
//Storyboard Layer 0 (Background)
//Storyboard Layer 1 (Fail)
//Storyboard Layer 2 (Pass)
//Storyboard Layer 3 (Foreground)
//Storyboard Layer 4 (Overlay)
//Storyboard Sound Samples

[TimingPoints]
385,355.029585798816,4,2,1,35,1,0
385,-100,4,2,1,35,0,0
1183,-100,4,2,1,5,0,0
1272,-100,4,2,1,35,0,0
6065,-100,4,2,1,50,0,0
8461,-100,4,2,1,5,0,0
8550,-100,4,2,1,50,0,0
8639,-100,4,2,1,5,0,0
8728,-100,4,2,1,50,0,0
8905,-50,4,2,1,50,0,0
9438,-66.6666666666667,4,2,1,50,0,0
11745,-100,4,2,1,60,0,0
12100,-66.6666666666667,4,2,1,60,0,0
14231,-40,4,2,1,60,0,0
14497,-40,4,2,1,5,0,0
14586,-52.6315789473684,4,2,1,60,0,0
15296,-66.6666666666667,4,2,1,60,0,0
17426,-58.8235294117647,4,2,1,60,0,0
18136,-66.6666666666667,4,2,1,60,0,0
20799,-58.8235294117647,4,2,1,60,0,0
21065,-58.8235294117647,4,2,1,5,0,0
21154,-66.6666666666667,4,2,1,65,0,0
21775,-44.4444444444445,4,2,1,5,0,0
21864,-57.1428571428571,4,2,1,65,0,0
21953,-44.4444444444445,4,2,1,5,0,0
22041,-50,4,2,1,65,0,0
22130,-44.4444444444445,4,2,1,5,0,0
22219,-44.4444444444445,4,2,1,65,0,0
22308,-44.4444444444445,4,2,1,5,0,0
22396,-44.4444444444445,4,2,1,65,0,0
23018,-44.4444444444445,4,2,1,5,0,0
23106,-100,4,2,1,65,0,0
24349,-66.6666666666667,4,2,1,40,0,0
24704,-83.3333333333333,4,2,1,50,0,0
34379,-83.3333333333333,4,2,1,5,0,0
34467,-76.9230769230769,4,2,1,50,0,0
40148,-76.9230769230769,4,2,1,50,0,0
57189,-66.6666666666667,4,2,1,70,0,1
62870,-58.8235294117647,4,2,1,70,0,1
63757,-66.6666666666667,4,2,1,70,0,1
67130,-50,4,2,1,70,0,1
67219,-50,4,2,1,5,0,1
67308,-50,4,2,1,70,0,1
67396,-50,4,2,1,5,0,1
67485,-57.1428571428571,4,2,1,70,0,1
67840,-66.6666666666667,4,2,1,70,0,1
74231,-50,4,2,1,70,0,1
74941,-66.6666666666667,4,2,1,70,0,1
75562,-66.6666666666667,4,2,1,5,0,1
75651,-58.8235294117647,4,2,1,70,0,1
79911,-100,4,2,1,50,0,0
81864,-100,4,2,1,5,0,0
82041,-100,4,2,1,50,0,0
85592,-66.6666666666667,4,2,1,50,0,0
87722,-100,4,2,1,50,0,0
88432,-76.9230769230769,4,2,1,50,0,0
113994,-83.3333333333333,4,2,1,50,0,0
123225,-66.6666666666667,4,2,1,50,0,0
124290,-83.3333333333333,4,2,1,50,0,0
125000,-71.4285714285714,4,2,1,50,0,0
125355,-66.6666666666667,4,2,1,70,0,1
131035,-58.8235294117647,4,2,1,70,0,1
131745,-66.6666666666667,4,2,1,70,0,1
132278,-57.1428571428571,4,2,1,70,0,1
133166,-66.6666666666667,4,2,1,70,0,1
140976,-57.1428571428571,4,2,1,70,0,1
142396,-50,4,2,1,70,0,1
143106,-66.6666666666667,4,2,1,70,0,1
148077,-50,4,2,1,70,0,0
148787,-76.9230769230769,4,2,1,70,0,0
149497,-74.0740740740741,4,2,1,70,0,0
155177,-66.6666666666667,4,2,1,70,0,0
160858,-66.6666666666667,4,2,1,40,0,0
166538,-57.1428571428571,4,2,1,45,0,0
167248,-71.4285714285714,4,2,1,45,0,0
167958,-57.1428571428571,4,2,1,45,0,0
169379,-41.6666666666667,4,2,1,45,0,0
169911,-57.1428571428571,4,2,1,45,0,0
170089,-76.9230769230769,4,2,1,45,0,0
170444,-66.6666666666667,4,2,1,45,0,0
172130,-66.6666666666667,4,2,1,5,0,0
172219,-66.6666666666667,4,2,1,50,0,0
172308,-66.6666666666667,4,2,1,5,0,0
172396,-66.6666666666667,4,2,1,50,0,0
172485,-66.6666666666667,4,2,1,5,0,0
172574,-66.6666666666667,4,2,1,50,0,0
173461,-71.4285714285714,4,2,1,50,0,0
174882,-50,4,2,1,50,0,0
175059,-76.9230769230769,4,2,1,50,0,0
183580,-66.6666666666667,4,2,1,70,0,1
187485,-57.1428571428571,4,2,1,70,0,1
189260,-50,4,2,1,70,0,1
189970,-66.6666666666667,4,2,1,70,0,1
194941,-50,4,2,1,70,0,1
195651,-66.6666666666667,4,2,1,70,0,1
200621,-50,4,2,1,70,0,1
201331,-66.6666666666667,4,2,1,70,0,1
211982,-50,4,2,1,70,0,1
212692,-66.6666666666667,4,2,1,70,0,1
214822,-57.1428571428571,4,2,1,70,0,1
217663,-100,4,2,1,45,0,0
223343,-100,4,2,1,40,0,0
224763,600,4,2,1,40,1,0
224763,-63.8977635782748,4,2,1,40,0,0
225365,563.380281690141,4,2,1,40,1,8
225928,428.571428571429,4,2,1,40,1,8
225928,-100,4,2,1,40,0,0
226356,674.157303370787,4,2,1,40,1,0
226356,-133.333333333333,4,2,1,40,0,0
227030,895.522388059701,4,2,1,40,1,8
227030,-100,4,2,1,40,0,8
227477,779.220779220779,4,2,1,40,1,8
227477,-100,4,2,1,40,0,0
227866,-100,4,2,1,40,0,0
228256,1043.47826086957,4,2,1,35,1,0
228256,-66.6666666666667,4,2,1,35,0,0
228516,-100,4,2,1,35,0,0
228777,1176.47058823529,4,2,1,35,1,8
228777,-66.6666666666667,4,2,1,35,0,8
229365,1379.31034482759,4,2,1,35,1,8
230744,1463.41463414634,4,2,1,30,1,0
230744,-32.3939099449304,4,2,1,30,0,0
231109,1796.40718562874,4,2,1,30,1,8
231782,2105.26315789474,4,2,1,30,1,8
232045,2479.33884297521,4,2,1,30,1,8
232354,1492.53731343284,4,2,1,30,1,8
233286,1492.53731343284,4,2,1,30,1,0
233286,-50,4,2,1,25,0,0

[Colours]
Combo1 : 255,98,98
Combo2 : 38,217,123
Combo3 : 193,221,34
Combo4 : 254,119,73

[HitObjects]
71,177,385,5,2,3:2:0:0:
102,128,562,1,2,0:0:0:0:
183,87,740,1,2,0:0:0:0:
282,129,917,2,0,P|300:172|311:258,1,112.5,2|0,0:0|0:0,0:0:0:0:
307,257,1272,1,2,0:0:0:0:
493,304,1450,1,2,0:0:0:0:
414,369,1627,6,0,P|399:296|418:205,1,150,2|2,0:0|0:0,0:0:0:0:
410,222,2071,1,2,0:0:0:0:
410,222,2160,1,2,0:0:0:0:
415,114,2337,1,2,0:0:0:0:
415,114,2692,1,2,0:0:0:0:
491,149,2870,1,2,0:0:0:0:
477,42,3047,1,2,0:0:0:0:
339,148,3225,6,0,P|272:134|235:131,1,75,2|2,0:0|0:0,0:0:0:0:
302,50,3580,1,2,0:0:0:0:
171,72,3757,2,0,P|153:120|140:236,2,150,2|2|2,0:0|0:0|0:0,0:0:0:0:
171,72,4822,5,2,0:0:0:0:
117,8,5000,1,2,0:0:0:0:
43,43,5177,1,2,0:0:0:0:
43,43,5266,1,2,0:0:0:0:
43,43,5355,1,2,0:0:0:0:
45,124,5532,1,2,0:0:0:0:
124,144,5710,1,2,0:0:0:0:
244,172,5887,6,0,P|240:196|266:211,1,37.5,2|2,3:2|3:2,0:0:0:0:
323,219,6065,2,0,B|386:337|591:268|559:229|536:339|392:412|287:372|334:320,1,450,6|8,1:2|0:0,0:0:0:0:
327,333,7308,1,4,0:3:0:0:
60,280,7485,6,0,B|129:240|189:269|219:349|196:388|127:375|139:344,1,225,6|8,1:2|0:0,0:0:0:0:
47,201,8373,2,0,P|34:172|16:158,1,37.5,8|0,0:3|0:0,0:0:0:0:
120,177,8550,2,0,P|102:137|87:123,1,37.5,8|0,0:3|0:0,0:0:0:0:
45,92,8728,1,4,0:3:0:0:
390,37,8905,6,0,B|508:83|417:318|421:-12|248:97|276:128,1,300,6|8,1:2|0:0,0:0:0:0:
214,308,9438,2,0,B|224:385|458:416|239:372|234:187|337:170,1,337.5,6|8,1:2|0:0,0:0:0:0:
378,293,10148,2,0,P|339:301|323:275,1,56.25,0|0,1:2|1:2,0:0:0:0:
209,211,10325,6,0,P|160:185|83:177,1,112.5,6|8,1:2|0:3,0:0:0:0:
60,320,10680,1,8,0:0:0:0:
251,90,10858,2,0,B|258:157|328:162|328:162|393:108|328:29,1,225,4|4,1:2|0:3,0:0:0:0:
512,289,11390,1,8,0:0:0:0:
484,258,11479,1,8,0:0:0:0:
442,233,11568,1,4,0:3:0:0:
385,229,11657,1,4,0:3:0:0:
331,251,11745,6,0,P|324:287|365:259,1,112.5,6|0,1:2|0:0,0:0:0:0:
442,233,12100,2,0,P|445:181|465:117,1,112.5,8|0,0:0|0:0,0:0:0:0:
298,362,12456,1,2,1:2:0:0:
298,362,12633,2,0,P|233:344|172:344,1,112.5,2|10,0:0|0:0,0:0:0:0:
128,291,12899,1,2,0:0:0:0:
128,291,12988,2,0,P|156:315|188:305,1,56.25,2|0,0:0|0:0,0:0:0:0:
252,255,13166,6,0,P|231:157|100:150,1,225,2|8,1:2|0:0,0:0:0:0:
293,176,13698,1,0,0:0:0:0:
122,56,13876,2,0,P|77:109|91:168,1,112.5,2|2,1:2|0:0,0:0:0:0:
177,302,14142,1,2,0:0:0:0:
173,313,14231,2,0,B|114:289|42:363|42:363|72:341|65:252|190:254|166:284,1,281.25,10|0,0:0|0:0,0:0:0:0:
253,285,14586,6,0,B|319:361|376:340|376:340|318:384|231:366|255:305,1,285,2|8,1:2|0:0,0:0:0:0:
130,270,15118,1,0,0:0:0:0:
293,176,15296,2,0,P|330:223|381:217,1,112.5,0|0,1:2|0:0,0:0:0:0:
492,51,15651,2,0,P|470:23|448:24,1,56.25,8|0,3:0|3:2,0:0:0:0:
444,7,15828,2,0,P|412:11|395:36,1,56.25,0|0,3:2|3:2,0:0:0:0:
434,103,16006,2,0,B|272:18|321:130|176:80,1,225,2|10,1:2|0:0,0:0:0:0:
64,11,16538,1,10,0:0:0:0:
10,38,16627,1,8,0:0:0:0:
14,79,16716,2,0,P|41:131|51:198,1,112.5,2|2,1:2|1:2,0:0:0:0:
268,217,17071,5,6,0:3:0:0:
226,175,17160,1,4,0:3:0:0:
173,181,17248,1,10,0:0:0:0:
140,220,17337,1,8,0:0:0:0:
141,255,17426,2,0,B|367:118|381:443|341:420|312:232|216:341,1,382.5,6|2,1:2|0:0,0:0:0:0:
73,372,18136,2,0,P|15:344|43:295,1,112.5,2|0,1:2|1:2,0:0:0:0:
11,232,18402,1,0,1:2:0:0:
26,229,18491,2,0,P|43:162|44:103,1,112.5,10|0,0:0|0:0,0:0:0:0:
249,314,18846,6,0,P|271:348|308:369,1,56.25,2|2,1:2|0:2,0:0:0:0:
356,321,19024,1,2,0:2:0:0:
154,297,19201,2,0,P|126:258|130:190,1,112.5,10|2,0:0|1:2,0:0:0:0:
141,122,19467,1,10,0:0:0:0:
136,115,19556,1,2,1:2:0:0:
268,215,19734,1,2,1:2:0:0:
336,51,19911,1,10,0:0:0:0:
392,35,20000,1,8,0:0:0:0:
438,60,20089,1,6,0:3:0:0:
456,102,20177,1,4,0:3:0:0:
448,136,20266,5,6,1:2:0:0:
245,93,20444,1,2,0:2:0:0:
456,147,20621,1,10,0:0:0:0:
268,215,20799,2,0,B|166:235|238:278|89:309,1,191.25,6|0,1:2|0:0,0:0:0:0:
49,272,21154,2,0,P|89:283|92:321,1,56.25,6|4,0:3|0:3,0:0:0:0:
55,358,21331,2,0,P|15:347|12:309,1,56.25,10|8,0:0|0:0,0:0:0:0:
9,336,21509,1,6,1:2:0:0:
37,88,21686,6,0,P|70:123|83:162,1,56.25,14|0,0:2|0:0,0:0:0:0:
178,21,21864,2,0,P|186:60|184:101,1,65.625,10|0,0:0|0:0,0:0:0:0:
350,31,22041,2,0,P|326:110|313:131,1,75,10|0,0:0|0:0,0:0:0:0:
508,158,22219,2,0,P|465:217|440:231,1,84.3749999999999,10|0,0:0|0:0,0:0:0:0:
456,222,22574,6,0,B|498:174|391:121|332:166|214:292|278:379|358:361|399:276|289:209,1,421.874999999999,14|0,0:0|0:0,0:0:0:0:
307,222,23106,5,6,1:2:0:0:
434,315,23461,1,2,0:0:0:0:
354,151,23816,2,0,P|308:140|254:156,1,75,2|0,3:2|0:0,0:0:0:0:
281,143,24171,1,2,0:0:0:0:
211,53,24349,2,0,P|191:87|131:63,1,112.5,2|0,3:2|0:0,0:0:0:0:
8,14,24704,2,0,P|34:62|44:127,1,90,2|0,0:0|3:2,0:0:0:0:
42,232,25059,5,2,3:2:0:0:
42,232,25414,1,2,0:0:0:0:
42,232,25769,2,0,P|37:264|45:299,1,45,2|2,0:0|0:0,0:0:0:0:
122,192,25947,2,0,P|162:178|231:182,1,90,2|0,0:0|0:0,0:0:0:0:
148,342,26302,2,0,P|181:372|228:385,1,90,2|0,0:0|3:2,0:0:0:0:
303,187,26657,1,2,3:2:0:0:
364,162,26834,1,2,0:0:0:0:
437,173,27012,1,0,3:2:0:0:
486,246,27189,1,2,3:2:0:0:
469,335,27367,5,2,0:0:0:0:
469,335,27722,2,0,P|421:325|363:315,1,90,2|0,3:2|3:2,0:0:0:0:
279,332,28077,2,0,P|289:284|299:226,1,90,2|0,0:0|0:0,0:0:0:0:
284,143,28432,2,0,P|332:153|390:163,1,90,2|0,3:2|0:0,0:0:0:0:
442,225,28698,1,0,0:0:0:0:
450,242,28787,6,0,P|463:165|486:54,1,180,2|0,3:2|0:0,0:0:0:0:
483,65,29319,1,0,3:2:0:0:
353,12,29497,2,0,P|312:47|272:28,1,90,2|0,3:2|0:0,0:0:0:0:
122,73,29852,1,2,3:2:0:0:
122,73,30029,2,0,P|190:87|296:155,1,180,2|0,3:2|0:0,0:0:0:0:
362,136,30562,2,0,P|354:198|307:210,1,90,2|2,3:2|3:2,0:0:0:0:
480,234,30917,2,0,P|424:257|349:376,1,180,0|2,0:0|3:2,0:0:0:0:
261,255,31450,5,2,0:0:0:0:
254,259,31538,1,2,0:0:0:0:
247,264,31627,2,0,P|191:234|146:226,1,90,2|0,3:2|0:0,0:0:0:0:
263,350,31982,1,2,0:0:0:0:
81,357,32160,2,0,P|59:294|56:148,1,180,2|0,3:2|0:0,0:0:0:0:
165,228,32692,2,0,P|185:178|186:134,1,90,2|0,3:2|3:2,0:0:0:0:
0,0,33047,5,2,0:0:0:0:
31,53,33225,1,2,0:0:0:0:
96,84,33402,1,2,0:0:0:0:
173,65,33580,1,2,0:0:0:0:
173,65,33935,1,2,1:2:0:0:
51,181,34112,2,0,P|53:258|71:330,1,135,8|0,0:3|0:0,0:0:0:0:
10,380,34467,6,0,P|50:337|91:336,1,97.5,6|2,1:2|0:0,0:0:0:0:
155,251,34822,2,0,P|203:271|226:319,1,97.5,2|0,1:2|0:0,0:0:0:0:
224,309,35177,1,2,1:2:0:0:
128,169,35355,2,0,P|118:110|108:65,1,97.5,2|2,0:0|1:2,0:0:0:0:
229,185,35710,6,0,P|280:174|330:170,1,97.5,2|0,0:0|1:2,0:0:0:0:
500,226,36065,2,0,P|475:275|423:276,1,97.5,2|0,0:0|1:2,0:0:0:0:
377,233,36420,2,0,B|358:98|282:193|275:49,1,195,2|2,0:0|3:2,0:0:0:0:
302,42,36864,1,0,3:2:0:0:
302,42,36953,1,2,1:2:0:0:
429,123,37130,1,0,0:0:0:0:
286,218,37308,6,0,P|227:235|186:267,1,97.5,2|2,1:2|0:0,0:0:0:0:
437,282,37663,2,0,P|469:324|489:378,1,97.5,2|2,1:2|0:0,0:0:0:0:
505,140,38018,1,2,1:2:0:0:
505,140,38195,2,0,P|450:151|427:108,1,97.5,2|0,0:0|1:2,0:0:0:0:
410,4,38550,1,2,0:0:0:0:
410,4,38728,5,2,1:2:0:0:
288,100,38905,1,2,0:0:0:0:
167,111,39083,1,2,1:2:0:0:
74,72,39260,1,2,0:0:0:0:
43,5,39438,2,0,P|97:21|105:74,1,97.5,2|0,1:2|3:2,0:0:0:0:
10,103,39704,1,0,3:2:0:0:
2,106,39793,2,0,P|-9:162|14:225,1,97.5,2|0,1:2|0:0,0:0:0:0:
27,280,40148,6,0,B|-1:340|42:379|42:379|91:283|195:285,1,292.5,2|0,1:2|0:0,0:0:0:0:
156,197,40858,1,2,1:2:0:0:
233,352,41035,1,2,0:0:0:0:
284,241,41213,2,0,P|330:222|390:227,1,97.5,2|0,1:2|0:0,0:0:0:0:
180,111,41568,6,0,P|96:105|-1:25,1,195,2|0,1:2|1:2,0:0:0:0:
81,0,42100,2,0,P|99:59|57:83,1,97.5,2|0,0:0|1:2,0:0:0:0:
13,120,42456,1,2,0:0:0:0:
13,120,42633,1,0,1:2:0:0:
156,197,42988,6,0,P|205:183|261:169,1,97.5,2|0,1:2|0:0,0:0:0:0:
87,320,43343,1,2,1:2:0:0:
225,276,43521,2,0,P|276:294|324:316,1,97.5,2|0,0:0|1:2,0:0:0:0:
360,227,43876,2,0,P|377:180|400:128,1,97.5,2|0,0:0|1:2,0:0:0:0:
492,239,44231,1,2,0:0:0:0:
427,17,44408,6,0,P|355:25|298:129,1,195,2|10,1:2|0:2,0:0:0:0:
389,166,44941,1,10,0:0:0:0:
401,148,45029,1,8,0:0:0:0:
396,136,45118,1,8,0:0:0:0:
483,103,45296,1,10,0:3:0:0:
392,280,45473,2,0,P|347:256|291:236,1,97.5,4|4,0:3|0:3,0:0:0:0:
232,104,45828,6,0,P|216:173|139:102,1,195,4|0,1:2|1:2,0:0:0:0:
6,47,46538,2,0,P|29:103|39:154,1,97.5,10|2,0:0|0:0,0:0:0:0:
44,357,46893,1,2,0:0:0:0:
6,274,47071,6,0,B|129:250|86:322|213:299,1,195,2|2,1:2|0:0,0:0:0:0:
350,208,47603,1,2,1:2:0:0:
400,358,47781,1,2,0:0:0:0:
323,290,47958,2,0,B|296:309|290:339|290:339|291:243|215:203,1,195,8|0,0:0|1:2,0:0:0:0:
240,219,48491,1,0,1:2:0:0:
327,111,48669,6,0,B|352:115|368:132|368:132|408:47|502:27,1,195,2|2,1:2|1:2,0:0:0:0:
474,34,49379,2,0,P|491:86|486:139,1,97.5,8|0,0:0|0:0,0:0:0:0:
366,298,49734,1,2,0:0:0:0:
498,279,49911,2,0,P|445:236|290:227,1,195,2|10,1:2|0:0,0:0:0:0:
250,159,50444,2,0,P|228:217|183:241,1,97.5,2|2,1:2|0:0,0:0:0:0:
54,236,50799,5,8,0:0:0:0:
275,308,50976,1,0,1:2:0:0:
168,161,51154,5,8,0:0:0:0:
139,377,51331,1,8,0:0:0:0:
28,321,51509,6,0,P|15:239|-5:98,1,195,6|0,1:2|0:0,0:0:0:0:
0,128,52219,2,0,P|47:143|79:105,1,97.5,10|2,0:0|0:0,0:0:0:0:
252,64,52574,1,2,0:0:0:0:
151,49,52751,2,0,P|208:32|329:102,1,195,2|8,1:2|0:2,0:0:0:0:
250,160,53284,2,0,P|243:104|254:61,1,97.5,2|2,1:2|0:0,0:0:0:0:
341,251,53639,2,0,P|412:238|501:145,1,195,10|2,0:2|0:0,0:0:0:0:
466,81,54171,1,10,0:0:0:0:
339,166,54349,6,0,P|267:183|124:228,1,195,2|2,1:2|1:2,0:0:0:0:
74,75,54882,2,0,P|136:100|171:147,1,97.5,2|8,0:0|0:0,0:0:0:0:
172,311,55237,1,10,0:0:0:0:
70,180,55414,1,10,0:0:0:0:
265,219,55592,5,6,1:2:0:0:
265,219,56124,2,0,P|284:250|287:273,1,48.75,8|0,0:3|0:2,0:0:0:0:
340,189,56302,2,0,P|359:237|358:262,1,48.75,8|0,0:3|0:0,0:0:0:0:
353,318,56479,1,10,0:0:0:0:
353,318,56568,1,8,0:0:0:0:
353,318,56657,1,0,1:2:0:0:
444,183,56834,1,6,0:3:0:0:
219,285,57012,6,0,P|194:258|186:237,1,48.75,4|4,0:3|0:3,0:0:0:0:
340,189,57189,2,0,B|337:125|380:66|392:120|463:73|452:-22,1,225,6|8,1:2|0:0,0:0:0:0:
258,130,57722,1,0,0:0:0:0:
118,39,57899,2,0,P|83:83|72:152,1,112.5,2|2,1:2|0:0,0:0:0:0:
135,301,58254,1,10,0:0:0:0:
19,288,58432,6,0,P|82:234|165:229,1,168.75,2|0,0:0|0:0,0:0:0:0:
165,229,58787,1,2,0:0:0:0:
292,303,58964,2,0,P|333:348|380:318,1,112.5,10|8,0:0|0:0,0:0:0:0:
406,308,59231,1,8,0:0:0:0:
406,308,59319,1,0,1:2:0:0:
321,199,59497,1,0,0:0:0:0:
441,83,59674,1,8,0:0:0:0:
193,22,59852,2,0,P|201:64|221:86,1,56.25,10|8,0:0|0:0,0:0:0:0:
362,117,60029,6,0,B|279:100|231:167|231:167|188:167|159:133,1,225,2|10,1:2|0:0,0:0:0:0:
31,0,60562,2,0,P|60:64|69:120,1,112.5,2|0,0:0|1:2,0:0:0:0:
191,236,60917,2,0,P|181:292|128:311,1,112.5,2|8,0:0|0:0,0:0:0:0:
33,260,61272,1,2,0:0:0:0:
134,312,61450,6,0,P|223:337|324:389,1,168.75,2|0,1:2|0:0,0:0:0:0:
291,369,61805,1,10,0:0:0:0:
191,236,61982,1,8,0:0:0:0:
167,210,62071,1,8,0:0:0:0:
169,192,62160,2,0,P|192:140|206:84,1,112.5,2|0,1:2|0:0,0:0:0:0:
391,18,62515,2,0,P|361:42|357:63,1,56.25,10|10,0:0|0:0,0:0:0:0:
291,96,62692,2,0,P|302:130|324:144,1,56.25,10|10,0:0|0:0,0:0:0:0:
507,136,62870,6,0,B|424:75|308:161|292:287|292:287|421:122|466:223,1,510,6|0,1:2|1:2,0:0:0:0:
420,326,63757,2,0,P|357:308|353:256,1,112.5,2|8,0:0|0:0,0:0:0:0:
507,136,64112,2,0,P|452:104|321:96,1,168.75,2|0,0:0|0:0,0:0:0:0:
349,90,64467,1,2,0:0:0:0:
288,5,64645,1,10,0:0:0:0:
225,186,64822,5,10,0:0:0:0:
225,186,64911,1,8,0:0:0:0:
225,186,65000,2,0,P|172:159|97:141,1,112.5,0|0,1:2|0:0,0:0:0:0:
36,357,65355,2,0,P|92:325|82:275,1,112.5,8|2,0:0|0:0,0:0:0:0:
189,269,65710,5,2,1:2:0:0:
17,199,65887,1,2,0:0:0:0:
186,83,66065,1,10,0:0:0:0:
103,34,66242,5,10,0:0:0:0:
103,34,66331,1,8,0:0:0:0:
103,34,66420,1,0,1:2:0:0:
301,0,66598,2,0,P|318:60|323:121,1,112.5,2|10,0:0|0:0,0:0:0:0:
283,329,66953,1,2,0:2:0:0:
189,269,67130,6,0,P|223:251|295:250,1,75,8|0,0:3|0:2,0:0:0:0:
332,225,67308,2,0,P|382:249|413:283,1,75,8|0,0:3|0:2,0:0:0:0:
482,288,67485,2,0,P|456:361|382:358,1,131.25,6|8,0:3|0:0,0:0:0:0:
200,165,67840,2,0,P|186:90|156:30,1,112.5,6|8,1:2|0:3,0:0:0:0:
1,237,68195,1,10,1:2:0:0:
0,295,68284,1,8,0:0:0:0:
31,335,68373,1,8,0:0:0:0:
77,352,68461,1,8,0:0:0:0:
113,337,68550,6,0,B|163:319|230:328|196:365|269:390|326:373,1,225,6|8,1:2|0:0,0:0:0:0:
462,258,69083,1,0,0:0:0:0:
391,166,69260,2,0,P|377:228|392:293,1,112.5,2|2,1:2|0:0,0:0:0:0:
424,355,69615,1,10,0:0:0:0:
510,141,69793,2,0,P|478:81|360:43,1,168.75,2|0,0:0|0:0,0:0:0:0:
389,40,70148,1,2,0:0:0:0:
297,201,70325,2,0,P|243:161|228:110,1,112.5,10|8,0:0|0:0,0:0:0:0:
239,89,70592,1,8,0:0:0:0:
239,89,70680,5,2,1:2:0:0:
391,166,70858,1,0,0:0:0:0:
262,273,71035,1,8,0:0:0:0:
173,204,71213,5,10,0:0:0:0:
173,204,71302,1,8,0:0:0:0:
173,204,71390,2,0,P|90:213|23:341,1,225,2|10,1:2|0:0,0:0:0:0:
141,384,71923,1,2,0:0:0:0:
84,191,72100,1,2,1:2:0:0:
84,191,72278,1,2,0:0:0:0:
296,67,72456,2,0,P|322:152|316:200,1,112.5,8|0,0:0|0:0,0:0:0:0:
132,75,72811,6,0,P|57:87|11:205,1,168.75,2|0,1:2|0:0,0:0:0:0:
7,160,73166,1,10,0:0:0:0:
213,27,73343,1,8,0:0:0:0:
213,27,73432,1,8,0:0:0:0:
213,27,73521,1,2,1:2:0:0:
214,198,73698,1,8,0:3:0:0:
448,208,73876,1,10,1:2:0:0:
497,170,73964,1,8,0:0:0:0:
512,116,74053,1,8,0:0:0:0:
504,69,74142,1,8,0:0:0:0:
473,43,74231,6,0,B|400:45|328:189|328:189|297:29|408:-56|411:39,1,450,6|0,1:2|0:0,0:0:0:0:
497,170,74941,2,0,P|512:243|501:315,1,112.5,0|0,1:2|0:0,0:0:0:0:
357,377,75296,2,0,P|281:343|286:244,1,168.75,10|0,0:0|0:0,0:0:0:0:
272,265,75651,6,0,B|304:244|256:195|160:219|130:315|132:382|217:383|180:300,1,255,2|10,1:2|0:0,0:0:0:0:
355,295,76183,2,0,P|367:232|362:148,1,127.5,2|0,0:0|1:2,0:0:0:0:
494,5,76538,2,0,P|434:50|397:23,1,127.5,2|8,0:0|0:0,0:0:0:0:
272,156,76893,2,0,P|252:117|219:101,1,63.75,10|8,0:0|0:0,0:0:0:0:
201,29,77071,6,0,P|124:24|41:79,1,127.5,2|0,1:2|0:0,0:0:0:0:
7,111,77426,1,8,0:0:0:0:
186,223,77603,1,0,1:2:0:0:
186,223,77692,1,8,0:0:0:0:
186,223,77781,1,2,1:2:0:0:
147,104,77958,1,0,1:2:0:0:
272,156,78136,1,8,0:0:0:0:
79,227,78313,1,10,0:3:0:0:
119,300,78491,5,10,0:0:0:0:
66,150,78669,1,10,0:0:0:0:
298,310,78846,5,10,0:0:0:0:
227,63,79024,1,10,0:2:0:0:
186,223,79201,5,4,1:2:0:0:
336,54,79379,1,10,0:0:0:0:
398,44,79467,1,8,0:0:0:0:
446,68,79556,1,8,0:0:0:0:
465,117,79645,1,8,0:0:0:0:
456,163,79734,1,8,0:0:0:0:
435,189,79822,1,8,0:0:0:0:
413,196,79911,5,6,1:2:0:0:
256,192,80089,12,0,81864,0:0:0:0:
429,304,82751,6,0,P|474:262|409:229,1,150,2|2,0:0|0:0,0:0:0:0:
427,137,83284,2,0,P|408:180|319:221,2,150,2|2|2,0:0|0:0|0:0,0:0:0:0:
298,123,84349,1,2,0:0:0:0:
379,54,84527,2,0,P|388:98|374:141,1,75,2|2,0:0|0:0,0:0:0:0:
247,195,84882,1,2,0:0:0:0:
160,158,85059,1,2,1:2:0:0:
134,71,85237,6,0,P|150:27|154:-7,1,75,10|2,0:0|0:0,0:0:0:0:
50,76,85503,1,2,0:0:0:0:
50,76,85592,2,0,B|-4:93|-44:236|82:328|82:328|-15:227|111:33|258:85|258:85|173:81|117:149|190:184,1,843.75,6|2,1:2|0:0,0:0:0:0:
159,157,87012,2,0,P|219:155|281:185,1,112.5,6|2,1:2|0:0,0:0:0:0:
414,96,87367,2,0,P|447:149|422:199,1,112.5,2|2,0:0|0:0,0:0:0:0:
298,277,87722,6,0,P|272:267|250:271,1,37.5,8|8,0:3|0:3,0:0:0:0:
241,265,87899,2,0,P|210:289|202:310,1,37.5,4|8,0:3|0:2,0:0:0:0:
199,364,88077,1,8,0:0:0:0:
125,185,88254,1,0,1:2:0:0:
376,372,88432,6,0,P|416:311|428:180,1,195,4|8,1:2|0:0,0:0:0:0:
212,287,88964,2,0,P|170:232|164:82,1,195,4|0,1:2|1:2,0:0:0:0:
193,44,89497,1,8,0:3:0:0:
431,192,89852,5,4,1:2:0:0:
327,127,90029,1,0,1:2:0:0:
438,60,90207,1,8,0:0:0:0:
505,230,90384,2,0,B|502:264|502:264|416:273|366:353,1,195,4|0,1:2|1:2,0:0:0:0:
251,165,90917,2,0,P|221:205|210:263,1,97.5,8|0,0:0|1:2,0:0:0:0:
129,240,91272,5,6,1:2:0:0:
242,333,91450,1,2,0:0:0:0:
123,333,91627,2,0,P|77:347|31:375,1,97.5,2|0,1:2|0:0,0:0:0:0:
19,170,91982,1,2,1:2:0:0:
129,240,92160,2,0,P|119:196|124:137,1,97.5,2|0,0:0|1:2,0:0:0:0:
11,12,92515,2,0,P|49:49|93:24,1,97.5,2|0,0:0|1:2,0:0:0:0:
214,175,92870,2,0,P|269:153|335:150,1,97.5,2|0,0:0|1:2,0:0:0:0:
163,41,93225,2,0,B|263:20|235:84|354:64,1,195,2|2,0:0|0:0,0:0:0:0:
512,23,93757,1,2,1:2:0:0:
434,103,93935,1,0,0:0:0:0:
424,0,94112,6,0,P|431:55|455:94,1,97.5,2|2,1:2|0:0,0:0:0:0:
506,169,94467,2,0,P|496:223|469:262,1,97.5,2|2,1:2|0:0,0:0:0:0:
363,108,94822,1,2,1:2:0:0:
363,108,95000,2,0,P|312:141|272:231,1,146.25,2|0,0:0|0:0,0:0:0:0:
273,215,95355,1,2,0:0:0:0:
250,67,95532,6,0,P|208:26|160:3,1,97.5,2|2,1:2|0:0,0:0:0:0:
139,119,95887,2,0,P|74:127|-20:168,1,146.25,2|0,1:2|0:0,0:0:0:0:
0,156,96242,2,0,P|44:174|70:227,1,97.5,2|0,1:2|3:2,0:0:0:0:
47,247,96509,1,0,3:2:0:0:
47,247,96598,2,0,P|22:290|21:346,1,97.5,2|0,1:2|0:0,0:0:0:0:
151,301,96953,6,0,B|220:277|286:324|286:324|315:323|341:301,1,195,0|0,1:2|1:2,0:0:0:0:
334,306,97663,1,2,1:2:0:0:
298,222,97840,1,2,0:0:0:0:
406,358,98018,1,2,1:2:0:0:
504,171,98195,2,0,B|509:257|415:273|415:273|398:232|362:229,1,195,2|0,0:0|0:0,0:0:0:0:
298,222,98728,2,0,P|289:165|262:118,1,97.5,2|2,1:2|0:0,0:0:0:0:
73,217,99083,2,0,P|78:152|115:95,1,97.5,2|0,1:2|3:2,0:0:0:0:
113,99,99349,1,0,3:2:0:0:
113,99,99438,1,0,1:2:0:0:
291,52,99615,1,2,0:0:0:0:
168,0,99793,6,0,P|208:45|199:90,1,97.5,2|2,1:2|0:0,0:0:0:0:
31,64,100148,1,2,1:2:0:0:
183,167,100325,2,0,P|206:220|249:338,1,146.25,2|0,0:0|0:0,0:0:0:0:
237,302,100680,1,2,0:0:0:0:
415,216,100858,2,0,P|364:260|336:238,1,97.5,2|2,1:2|0:0,0:0:0:0:
329,234,101124,1,2,0:0:0:0:
329,234,101213,5,0,0:2:0:0:
339,306,101390,1,2,0:0:0:0:
397,372,101568,1,2,0:2:0:0:
512,384,101745,1,2,0:0:0:0:
512,384,102100,1,0,1:2:0:0:
463,293,102278,2,0,P|454:236|475:123,1,146.25,8|0,0:3|0:0,0:0:0:0:
465,148,102633,5,6,1:2:0:0:
504,25,102811,1,2,0:0:0:0:
393,95,102988,2,0,P|331:114|282:131,1,97.5,2|0,1:2|0:0,0:0:0:0:
256,34,103343,1,10,0:2:0:0:
149,16,103521,1,2,0:0:0:0:
211,113,103698,1,0,1:2:0:0:
89,68,103876,6,0,P|30:100|-4:140,1,97.5,2|0,0:0|0:0,0:0:0:0:
9,121,104231,1,2,0:0:0:0:
198,205,104408,1,2,1:2:0:0:
81,250,104586,1,0,0:0:0:0:
211,113,104763,2,0,P|264:137|293:203,1,97.5,8|0,0:2|1:2,0:0:0:0:
283,216,105029,1,8,0:0:0:0:
283,216,105118,1,0,1:2:0:0:
400,109,105296,1,8,0:0:0:0:
357,38,105473,5,2,1:2:0:0:
500,101,105651,1,2,0:0:0:0:
385,193,105828,2,0,P|373:257|365:297,1,97.5,2|2,1:2|0:0,0:0:0:0:
283,216,106183,1,10,0:2:0:0:
456,357,106361,2,0,P|466:302|478:253,1,97.5,2|0,0:0|1:2,0:0:0:0:
385,193,106716,1,0,0:0:0:0:
281,328,106893,6,0,P|206:297|178:253,1,97.5,2|2,1:2|0:0,0:0:0:0:
88,360,107248,2,0,P|59:320|50:268,1,97.5,2|2,1:2|0:0,0:0:0:0:
180,186,107603,1,10,0:0:0:0:
68,46,107781,1,8,0:0:0:0:
37,86,107870,1,8,0:0:0:0:
45,121,107958,1,2,1:2:0:0:
180,186,108136,2,0,P|195:150|216:134,1,48.75,8|8,0:0|0:0,0:0:0:0:
283,216,108313,6,0,B|393:198|344:280|481:248,1,195,2|0,1:2|1:2,0:0:0:0:
467,250,109024,1,10,0:0:0:0:
477,59,109201,1,0,0:0:0:0:
502,159,109379,2,0,P|439:138|414:103,1,97.5,0|0,1:2|0:0,0:0:0:0:
380,24,109734,6,0,P|311:29|198:90,1,195,2|0,1:2|1:2,0:0:0:0:
315,119,110266,2,0,P|333:173|330:225,1,97.5,2|8,0:0|0:0,0:0:0:0:
216,218,110621,1,2,0:0:0:0:
216,218,110799,2,0,P|196:268|201:319,1,97.5,0|0,1:2|0:0,0:0:0:0:
0,326,111154,6,0,P|56:374|84:266,1,195,2|0,1:2|1:2,0:0:0:0:
117,137,111686,1,2,0:0:0:0:
53,231,111864,2,0,P|29:168|30:121,1,97.5,8|0,0:2|0:0,0:0:0:0:
84,0,112219,1,0,1:2:0:0:
0,58,112396,1,2,0:0:0:0:
158,62,112574,6,0,P|215:46|268:36,1,97.5,2|0,1:2|0:0,0:0:0:0:
117,137,112929,1,8,0:0:0:0:
288,203,113106,1,2,1:2:0:0:
288,203,113195,1,8,0:0:0:0:
288,203,113284,1,0,1:2:0:0:
302,119,113461,5,2,0:0:0:0:
461,265,113639,1,8,0:3:0:0:
303,340,113816,1,4,0:3:0:0:
303,340,113905,1,4,0:3:0:0:
303,340,113994,2,0,P|342:299|461:298,1,180,4|0,1:2|1:2,0:0:0:0:
459,297,114704,1,10,0:0:0:0:
512,169,114882,1,2,0:0:0:0:
507,375,115059,1,2,0:0:0:0:
461,64,115237,6,0,P|428:119|434:213,1,135,2|0,1:2|0:0,0:0:0:0:
425,188,115592,1,10,0:0:0:0:
329,94,115769,2,0,P|275:106|236:119,1,90,2|2,1:2|0:0,0:0:0:0:
192,38,116124,2,0,B|91:22|126:87|3:71,1,180,8|0,0:0|1:2,0:0:0:0:
242,116,116657,1,0,1:2:0:0:
118,143,116834,5,0,1:2:0:0:
247,238,117012,2,0,P|203:249|169:220,1,90,2|2,0:0|0:0,0:0:0:0:
0,221,117367,1,2,1:2:0:0:
29,384,117544,2,0,P|63:328|80:212,1,180,8|2,0:0|0:0,0:0:0:0:
168,341,118077,6,0,B|268:323|215:271|338:261,1,180,2|10,1:2|0:0,0:0:0:0:
502,381,118609,2,0,P|484:328|483:274,1,90,2|2,1:2|1:2,0:0:0:0:
507,73,118964,1,8,0:0:0:0:
416,233,119142,1,0,1:2:0:0:
507,177,119319,2,0,P|452:154|406:154,1,90,8|8,0:3|0:3,0:0:0:0:
197,117,119674,6,0,P|267:152|303:51,1,180,6|0,1:2|1:2,0:0:0:0:
316,81,120384,1,10,0:0:0:0:
238,39,120562,1,2,0:0:0:0:
125,66,120740,1,2,0:0:0:0:
52,179,120917,6,0,P|77:119|83:3,1,180,2|10,1:2|0:0,0:0:0:0:
0,76,121450,2,0,P|32:130|68:145,1,90,2|2,1:2|0:0,0:0:0:0:
157,198,121805,2,0,P|152:259|67:268,1,135,8|0,0:0|0:0,0:0:0:0:
89,280,122160,1,0,0:0:0:0:
318,235,122337,1,2,0:0:0:0:
272,384,122515,6,0,P|247:312|255:168,1,180,2|2,1:2|1:2,0:0:0:0:
278,72,123047,1,2,0:0:0:0:
150,70,123225,6,0,P|210:96|284:86,1,112.5,8|10,0:0|0:3,0:0:0:0:
486,44,123580,1,6,0:3:0:0:
373,43,123757,6,0,P|424:105|407:292,1,225,6|0,1:2|0:0,0:0:0:0:
394,353,124290,2,0,P|366:328|345:298,1,45,10|2,0:3|0:0,0:0:0:0:
285,348,124467,2,0,P|279:318|279:289,1,45,2|2,0:0|0:0,0:0:0:0:
332,248,124645,1,10,0:2:0:0:
332,248,124734,1,8,0:3:0:0:
332,248,124822,1,8,0:2:0:0:
281,89,125000,2,0,P|235:114|211:146,1,52.5,10|0,0:0|0:0,0:0:0:0:
155,189,125177,5,8,0:0:0:0:
155,189,125266,1,8,0:0:0:0:
155,189,125355,2,0,B|164:113|83:81|90:123|21:97|26:26,1,225,6|8,1:2|0:0,0:0:0:0:
235,113,125887,1,0,0:0:0:0:
24,221,126065,2,0,P|54:267|112:283,1,112.5,2|2,1:2|0:0,0:0:0:0:
306,250,126420,1,10,0:0:0:0:
235,384,126598,6,0,P|216:304|246:187,1,168.75,2|0,0:0|0:0,0:0:0:0:
230,219,126953,1,2,0:0:0:0:
483,320,127130,2,0,P|414:335|410:282,1,112.5,10|8,0:0|0:0,0:0:0:0:
385,283,127396,1,8,0:0:0:0:
385,283,127485,2,0,P|404:216|402:164,1,112.5,0|0,1:2|0:0,0:0:0:0:
335,25,127840,1,8,0:0:0:0:
500,121,128018,1,10,0:0:0:0:
253,124,128195,5,2,1:2:0:0:
407,88,128373,1,0,0:0:0:0:
450,243,128550,1,10,0:0:0:0:
299,279,128728,1,2,0:0:0:0:
141,224,128905,5,0,1:2:0:0:
191,337,129083,2,0,P|216:276|219:213,1,112.5,2|8,0:0|0:0,0:0:0:0:
63,384,129438,1,2,0:0:0:0:
63,384,129527,1,0,0:0:0:0:
63,384,129615,2,0,P|22:331|4:194,1,168.75,2|0,1:2|0:0,0:0:0:0:
0,234,129970,1,10,0:0:0:0:
141,224,130148,1,8,0:0:0:0:
141,224,130237,1,8,0:0:0:0:
141,224,130325,2,0,P|171:168|175:109,1,112.5,2|0,1:2|0:0,0:0:0:0:
10,0,130680,5,10,0:0:0:0:
0,59,130769,1,10,0:0:0:0:
34,100,130858,1,10,0:0:0:0:
74,109,130947,1,10,0:0:0:0:
102,97,131035,6,0,B|203:99|211:167|155:237|241:240|289:172|236:47|59:90|60:38|142:-29|183:-21|174:42,1,382.5,6|0,1:2|0:0,0:0:0:0:
337,60,131745,2,0,P|312:129|311:198,1,112.5,0|2,1:2|0:0,0:0:0:0:
377,351,132100,1,8,0:0:0:0:
439,254,132278,6,0,B|369:224|267:284|328:356|266:373|198:362,1,262.5,2|2,0:0|0:0,0:0:0:0:
123,169,132811,1,10,0:0:0:0:
227,273,132988,1,10,0:0:0:0:
337,60,133166,2,0,P|279:56|197:22,1,112.5,0|0,1:2|0:0,0:0:0:0:
191,47,133432,1,0,0:0:0:0:
191,47,133521,5,8,0:0:0:0:
98,253,133698,1,2,0:0:0:0:
0,131,133876,2,0,P|58:105|127:94,1,112.5,2|2,1:2|0:0,0:0:0:0:
319,198,134231,1,10,0:0:0:0:
177,384,134408,5,10,0:0:0:0:
177,384,134497,1,8,0:0:0:0:
177,384,134586,1,0,1:2:0:0:
192,151,134763,1,2,0:0:0:0:
319,350,134941,1,10,0:0:0:0:
98,253,135118,2,0,P|139:264|183:287,1,56.25,2|0,0:2|0:0,0:0:0:0:
231,315,135296,5,8,0:3:0:0:
293,174,135473,1,8,0:3:0:0:
409,311,135651,1,6,0:3:0:0:
192,151,135828,1,8,0:0:0:0:
290,32,136006,5,6,1:2:0:0:
379,183,136183,1,8,0:3:0:0:
438,192,136272,1,0,0:0:0:0:
489,164,136361,1,10,1:2:0:0:
510,117,136450,1,8,0:0:0:0:
502,74,136538,1,8,0:0:0:0:
482,49,136627,1,8,0:0:0:0:
464,39,136716,6,0,P|373:51|236:100,1,225,6|8,1:2|0:0,0:0:0:0:
379,183,137248,1,0,0:0:0:0:
286,268,137426,2,0,P|218:253|166:215,1,112.5,2|2,1:2|0:0,0:0:0:0:
89,323,137781,1,10,0:0:0:0:
188,138,137958,6,0,P|112:152|16:221,1,168.75,2|0,0:0|0:0,0:0:0:0:
35,200,138313,1,2,0:0:0:0:
218,311,138491,2,0,P|278:296|372:280,1,112.5,10|8,0:0|0:0,0:0:0:0:
352,300,138757,1,8,0:0:0:0:
352,300,138846,1,2,1:2:0:0:
508,217,139024,1,0,0:0:0:0:
437,370,139201,1,8,0:0:0:0:
368,209,139379,5,10,0:0:0:0:
368,209,139467,1,8,0:0:0:0:
368,209,139556,2,0,P|371:153|394:90,1,112.5,2|0,1:2|0:0,0:0:0:0:
273,351,139911,2,0,P|246:296|208:250,1,112.5,10|2,0:0|0:0,0:0:0:0:
130,334,140266,1,2,1:2:0:0:
107,148,140444,2,0,P|196:163|253:198,1,112.5,2|8,0:0|0:0,0:0:0:0:
27,227,140799,1,0,3:2:0:0:
13,48,140976,6,0,B|132:14|97:84|214:70,1,196.875,2|0,1:2|0:0,0:0:0:0:
202,71,141331,1,10,0:0:0:0:
309,26,141509,1,8,0:0:0:0:
309,26,141598,1,8,0:0:0:0:
309,26,141686,1,2,1:2:0:0:
215,172,141864,1,8,0:3:0:0:
363,132,142041,1,10,1:2:0:0:
421,138,142130,1,8,0:0:0:0:
460,177,142219,1,8,0:0:0:0:
475,211,142308,1,8,0:0:0:0:
476,232,142396,6,0,B|473:255|529:184|562:259|523:376|287:414|268:417|250:404|513:313|387:238,1,450,6|0,1:2|0:0,0:0:0:0:
296,279,143106,2,0,P|337:337|379:316,1,112.5,0|0,1:2|0:0,0:0:0:0:
476,232,143461,2,0,P|455:185|453:112,1,112.5,10|0,0:0|0:0,0:0:0:0:
512,8,143816,6,0,P|469:79|407:18,1,168.75,2|0,1:2|0:0,0:0:0:0:
409,44,144171,1,10,0:0:0:0:
344,150,144349,2,0,P|287:125|234:106,1,112.5,2|0,0:0|1:2,0:0:0:0:
411,277,144704,2,0,P|346:301|300:323,1,112.5,2|8,0:0|0:0,0:0:0:0:
404,374,145059,1,10,0:0:0:0:
258,238,145237,6,0,P|191:274|157:390,1,168.75,2|0,1:2|0:0,0:0:0:0:
154,355,145592,1,8,0:0:0:0:
27,135,145769,1,0,1:2:0:0:
82,272,145947,2,0,P|105:204|106:145,1,112.5,2|0,1:2|1:2,0:0:0:0:
81,41,146302,1,8,0:0:0:0:
0,219,146479,1,10,0:3:0:0:
185,90,146657,5,10,0:0:0:0:
224,206,146834,1,10,0:0:0:0:
283,13,147012,5,10,0:0:0:0:
346,250,147189,1,10,0:2:0:0:
423,149,147367,5,4,1:2:0:0:
185,90,147544,1,10,0:0:0:0:
126,103,147633,1,8,0:0:0:0:
92,147,147722,1,8,0:0:0:0:
95,196,147811,1,8,0:0:0:0:
118,227,147899,1,8,0:0:0:0:
141,238,147988,1,8,0:0:0:0:
154,239,148077,6,0,B|179:171|379:202|370:323|370:323|284:196|221:255|259:298,1,450,6|0,1:2|0:0,0:0:0:0:
265,338,148787,2,0,P|302:343|331:279,1,97.5,0|0,1:2|0:0,0:0:0:0:
274,161,149142,1,10,0:0:0:0:
93,356,149319,6,0,P|60:281|63:190,1,146.25,2|0,0:0|0:0,0:0:0:0:
57,217,149674,1,2,0:0:0:0:
141,167,149852,1,10,0:0:0:0:
27,100,150029,1,2,1:2:0:0:
200,22,150207,5,10,0:0:0:0:
200,22,150384,1,2,1:2:0:0:
222,204,150562,1,10,0:0:0:0:
359,110,150740,1,2,1:2:0:0:
473,217,150917,6,0,P|466:300|385:375,1,151.875,10|0,0:0|0:0,0:0:0:0:
425,352,151272,1,10,0:0:0:0:
335,238,151450,1,2,0:0:0:0:
278,340,151627,2,0,P|221:325|170:310,1,101.25,8|2,0:0|1:2,0:0:0:0:
222,204,151982,1,10,0:0:0:0:
103,381,152160,2,0,B|101:307|62:270|30:303|-11:270|-2:195,1,202.5,2|2,1:2|0:0,0:0:0:0:
180,313,152692,1,10,0:0:0:0:
155,106,152870,1,2,1:2:0:0:
83,208,153047,5,8,0:0:0:0:
83,208,153225,1,0,1:2:0:0:
79,30,153402,1,8,0:0:0:0:
247,140,153580,1,6,0:3:0:0:
247,140,153669,1,6,0:3:0:0:
247,140,153757,5,14,0:0:0:0:
371,92,153935,1,2,0:0:0:0:
155,106,154112,1,10,0:0:0:0:
291,269,154290,1,2,0:0:0:0:
83,208,154467,5,10,0:0:0:0:
250,378,154645,1,2,1:2:0:0:
191,232,154822,2,0,P|170:301|177:367,1,101.25,10|0,0:0|1:2,0:0:0:0:
512,292,155177,6,0,B|517:339|480:368|480:368|441:292|358:293,1,225,10|8,0:0|0:0,0:0:0:0:
376,201,155710,1,2,1:2:0:0:
250,378,155887,1,10,0:0:0:0:
161,113,156065,1,2,1:2:0:0:
191,232,156242,2,0,P|145:213|81:218,1,112.5,10|2,0:0|1:2,0:0:0:0:
3,346,156598,6,0,P|60:363|93:322,1,112.5,14|2,0:0|0:0,0:0:0:0:
83,217,156953,1,8,0:0:0:0:
339,246,157130,1,0,0:0:0:0:
235,300,157308,2,0,P|244:241|276:163,1,112.5,10|2,0:0|1:2,0:0:0:0:
449,241,157663,2,0,P|435:168|410:122,1,112.5,10|2,0:0|1:2,0:0:0:0:
129,159,158018,6,0,P|178:141|204:82,1,112.5,12|2,0:0|0:0,0:0:0:0:
79,13,158373,1,10,0:0:0:0:
44,184,158550,1,2,0:0:0:0:
279,36,158728,5,10,0:2:0:0:
150,287,158905,1,10,0:2:0:0:
408,55,159083,5,10,0:2:0:0:
305,349,159260,1,14,0:2:0:0:
256,192,159438,12,6,160858,1:2:0:0:
337,280,166006,5,2,1:2:0:0:
431,384,166183,2,0,P|436:327|458:272,1,112.5,10|0,0:0|0:0,0:0:0:0:
375,32,166538,6,0,B|498:62|478:265|439:78|291:15|203:167|249:183,1,393.75,6|10,1:2|0:0,0:0:0:0:
354,209,167248,2,0,P|351:153|311:127,1,105,0|10,0:0|0:3,0:0:0:0:
164,20,167603,2,0,P|158:83|171:141,1,105,6|6,0:3|0:3,0:0:0:0:
272,264,167958,5,6,1:2:0:0:
86,174,168313,5,8,0:0:0:0:
30,205,168432,1,8,0:0:0:0:
20,261,168550,1,8,0:0:0:0:
45,342,168669,5,8,0:3:0:0:
85,371,168787,1,8,0:3:0:0:
121,367,168905,1,8,0:3:0:0:
200,341,169024,5,6,0:3:0:0:
303,344,169379,6,0,B|329:190|83:143|-11:255|311:241|223:358|186:341,1,359.999989013672,6|6,1:2|1:2,0:0:0:0:
111,332,169911,2,0,P|106:231|239:156,1,262.500002503395,0|0,0:0|1:2,0:0:0:0:
316,266,170444,2,0,P|332:200|316:115,1,112.5,10|0,0:0|0:0,0:0:0:0:
289,18,170799,1,6,1:2:0:0:
149,169,170976,1,8,0:3:0:0:
19,101,171154,6,0,P|89:77|217:117,1,168.75,8|0,0:0|0:0,0:0:0:0:
180,92,171509,1,2,0:0:0:0:
240,193,171686,1,0,1:2:0:0:
506,347,171864,2,0,P|482:279|496:164,1,168.75,14|0,0:0|0:0,0:0:0:0:
492,36,172219,6,0,P|477:81|449:115,1,56.25,14|0,0:0|0:0,0:0:0:0:
401,0,172396,2,0,P|393:59|371:88,1,56.25,14|0,0:0|0:0,0:0:0:0:
395,55,172929,1,10,0:0:0:0:
285,128,173106,1,10,0:3:0:0:
420,226,173284,1,6,0:3:0:0:
306,249,173461,6,0,P|277:302|280:372,1,105,6|0,1:2|0:0,0:0:0:0:
211,206,173816,1,2,1:2:0:0:
496,257,173994,2,0,P|419:285|391:332,1,105,8|8,0:0|0:0,0:0:0:0:
399,336,174260,1,8,0:0:0:0:
399,336,174349,5,8,0:3:0:0:
380,210,174527,1,8,0:3:0:0:
310,106,174704,1,8,0:3:0:0:
129,90,174882,2,0,P|134:141|110:185,1,75,6|4,0:3|0:3,0:0:0:0:
39,312,175059,6,0,P|30:237|57:97,1,195,6|2,1:2|0:0,0:0:0:0:
48,119,175592,1,10,0:0:0:0:
189,287,175769,2,0,P|238:311|278:254,1,97.5,2|10,0:0|0:0,0:0:0:0:
241,168,176124,2,0,P|223:120|224:54,1,97.5,0|0,0:0|1:2,0:0:0:0:
365,267,176479,6,0,P|431:297|525:275,1,146.25,2|0,1:2|0:0,0:0:0:0:
502,287,176834,1,2,1:2:0:0:
496,24,177189,5,10,0:0:0:0:
376,15,177367,1,0,1:2:0:0:
322,78,177544,1,10,0:3:0:0:
341,142,177722,1,8,0:2:0:0:
468,133,177899,6,0,P|348:93|159:72,1,292.5,6|8,1:2|0:0,0:0:0:0:
184,72,178787,2,0,P|163:129|106:142,1,97.5,10|2,0:0|0:0,0:0:0:0:
176,216,179142,1,2,1:2:0:0:
0,125,179319,2,0,B|141:104|147:251|147:251|100:233|81:254,1,292.5,2|10,1:2|0:0,0:0:0:0:
86,250,180207,1,0,1:2:0:0:
13,384,180384,2,0,P|66:367|121:352,1,97.5,8|2,0:0|0:0,0:0:0:0:
309,378,180740,6,0,P|293:322|297:261,1,97.5,6|2,1:2|0:0,0:0:0:0:
353,97,181095,1,2,0:0:0:0:
201,199,181272,2,0,P|290:177|401:191,1,195,10|2,0:0|1:2,0:0:0:0:
459,267,181805,1,10,0:0:0:0:
512,171,181982,1,2,0:0:0:0:
393,322,182160,5,10,0:3:0:0:
353,97,182337,2,0,B|370:194|275:213|275:213|261:183|223:177,1,195,10|10,0:3|0:0,0:0:0:0:
156,374,182870,2,0,P|177:314|169:257,1,97.5,2|8,0:0|0:0,0:0:0:0:
182,101,183225,5,10,0:0:0:0:
153,48,183313,1,8,0:0:0:0:
98,37,183402,1,8,0:0:0:0:
53,52,183491,1,8,0:0:0:0:
35,82,183580,6,0,P|139:50|260:35,1,225,6|8,1:2|0:0,0:0:0:0:
369,105,184112,1,0,0:0:0:0:
175,280,184290,2,0,P|130:248|105:177,1,112.5,2|2,1:2|0:0,0:0:0:0:
106,197,184645,1,10,0:0:0:0:
314,159,184822,2,0,P|364:222|360:339,1,168.75,2|0,0:0|0:0,0:0:0:0:
371,307,185177,5,2,0:0:0:0:
209,196,185355,2,0,P|221:134|246:78,1,112.5,10|8,0:0|0:0,0:0:0:0:
260,63,185621,1,8,0:0:0:0:
260,63,185710,1,2,1:2:0:0:
141,115,185887,1,0,0:0:0:0:
314,159,186065,2,0,P|379:145|448:136,1,112.5,8|10,0:0|0:0,0:0:0:0:
457,162,186331,1,8,0:0:0:0:
457,162,186420,6,0,B|507:252|403:308|403:308|390:282|340:286,1,225,2|10,1:2|0:0,0:0:0:0:
348,56,186953,2,0,P|339:124|301:169,1,112.5,2|2,0:0|1:2,0:0:0:0:
159,329,187308,1,2,0:0:0:0:
82,235,187485,2,0,B|140:204|214:228|183:271|292:264,1,196.875,8|0,0:0|0:0,0:0:0:0:
267,264,187840,5,2,1:2:0:0:
112,115,188018,1,0,0:0:0:0:
314,158,188195,1,10,0:0:0:0:
106,11,188373,1,8,0:0:0:0:
106,11,188461,1,8,0:0:0:0:
106,11,188550,1,2,1:2:0:0:
200,187,188728,1,8,0:3:0:0:
252,24,188905,2,0,P|204:40|176:63,1,65.625,10|8,1:2|0:0,0:0:0:0:
31,88,189083,2,0,P|25:135|32:167,1,65.625,8|8,0:0|0:0,0:0:0:0:
116,310,189260,6,0,B|54:240|239:67|451:121|188:159|145:321|248:333,1,450,6|0,1:2|0:0,0:0:0:0:
318,300,189970,2,0,P|295:233|235:244,1,112.5,0|0,1:2|0:0,0:0:0:0:
421,195,190325,2,0,P|449:148|456:75,1,112.5,10|2,0:0|0:0,0:0:0:0:
305,24,190680,6,0,B|206:33|257:78|119:99,1,168.75,2|0,1:2|0:0,0:0:0:0:
154,92,191035,1,10,0:0:0:0:
3,5,191213,2,0,P|36:74|46:138,1,112.5,2|0,0:0|1:2,0:0:0:0:
215,221,191568,2,0,P|187:284|113:286,1,112.5,2|8,0:0|0:0,0:0:0:0:
38,360,191923,1,10,0:0:0:0:
136,176,192100,6,0,P|217:193|381:239,1,225,2|8,1:2|0:0,0:0:0:0:
487,164,192633,1,0,1:2:0:0:
362,333,192811,1,2,1:2:0:0:
355,119,192988,1,0,1:2:0:0:
490,294,193166,1,8,0:0:0:0:
279,230,193343,1,10,0:3:0:0:
464,55,193521,5,10,0:0:0:0:
354,230,193698,1,10,0:0:0:0:
271,12,193876,5,10,0:0:0:0:
192,228,194053,1,10,0:2:0:0:
148,105,194231,5,4,1:2:0:0:
26,222,194408,1,10,0:0:0:0:
39,279,194497,1,8,0:0:0:0:
85,310,194586,1,8,0:0:0:0:
128,317,194674,1,8,0:0:0:0:
158,306,194763,1,8,0:0:0:0:
179,307,194852,1,8,0:0:0:0:
185,315,194941,6,0,B|212:378|343:398|523:383|207:318|143:246|231:105|263:128,1,450,6|0,1:2|0:0,0:0:0:0:
369,228,195651,2,0,P|319:259|281:219,1,112.5,2|2,1:2|0:0,0:0:0:0:
170,66,196006,1,10,0:0:0:0:
249,128,196183,6,0,P|170:109|54:106,1,168.75,2|0,0:0|0:0,0:0:0:0:
82,104,196538,1,2,0:0:0:0:
314,29,196716,2,0,P|365:65|384:126,1,112.5,10|8,0:0|0:0,0:0:0:0:
371,146,196982,1,8,0:0:0:0:
371,146,197071,1,0,1:2:0:0:
512,108,197248,1,0,0:0:0:0:
436,249,197426,2,0,P|428:314|419:376,1,112.5,8|10,0:0|0:0,0:0:0:0:
284,230,197781,6,0,B|304:334|197:362|197:362|178:333|123:328,1,225,2|10,1:2|0:0,0:0:0:0:
61,378,198313,2,0,P|38:328|38:259,1,112.5,2|0,0:0|1:2,0:0:0:0:
199,215,198669,2,0,P|173:146|95:55,1,168.75,2|0,0:0|0:0,0:0:0:0:
114,71,199024,1,2,0:0:0:0:
74,187,199201,5,2,1:2:0:0:
62,0,199379,1,0,0:0:0:0:
245,76,199556,1,10,0:0:0:0:
309,17,199734,5,8,0:0:0:0:
309,17,199822,1,8,0:0:0:0:
309,17,199911,1,2,1:2:0:0:
296,181,200089,1,0,0:0:0:0:
434,114,200266,2,0,P|493:144|509:222,1,112.5,10|10,0:0|0:0,0:0:0:0:
480,256,200532,1,10,0:0:0:0:
480,256,200621,6,0,B|504:273|512:306|501:311|497:338|515:369|515:369|507:379|408:195|269:200|240:258,1,450,6|0,1:2|0:2,0:0:0:0:
172,205,201331,1,0,1:2:0:0:
317,350,201509,2,0,P|362:314|354:257,1,112.5,2|8,0:0|0:0,0:0:0:0:
138,299,201864,2,0,P|90:243|73:137,1,168.75,2|0,0:0|0:0,0:0:0:0:
71,151,202219,1,2,0:0:0:0:
245,249,202396,1,10,0:0:0:0:
365,128,202574,5,10,0:0:0:0:
365,128,202663,1,8,0:0:0:0:
365,128,202751,1,0,1:2:0:0:
416,3,202929,1,0,0:0:0:0:
287,76,203106,2,0,P|225:92|165:110,1,112.5,8|10,0:0|0:0,0:0:0:0:
141,91,203373,1,8,0:0:0:0:
141,91,203461,6,0,P|119:40|70:12,1,112.5,2|2,1:2|0:0,0:0:0:0:
0,56,203816,1,10,0:0:0:0:
224,206,203994,2,0,P|185:266|65:303,1,168.75,10|0,0:0|0:0,0:0:0:0:
67,289,204349,1,2,0:0:0:0:
238,372,204527,1,10,0:0:0:0:
112,195,204704,1,2,0:2:0:0:
263,290,204882,5,8,0:3:0:0:
309,34,205059,1,8,0:3:0:0:
112,195,205237,1,6,0:3:0:0:
391,169,205414,1,8,0:0:0:0:
144,48,205592,5,6,1:2:0:0:
444,97,205769,1,8,0:3:0:0:
487,142,205858,1,8,0:0:0:0:
491,191,205947,1,10,1:2:0:0:
465,237,206035,1,8,0:0:0:0:
431,254,206124,1,8,0:0:0:0:
401,255,206213,1,8,0:0:0:0:
382,249,206302,6,0,B|301:229|227:261|280:283|205:331|135:305,1,225,6|8,1:2|0:0,0:0:0:0:
5,250,206834,1,0,0:0:0:0:
64,373,207012,2,0,P|89:304|85:228,1,112.5,2|2,1:2|0:0,0:0:0:0:
59,110,207367,1,10,0:0:0:0:
318,162,207544,6,0,P|260:227|192:188,1,168.75,2|0,0:0|0:0,0:0:0:0:
198,198,207899,2,0,P|189:154|166:132,1,56.25,2|0,1:2|1:2,0:0:0:0:
59,110,208077,1,10,0:0:0:0:
181,27,208254,2,0,P|247:39|311:46,1,112.5,8|2,0:0|1:2,0:0:0:0:
488,8,208609,1,0,0:0:0:0:
425,157,208787,2,0,P|421:92|403:32,1,112.5,8|10,0:0|0:0,0:0:0:0:
291,187,209053,1,8,0:0:0:0:
291,187,209142,6,0,P|337:253|394:257,1,112.5,2|0,1:2|0:0,0:0:0:0:
453,380,209497,2,0,P|400:357|332:359,1,112.5,10|2,0:0|0:0,0:0:0:0:
145,377,209852,1,2,1:2:0:0:
206,248,210029,6,0,P|238:302|252:374,1,112.5,2|8,0:0|0:0,0:0:0:0:
241,384,210296,1,8,0:0:0:0:
241,384,210384,1,0,3:2:0:0:
21,326,210562,6,0,P|80:305|93:248,1,112.5,2|0,1:2|0:0,0:0:0:0:
28,106,210917,1,10,0:0:0:0:
213,175,211095,1,8,0:0:0:0:
213,175,211183,1,8,0:0:0:0:
213,175,211272,2,0,B|309:155|242:111|390:98,1,168.75,2|0,1:2|0:0,0:0:0:0:
359,101,211627,2,0,P|389:68|390:37,1,56.25,10|8,1:2|0:0,0:0:0:0:
471,54,211805,2,0,P|461:11|444:-13,1,56.25,8|8,0:0|0:0,0:0:0:0:
512,182,211982,6,0,B|581:393|277:440|379:376|486:298|459:202|409:157|329:209,1,450,6|0,1:2|0:0,0:0:0:0:
320,295,212692,2,0,P|377:311|408:262,1,112.5,0|0,1:2|0:0,0:0:0:0:
234,156,213047,2,0,P|231:238|199:354,1,168.75,10|0,0:0|0:0,0:0:0:0:
211,322,213402,6,0,P|161:324|115:367,1,112.5,2|0,1:2|0:0,0:0:0:0:
3,164,213757,1,10,0:0:0:0:
123,251,213935,2,0,P|148:157|146:95,1,112.5,2|0,0:0|1:2,0:0:0:0:
17,32,214290,2,0,P|70:53|114:4,1,112.5,2|8,0:0|0:0,0:0:0:0:
333,107,214645,1,10,0:0:0:0:
192,75,214822,6,0,P|260:38|388:36,1,196.875,6|0,1:2|0:0,0:0:0:0:
377,33,215177,2,0,P|404:102|461:103,1,131.25,8|8,0:0|0:2,0:0:0:0:
486,82,215444,1,8,0:0:0:0:
486,82,215532,1,2,1:2:0:0:
364,270,215710,1,0,1:2:0:0:
462,194,215887,2,0,P|493:275|494:327,1,131.25,8|10,0:0|0:3,0:0:0:0:
209,155,216242,5,10,0:0:0:0:
364,270,216420,1,10,0:0:0:0:
88,203,216598,5,10,0:0:0:0:
346,377,216775,1,14,0:2:0:0:
303,155,216953,5,0,1:2:0:0:
73,126,217130,1,10,0:0:0:0:
18,156,217219,1,8,0:0:0:0:
0,209,217308,1,8,0:0:0:0:
15,255,217396,1,8,0:0:0:0:
51,281,217485,1,8,0:0:0:0:
87,281,217574,1,8,0:0:0:0:
103,273,217663,6,0,P|175:250|261:248,1,150,6|2,1:2|0:0,0:0:0:0:
303,156,218195,2,0,P|371:195|395:293,1,150,2|2,0:0|0:0,0:0:0:0:
397,258,218728,1,2,0:0:0:0:
512,91,218905,6,0,P|419:103|398:50,1,150,2|2,0:0|0:0,0:0:0:0:
398,65,219349,1,2,0:0:0:0:
398,65,219438,1,2,0:0:0:0:
298,39,219615,2,0,P|241:52|163:122,1,150,2|2,0:0|0:0,0:0:0:0:
96,30,220148,2,0,P|63:62|66:102,1,75,2|2,0:0|0:0,0:0:0:0:
159,192,220503,6,0,P|179:229|193:270,2,75,2|2|2,0:0|0:0|0:0,0:0:0:0:
77,196,221035,1,2,0:0:0:0:
282,271,221213,2,0,P|254:355|171:385,1,150,2|2,0:0|0:0,0:0:0:0:
0,384,221745,2,0,P|69:342|158:317,1,150,2|2,0:0|0:0,0:0:0:0:
134,320,222189,1,2,0:0:0:0:
134,320,222278,1,2,0:0:0:0:
290,371,222456,2,0,B|416:358|345:284|502:270,1,225,2|2,0:0|0:0,0:0:0:0:
512,384,223166,5,2,0:0:0:0:
512,384,223254,1,2,0:0:0:0:
512,384,223343,2,0,P|478:308|470:140,1,225,2|2,0:0|0:0,0:0:0:0:
465,168,224231,1,2,0:0:0:0:
366,90,224763,2,0,B|350:141|280:155|280:155|231:105|249:42,1,235.5,2|2,0:0|0:0,0:0:0:0:
146,185,225928,1,2,0:0:0:0:
7,140,226356,6,0,P|57:118|90:119,1,84.3750032186509,2|2,0:0|0:0,0:0:0:0:
258,42,227030,2,0,P|299:71|311:100,1,75,2|2,0:0|0:0,0:0:0:0:
251,244,227720,2,0,P|246:278|246:293,1,46.875,2|2,0:0|0:0,0:0:0:0:
383,352,228256,6,0,P|417:334|443:327,1,56.2500021457673,2|2,0:0|0:0,0:0:0:0:
482,243,228777,2,0,P|441:224|429:210,1,56.2500021457673,2|2,0:0|0:0,0:0:0:0:
467,42,229365,1,2,0:0:0:0:
119,91,230744,6,0,B|122:86|87:20|1:72|-46:168|5:209|72:245|146:201|235:242|235:242|158:175|183:51|383:167|305:-3|224:-10|127:72|136:130,1,804.195015628338,2|2,0:0|0:0,0:0:0:0:
