osu file format v14

[General]
AudioFilename: audio.mp3
AudioLeadIn: 0
PreviewTime: 248616
Countdown: 0
SampleSet: Soft
StackLeniency: 0.3
Mode: 0
LetterboxInBreaks: 0
WidescreenStoryboard: 1

[Editor]
DistanceSpacing: 1.3
BeatDivisor: 4
GridSize: 8
TimelineZoom: 2.7

[Metadata]
Title:Kawari Yuku Mono
TitleUnicode:変わりゆくもの
Artist:Shimotsuki Haruka
ArtistUnicode:霜月はるか
Creator:Lasse
Version:Blossom
Source:
Tags:canoue Original Fantasy CD canoueV~竜の棺は泉に沈む~ c92 MANYO 日山尚
BeatmapID:1386644
BeatmapSetID:654160

[Difficulty]
HPDrainRate:4
CircleSize:6
OverallDifficulty:8
ApproachRate:6
SliderMultiplier:0.999999999999999
SliderTickRate:1

[Events]
//Background and Video events
0,0,"bg.jpg",0,0
//Break Periods
//Storyboard Layer 0 (Background)
//Storyboard Layer 1 (Fail)
//Storyboard Layer 2 (Pass)
//Storyboard Layer 3 (Foreground)
//Storyboard Sound Samples

[TimingPoints]
487,441.176470588235,3,2,22,16,1,0
11075,-125,3,2,22,26,0,0
14604,-200,3,2,22,26,0,0
14825,-200,3,2,22,20,0,0
15045,-125,3,2,22,26,0,0
20781,-125,3,2,22,25,0,0
21001,-125,3,2,22,24,0,0
21222,-125,3,2,22,23,0,0
21442,-125,3,2,22,21,0,0
21663,-142.857142857143,3,2,22,18,0,0
32251,-133.333333333333,3,2,22,22,0,0
42839,-133.333333333333,3,2,22,24,0,0
46148,-133.333333333333,3,2,22,14,0,0
46589,-133.333333333333,3,2,22,24,0,0
63575,-200,3,2,22,20,0,0
63795,-200,3,2,22,18,0,0
64016,-100,3,2,22,28,0,1
82545,-83.3333333333333,3,2,22,28,0,1
83869,-71.4285714285714,3,2,22,28,0,1
84751,-200,3,2,22,20,0,0
84972,-200,3,2,22,18,0,0
85192,-100,3,2,22,28,0,1
103722,-90.9090909090909,3,2,22,28,0,1
106369,-111.111111111111,3,2,22,24,0,0
111222,-111.111111111111,3,2,22,20,0,0
111663,-142.857142857143,3,2,22,18,0,0
112104,-142.857142857143,3,2,22,14,0,0
115634,-142.857142857143,3,2,22,16,0,0
116957,-142.857142857143,3,2,22,18,0,0
122251,-125,3,2,22,26,0,0
125781,-200,3,2,22,26,0,0
126001,-200,3,2,22,20,0,0
126222,-125,3,2,22,26,0,0
131957,-125,3,2,22,25,0,0
132178,-125,3,2,22,24,0,0
132398,-125,3,2,22,23,0,0
132619,-125,3,2,22,21,0,0
132839,-133.333333333333,3,2,22,22,0,0
143428,-125,3,2,22,24,0,0
153354,-125,3,2,56,24,0,0
154016,-117.647058823529,3,2,22,26,0,0
162839,-117.647058823529,3,2,56,26,0,0
163281,-117.647058823529,3,2,22,26,0,0
169678,-117.647058823529,3,2,22,20,0,0
169898,-117.647058823529,3,2,22,28,0,0
172545,-117.647058823529,3,2,22,30,0,0
173869,-100,3,2,22,32,0,0
174310,-100,3,2,56,26,0,0
174751,-200,3,2,56,30,0,0
174972,-200,3,2,56,32,0,0
175192,-90.9090909090909,3,2,22,34,0,1
185339,-90.9090909090909,3,2,56,34,0,1
185781,-90.9090909090909,3,2,22,34,0,1
193722,-76.9230769230769,3,2,22,34,0,1
195045,-66.6666666666667,3,2,22,34,0,1
195486,-66.6666666666667,3,2,56,34,0,1
195928,-200,3,2,56,30,0,0
196148,-200,3,2,56,26,0,0
196369,-90.9090909090909,3,2,22,34,0,1
206736,-90.9090909090909,3,2,56,24,0,1
206957,-90.9090909090909,3,2,22,34,0,1
214898,-83.3333333333333,3,2,22,34,0,1
216884,-83.3333333333333,3,2,56,34,0,1
217545,-100,3,2,22,30,0,0
217986,-100,3,2,22,26,0,0
218207,-100,3,2,22,24,0,0
218648,-100,3,2,22,22,0,0
218869,-125,3,2,22,20,0,0
222839,-100,3,2,56,36,0,0
223060,-125,3,2,22,22,0,0
227472,-125,3,2,56,22,0,0
227692,-166.666666666667,3,2,56,24,0,0
227913,-166.666666666667,3,2,56,14,0,0
228134,-111.111111111111,3,2,22,26,0,0
232104,416.666666666667,3,2,22,26,1,0
232937,476.190476190476,3,2,22,26,1,0
233175,397.350993377483,3,2,22,26,1,0
233373,472.44094488189,3,2,22,26,1,0
233846,500,3,2,22,26,1,0
234095,425.531914893617,3,2,22,26,1,0
234307,382.165605095541,3,2,22,26,1,0
234498,480,3,2,22,26,1,0
234738,441.176470588235,3,2,22,26,1,0
235179,451.127819548872,3,2,22,26,1,0
235630,444.444444444444,3,2,22,26,1,0
236075,441.176470588235,3,2,22,26,1,0
236075,-111.111111111111,3,2,22,26,0,0
237839,625,3,2,22,26,1,0
237839,-100,3,2,22,26,0,0
238151,333.333333333333,3,2,22,26,1,0
238151,-133.333333333333,3,2,22,26,0,0
238484,428.571428571429,3,2,22,26,1,0
238698,454.545454545455,3,2,22,26,1,0
239379,465.116279069767,3,2,22,26,1,0
239611,397.350993377483,3,2,22,26,1,0
239611,-125,3,2,22,26,0,0
240008,451.127819548872,3,2,22,26,1,0
240459,466.926070038911,3,2,22,26,1,0
240692,437.956204379562,3,2,22,26,1,0
240910,428.571428571429,3,2,22,26,1,0
241338,465.116279069767,3,2,22,26,1,0
242035,454.545454545455,3,2,22,26,1,0
242489,377.358490566038,3,2,22,26,1,0
242677,454.545454545455,3,2,22,26,1,0
243134,441.176470588235,3,2,22,26,1,0
244678,422.535211267606,3,2,22,26,1,0
245100,491.803278688525,3,2,22,26,1,0
245345,436.363636363636,3,2,22,26,1,0
245781,416.666666666667,3,2,22,26,1,0
246197,447.761194029851,3,2,22,26,1,0
246644,-100,3,2,22,30,0,0
247820,-100,3,2,22,20,0,0
247988,410.958904109589,3,2,22,28,1,0
248396,441.176470588235,3,2,56,26,1,0
249057,508.474576271186,3,2,56,24,1,0
249311,441.176470588235,3,2,22,20,1,0
249311,-142.857142857143,3,2,22,20,0,0
249366,-142.857142857143,3,2,22,10,0,0
251516,-142.857142857143,3,2,22,18,0,0
251958,-142.857142857143,3,2,22,20,0,0
252013,-142.857142857143,3,2,22,10,0,0
252619,-142.857142857143,3,2,22,18,0,0
253281,-142.857142857143,3,2,22,20,0,0
253722,-142.857142857143,3,2,22,18,0,0
254163,-142.857142857143,3,2,22,20,0,0
254605,-142.857142857143,3,2,22,22,0,0
254660,-142.857142857143,3,2,22,10,0,0
255928,-142.857142857143,3,2,22,18,0,0
256369,-142.857142857143,3,2,22,20,0,0
256811,-142.857142857143,3,2,22,18,0,0
257252,-142.857142857143,3,2,22,20,0,0
264090,-142.857142857143,3,2,22,12,0,0
264311,-142.857142857143,3,2,22,20,0,0
264531,-142.857142857143,3,2,22,12,0,0
264752,-142.857142857143,3,2,22,20,0,0
264972,-142.857142857143,3,2,22,12,0,0
265193,-142.857142857143,3,2,22,24,0,0
265303,-142.857142857143,3,2,22,10,0,0
265855,-142.857142857143,3,2,22,18,0,0
266516,-142.857142857143,3,2,22,20,0,0
266627,-142.857142857143,3,2,22,10,0,0
267399,-142.857142857143,3,2,22,18,0,0
267840,-125,3,2,22,26,0,0
268281,-125,3,2,22,26,0,0
269163,-111.111111111111,3,2,22,28,0,0
269605,-111.111111111111,3,2,56,28,0,0
269825,-111.111111111111,3,2,22,28,0,0
270046,-111.111111111111,3,2,56,30,0,0
270266,-111.111111111111,3,2,56,26,0,0
270487,-90.9090909090909,3,2,22,34,0,1
280303,-90.9090909090909,3,2,56,34,0,1
280524,-90.9090909090909,3,2,56,30,0,1
280744,-90.9090909090909,3,2,56,26,0,1
281075,-90.9090909090909,3,2,22,34,0,1
289016,-83.3333333333333,3,2,22,34,0,1
291002,-83.3333333333333,3,2,56,34,0,1
291663,-100,3,2,22,30,0,0
292987,-100,3,2,22,28,0,0
296516,-100,3,2,56,26,0,0
296958,-100,3,2,22,24,0,0
297399,-166.666666666667,3,2,22,20,0,0
307325,-166.666666666667,3,2,22,18,0,0
307546,-142.857142857143,3,2,22,22,0,0
318024,-142.857142857143,3,2,22,14,0,0
318134,645.161290322581,3,2,22,20,1,0
318295,902.255639097744,3,2,22,10,1,0
319197,750,3,2,22,18,1,0
319383,1045.29616724739,3,2,22,17,1,0
319644,1188.11881188119,3,2,22,16,1,0
319941,1587.30158730159,3,2,22,17,1,0
320337,2222.22222222222,3,2,22,19,1,0
320892,3488.37209302326,3,2,22,20,1,0

[Colours]
Combo1 : 250,190,190
Combo2 : 170,220,240
Combo3 : 255,240,170
Combo4 : 190,240,180

[HitObjects]
40,295,376,5,2,0:3:0:0:
40,295,431,1,2,0:3:0:0:
40,295,487,6,0,P|49:271|53:247,1,50,6|2,0:1|0:3,0:0:0:0:
38,188,928,2,0,P|28:164|24:140,1,50,2|2,0:1|0:3,0:0:0:0:
41,82,1369,2,0,P|56:62|75:46,1,50,2|2,0:1|0:3,0:0:0:0:
152,22,1810,5,10,0:2:0:0:
206,46,2031,1,2,0:1:0:0:
283,25,2251,1,2,0:2:0:0:
292,21,2692,5,2,0:1:0:0:
337,60,2913,1,2,0:1:0:0:
414,38,3134,6,0,P|443:35|470:40,1,50,10|2,0:1|0:3,0:0:0:0:
439,96,3575,5,2,0:1:0:0:
493,110,3795,1,2,0:3:0:0:
448,158,4016,5,2,0:1:0:0:
503,183,4236,1,2,0:3:0:0:
478,266,4457,5,10,0:2:0:0:
442,218,4678,1,2,0:3:0:0:
366,193,4898,1,2,0:2:0:0:
356,190,5339,5,2,0:0:0:0:
296,198,5560,1,2,0:0:0:0:
254,267,5781,5,6,0:2:0:0:
206,302,6001,1,2,0:2:0:0:
163,370,6222,1,2,0:2:0:0:
163,370,6884,5,2,0:0:0:0:
115,333,7104,1,2,0:2:0:0:
84,270,7325,1,2,0:0:0:0:
85,190,7545,1,2,0:0:0:0:
88,180,7986,5,4,0:2:0:0:
91,170,8428,6,0,P|97:143|99:110,1,50,6|2,0:1|0:3,0:0:0:0:
161,64,8869,5,2,0:1:0:0:
99,111,9089,1,2,0:3:0:0:
151,66,9310,5,2,0:1:0:0:
98,101,9531,1,2,0:3:0:0:
186,119,9751,6,0,P|210:115|235:114,1,50,10|2,0:1|0:3,0:0:0:0:
308,87,10192,5,2,0:0:0:0:
245,118,10413,1,2,0:3:0:0:
307,97,10634,5,2,0:0:0:0:
252,125,10854,1,2,0:3:0:0:
350,141,11075,6,0,B|374:139|390:147|390:147|408:149|434:135,1,79.9999999999999,6|2,0:0|0:2,0:0:0:0:
435,132,11957,2,0,L|439:90,1,40,2|2,0:1|0:3,0:0:0:0:
337,17,12398,5,10,0:2:0:0:
280,61,12619,1,2,0:1:0:0:
209,45,12839,1,2,0:2:0:0:
203,37,13281,5,2,0:1:0:0:
159,94,13501,1,2,0:1:0:0:
84,96,13722,2,0,B|47:88|47:88|6:112|19:159,1,120,6|0,0:0|0:0,0:0:0:0:
61,244,14604,6,0,L|61:219,1,25,2|2,0:0|0:3,0:0:0:0:
4,292,15045,5,10,0:0:0:0:
74,317,15266,1,2,0:0:0:0:
130,268,15486,1,2,0:0:0:0:
138,262,15928,5,2,0:0:0:0:
208,237,16148,1,2,0:0:0:0:
334,262,16369,5,10,0:0:0:0:
348,189,16589,1,2,0:0:0:0:
291,140,16810,2,0,B|268:133|249:141|249:141|223:138|211:124,1,79.9999999999999,6|2,0:0|0:3,0:0:0:0:
157,81,17472,1,2,0:0:0:0:
150,169,17692,5,10,0:0:0:0:
215,128,17913,1,2,0:0:0:0:
291,140,18134,2,0,B|325:147|342:133|342:133|374:116|406:138,1,120,6|2,0:2|0:3,0:0:0:0:
466,250,19016,5,10,0:0:0:0:
379,236,19236,1,2,0:0:0:0:
321,348,19457,6,0,P|331:331|334:312,1,40,6|0,0:0|0:0,0:0:0:0:
207,311,19898,2,0,P|227:312|246:303,1,40,2|0,0:0|0:0,0:0:0:0:
182,194,20339,2,0,P|191:211|207:223,1,40,4|0,0:3|0:0,0:0:0:0:
270,112,20781,5,2,0:3:0:0:
263,119,21001,1,2,0:3:0:0:
259,128,21222,1,2,0:3:0:0:
257,138,21442,1,2,0:3:0:0:
257,148,21663,6,0,L|172:140,2,69.9999978637695,6|2|2,0:0|0:0|0:0,0:0:0:0:
351,99,22986,2,0,P|365:65|356:27,1,69.9999978637695,10|0,0:0|0:0,0:0:0:0:
245,26,23869,5,2,0:3:0:0:
236,32,24089,1,2,0:3:0:0:
229,40,24310,2,0,P|194:40|150:29,1,69.9999978637695,10|0,0:0|0:0,0:0:0:0:
86,16,24972,5,2,0:3:0:0:
93,23,25192,1,2,0:3:0:0:
97,32,25413,1,2,0:3:0:0:
98,42,25634,2,0,P|85:74|82:109,2,69.9999978637695,10|2|2,0:0|0:1|0:3,0:0:0:0:
221,95,26957,6,0,L|152:89,1,69.9999978637695,4|2,0:3|0:3,0:0:0:0:
82,110,27619,1,2,0:3:0:0:
92,182,27839,6,0,P|93:201|89:226,1,34.9999989318848,2|0,0:0|0:0,0:0:0:0:
22,224,28281,2,0,L|91:217,1,69.9999978637695,8|2,0:0|0:3,0:0:0:0:
154,251,28942,5,2,0:3:0:0:
158,260,29163,1,2,0:3:0:0:
161,270,29384,1,2,0:3:0:0:
162,280,29604,2,0,P|152:305|151:320,1,34.9999989318848,10|0,0:0|0:0,0:0:0:0:
151,312,30266,5,2,0:3:0:0:
155,321,30486,1,2,0:3:0:0:
158,331,30707,1,2,0:3:0:0:
159,341,30928,5,2,0:1:0:0:
214,361,31148,1,2,0:0:0:0:
272,351,31369,1,4,0:3:0:0:
272,351,32251,6,0,P|310:341|358:347,1,75.000002861023,6|2,0:0|0:0,0:0:0:0:
459,306,33134,5,2,0:0:0:0:
465,297,33354,1,2,0:3:0:0:
506,253,33575,2,0,P|513:216|499:167,1,75.000002861023,10|4,0:0|0:3,0:0:0:0:
391,128,34457,5,2,0:0:0:0:
382,134,34678,1,2,0:3:0:0:
339,176,34898,2,0,P|302:183|253:169,1,75.000002861023,10|2,0:0|0:0,0:0:0:0:
262,115,35560,5,2,0:3:0:0:
269,106,35781,1,2,0:3:0:0:
278,99,36001,1,2,0:3:0:0:
339,102,36222,2,0,P|346:139|332:188,2,75.000002861023,10|2|2,0:0|0:3|0:3,0:0:0:0:
348,42,37325,1,2,0:3:0:0:
402,16,37545,6,0,P|418:12|443:12,1,37.5000014305115,6|2,0:0|0:3,0:0:0:0:
491,42,37986,2,0,P|496:57|500:82,2,37.5000014305115,2|2|2,0:1|0:1|0:3,0:0:0:0:
439,12,38648,5,2,0:3:0:0:
381,30,38869,1,2,0:0:0:0:
370,27,39089,1,2,0:3:0:0:
311,39,39310,2,0,L|268:34,1,37.5000014305115,10|0,0:0|0:0,0:0:0:0:
214,67,39751,5,2,0:1:0:0:
225,70,39972,1,2,0:3:0:0:
279,95,40192,5,2,0:0:0:0:
274,105,40413,1,2,0:3:0:0:
220,133,40634,6,0,P|204:169|206:215,1,75.000002861023,10|0,0:1|0:0,0:0:0:0:
203,204,41516,2,0,P|218:237|219:275,1,75.000002861023,6|0,0:1|0:0,0:0:0:0:
184,324,42178,5,2,0:3:0:0:
175,330,42398,1,2,0:3:0:0:
167,338,42619,1,2,0:3:0:0:
111,361,42839,5,2,0:0:0:0:
100,358,43060,1,2,0:3:0:0:
91,354,43281,2,0,P|88:320|107:282,1,75.000002861023,6|0,0:2|0:0,0:0:0:0:
105,284,44163,2,0,P|121:250|119:213,1,75.000002861023,4|0,0:3|0:0,0:0:0:0:
83,165,44825,5,2,0:3:0:0:
76,157,45045,1,2,0:3:0:0:
70,147,45266,1,2,0:3:0:0:
100,95,45486,5,2,0:0:0:0:
107,87,45707,1,2,0:3:0:0:
113,77,45928,2,0,L|119:23,1,37.5000014305115,2|10,0:0|0:3,0:0:0:0:
117,40,46589,5,2,0:3:0:0:
127,33,46810,2,0,L|218:27,1,75.000002861023,10|2,0:0|0:3,0:0:0:0:
260,18,47472,5,2,0:3:0:0:
304,57,47692,1,2,0:0:0:0:
308,68,47913,1,2,0:3:0:0:
326,125,48134,5,2,0:0:0:0:
322,136,48354,1,2,0:3:0:0:
274,172,48575,2,0,P|240:166|194:167,2,75.000002861023,10|2|2,0:0|0:3|0:3,0:0:0:0:
342,270,49898,5,2,0:2:0:0:
457,236,50339,1,2,0:0:0:0:
460,116,50781,2,0,B|455:100|456:90|456:90|469:68|466:41,1,75.000002861023,10|0,0:3|0:0,0:0:0:0:
416,7,51442,5,2,0:3:0:0:
406,13,51663,1,2,0:3:0:0:
400,22,51884,1,2,0:3:0:0:
358,64,52104,2,0,P|320:60|279:57,1,75.000002861023,4|0,0:0|0:3,0:0:0:0:
236,95,52766,5,2,0:3:0:0:
182,68,52986,1,2,0:3:0:0:
176,58,53207,1,2,0:3:0:0:
121,33,53428,5,2,0:0:0:0:
110,31,53648,1,2,0:3:0:0:
98,30,53869,2,0,P|57:28|17:23,1,75.000002861023,10|0,0:3|0:0,0:0:0:0:
24,24,54751,2,0,P|32:64|38:104,1,75.000002861023,4|0,0:3|0:0,0:0:0:0:
15,153,55413,5,2,0:3:0:0:
32,210,55634,1,2,0:3:0:0:
40,218,55854,1,2,0:3:0:0:
87,254,56075,5,2,0:0:0:0:
98,256,56295,1,2,0:3:0:0:
110,257,56516,2,0,P|151:259|191:264,1,75.000002861023,2|2,0:2|0:3,0:0:0:0:
184,263,57398,2,0,P|225:261|265:256,2,75.000002861023,10|2|2,0:0|0:3|0:3,0:0:0:0:
141,305,58501,1,2,0:3:0:0:
183,347,58722,6,0,P|220:348|257:353,1,75.000002861023,6|2,0:0|0:3,0:0:0:0:
316,363,59384,2,0,P|338:361|360:358,1,37.5000014305115,2|0,0:0|0:3,0:0:0:0:
412,371,59825,1,2,0:3:0:0:
463,341,60045,5,4,0:3:0:0:
342,299,60486,1,10,0:3:0:0:
438,215,60928,1,10,0:2:0:0:
318,126,61369,6,0,P|304:93|309:39,1,75.000002861023,6|2,0:1|0:3,0:0:0:0:
352,18,62031,1,2,0:3:0:0:
411,22,62251,2,0,P|435:24|460:17,1,37.5000014305115,10|0,0:2|0:3,0:0:0:0:
504,98,62692,5,10,0:1:0:0:
397,306,63575,6,0,L|395:277,1,25,8|0,0:0|0:3,0:0:0:0:
395,281,64016,6,0,P|346:274|304:298,1,99.9999999999999,6|2,0:0|0:3,0:0:0:0:
242,348,64678,1,2,0:0:0:0:
183,293,64898,2,0,L|175:229,1,50,2|0,0:0|0:0,0:0:0:0:
92,311,65339,6,0,P|140:317|183:293,1,99.9999999999999,10|2,0:3|0:3,0:0:0:0:
245,242,66001,1,2,0:0:0:0:
304,298,66222,2,0,L|312:362,1,50,2|0,0:0|0:0,0:0:0:0:
336,225,66663,6,0,P|288:218|245:242,1,99.9999999999999,4|0,0:3|0:0,0:0:0:0:
183,293,67325,2,0,P|159:289|121:290,2,50,2|0|0,0:0|0:0|0:0,0:0:0:0:
305,299,67986,6,0,P|329:295|367:296,1,50,10|0,0:2|0:0,0:0:0:0:
217,358,68428,2,0,P|193:362|155:361,1,50,10|0,0:3|0:0,0:0:0:0:
149,228,68869,1,2,0:0:0:0:
183,293,69089,1,2,0:0:0:0:
183,163,69310,6,0,P|184:111|188:48,1,99.9999999999999,6|2,0:0|0:3,0:0:0:0:
251,16,69972,1,2,0:0:0:0:
327,38,70192,2,0,P|357:36|395:33,1,50,2|0,0:0|0:0,0:0:0:0:
491,128,70634,6,0,P|442:120|393:113,1,99.9999999999999,10|2,0:3|0:3,0:0:0:0:
327,158,71295,1,2,0:0:0:0:
247,168,71516,2,0,P|222:166|197:164,1,50,2|0,0:0|0:0,0:0:0:0:
321,237,71957,6,0,P|370:228|419:221,1,99.9999999999999,4|0,0:3|0:0,0:0:0:0:
373,307,72619,2,0,P|395:289|416:283,1,50,2|0,0:0|0:0,0:0:0:0:
495,292,73060,1,2,0:0:0:0:
418,344,73281,6,0,P|369:341|319:339,1,99.9999999999999,10|2,0:0|0:0,0:0:0:0:
309,347,74163,1,2,0:0:0:0:
230,331,74384,1,2,0:0:0:0:
150,350,74604,6,0,P|125:350|101:349,2,50,6|2|0,0:0|0:3|0:0,0:0:0:0:
309,347,75266,1,2,0:0:0:0:
230,331,75486,1,2,0:0:0:0:
151,350,75707,1,2,0:0:0:0:
89,238,75928,6,0,P|94:263|98:287,1,50,10|0,0:2|0:0,0:0:0:0:
174,164,76369,2,0,P|169:189|166:214,1,50,10|0,0:3|0:0,0:0:0:0:
115,110,76810,1,2,0:0:0:0:
115,110,77031,1,2,0:0:0:0:
205,35,77251,6,0,P|180:35|156:42,1,50,4|0,0:3|0:0,0:0:0:0:
260,45,77692,2,0,P|239:33|215:27,1,50,8|0,0:2|0:0,0:0:0:0:
302,82,78134,2,0,P|289:60|272:42,1,50,10|0,0:3|0:0,0:0:0:0:
276,167,78575,6,0,P|251:160|230:147,1,50,2|0,0:2|0:0,0:0:0:0:
331,169,79016,2,0,P|307:175|282:175,1,50,8|0,0:2|0:0,0:0:0:0:
380,145,79457,2,0,P|362:162|340:175,1,50,10|0,0:3|0:0,0:0:0:0:
400,307,79898,6,0,P|417:261|399:215,1,99.9999999999999,6|0,0:0|0:0,0:0:0:0:
297,257,80560,2,0,L|347:261,2,50,2|0|0,0:0|0:0|0:0,0:0:0:0:
296,348,81222,6,0,P|279:302|297:257,1,99.9999999999999,10|0,0:3|0:0,0:0:0:0:
297,257,81884,1,2,0:3:0:0:
400,307,82104,2,0,L|350:303,1,50,2|0,0:0|0:0,0:0:0:0:
199,304,82545,6,0,P|257:302|295:347,1,119.999996337891,6|2,0:1|0:3,0:0:0:0:
230,367,83207,1,2,0:1:0:0:
199,304,83428,2,0,L|193:245,1,59.9999981689453,2|0,0:0|0:0,0:0:0:0:
59,191,83869,6,0,P|125:201|168:149,1,139.999995727539,10|2,0:1|0:3,0:0:0:0:
101,136,84531,1,2,0:0:0:0:
225,145,84751,6,0,P|223:133|219:122,1,25,10|0,0:0|0:0,0:0:0:0:
219,121,85192,6,0,P|170:117|134:83,1,99.9999999999999,6|2,0:0|0:3,0:0:0:0:
204,44,85854,1,2,0:0:0:0:
277,73,86075,2,0,P|282:49|280:25,1,50,2|0,0:1|0:0,0:0:0:0:
373,94,86516,6,0,P|328:75|278:74,1,99.9999999999999,10|2,0:3|0:3,0:0:0:0:
213,123,87178,1,2,0:0:0:0:
141,86,87398,2,0,P|132:62|132:37,1,50,2|0,0:0|0:0,0:0:0:0:
46,107,87839,6,0,P|91:87|141:86,1,99.9999999999999,4|0,0:3|0:0,0:0:0:0:
213,123,88501,2,0,P|243:125|280:115,2,50,2|0|0,0:0|0:0|0:0,0:0:0:0:
134,212,89163,6,0,P|131:187|123:164,1,50,10|0,0:2|0:0,0:0:0:0:
204,251,89604,2,0,P|213:227|227:207,1,50,10|0,0:3|0:0,0:0:0:0:
135,292,90045,1,2,0:0:0:0:
134,212,90266,1,2,0:0:0:0:
301,253,90486,6,0,P|256:241|202:252,1,99.9999999999999,6|2,0:0|0:3,0:0:0:0:
135,292,91148,1,2,0:0:0:0:
66,251,91369,2,0,P|54:228|54:198,1,50,2|0,0:0|0:0,0:0:0:0:
116,121,91810,6,0,P|160:132|214:121,1,99.9999999999999,10|2,0:3|0:3,0:0:0:0:
281,81,92472,1,2,0:0:0:0:
350,122,92692,2,0,P|362:145|362:175,1,50,2|0,0:0|0:0,0:0:0:0:
438,89,93134,6,0,P|389:92|348:124,1,99.9999999999999,4|0,0:3|0:0,0:0:0:0:
281,164,93795,2,0,P|256:168|224:160,1,50,2|0,0:0|0:0,0:0:0:0:
165,118,94236,1,2,0:0:0:0:
144,197,94457,6,0,P|193:194|233:161,1,99.9999999999999,10|2,0:0|0:3,0:0:0:0:
240,98,95119,1,2,0:0:0:0:
300,74,95339,2,0,P|320:68|357:68,1,50,2|0,0:0|0:0,0:0:0:0:
352,234,95781,6,0,P|330:189|337:141,1,99.9999999999999,6|2,0:0|0:3,0:0:0:0:
407,178,96442,1,2,0:0:0:0:
352,234,96663,2,0,P|330:237|300:233,1,50,10|0,0:2|0:0,0:0:0:0:
407,178,97104,2,0,P|429:175|459:179,1,50,10|0,0:3|0:0,0:0:0:0:
430,304,97545,6,0,L|432:255,1,50,4|0,0:3|0:0,0:0:0:0:
301,283,97986,2,0,L|302:233,1,50,2|0,0:1|0:0,0:0:0:0:
355,378,98428,2,0,L|357:329,1,50,10|0,0:0|0:0,0:0:0:0:
252,233,98869,6,0,P|277:237|302:233,1,50,10|0,0:3|0:0,0:0:0:0:
225,180,99310,2,0,P|230:205|241:228,1,50,2|0,0:0|0:0,0:0:0:0:
319,163,99751,6,0,P|300:146|278:134,1,50,2|0,0:0|0:0,0:0:0:0:
312,223,100192,2,0,P|322:200|327:175,1,50,2|0,0:0|0:0,0:0:0:0:
266,137,100634,6,0,P|244:149|226:166,1,50,4|0,0:3|0:0,0:0:0:0:
128,185,101075,6,0,P|177:194|224:179,1,99.9999999999999,6|0,0:0|0:0,0:0:0:0:
278,134,101736,2,0,P|301:121|335:117,2,50,2|0|0,0:0|0:0|0:0,0:0:0:0:
413,217,102398,6,0,P|372:190|323:187,1,99.9999999999999,10|0,0:3|0:0,0:0:0:0:
315,197,103281,1,2,0:0:0:0:
224,179,103501,1,2,0:0:0:0:
119,223,103722,6,0,P|160:188|214:187,1,110.000003356934,6|0,0:1|0:0,0:0:0:0:
95,308,104384,2,0,P|149:307|191:272,1,110.000003356934,2|0,0:0|0:0,0:0:0:0:
224,179,105045,5,10,0:1:0:0:
254,247,105266,1,2,0:1:0:0:
291,165,105486,5,10,0:0:0:0:
262,238,105707,1,2,0:1:0:0:
350,298,105928,5,10,0:2:0:0:
350,204,106148,1,2,0:1:0:0:
412,171,106369,6,0,P|425:134|420:75,1,89.999997253418,4|0,0:3|0:0,0:0:0:0:
374,32,107031,2,0,L|276:21,1,89.999997253418,2|0,0:0|0:0,0:0:0:0:
198,102,107692,6,0,P|239:85|283:90,2,89.999997253418,2|2|2,0:0|0:3|0:3,0:0:0:0:
157,159,108795,1,2,0:0:0:0:
75,116,109016,6,0,P|69:61|64:24,1,89.999997253418,2|0,0:0|0:0,0:0:0:0:
135,89,109678,2,0,P|142:67|153:48,2,44.999998626709,2|0|0,0:0|0:0|0:0,0:0:0:0:
156,158,110339,6,0,P|213:102|153:48,1,179.999994506836,6|10,0:0|0:1,0:0:0:0:
150,62,111663,6,0,L|229:66,1,69.9999978637695,6|2,0:1|0:3,0:0:0:0:
256,192,112325,12,2,114310,0:0:0:0:
210,279,115634,5,2,0:0:0:0:
423,348,116957,5,2,0:1:0:0:
427,338,117178,1,2,0:3:0:0:
432,329,117398,1,2,0:3:0:0:
481,228,117839,5,2,0:3:0:0:
477,218,118060,1,2,0:3:0:0:
439,176,118281,5,2,0:1:0:0:
444,167,118501,1,2,0:3:0:0:
448,157,118722,1,2,0:3:0:0:
386,63,119163,5,2,0:3:0:0:
382,53,119384,1,2,0:3:0:0:
327,40,119604,5,2,0:1:0:0:
315,39,119825,1,2,0:3:0:0:
304,37,120045,1,2,0:3:0:0:
294,34,120266,1,2,0:3:0:0:
270,51,120486,5,2,0:1:0:0:
263,58,120707,1,2,0:3:0:0:
210,39,120928,5,4,0:3:0:0:
115,106,121369,6,0,P|93:100|77:98,1,34.9999989318848,2|0,0:0|0:0,0:0:0:0:
19,132,121810,5,2,0:0:0:0:
21,63,122031,1,2,0:0:0:0:
115,106,122251,6,0,B|139:108|155:100|155:100|171:96|201:109,1,79.9999999999999,6|2,0:0|0:2,0:0:0:0:
201,112,123134,2,0,L|205:154,1,40,2|2,0:1|0:3,0:0:0:0:
191,257,123575,5,10,0:2:0:0:
248,213,123795,1,2,0:1:0:0:
319,229,124016,1,2,0:2:0:0:
324,238,124457,5,2,0:1:0:0:
368,295,124678,1,2,0:1:0:0:
443,297,124898,2,0,B|476:277|476:277|486:234|454:194,1,120,6|0,0:0|0:0,0:0:0:0:
401,127,125781,6,0,L|401:152,1,25,2|2,0:0|0:3,0:0:0:0:
458,79,126222,5,10,0:0:0:0:
391,44,126442,1,2,0:0:0:0:
328,84,126663,1,2,0:0:0:0:
318,86,127104,5,2,0:0:0:0:
256,35,127325,1,2,0:0:0:0:
169,144,127545,5,10,0:2:0:0:
181,64,127766,1,2,0:0:0:0:
256,35,127986,2,0,P|298:28|333:17,1,79.9999999999999,6|2,0:0|0:3,0:0:0:0:
411,33,128648,1,2,0:0:0:0:
380,132,128869,5,10,0:0:0:0:
318,86,129089,1,2,0:0:0:0:
242,98,129310,2,0,B|216:88|191:99|191:99|148:108|128:73,1,120,6|2,0:2|0:3,0:0:0:0:
140,198,130192,5,10,0:0:0:0:
220,161,130413,1,2,0:0:0:0:
304,254,130634,6,0,P|290:241|282:222,1,40,6|0,0:0|0:0,0:0:0:0:
427,259,131075,2,0,P|410:269|391:272,1,40,2|0,0:0|0:0,0:0:0:0:
460,140,131516,2,8,P|465:159|462:178,1,40,4|2,0:3|0:0,0:0:0:0:
353,78,131957,5,2,0:3:0:0:
362,77,132178,1,2,0:3:0:0:
372,78,132398,1,2,0:3:0:0:
382,80,132619,1,2,0:3:0:0:
441,78,132839,6,0,P|454:45|447:-4,2,75.000002861023,6|2|2,3:2|0:0|0:0,0:0:0:0:
441,78,134163,2,0,P|427:113|430:150,1,75.000002861023,10|0,1:2|0:0,0:0:0:0:
430,149,135045,5,2,0:3:0:0:
433,160,135266,1,2,0:3:0:0:
417,217,135486,2,0,P|381:206|344:211,1,75.000002861023,10|0,3:2|0:0,0:0:0:0:
305,257,136148,5,2,0:3:0:0:
301,268,136369,1,2,0:3:0:0:
298,279,136589,1,2,0:3:0:0:
249,314,136810,2,0,P|212:318|176:308,2,75.000002861023,10|2|2,1:2|0:1|0:3,0:0:0:0:
249,314,138134,6,0,P|252:289|258:269,1,37.5000014305115,4|0,3:3|0:0,0:0:0:0:
235,220,138575,2,0,P|231:195|226:175,1,37.5000014305115,2|0,0:1|0:3,0:0:0:0:
177,151,139016,1,2,0:0:0:0:
177,151,139457,2,0,P|140:155|104:145,1,75.000002861023,8|2,1:2|0:3,0:0:0:0:
62,102,140119,5,2,0:3:0:0:
57,91,140339,1,2,0:3:0:0:
55,79,140560,1,2,0:3:0:0:
97,36,140781,2,0,P|133:31|169:41,1,75.000002861023,10|2,3:2|0:3,0:0:0:0:
220,73,141442,5,2,0:3:0:0:
231,68,141663,1,2,0:3:0:0:
243,66,141884,1,2,0:3:0:0:
293,98,142104,5,2,1:1:0:0:
325,48,142325,1,2,0:0:0:0:
275,16,142545,1,4,0:3:0:0:
293,98,142766,5,0,1:0:0:0:
211,116,142986,2,0,P|188:125|169:139,1,37.5000014305115,0|0,1:0|3:0,0:0:0:0:
172,211,143428,6,0,L|178:117,1,79.9999999999999,6|2,0:0|0:0,0:0:0:0:
95,21,144310,5,2,0:0:0:0:
99,32,144531,1,2,0:3:0:0:
161,62,144751,2,0,P|200:54|248:49,1,79.9999999999999,10|4,1:2|0:3,0:0:0:0:
363,105,145634,5,2,0:0:0:0:
372,97,145854,1,2,0:3:0:0:
442,118,146075,2,0,P|403:110|355:105,1,79.9999999999999,10|2,3:2|0:0,0:0:0:0:
317,155,146736,5,2,0:3:0:0:
340,218,146957,1,2,0:3:0:0:
343,229,147178,1,2,0:3:0:0:
300,281,147398,2,0,P|260:276|221:268,2,79.9999999999999,10|2|2,1:2|0:3|0:3,0:0:0:0:
350,327,148501,1,2,0:3:0:0:
417,335,148722,6,0,P|439:338|459:345,1,40,6|2,3:2|0:3,0:0:0:0:
502,294,149163,2,0,P|495:274|493:255,2,40,2|2|2,0:1|0:1|0:3,0:0:0:0:
455,343,149825,5,2,0:3:0:0:
390,365,150045,1,2,1:2:0:0:
387,377,150266,1,2,0:3:0:0:
322,356,150486,2,0,P|300:352|272:348,1,40,10|0,0:0|0:0,0:0:0:0:
206,368,150928,5,2,0:1:0:0:
215,361,151148,1,2,0:3:0:0:
157,306,151369,5,2,3:2:0:0:
168,310,151589,1,2,0:3:0:0:
265,277,151810,6,0,P|248:288|235:302,1,40,10|0,0:1|1:0,0:0:0:0:
206,368,152251,1,2,0:0:0:0:
82,269,152692,6,0,L|79:182,1,79.9999999999999,6|0,3:1|1:0,0:0:0:0:
122,125,153354,5,10,0:3:0:0:
176,108,153575,1,6,0:3:0:0:
124,136,153795,1,6,0:3:0:0:
181,118,154016,5,6,3:2:0:0:
190,126,154236,1,2,0:2:0:0:
201,131,154457,2,0,P|226:127|255:125,1,42.5000008106231,2|0,0:2|1:0,0:0:0:0:
243,125,155119,5,2,0:0:0:0:
254,129,155339,2,0,P|291:130|343:117,1,85.0000016212463,4|0,3:3|3:0,0:0:0:0:
391,167,156001,5,2,0:3:0:0:
405,96,156222,1,2,1:1:0:0:
414,87,156442,1,2,0:3:0:0:
486,91,156663,5,2,3:2:0:0:
495,84,156884,1,2,0:3:0:0:
503,75,157104,2,0,P|507:48|504:20,1,42.5000008106231,2|2,0:0|1:3,0:0:0:0:
507,33,157766,5,2,0:3:0:0:
499,22,157986,2,0,L|442:16,2,42.5000008106231,10|2|0,0:0|0:3|3:0,0:0:0:0:
482,92,158648,5,2,0:3:0:0:
413,69,158869,1,2,1:2:0:0:
400,66,159089,1,2,0:3:0:0:
333,38,159310,5,2,3:2:0:0:
320,41,159531,1,2,0:3:0:0:
308,46,159751,2,0,L|254:35,2,42.5000008106231,10|0|2,0:0|1:0|0:3,0:0:0:0:
400,66,160413,1,2,0:2:0:0:
336,135,160634,1,10,3:2:0:0:
420,301,161075,5,2,3:2:0:0:
336,135,161516,1,2,1:2:0:0:
235,291,161957,2,0,B|213:285|191:291|191:291|171:296|143:280,1,85.0000016212463,10|0,0:3|0:0,0:0:0:0:
109,226,162619,5,2,1:1:0:0:
181,218,162839,1,10,0:3:0:0:
113,214,163060,1,14,0:3:0:0:
185,206,163281,2,0,B|207:200|229:206|229:206|249:211|277:195,1,85.0000016212463,4|0,3:2|3:3,0:0:0:0:
320,140,163942,5,2,0:3:0:0:
266,123,164163,1,2,1:1:0:0:
318,151,164384,1,2,0:3:0:0:
261,133,164604,5,6,3:2:0:0:
252,141,164825,1,2,0:2:0:0:
241,146,165045,2,0,P|211:142|183:136,1,42.5000008106231,2|0,0:2|1:0,0:0:0:0:
199,140,165707,5,2,0:0:0:0:
186,133,165928,2,0,P|184:94|179:47,1,85.0000016212463,4|0,3:3|3:0,0:0:0:0:
115,14,166589,5,2,0:3:0:0:
47,40,166810,1,2,1:1:0:0:
33,37,167031,1,2,0:3:0:0:
61,103,167251,5,2,3:2:0:0:
73,99,167472,1,2,0:3:0:0:
86,98,167692,2,0,P|100:125|102:149,1,42.5000008106231,2|0,0:0|1:3,0:0:0:0:
102,137,168354,5,2,0:3:0:0:
110,148,168575,2,0,P|152:147|203:151,2,85.0000016212463,10|2|2,0:0|3:3|1:3,0:0:0:0:
81,215,169678,5,2,0:1:0:0:
81,215,169751,1,2,0:3:0:0:
81,215,169825,1,2,0:3:0:0:
81,215,169898,2,0,P|120:210|178:213,1,85.0000016212463,6|2,3:2|0:3,0:0:0:0:
236,223,170560,2,0,P|259:222|280:220,1,42.5000008106231,2|0,1:2|0:3,0:0:0:0:
327,167,171001,1,2,0:1:0:0:
343,96,171222,5,4,3:3:0:0:
278,220,171663,1,10,3:3:0:0:
403,157,172104,1,10,1:2:0:0:
264,134,172545,6,0,B|224:119|218:138|180:125,1,85.0000016212463,6|2,3:1|3:3,0:0:0:0:
106,66,173207,5,2,0:1:0:0:
209,60,173428,2,0,P|213:43|216:13,1,42.5000008106231,10|2,1:2|0:3,0:0:0:0:
228,23,173759,1,2,0:3:0:0:
242,29,173869,6,0,L|308:24,1,50,10|0,3:1|0:0,0:0:0:0:
397,15,174310,5,8,0:3:0:0:
380,84,174531,1,8,0:3:0:0:
469,169,174751,5,14,0:3:0:0:
488,91,174972,1,14,0:3:0:0:
379,188,175192,6,0,P|332:160|279:167,1,110.000003356934,6|2,3:2|0:3,0:0:0:0:
210,212,175854,1,2,0:0:0:0:
147,158,176075,2,0,L|135:97,1,55.0000016784668,2|0,0:0|0:0,0:0:0:0:
111,233,176516,6,0,P|164:240|210:212,1,110.000003356934,10|2,1:3|0:3,0:0:0:0:
280,168,177178,1,2,0:0:0:0:
237,97,177398,2,0,L|238:35,1,55.0000016784668,2|0,0:0|0:0,0:0:0:0:
338,63,177839,6,0,P|284:70|238:42,1,110.000003356934,4|0,3:3|0:0,0:0:0:0:
155,49,178501,2,0,P|126:41|90:40,2,55.0000016784668,2|0|0,0:0|0:0|0:0,0:0:0:0:
221,156,179163,6,0,P|248:153|274:146,1,55.0000016784668,10|0,1:2|0:0,0:0:0:0:
123,110,179604,2,0,P|95:112|69:119,1,55.0000016784668,10|0,0:3|0:0,0:0:0:0:
55,241,180045,1,2,0:0:0:0:
107,185,180266,1,2,0:0:0:0:
93,309,180486,6,0,P|102:259|55:241,1,110.000003356934,6|2,3:2|0:3,0:0:0:0:
6,173,181148,1,2,0:0:0:0:
69,120,181369,2,0,P|73:96|79:52,1,55.0000016784668,2|0,0:0|0:0,0:0:0:0:
184,167,181810,6,0,P|138:144|107:184,1,110.000003356934,10|2,1:3|0:3,0:0:0:0:
161,246,182472,1,2,0:0:0:0:
240,223,182692,2,0,P|262:219|297:221,1,55.0000016784668,2|0,0:0|0:0,0:0:0:0:
313,325,183134,6,0,P|281:284|236:307,1,110.000003356934,4|0,3:3|0:0,0:0:0:0:
166,349,183795,2,0,P|138:348|111:341,1,55.0000016784668,2|0,0:0|0:0,0:0:0:0:
43,294,184236,1,2,0:0:0:0:
161,246,184457,6,0,P|168:215|179:126,1,110.000003356934,10|2,1:2|3:0,0:0:0:0:
133,97,185119,1,0,1:0:0:0:
238,118,185339,1,10,0:3:0:0:
118,156,185560,1,6,0:3:0:0:
251,113,185781,6,0,P|280:113|310:118,2,55.0000016784668,6|0|0,3:2|0:3|0:0,0:0:0:0:
189,58,186442,1,2,0:0:0:0:
115,95,186663,1,2,0:0:0:0:
48,46,186884,1,2,0:0:0:0:
27,180,187104,6,0,P|35:154|36:126,1,55.0000016784668,10|0,1:2|0:0,0:0:0:0:
115,221,187545,2,0,P|107:195|107:168,1,55.0000016784668,10|0,0:3|0:0,0:0:0:0:
47,252,187986,1,2,0:0:0:0:
47,252,188207,1,2,0:0:0:0:
201,260,188428,6,0,P|208:233|208:206,1,55.0000016784668,4|0,3:3|0:0,0:0:0:0:
160,306,188869,2,0,P|184:292|202:273,1,55.0000016784668,8|0,0:2|0:0,0:0:0:0:
98,310,189310,2,0,P|124:317|151:316,1,55.0000016784668,10|0,3:3|0:0,0:0:0:0:
277,269,189751,6,0,P|297:287|310:311,1,55.0000016784668,2|0,1:2|0:0,0:0:0:0:
209,264,190192,2,0,P|236:263|262:271,1,55.0000016784668,8|0,0:2|0:0,0:0:0:0:
160,306,190634,2,0,P|179:286|203:273,1,55.0000016784668,10|0,0:3|1:0,0:0:0:0:
380,258,191075,6,0,P|330:280|277:269,1,110.000003356934,6|0,3:2|0:0,0:0:0:0:
238,196,191736,2,0,P|235:168|231:141,2,55.0000016784668,2|0|0,0:0|0:0|0:0,0:0:0:0:
162,106,192398,6,0,P|204:72|258:69,1,110.000003356934,10|0,1:3|0:0,0:0:0:0:
313,131,193060,1,2,0:3:0:0:
253,191,193281,2,0,P|239:167|231:141,1,55.0000016784668,10|0,0:0|0:0,0:0:0:0:
418,87,193722,6,0,P|354:85|312:132,1,129.999994049072,6|2,0:1|0:3,0:0:0:0:
384,154,194384,1,2,0:1:0:0:
418,87,194604,2,0,P|423:56|421:22,1,64.9999970245362,10|0,0:0|0:0,0:0:0:0:
507,188,195045,6,0,P|437:204|385:155,1,150.000005722046,10|10,0:1|0:3,0:0:0:0:
406,263,195707,1,10,0:3:0:0:
253,252,195928,5,6,0:3:0:0:
312,132,196148,1,14,0:3:0:0:
314,230,196369,6,0,P|279:190|224:192,1,110.000003356934,6|2,3:2|0:3,0:0:0:0:
172,254,197031,1,2,0:0:0:0:
237,303,197251,2,0,P|250:280|253:252,1,55.0000016784668,2|0,0:0|0:0,0:0:0:0:
183,343,197692,6,0,P|229:369|280:352,1,110.000003356934,10|2,1:3|0:3,0:0:0:0:
361,365,198354,1,2,0:0:0:0:
416,303,198575,2,0,P|444:295|472:295,1,55.0000016784668,2|0,0:0|0:0,0:0:0:0:
481,377,199016,6,0,P|464:326|416:303,1,110.000003356934,4|0,3:3|0:0,0:0:0:0:
333,288,199678,2,0,P|302:276|283:259,2,55.0000016784668,2|0|0,0:0|0:0|0:0,0:0:0:0:
222,358,200339,6,0,P|217:331|205:307,1,55.0000016784668,10|0,1:2|0:0,0:0:0:0:
158,204,200781,2,0,P|153:231|141:256,1,55.0000016784668,10|0,0:3|0:0,0:0:0:0:
63,286,201222,1,2,0:0:0:0:
76,204,201442,1,2,0:0:0:0:
203,147,201663,6,0,P|207:197|158:204,1,110.000003356934,6|2,3:2|0:3,0:0:0:0:
124,129,202325,1,2,0:0:0:0:
203,147,202545,2,0,L|258:139,1,55.0000016784668,2|0,0:0|0:0,0:0:0:0:
280,35,202986,6,0,P|257:86|258:141,1,110.000003356934,10|2,1:3|0:3,0:0:0:0:
314,197,203648,1,2,0:0:0:0:
395,184,203869,2,0,P|425:179|458:177,1,55.0000016784668,2|0,0:0|0:0,0:0:0:0:
472,282,204310,6,0,P|472:227|449:177,1,110.000003356934,4|0,3:3|0:0,0:0:0:0:
390,118,204972,2,0,P|362:113|336:106,1,55.0000016784668,2|0,0:0|0:0,0:0:0:0:
265,64,205413,1,2,0:0:0:0:
299,168,205634,6,0,P|352:157|390:119,1,110.000003356934,10|2,1:2|3:3,0:0:0:0:
430,20,206295,1,0,1:0:0:0:
497,104,206516,1,0,1:0:0:0:
448,141,206736,1,8,0:3:0:0:
380,57,206957,6,0,P|333:29|279:31,1,110.000003356934,6|2,3:2|0:3,0:0:0:0:
210,78,207619,1,2,0:0:0:0:
283,114,207839,2,0,P|294:137|298:174,1,55.0000016784668,10|0,0:2|0:0,0:0:0:0:
210,78,208281,2,0,P|199:55|195:18,1,55.0000016784668,10|0,1:3|0:0,0:0:0:0:
283,114,208722,6,0,L|337:104,1,55.0000016784668,4|0,0:3|0:0,0:0:0:0:
155,87,209163,2,0,L|210:78,1,55.0000016784668,2|0,0:1|0:0,0:0:0:0:
27,60,209604,2,0,L|88:49,1,55.0000016784668,10|0,3:2|0:0,0:0:0:0:
143,196,210045,6,0,P|133:174|106:155,1,55.0000016784668,10|0,0:3|0:0,0:0:0:0:
68,264,210486,2,0,P|81:243|84:210,1,55.0000016784668,2|0,0:0|0:0,0:0:0:0:
46,369,210928,6,0,P|32:348|29:315,1,55.0000016784668,2|0,1:2|0:0,0:0:0:0:
143,336,211369,2,0,P|115:338|90:326,1,55.0000016784668,2|0,0:0|0:0,0:0:0:0:
242,285,211810,6,0,P|214:284|189:296,1,55.0000016784668,4|0,0:3|0:0,0:0:0:0:
398,328,212251,6,0,P|344:334|291:319,1,110.000003356934,6|0,3:2|0:0,0:0:0:0:
271,230,212913,2,0,P|269:201|257:171,2,55.0000016784668,2|0|0,0:0|0:0|0:0,0:0:0:0:
353,132,213575,6,0,P|299:139|260:177,1,110.000003356934,10|2,1:3|0:3,0:0:0:0:
259,190,214457,1,2,0:0:0:0:
341,224,214678,1,2,0:0:0:0:
461,179,214898,6,0,B|397:172|414:138|352:132,1,119.999996337891,6|0,3:1|0:0,0:0:0:0:
247,109,215560,2,0,B|309:103|291:69|355:62,1,119.999996337891,2|0,0:0|0:0,0:0:0:0:
458,113,216222,5,10,1:1:0:0:
353,132,216442,1,2,0:1:0:0:
459,178,216663,5,10,3:2:0:0:
352,146,216884,1,10,0:3:0:0:
321,266,217104,5,14,0:3:0:0:
460,243,217325,1,10,0:3:0:0:
497,296,217545,6,0,P|449:306|408:280,1,99.9999999999999,4|0,0:3|0:0,0:0:0:0:
321,266,218207,2,0,P|279:239|232:249,1,99.9999999999999,2|0,0:0|0:0,0:0:0:0:
181,311,218869,6,0,L|133:308,2,40,2|2|2,0:0|0:3|0:3,0:0:0:0:
232,249,219751,1,2,0:3:0:0:
232,249,220192,6,0,L|184:246,2,40,2|2|2,0:0|0:3|0:3,0:0:0:0:
283,187,221295,1,2,0:3:0:0:
283,187,221516,6,0,L|235:184,2,40,2|2|2,0:0|0:3|0:3,0:0:0:0:
334,125,222839,6,0,P|342:102|339:58,2,50,14|2|2,0:1|0:3|0:3,0:0:0:0:
252,84,223722,1,2,0:3:0:0:
252,84,224163,6,0,P|228:79|210:79,2,40,2|2|2,0:0|0:3|0:3,0:0:0:0:
343,76,225045,1,2,0:3:0:0:
343,76,225486,6,0,P|362:75|382:70,2,40,2|2|2,0:0|0:3|0:3,0:0:0:0:
228,143,226589,1,2,0:3:0:0:
228,143,226810,6,0,P|208:143|188:148,2,40,2|2|2,0:0|0:3|0:3,0:0:0:0:
308,192,227472,5,8,0:3:0:0:
247,217,227692,2,0,P|232:214|218:207,1,29.9999990844727,6|0,0:3|0:3,0:0:0:0:
160,250,228134,6,0,P|126:223|81:219,1,89.999997253418,6|0,0:0|0:0,0:0:0:0:
18,263,228795,1,0,1:0:0:0:
11,187,229016,2,0,L|5:124,1,44.999998626709,2|2,0:0|0:3,0:0:0:0:
10,135,229310,1,2,0:3:0:0:
16,130,229384,1,2,0:3:0:0:
22,125,229457,6,0,L|123:114,1,89.999997253418,10|2,3:2|3:0,0:0:0:0:
257,139,230339,2,0,L|320:145,1,44.999998626709,2|2,1:2|0:3,0:0:0:0:
309,141,230634,1,2,0:3:0:0:
316,138,230707,1,2,0:3:0:0:
321,134,230781,6,0,P|328:112|326:90,1,44.999998626709,2|2,3:2|0:3,0:0:0:0:
274,40,231222,1,2,0:0:0:0:
205,60,231442,2,0,P|184:56|157:49,1,44.999998626709,0|0,1:0|3:0,0:0:0:0:
85,20,231884,1,2,0:2:0:0:
90,25,231957,1,2,0:3:0:0:
93,31,232031,1,2,0:3:0:0:
95,38,232104,6,0,P|98:80|98:141,1,99.9999999999999,10|2,3:2|3:3,0:0:0:0:
25,226,232833,1,0,1:0:0:0:
36,215,232937,2,0,P|56:207|88:209,1,50,2|0,1:0|1:0,0:0:0:0:
161,251,233373,6,0,P|208:260|250:234,1,99.9999999999999,6|0,3:2|0:0,0:0:0:0:
308,264,234096,2,0,P|314:241|312:216,1,50,2|0,1:0|0:0,0:0:0:0:
265,171,234498,1,2,3:2:0:0:
327,152,234738,1,10,3:2:0:0:
263,310,235179,5,2,3:2:0:0:
203,190,235630,1,0,1:0:0:0:
373,196,236075,6,0,P|391:155|378:113,1,89.999997253418,4|0,3:0|0:0,0:0:0:0:
440,91,236736,2,0,P|413:56|370:46,1,89.999997253418,2|0,1:0|0:0,0:0:0:0:
315,85,237398,2,0,P|292:88|263:78,1,44.999998626709,2|0,0:2|0:0,0:0:0:0:
216,43,237839,1,2,3:0:0:0:
195,163,238151,5,0,1:0:0:0:
195,163,238234,2,0,P|206:137|209:109,1,56.2500021457672,2|0,1:0|1:0,0:0:0:0:
160,2,238698,1,6,3:2:0:0:
160,2,239379,5,0,1:0:0:0:
216,43,239611,2,0,P|237:43|257:38,1,40,2|0,0:0|3:0,0:0:0:0:
320,61,240008,2,0,P|359:55|422:56,1,99.9999999999999,10|10,0:2|3:3,0:0:0:0:
504,213,240910,5,2,1:0:0:0:
448,147,241125,1,2,1:3:0:0:
367,179,241338,2,0,P|310:182|260:170,1,99.9999999999999,2|0,3:2|0:0,0:0:0:0:
196,133,242035,1,0,1:0:0:0:
135,189,242262,6,0,L|129:238,1,50,2|0,0:0|3:0,0:0:0:0:
41,255,242677,2,0,P|76:229|132:241,1,99.9999999999999,10|2,3:2|3:2,0:0:0:0:
206,330,243464,1,0,1:3:0:0:
206,330,243575,1,2,1:2:0:0:
260,272,243795,1,2,1:0:0:0:
283,347,244016,5,6,0:2:0:0:
283,347,244678,1,2,1:0:0:0:
488,368,245100,5,2,0:0:0:0:
470,287,245345,2,0,P|473:244|478:187,1,99.9999999999999,2|2,3:2|3:2,0:0:0:0:
372,82,246197,2,0,P|367:60|357:27,1,50,2|0,1:0|1:0,0:0:0:0:
274,81,246644,6,0,P|221:67|165:64,1,99.9999999999999,6|2,0:1|3:0,0:0:0:0:
110,109,247316,1,2,1:2:0:0:
179,149,247540,1,2,1:0:0:0:
110,189,247764,2,0,L|89:188,1,12.5,2|0,0:0|0:3,0:0:0:0:
179,228,247988,5,10,3:1:0:0:
320,142,248396,1,8,0:3:0:0:
176,63,248837,5,14,0:3:0:0:
179,149,249057,1,10,0:3:0:0:
248,103,249311,6,0,B|274:67|319:63|319:63|349:61|367:38|367:38|357:88|364:118|377:144|411:158|411:158|451:149|467:114,1,349.999989318848,6|2,0:0|0:3,0:0:0:0:
465,118,251958,6,0,P|420:102|357:95,1,104.999996795654,10|2,0:3|0:3,0:0:0:0:
248,103,253281,2,0,P|212:103|167:88,1,69.9999978637695,2|2,0:1|0:3,0:0:0:0:
119,58,254163,1,2,0:3:0:0:
59,141,254605,6,0,P|144:181|179:93,1,209.999993591309,10|2,0:2|0:3,0:0:0:0:
119,58,256369,2,0,P|83:55|46:40,1,69.9999978637695,2|2,0:0|0:3,0:0:0:0:
3,94,257252,6,0,P|23:135|26:175,1,69.9999978637695,10|0,0:3|0:0,0:0:0:0:
36,192,257913,2,0,P|53:195|74:194,1,34.9999989318848,2|0,0:0|0:0,0:0:0:0:
103,206,258355,1,2,0:0:0:0:
127,230,258575,2,0,P|160:229|202:231,1,69.9999978637695,2|2,0:2|0:3,0:0:0:0:
227,293,259458,1,2,0:0:0:0:
250,268,259678,1,2,0:0:0:0:
285,268,259899,6,0,P|291:296|292:311,2,34.9999989318848,4|2|2,0:3|0:3|0:3,0:0:0:0:
249,205,260561,2,0,P|245:177|245:160,2,34.9999989318848,2|2|2,0:0|0:3|0:3,0:0:0:0:
327,204,261222,2,0,P|359:193|403:187,2,69.9999978637695,10|2|2,0:2|0:3|0:3,0:0:0:0:
284,269,262546,5,2,0:0:0:0:
249,205,262987,1,2,0:0:0:0:
327,204,263428,1,2,0:0:0:0:
361,273,263869,6,0,P|384:278|411:279,1,34.9999989318848,10|2,0:2|0:3,0:0:0:0:
426,295,264311,2,0,P|445:281|465:263,1,34.9999989318848,2|2,0:0|0:3,0:0:0:0:
487,264,264752,2,0,P|490:240|492:213,1,34.9999989318848,2|2,0:0|0:3,0:0:0:0:
508,198,265193,6,0,P|460:191|422:139,1,104.999996795654,4|2,0:3|0:3,0:0:0:0:
324,81,266516,2,0,P|391:91|425:150,1,139.999995727539,10|2,0:3|0:0,0:0:0:0:
345,160,267840,6,0,L|264:153,2,79.9999999999999,6|0|0,3:1|1:0|1:0,0:0:0:0:
192,187,269163,6,0,P|183:166|184:143,1,44.999998626709,10|0,1:0|3:0,0:0:0:0:
338,117,269605,2,0,P|346:137|345:160,1,44.999998626709,8|0,0:3|3:0,0:0:0:0:
226,260,270046,5,6,0:3:0:0:
265,153,270266,1,14,0:3:0:0:
322,285,270487,6,0,P|279:253|226:260,1,110.000003356934,6|2,3:2|0:3,0:0:0:0:
166,317,271149,1,2,0:0:0:0:
99,269,271369,2,0,P|92:242|89:215,1,55.0000016784668,2|0,0:0|0:0,0:0:0:0:
67,55,271811,6,0,P|73:81|77:108,1,55.0000016784668,10|0,1:3|0:0,0:0:0:0:
11,201,272252,2,0,P|30:181|52:165,1,55.0000016784668,2|2,0:3|0:0,0:0:0:0:
165,177,272693,2,0,P|138:169|113:158,1,55.0000016784668,2|0,0:0|0:0,0:0:0:0:
25,23,273134,6,0,P|67:56|77:109,1,110.000003356934,4|0,3:3|0:0,0:0:0:0:
165,177,273796,2,0,P|190:165|216:158,2,55.0000016784668,2|0|0,0:0|0:0|0:0,0:0:0:0:
110,303,274458,6,0,P|113:275|119:248,1,55.0000016784668,10|0,1:2|0:0,0:0:0:0:
225,211,274899,2,0,P|222:184|216:157,1,55.0000016784668,10|0,0:3|0:0,0:0:0:0:
150,108,275340,1,2,0:0:0:0:
200,43,275561,1,2,0:0:0:0:
292,150,275781,6,0,P|259:107|264:53,1,110.000003356934,6|2,3:2|0:3,0:0:0:0:
329,2,276443,1,2,0:0:0:0:
387,61,276663,2,0,P|365:78|339:84,1,55.0000016784668,2|0,0:0|0:0,0:0:0:0:
483,89,277105,6,0,P|440:56|386:61,1,110.000003356934,10|2,1:3|0:3,0:0:0:0:
329,2,277766,1,2,0:0:0:0:
264,53,277987,2,0,P|237:46|215:29,1,55.0000016784668,2|0,0:0|0:0,0:0:0:0:
164,116,278428,6,0,P|206:83|215:30,1,110.000003356934,4|0,3:3|0:0,0:0:0:0:
133,35,279090,2,0,L|62:23,1,55.0000016784668,2|0,0:0|0:0,0:0:0:0:
9,71,279531,1,2,0:0:0:0:
76,164,279752,6,0,P|110:122|163:115,1,110.000003356934,10|2,1:2|3:3,0:0:0:0:
216,179,280377,1,10,0:3:0:0:
286,192,280597,1,12,0:3:0:0:
343,169,280818,1,8,0:3:0:0:
406,298,281075,6,0,P|383:249|333:228,1,110.000003356934,6|2,3:2|0:3,0:0:0:0:
265,250,281737,1,2,0:0:0:0:
200,279,281958,2,0,P|172:279|147:268,1,55.0000016784668,10|0,0:2|0:0,0:0:0:0:
35,297,282399,2,0,P|62:298|88:309,1,55.0000016784668,10|0,1:3|0:0,0:0:0:0:
253,375,282840,6,0,L|259:305,1,55.0000016784668,4|0,0:3|0:0,0:0:0:0:
147,268,283281,2,0,L|141:198,1,55.0000016784668,2|0,0:1|0:0,0:0:0:0:
276,165,283722,2,0,L|282:95,1,55.0000016784668,10|0,3:2|0:0,0:0:0:0:
302,232,284163,6,0,P|324:222|343:195,1,55.0000016784668,10|0,0:3|0:0,0:0:0:0:
236,200,284605,2,0,P|252:177|277:165,1,55.0000016784668,2|0,0:0|0:0,0:0:0:0:
307,285,285046,6,0,P|311:261|301:230,1,55.0000016784668,2|0,1:2|0:0,0:0:0:0:
240,319,285487,2,0,P|231:293|235:266,1,55.0000016784668,2|0,0:0|0:0,0:0:0:0:
347,319,285928,6,0,P|331:296|306:284,1,55.0000016784668,4|0,0:3|0:0,0:0:0:0:
439,346,286369,6,0,P|386:355|347:319,1,110.000003356934,6|0,3:2|0:0,0:0:0:0:
356,236,287031,2,0,P|361:203|362:169,2,55.0000016784668,2|0|0,0:0|0:0|0:0,0:0:0:0:
242,139,287693,6,0,P|268:132|295:127,1,55.0000016784668,10|0,1:3|0:0,0:0:0:0:
373,99,288134,2,0,P|392:79|409:57,1,55.0000016784668,2|2,3:0|0:3,0:0:0:0:
362,181,288575,1,2,0:0:0:0:
296,127,288796,1,2,0:0:0:0:
165,183,289016,6,0,B|192:177|221:198|221:198|250:207|278:188,1,119.999996337891,6|0,3:1|0:0,0:0:0:0:
174,118,289678,2,0,B|147:112|117:133|117:133|88:142|60:123,1,119.999996337891,2|0,0:0|0:0,0:0:0:0:
0,16,290340,5,10,1:1:0:0:
99,61,290561,1,2,0:1:0:0:
201,20,290781,5,10,3:2:0:0:
103,46,291002,1,10,0:3:0:0:
174,118,291222,5,14,0:3:0:0:
213,27,291443,1,10,0:3:0:0:
292,43,291663,6,0,P|340:53|381:27,1,99.9999999999999,4|0,0:3|0:0,0:0:0:0:
466,58,292325,2,0,P|429:25|380:27,1,99.9999999999999,2|0,0:0|0:0,0:0:0:0:
386,132,292987,6,0,P|400:113|406:86,1,50,10|0,1:2|0:0,0:0:0:0:
487,168,293428,2,0,P|481:143|467:124,1,50,2|0,0:3|0:0,0:0:0:0:
406,238,293869,5,2,0:3:0:0:
386,132,294090,1,2,0:0:0:0:
487,168,294311,1,2,3:2:0:0:
488,180,294752,5,2,0:3:0:0:
387,144,294972,1,2,0:2:0:0:
407,250,295193,1,2,0:3:0:0:
332,215,295413,5,2,0:1:0:0:
323,212,295487,1,2,0:3:0:0:
314,210,295561,1,2,0:3:0:0:
305,210,295634,1,6,1:2:0:0:
149,301,296075,5,2,1:2:0:0:
120,206,296296,1,0,1:0:0:0:
216,228,296516,5,10,0:3:0:0:
251,156,296737,1,12,0:3:0:0:
116,106,296958,5,4,0:2:0:0:
26,294,297399,5,2,0:3:0:0:
22,285,297619,1,2,0:3:0:0:
21,276,297840,1,2,0:3:0:0:
22,267,298061,1,2,0:3:0:0:
63,224,298281,5,2,0:1:0:0:
67,215,298502,1,2,0:3:0:0:
68,206,298722,1,2,0:3:0:0:
31,114,299163,5,2,0:3:0:0:
34,105,299384,1,2,0:3:0:0:
80,67,299605,1,2,0:1:0:0:
176,90,300046,5,2,0:3:0:0:
185,94,300266,1,2,0:3:0:0:
194,95,300487,1,2,0:3:0:0:
203,94,300708,1,2,0:3:0:0:
259,115,300928,5,2,0:0:0:0:
268,111,301149,1,2,0:3:0:0:
277,110,301369,1,2,0:3:0:0:
367,150,301811,5,2,0:3:0:0:
376,151,302031,1,2,0:3:0:0:
423,188,302252,5,2,0:0:0:0:
419,202,302472,1,2,0:3:0:0:
419,217,302693,1,2,0:3:0:0:
512,307,303134,5,2,0:3:0:0:
503,303,303355,1,2,0:3:0:0:
467,255,303575,5,2,0:0:0:0:
475,243,303796,1,2,0:3:0:0:
479,228,304016,1,2,0:3:0:0:
434,140,304458,5,2,0:3:0:0:
443,136,304678,1,2,0:3:0:0:
479,88,304899,5,2,0:0:0:0:
471,76,305119,1,2,0:3:0:0:
467,61,305340,1,2,0:3:0:0:
364,77,305781,5,2,0:3:0:0:
368,69,306002,1,2,0:3:0:0:
340,16,306222,5,10,0:2:0:0:
319,122,306663,1,2,0:2:0:0:
237,50,307105,2,0,P|217:44|201:41,1,29.9999990844727,10|2,0:3|0:3,0:0:0:0:
202,46,307399,1,2,0:3:0:0:
198,51,307472,1,2,0:3:0:0:
194,57,307546,6,0,B|182:75|184:96|184:96|171:103|144:99,1,69.9999978637695,6|2,0:0|0:3,0:0:0:0:
99,76,308208,1,2,0:3:0:0:
63,127,308428,2,0,P|61:144|59:161,1,34.9999989318848,2|2,0:1|0:3,0:0:0:0:
0,272,308869,5,10,0:2:0:0:
58,229,309090,1,2,0:1:0:0:
127,247,309310,1,2,0:2:0:0:
128,258,309752,5,2,0:1:0:0:
182,306,309972,1,2,0:1:0:0:
253,296,310193,2,0,P|287:297|325:320,1,69.9999978637695,6|2,0:0|0:3,0:0:0:0:
351,363,310855,1,2,0:3:0:0:
431,317,311075,6,0,L|434:271,1,34.9999989318848,2|2,0:0|0:3,0:0:0:0:
496,165,311516,5,10,0:0:0:0:
438,208,311737,1,2,0:0:0:0:
369,190,311958,1,2,0:0:0:0:
368,179,312399,5,2,0:0:0:0:
316,127,312619,1,2,0:0:0:0:
242,122,312840,2,0,L|194:111,1,34.9999989318848,10|2,0:0|0:0,0:0:0:0:
247,56,313281,6,0,P|254:83|234:131,1,69.9999978637695,6|2,0:0|0:3,0:0:0:0:
206,174,313943,1,2,0:0:0:0:
234,241,314163,5,2,0:0:0:0:
270,178,314384,1,2,0:0:0:0:
340,196,314605,2,0,P|383:188|425:182,1,69.9999978637695,6|2,0:0|0:3,0:0:0:0:
464,206,315266,1,2,0:0:0:0:
388,255,315487,5,10,0:0:0:0:
447,296,315708,1,2,0:0:0:0:
381,326,315928,6,0,P|359:320|332:317,1,34.9999989318848,2|0,0:0|0:0,0:0:0:0:
239,332,316369,2,0,P|257:329|274:325,1,34.9999989318848,2|2,0:0|0:3,0:0:0:0:
291,232,316810,6,0,P|279:218|267:206,1,34.9999989318848,6|0,0:2|0:0,0:0:0:0:
198,181,317252,2,0,P|179:175|163:173,1,34.9999989318848,2|0,0:1|0:3,0:0:0:0:
91,165,317693,2,0,P|73:168|40:181,1,52.4999983978271,10|0,0:2|0:3,0:0:0:0:
25,206,318134,6,0,L|21:230,1,25,12|2,0:3|0:0,0:0:0:0:
318,350,319197,5,2,0:0:0:0:
332,351,319383,5,2,0:0:0:0:
345,360,319644,5,2,0:0:0:0:
357,299,319941,5,2,0:0:0:0:
389,231,320337,5,2,0:0:0:0:
446,161,320892,5,2,0:0:0:0:
489,41,321764,5,6,0:0:0:0:
