osu file format v14

[General]
AudioFilename: audio.mp3
AudioLeadIn: 0
PreviewTime: -1
Countdown: 1
SampleSet: Soft
StackLeniency: 0.7
Mode: 0
LetterboxInBreaks: 0
WidescreenStoryboard: 0

[Editor]
DistanceSpacing: 1.6
BeatDivisor: 4
GridSize: 4
TimelineZoom: 4.999998

[Metadata]
Title:Kalaeidoscope
TitleUnicode:Kalaeidoscope
Artist:Shimotsuki Haruka
ArtistUnicode:Shimotsuki Haruka
Creator:untan
Version:Different View
Source:
Tags:
BeatmapID:2106678
BeatmapSetID:1006631

[Difficulty]
HPDrainRate:5
CircleSize:3.5
OverallDifficulty:5
ApproachRate:9.1
SliderMultiplier:1.8
SliderTickRate:1

[Events]
//Background and Video events
0,0,"Hoshimemo.png",0,0
//Break Periods
//Storyboard Layer 0 (Background)
//Storyboard Layer 1 (Fail)
//Storyboard Layer 2 (Pass)
//Storyboard Layer 3 (Foreground)
//Storyboard Layer 4 (Overlay)
//Storyboard Sound Samples

[TimingPoints]
480,382.165605095541,4,2,2,60,1,0
2772,-100,4,2,2,60,0,0
9747,-100,4,2,4,30,0,0
11085,-100,4,2,1,60,0,0
18823,-100,4,2,1,60,0,0
47390,-100,4,2,1,60,0,0
49206,-100,4,2,1,60,0,1
61244,-100,4,2,1,60,0,0
67550,-100,4,2,1,60,0,1
79588,-100,4,2,1,60,0,0
85798,-100,4,2,2,60,0,0
85989,-100,4,2,1,60,0,0
125639,-100,4,2,1,60,0,1
137677,-100,4,2,1,60,0,0
143792,-100,4,2,1,60,0,1
156021,-100,4,2,1,60,0,0
162231,-100,4,2,2,60,0,0
162422,-100,4,2,1,60,0,0
183728,-200,4,2,1,60,0,0
185065,-200,4,2,4,55,0,0
185257,-200,4,2,4,50,0,0
185448,-200,4,2,4,45,0,0
185639,-200,4,2,4,40,0,0
185830,-200,4,2,4,35,0,0
186021,-200,4,2,4,30,0,0
186212,-200,4,2,4,25,0,0
186976,-200,4,2,5,25,0,0
195575,-200,4,2,5,30,0,0
195766,-200,4,2,5,35,0,0
195957,-200,4,2,5,35,0,0
196148,-200,4,2,5,40,0,0
196626,-200,4,2,5,45,0,0
196913,-200,4,2,5,50,0,0
197677,-200,4,2,0,5,0,0
199015,-100,4,2,1,60,0,1
210862,-100,4,2,1,60,0,0
217358,-100,4,2,1,60,0,1
229397,-100,4,2,1,60,0,0
253091,-200,4,2,1,60,0,0
256530,-100,4,2,4,40,0,0
256722,-100,4,2,4,35,0,0
256913,-100,4,2,4,30,0,0
257104,-100,4,2,4,25,0,0
257295,-100,4,2,4,20,0,0

[Colours]
Combo1 : 239,231,120
Combo2 : 0,255,255
Combo3 : 0,0,255
Combo4 : 255,0,0
SliderBorder : 255,255,255

[HitObjects]
128,98,49397,5,0,0:0:0:0:
353,239,49588,1,0,0:0:0:0:
334,66,49779,5,0,0:0:0:0:
140,246,49970,1,0,0:0:0:0:
140,35,50161,5,0,0:0:0:0:
254,248,50352,1,0,0:0:0:0:
348,39,50543,1,0,0:0:0:0:
49,83,50734,5,0,0:0:0:0:
64,274,50925,1,0,0:0:0:0:
219,86,51116,5,0,0:0:0:0:
223,277,51308,1,0,0:0:0:0:
402,81,51499,5,0,0:0:0:0:
346,268,51690,1,0,0:0:0:0:
262,92,51881,1,0,0:0:0:0:
67,77,52072,6,0,P|81:154|91:175,1,90
349,66,52454,5,0,0:0:0:0:
157,263,52645,1,0,0:0:0:0:
160,66,52836,1,0,0:0:0:0:
348,263,53027,1,0,0:0:0:0:
139,328,53218,5,0,0:0:0:0:
325,210,53409,1,0,0:0:0:0:
148,161,53601,5,0,0:0:0:0:
374,63,53792,2,0,P|407:117|418:148,1,90
90,330,54174,5,0,0:0:0:0:
90,330,54365,2,0,P|106:252|120:216,1,90
152,92,54747,5,0,0:0:0:0:
345,262,54938,1,0,0:0:0:0:
317,102,55129,5,0,0:0:0:0:
157,277,55320,1,0,0:0:0:0:
430,308,55511,6,0,P|387:277|362:246,1,90
143,95,55894,5,0,0:0:0:0:
357,99,56085,1,0,0:0:0:0:
145,255,56276,5,0,0:0:0:0:
368,237,56467,1,0,0:0:0:0:
313,72,56658,5,0,0:0:0:0:
121,283,56849,1,0,0:0:0:0:
80,120,57040,5,0,0:0:0:0:
379,207,57231,1,0,0:0:0:0:
76,61,57422,5,0,0:0:0:0:
92,275,57613,1,0,0:0:0:0:
271,54,57804,5,0,0:0:0:0:
283,261,57995,1,0,0:0:0:0:
435,103,58187,5,0,0:0:0:0:
63,218,58378,1,0,0:0:0:0:
137,22,58569,5,0,0:0:0:0:
387,325,58760,1,0,0:0:0:0:
355,39,58951,5,0,0:0:0:0:
113,300,59142,1,0,0:0:0:0:
114,35,59333,5,0,0:0:0:0:
109,289,59524,1,0,0:0:0:0:
373,289,59715,1,0,0:0:0:0:
370,43,59906,1,0,0:0:0:0:
314,96,60097,5,0,0:0:0:0:
132,102,60288,1,0,0:0:0:0:
127,287,60479,1,0,0:0:0:0:
336,288,60671,1,0,0:0:0:0:
187,333,60862,6,0,L|187:281,1,45
271,297,61053,2,0,L|271:245,1,45
188,206,61244,2,0,L|188:149,1,45
