osu file format v14

[General]
AudioFilename: audio.mp3
AudioLeadIn: 0
PreviewTime: 43252
Countdown: 0
SampleSet: Soft
StackLeniency: 0.6
Mode: 0
LetterboxInBreaks: 0
WidescreenStoryboard: 1

[Editor]
DistanceSpacing: 1.6
BeatDivisor: 4
GridSize: 16
TimelineZoom: 2.5

[Metadata]
Title:Kagi o Kakushita Kago no Tori
TitleUnicode:鍵を隠したカゴのトリ
Artist:Shimotsuki Haruka
ArtistUnicode:霜月はるか
Creator:Kuse
Version:Scapegoat
Source:鍵を隠したカゴのトリ-BIRD IN CAGE HIDING THE KEY-
Tags:galgame eroge visual novel opening famale vocals cabbit MANYO marie japanese video game op KuBsNia_ZhoYL_ 真理絵
BeatmapID:2392543
BeatmapSetID:1145924

[Difficulty]
HPDrainRate:6
CircleSize:4.8
OverallDifficulty:7.8
ApproachRate:8.7
SliderMultiplier:1.33
SliderTickRate:1

[Events]
//Background and Video events
0,0,"bg.jpg",0,0
//Break Periods
//Storyboard Layer 0 (Background)
//Storyboard Layer 1 (Fail)
//Storyboard Layer 2 (Pass)
//Storyboard Layer 3 (Foreground)
//Storyboard Layer 4 (Overlay)
//Storyboard Sound Samples

[TimingPoints]
11010,344.827586206897,6,2,1,40,1,0
11010,-125,6,2,1,40,0,0
27561,-200,6,2,1,40,0,0
34803,-333.333333333333,6,2,1,40,0,0
35837,-200,6,2,1,40,0,0
43423,-153.846153846154,6,2,1,40,0,0
43596,-200,6,2,1,40,0,0
43653,-200,6,2,1,10,0,0
43711,-200,6,2,1,15,0,0
43768,-200,6,2,1,20,0,0
43826,-200,6,2,1,25,0,0
43883,-200,6,2,1,30,0,0
43941,-200,6,2,1,35,0,0
43998,-200,6,2,1,40,0,0
44113,-76.9230769230769,6,2,1,60,0,1
60320,-100,6,2,1,60,0,1
60492,-100,6,2,1,40,0,0
60665,-76.9230769230769,6,2,1,60,0,1
78251,-100,6,2,1,60,0,1
79285,-125,6,2,1,40,0,0
104113,-125,6,2,1,20,0,0

[Colours]
Combo1 : 135,156,254
Combo2 : 23,217,238

[HitObjects]
55,88,11010,6,0,B|108:58|101:125|177:72,1,106.4,6|0,0:0|0:0,0:0:0:0:
165,80,11527,2,0,P|140:122|132:198,1,106.4,2|0,0:0|0:0,0:0:0:0:
231,282,12044,2,0,P|222:261|187:233,1,53.2,2|0,0:0|0:0,0:0:0:0:
151,304,12389,2,0,P|131:322|120:346,1,53.2,2|0,0:0|0:0,0:0:0:0:
297,324,12734,1,2,0:0:0:0:
234,373,12906,1,0,0:0:0:0:
405,299,13078,6,0,P|359:259|298:252,1,106.4,2|0,0:0|0:0,0:0:0:0:
305,250,13596,2,0,L|314:311,1,53.2,2|0,0:0|0:0,0:0:0:0:
427,215,13941,1,2,0:0:0:0:
355,179,14113,5,2,0:0:0:0:
355,179,14458,1,2,0:0:0:0:
355,179,14803,1,2,0:0:0:0:
273,205,14975,1,0,0:0:0:0:
146,115,15147,6,0,P|198:113|248:132,1,106.4,6|0,0:0|0:0,0:0:0:0:
273,205,15665,2,0,P|223:223|170:222,1,106.4,2|0,0:0|0:0,0:0:0:0:
57,162,16182,2,0,P|91:176|115:202,1,53.2,2|0,0:0|0:0,0:0:0:0:
48,235,16527,2,0,P|40:258|51:350,1,106.4,2|0,0:0|0:0,0:0:0:0:
115,373,17044,1,0,0:0:0:0:
237,310,17216,6,0,P|304:318|343:349,1,106.4,2|0,0:0|0:0,0:0:0:0:
342,347,17734,2,0,P|364:315|434:294,1,106.4,2|0,0:0|0:0,0:0:0:0:
427,384,18251,5,2,0:0:0:0:
427,384,18596,1,2,0:0:0:0:
427,384,18941,1,2,0:0:0:0:
490,337,19113,1,0,0:0:0:0:
441,213,19285,6,0,P|400:228|341:155,1,106.4,6|0,0:0|0:0,0:0:0:0:
352,188,19803,2,0,P|289:187|248:221,1,106.4,2|0,0:0|0:0,0:0:0:0:
175,289,20320,2,0,L|189:215,1,53.2,2|0,0:0|0:0,0:0:0:0:
143,114,20665,2,0,L|157:188,1,53.2,2|0,0:0|0:0,0:0:0:0:
61,283,21010,1,2,0:0:0:0:
118,228,21182,1,0,0:0:0:0:
0,145,21354,6,0,P|65:95|99:98,1,106.4,2|0,0:0|0:0,0:0:0:0:
95,98,21872,2,0,P|150:116|217:96,1,106.4,2|0,0:0|0:0,0:0:0:0:
270,137,22389,5,2,0:0:0:0:
270,137,22734,1,2,0:0:0:0:
347,169,23078,1,2,0:0:0:0:
411,112,23251,1,0,0:0:0:0:
434,278,23423,6,0,L|329:265,1,106.4,6|0,0:0|0:0,0:0:0:0:
318,264,23941,2,0,P|276:290|294:337,1,106.4,2|0,0:0|0:0,0:0:0:0:
210,330,24458,2,0,P|204:291|217:261,1,53.2,2|0,0:0|0:0,0:0:0:0:
253,212,24803,2,0,P|259:173|246:143,1,53.2,2|0,0:0|0:0,0:0:0:0:
186,120,25147,1,2,0:0:0:0:
148,191,25320,1,0,0:0:0:0:
28,153,25492,6,0,P|0:197|9:248,1,106.4,6|0,0:0|0:0,0:0:0:0:
15,257,26010,2,0,P|62:236|112:253,1,106.4,2|0,0:0|0:0,0:0:0:0:
172,296,26527,2,0,P|200:286|244:291,1,53.2,2|0,0:0|0:0,0:0:0:0:
345,306,26872,2,0,P|317:316|273:311,1,53.2,2|0,0:0|0:0,0:0:0:0:
160,366,27216,1,2,0:0:0:0:
238,384,27389,1,2,0:0:0:0:
58,343,27561,6,0,P|34:309|106:302,1,133,6|0,0:0|0:0,0:0:0:0:
160,366,28596,2,0,B|230:388|228:325|310:371,1,133,2|0,0:0|0:0,0:0:0:0:
417,279,29630,2,0,B|392:304|394:339|394:339|352:336|332:278,1,133,2|0,0:0|0:0,0:0:0:0:
478,203,30665,6,0,L|484:155,1,33.25,2|0,0:0|0:0,0:0:0:0:
414,169,31010,2,0,L|409:201,1,33.25,2|0,0:0|0:0,0:0:0:0:
342,198,31354,2,0,L|348:150,1,33.25,2|0,0:0|0:0,0:0:0:0:
356,67,31699,5,2,0:0:0:0:
300,115,31872,1,2,0:0:0:0:
286,43,32044,2,0,P|242:23|204:23,1,66.5,2|0,0:0|0:0,0:0:0:0:
218,110,32734,1,2,0:0:0:0:
130,54,33078,2,0,P|151:45|171:41,1,33.25,2|0,0:0|0:0,0:0:0:0:
80,111,33423,2,0,P|107:116|123:124,1,33.25,2|0,0:0|0:0,0:0:0:0:
53,177,33768,5,2,0:0:0:0:
53,177,33941,2,0,P|96:198|119:256,1,99.75,2|0,0:0|0:0,0:0:0:0:
19,365,34803,6,0,P|42:347|92:337,1,79.7999975646973,2|0,0:0|0:0,0:0:0:0:
319,364,35837,6,0,P|277:323|250:228,1,133,6|2,0:0|0:0,0:0:0:0:
299,189,36699,1,0,0:0:0:0:
299,189,36872,2,0,L|386:204,1,66.5,2|0,0:0|0:0,0:0:0:0:
454,222,37561,6,0,L|448:175,1,33.25,2|0,0:0|0:0,0:0:0:0:
378,54,37906,2,0,P|342:95|410:115,1,133,2|0,0:0|0:0,0:0:0:0:
122,121,38941,6,0,L|116:73,1,33.25,2|0,0:0|0:0,0:0:0:0:
186,87,39285,2,0,L|190:119,1,33.25,2|0,0:0|0:0,0:0:0:0:
258,116,39630,2,0,L|252:68,1,33.25,2|0,0:0|0:0,0:0:0:0:
229,230,39975,5,2,0:0:0:0:
291,191,40147,1,2,0:0:0:0:
295,264,40320,2,0,P|283:308|263:328,1,66.5,2|0,0:0|0:0,0:0:0:0:
108,320,41010,6,0,L|181:330,2,66.5,2|0|0,0:0|0:0|0:0,0:0:0:0:
40,140,42044,1,2,0:0:0:0:
79,208,42216,1,2,0:0:0:0:
0,207,42389,2,0,P|15:163|40:143,2,66.5,2|0|0,0:0|0:0|0:0,0:0:0:0:
36,279,43251,1,0,1:0:0:0:
91,222,43423,5,0,1:0:0:0:
158,269,43596,2,0,L|172:270,7,11.0833333333333,0|0|0|0|0|0|0|0,1:0|1:0|1:0|1:0|1:0|1:0|1:0|1:0,0:0:0:0:
136,281,44113,6,0,P|187:333|285:320,1,172.899992085266,4|0,1:2|1:0,0:0:0:0:
429,350,44630,2,0,P|362:301|281:322,1,172.899992085266,8|0,0:0|1:0,0:0:0:0:
372,235,45147,2,0,P|396:194|398:138,1,86.4499960426332,6|0,0:3|0:0,0:0:0:0:
292,198,45492,1,2,1:2:0:0:
292,198,45665,1,2,1:2:0:0:
162,40,45837,1,8,0:0:0:0:
125,127,46010,1,0,0:0:0:0:
219,125,46182,6,0,P|301:108|331:8,1,172.899992085266,8|0,1:3|1:0,0:0:0:0:
451,125,46699,2,0,P|369:108|339:8,1,172.899992085266,8|0,0:0|1:0,0:0:0:0:
435,34,47216,5,6,0:3:0:0:
435,34,47561,1,0,1:0:0:0:
354,133,47734,1,2,0:0:0:0:
408,306,47906,2,0,P|451:321|505:317,1,86.4499960426332,8|0,0:0|1:0,0:0:0:0:
491,310,48251,6,0,P|383:278|344:217,1,172.899992085266,0|0,1:0|1:0,0:0:0:0:
208,155,48768,2,0,P|291:169|349:232,1,172.899992085266,8|0,0:0|1:0,0:0:0:0:
262,305,49285,2,0,L|168:314,1,86.4499960426332,6|0,0:3|0:0,0:0:0:0:
311,365,49630,1,2,1:2:0:0:
216,236,49803,1,8,0:0:0:0:
175,313,49975,1,2,1:2:0:0:
253,161,50147,1,8,0:0:0:0:
132,61,50320,6,0,P|186:145|270:158,1,172.899992085266,0|0,1:0|1:0,0:0:0:0:
132,260,50837,2,0,P|186:176|270:163,1,172.899992085266,8|0,0:0|1:0,0:0:0:0:
313,234,51354,5,6,0:3:0:0:
313,234,51699,1,2,1:2:0:0:
252,160,51872,1,2,1:2:0:0:
460,108,52044,1,8,0:0:0:0:
460,108,52130,1,0,0:0:0:0:
460,108,52216,1,0,0:0:0:0:
379,53,52389,6,0,P|363:120|443:204,1,172.899992085266,4|0,1:2|1:0,0:0:0:0:
465,342,52906,2,0,P|481:275|401:191,1,172.899992085266,8|0,0:0|1:0,0:0:0:0:
307,226,53423,2,0,P|337:174|341:125,1,86.4499960426332,6|0,0:3|0:0,0:0:0:0:
273,299,53768,2,0,P|283:338|311:376,1,86.4499960426332,0|0,1:0|0:0,0:0:0:0:
224,230,54113,1,8,0:0:0:0:
189,307,54285,1,0,1:0:0:0:
56,258,54458,6,0,P|162:257|188:329,1,172.899992085266,8|0,1:3|1:0,0:0:0:0:
320,258,54975,2,0,P|214:257|188:329,1,172.899992085266,8|0,0:0|1:0,0:0:0:0:
112,364,55492,5,6,0:3:0:0:
112,364,55837,1,0,1:0:0:0:
112,364,56010,1,0,1:2:0:0:
36,177,56182,1,8,0:0:0:0:
114,187,56354,1,0,1:0:0:0:
295,55,56527,6,0,P|205:70|180:151,1,172.899992085266,0|0,1:0|1:0,0:0:0:0:
61,222,57044,2,0,P|151:207|176:126,1,172.899992085266,8|0,0:0|1:0,0:0:0:0:
115,89,57561,1,6,0:3:0:0:
253,154,57734,1,0,1:2:0:0:
361,124,57906,1,2,1:2:0:0:
453,187,58078,1,0,1:2:0:0:
311,263,58251,2,0,P|298:307|319:351,1,86.4499960426332,8|0,0:0|1:0,0:0:0:0:
304,347,58596,6,0,P|290:307|394:233,1,172.899992085266,0|0,1:0|1:0,0:0:0:0:
303,108,59113,2,0,P|289:148|393:222,1,172.899992085266,8|0,0:0|1:0,0:0:0:0:
449,145,59630,2,0,L|455:50,1,86.4499960426332,6|0,0:3|0:0,0:0:0:0:
410,0,59975,5,0,1:0:0:0:
276,39,60147,1,8,0:0:0:0:
467,51,60320,2,0,L|461:138,1,66.5,8|0,0:0|0:0,0:0:0:0:
501,327,60665,6,0,P|460:243|356:221,1,172.899992085266,4|0,1:2|1:0,0:0:0:0:
279,107,61182,2,0,P|320:191|424:213,1,172.899992085266,8|0,0:0|1:0,0:0:0:0:
216,154,61699,2,0,P|188:136|130:127,1,86.4499960426332,6|0,0:3|0:0,0:0:0:0:
61,168,62044,1,2,1:2:0:0:
61,168,62216,1,2,1:2:0:0:
176,326,62389,1,8,0:0:0:0:
222,250,62561,1,0,1:0:0:0:
269,331,62734,6,0,P|349:320|390:239,1,172.899992085266,8|0,1:3|1:0,0:0:0:0:
511,331,63251,2,0,P|431:320|390:239,1,172.899992085266,8|0,0:0|1:0,0:0:0:0:
421,165,63768,5,6,0:3:0:0:
421,165,64113,1,0,1:0:0:0:
348,118,64285,1,2,0:0:0:0:
182,212,64458,2,0,P|212:238|259:248,1,86.4499960426332,8|0,0:0|0:0,0:0:0:0:
258,239,64803,6,0,P|195:212|160:114,1,172.899992085266,0|0,1:0|1:0,0:0:0:0:
61,0,65320,2,0,P|124:27|159:125,1,172.899992085266,8|0,0:0|1:0,0:0:0:0:
85,172,65837,2,0,L|0:159,1,86.4499960426332,6|0,0:3|1:0,0:0:0:0:
224,217,66182,2,0,L|310:205,1,86.4499960426332,4|0,0:0|1:0,0:0:0:0:
282,125,66527,1,2,1:2:0:0:
272,302,66699,1,8,0:0:0:0:
282,125,66872,6,0,P|361:136|386:243,1,172.899992085266,4|0,1:2|1:0,0:0:0:0:
507,125,67389,2,0,P|428:136|403:243,1,172.899992085266,8|0,0:0|1:0,0:0:0:0:
430,287,67906,5,6,0:3:0:0:
430,287,68251,1,2,1:2:0:0:
491,219,68423,1,2,1:2:0:0:
367,360,68596,1,8,0:0:0:0:
325,280,68768,1,0,1:0:0:0:
106,343,68941,6,0,P|175:349|230:237,1,172.899992085266,4|0,1:2|1:0,0:0:0:0:
363,204,69458,2,0,P|294:198|239:310,1,172.899992085266,8|0,0:0|1:0,0:0:0:0:
106,343,69975,2,0,L|89:240,1,86.4499960426332,6|0,0:3|0:0,0:0:0:0:
35,84,70320,2,0,L|20:169,1,86.4499960426332,0|0,1:0|0:0,0:0:0:0:
131,190,70665,1,8,0:0:0:0:
203,220,70837,1,0,1:0:0:0:
321,125,71010,6,0,P|249:138|204:238,1,172.899992085266,8|0,1:3|1:0,0:0:0:0:
84,124,71527,2,0,P|156:137|201:237,1,172.899992085266,8|0,0:0|1:0,0:0:0:0:
167,298,72044,5,6,0:3:0:0:
167,298,72389,1,2,1:2:0:0:
167,298,72561,1,2,1:2:0:0:
345,347,72734,1,8,0:0:0:0:
370,272,72906,1,0,1:0:0:0:
214,231,73078,6,0,P|300:223|347:143,1,172.899992085266,4|0,1:2|1:0,0:0:0:0:
477,81,73596,2,0,P|391:89|344:169,1,172.899992085266,8|0,0:0|1:0,0:0:0:0:
512,194,74113,2,0,L|421:203,1,86.4499960426332,4|0,1:2|0:0,0:0:0:0:
269,118,74458,2,0,L|182:109,1,86.4499960426332,0|0,1:0|0:0,0:0:0:0:
14,184,74803,1,8,0:0:0:0:
36,267,74975,1,0,1:0:0:0:
89,207,75147,6,0,P|155:204|210:287,1,172.899992085266,4|0,1:2|1:0,0:0:0:0:
330,207,75665,2,0,P|264:204|209:287,1,172.899992085266,8|0,0:0|1:0,0:0:0:0:
254,359,76182,5,6,0:3:0:0:
254,359,76527,1,2,1:2:0:0:
421,296,76699,1,8,0:0:0:0:
421,296,76872,1,8,0:0:0:0:
385,369,77044,1,0,1:0:0:0:
391,222,77216,6,0,P|319:236|249:162,1,172.899992085266,4|0,1:2|1:0,0:0:0:0:
111,122,77734,2,0,P|183:108|253:182,1,172.899992085266,8|0,0:0|1:0,0:0:0:0:
151,334,78251,2,0,L|162:201,1,133,0|0,1:0|1:0,0:0:0:0:
409,45,79285,6,0,P|427:96|378:131,1,106.4,6|0,0:0|0:0,0:0:0:0:
384,126,79803,2,0,L|277:108,1,106.4,2|0,0:0|0:0,0:0:0:0:
213,66,80320,2,0,P|173:91|203:128,2,106.4,2|2|2,0:0|0:0|0:0,0:0:0:0:
293,183,81354,6,0,L|279:300,1,106.4,2|0,0:0|0:0,0:0:0:0:
223,338,81872,2,0,P|206:322|197:293,1,53.2,2|0,0:0|0:0,0:0:0:0:
136,250,82216,1,2,0:0:0:0:
136,250,82389,2,0,P|149:207|128:130,2,106.4,2|2|2,0:0|0:0|0:0,0:0:0:0:
61,326,83423,6,0,L|166:345,1,106.4,6|0,0:0|0:0,0:0:0:0:
176,348,83941,2,0,P|200:375|215:381,2,53.2,2|0|2,0:0|0:0|0:0,0:0:0:0:
244,313,84458,2,0,P|261:292|271:262,1,53.2,2|0,0:0|0:0,0:0:0:0:
342,252,84803,2,0,P|334:215|316:185,1,53.2,2|0,0:0|0:0,0:0:0:0:
352,131,85147,1,2,0:0:0:0:
295,81,85320,1,2,0:0:0:0:
352,131,85492,6,0,P|393:139|456:119,1,106.4,6|0,0:0|0:0,0:0:0:0:
463,115,86010,2,0,P|457:152|463:238,1,106.4,2|0,0:0|0:0,0:0:0:0:
492,291,86527,2,0,P|459:326|427:291,2,106.4,2|2|2,0:0|0:0|0:0,0:0:0:0:
374,239,87389,1,2,0:0:0:0:
374,239,87561,6,0,P|336:272|275:279,1,106.4,6|0,0:0|0:0,0:0:0:0:
272,280,88078,2,0,P|240:283|217:297,2,53.2,2|0|2,0:0|0:0|0:0,0:0:0:0:
295,211,88596,2,0,P|292:172|275:144,1,53.2,2|0,0:0|0:0,0:0:0:0:
211,172,88941,2,0,P|194:150|162:130,1,53.2,2|0,0:0|0:0,0:0:0:0:
118,192,89285,1,2,0:0:0:0:
93,262,89458,1,2,0:0:0:0:
118,192,89630,6,0,P|85:175|17:193,1,106.4,2|0,0:0|0:0,0:0:0:0:
11,197,90147,1,2,0:0:0:0:
19,271,90320,2,0,L|16:334,2,53.2,2|0|2,0:0|0:0|0:0,0:0:0:0:
93,262,90837,1,2,0:0:0:0:
149,311,91010,2,0,P|191:326|261:313,1,106.4,2|2,0:0|0:0,0:0:0:0:
284,251,91527,1,2,0:0:0:0:
351,281,91699,6,0,L|465:297,1,106.4,6|0,0:0|0:0,0:0:0:0:
468,298,92216,2,0,P|504:279|469:229,1,106.4,2|0,0:0|0:0,0:0:0:0:
425,178,92734,2,0,P|389:197|312:194,1,106.4,2|2,0:0|0:0,0:0:0:0:
200,115,93423,1,2,0:0:0:0:
274,125,93596,1,2,0:0:0:0:
322,69,93768,6,0,P|292:40|219:40,1,106.4,6|0,0:0|0:0,0:0:0:0:
220,37,94285,2,0,P|169:56|98:55,1,106.4,2|0,0:0|0:0,0:0:0:0:
51,22,94803,2,0,P|16:55|51:89,2,106.4,2|2|2,0:0|0:0|0:0,0:0:0:0:
117,129,95837,1,4,0:0:0:0:
256,192,96010,12,0,104113,0:0:0:0:
