osu file format v14

[General]
AudioFilename: audio.mp3
AudioLeadIn: 0
PreviewTime: 43252
Countdown: 0
SampleSet: Soft
StackLeniency: 0.7
Mode: 0
LetterboxInBreaks: 0
WidescreenStoryboard: 0

[Editor]
DistanceSpacing: 1
BeatDivisor: 2
GridSize: 4
TimelineZoom: 1

[Metadata]
Title:Kagi o Kakushita Kago no Tori
TitleUnicode:鍵を隠したカゴのトリ
Artist:Shimotsuki Haruka
ArtistUnicode:霜月はるか
Creator:Kuse
Version:Normal
Source:鍵を隠したカゴのトリ-BIRD IN CAGE HIDING THE KEY-
Tags:galgame eroge visual novel opening famale vocals cabbit MANYO marie japanese video game op KuBsNia_ZhoYL_ 真理絵
BeatmapID:2392544
BeatmapSetID:1145924

[Difficulty]
HPDrainRate:4
CircleSize:3.5
OverallDifficulty:4
ApproachRate:6
SliderMultiplier:1
SliderTickRate:1

[Events]
//Background and Video events
0,0,"bg.jpg",0,0
//Break Periods
//Storyboard Layer 0 (Background)
//Storyboard Layer 1 (Fail)
//Storyboard Layer 2 (Pass)
//Storyboard Layer 3 (Foreground)
//Storyboard Layer 4 (Overlay)
//Storyboard Sound Samples

[TimingPoints]
11010,344.827586206897,6,2,1,40,1,0
27561,-111.111111111111,6,2,1,40,0,0
44113,-100,6,2,1,60,0,1
60492,-100,6,2,1,40,0,0
60665,-100,6,2,1,60,0,1
77303,-100,6,2,1,50,0,1
79285,-111.111111111111,6,2,1,40,0,0
104113,-100,6,2,1,20,0,0

[Colours]
Combo1 : 135,156,254
Combo2 : 23,217,238

[HitObjects]
152,308,11010,6,0,P|219:302|289:349,2,150,6|2|2,0:0|0:0|0:0,0:0:0:0:
61,350,12389,1,2,0:0:0:0:
13,262,12734,1,2,0:0:0:0:
87,195,13078,6,0,P|132:174|181:181,1,100,2|0,0:0|0:0,0:0:0:0:
224,207,13596,1,2,0:0:0:0:
315,166,13941,1,2,0:0:0:0:
315,166,14113,2,0,P|328:110|326:58,2,100,2|2|2,0:0|0:0|0:0,0:0:0:0:
385,237,15147,6,0,P|440:260|534:258,2,150,6|2|2,0:0|0:0|0:0,0:0:0:0:
290,271,16527,1,2,0:0:0:0:
201,224,16872,2,0,L|118:239,1,50,2|0,0:0|0:0,0:0:0:0:
103,243,17216,6,0,P|75:195|82:143,1,100,2|0,0:0|0:0,0:0:0:0:
89,102,17734,1,2,0:0:0:0:
183,132,18078,1,2,0:0:0:0:
183,132,18251,2,0,P|189:80|166:36,2,100,2|2|2,0:0|0:0|0:0,0:0:0:0:
263,191,19285,6,0,P|248:259|270:343,2,150,6|2|2,0:0|0:0|0:0,0:0:0:0:
303,99,20665,1,2,0:0:0:0:
233,27,21010,1,2,0:0:0:0:
144,73,21354,6,0,P|96:89|44:71,1,100,2|0,0:0|0:0,0:0:0:0:
8,46,21872,1,2,0:0:0:0:
6,145,22216,1,2,0:0:0:0:
6,145,22389,2,0,P|0:208|2:255,2,100,2|2|2,0:0|0:0|0:0,0:0:0:0:
90,197,23423,6,0,P|146:178|237:177,2,150,6|2|2,0:0|0:0|0:0,0:0:0:0:
2,245,24803,1,2,0:0:0:0:
80,306,25147,2,0,L|133:309,1,50,2|0,0:0|0:0,0:0:0:0:
180,308,25492,6,0,P|220:290|292:300,1,100,6|0,0:0|0:0,0:0:0:0:
319,317,26010,1,2,0:0:0:0:
401,260,26354,1,0,0:0:0:0:
401,260,26527,2,0,P|421:308|407:361,2,100,2|2|2,0:0|0:0|0:0,0:0:0:0:
340,180,27561,6,0,P|248:216|163:194,1,179.999994506836,6|0,0:0|0:0,0:0:0:0:
86,167,28596,2,0,P|56:246|79:358,1,179.999994506836,2|0,0:0|0:0,0:0:0:0:
150,300,29630,2,0,B|249:284|224:361|338:343,1,179.999994506836,2|0,0:0|0:0,0:0:0:0:
408,341,30665,1,2,0:0:0:0:
473,279,31010,1,2,0:0:0:0:
489,190,31354,1,2,0:0:0:0:
464,103,31699,6,0,L|417:102,1,44.999998626709,2|2,0:0|0:0,0:0:0:0:
374,104,32044,2,0,P|325:148|213:125,1,179.999994506836,2|0,0:0|0:0,0:0:0:0:
154,68,33078,1,2,0:0:0:0:
63,69,33423,1,2,0:0:0:0:
13,144,33768,2,0,P|-10:201|10:315,1,179.999994506836,2|0,0:0|0:0,0:0:0:0:
90,274,34803,2,0,P|180:266|259:321,1,179.999994506836,2|0,0:0|0:0,0:0:0:0:
329,359,35837,6,0,B|367:324|367:324|376:175,1,179.999994506836,6|0,0:0|0:0,0:0:0:0:
380,154,36699,1,2,0:0:0:0:
380,154,36872,2,0,P|317:120|195:147,1,179.999994506836,2|0,0:0|0:0,0:0:0:0:
167,212,37906,2,0,B|129:177|129:177|120:28,1,179.999994506836,2|0,0:0|0:0,0:0:0:0:
207,32,38941,1,2,0:0:0:0:
287,72,39285,1,2,0:0:0:0:
366,29,39630,1,2,0:0:0:0:
437,83,39975,6,0,L|433:128,1,44.999998626709,2|2,0:0|0:0,0:0:0:0:
427,172,40320,2,0,P|380:182|338:164,1,89.9999972534181,2|0,0:0|0:0,0:0:0:0:
252,156,41010,1,0,0:0:0:0:
220,240,41354,1,0,0:0:0:0:
269,315,41699,1,2,0:0:0:0:
352,348,42044,2,0,L|414:335,1,44.999998626709,2|2,0:0|0:0,0:0:0:0:
439,326,42389,2,0,L|427:173,1,134.999995880127,2|0,0:0|0:0,0:0:0:0:
371,128,43251,1,0,1:0:0:0:
371,128,43423,2,0,L|373:72,2,44.999998626709,0|0|0,1:0|1:0|1:0,0:0:0:0:
283,176,44113,5,6,1:2:0:0:
188,159,44458,1,2,1:2:0:0:
188,159,44630,2,0,L|112:160,1,50,8|0,0:0|0:0,0:0:0:0:
116,206,44975,1,0,1:0:0:0:
116,206,45147,2,0,L|133:330,1,100,6|2,1:3|1:2,0:0:0:0:
225,333,45837,1,8,0:0:0:0:
310,280,46182,5,8,1:3:0:0:
403,315,46527,1,0,1:0:0:0:
403,315,46699,2,0,P|437:252|436:163,1,150,8|6,0:0|1:3,0:0:0:0:
345,139,47561,2,0,L|346:69,2,50,0|2|8,1:0|1:2|0:0,0:0:0:0:
250,129,48251,6,0,P|196:131|152:101,1,100,0|0,1:0|1:0,0:0:0:0:
114,83,48768,2,0,P|83:127|71:205,1,100,8|0,0:0|0:0,0:0:0:0:
70,221,49285,1,6,1:3:0:0:
147,283,49630,2,0,P|184:288|208:282,1,50,2|8,1:2|0:0,0:0:0:0:
245,278,49975,2,0,P|276:275|302:280,1,50,2|8,1:2|0:0,0:0:0:0:
341,296,50320,5,0,1:0:0:0:
437,267,50665,1,0,0:0:0:0:
437,267,50837,2,0,P|458:202|426:122,1,150,8|6,0:0|1:3,0:0:0:0:
331,123,51699,2,0,L|302:66,2,50,2|0|8,1:2|0:0|0:0,0:0:0:0:
284,210,52389,5,4,1:2:0:0:
187,236,52734,1,0,1:0:0:0:
187,236,52906,2,0,L|187:172,1,50,8|0,0:0|0:0,0:0:0:0:
187,139,53251,1,0,1:2:0:0:
187,139,53423,2,0,P|238:116|294:139,1,100,6|0,1:3|1:3,0:0:0:0:
377,109,54113,2,0,L|378:169,1,50,8|0,0:0|1:0,0:0:0:0:
381,209,54458,6,0,P|416:228|437:296,1,100,8|0,1:3|1:0,0:0:0:0:
403,317,54975,2,0,P|327:323|276:293,1,100,8|0,0:0|0:0,0:0:0:0:
282,271,55492,1,6,1:3:0:0:
222,351,55837,2,0,L|146:324,1,50,2|0,1:2|0:0,0:0:0:0:
128,316,56182,2,0,L|74:329,1,50,8|4,0:0|0:3,0:0:0:0:
29,334,56527,6,0,P|8:302|11:214,1,100,0|0,1:0|1:0,0:0:0:0:
4,191,57044,2,0,P|54:212|138:170,1,150,8|6,0:0|1:3,0:0:0:0:
201,248,57906,1,0,1:0:0:0:
290,202,58251,2,0,L|351:211,1,50,8|0,0:0|0:0,0:0:0:0:
388,218,58596,6,0,P|396:173|388:111,1,100,0|0,1:0|1:0,0:0:0:0:
375,71,59113,2,0,L|209:114,1,150,8|6,0:0|1:3,0:0:0:0:
133,134,59975,2,0,L|133:184,2,50,2|8|8,1:2|0:0|0:0,0:0:0:0:
157,37,60665,5,6,1:2:0:0:
256,11,61010,1,0,1:0:0:0:
256,11,61182,2,0,L|309:13,1,50,8|0,0:0|0:0,0:0:0:0:
359,21,61527,1,0,1:0:0:0:
359,21,61699,2,0,L|346:133,1,100,6|2,1:3|1:2,0:0:0:0:
333,219,62389,1,8,0:0:0:0:
428,248,62734,5,8,1:3:0:0:
405,348,63078,1,0,1:0:0:0:
405,348,63251,2,0,P|352:368|257:352,1,150,8|6,0:0|1:3,0:0:0:0:
212,266,64113,2,0,L|217:217,2,50,0|2|8,1:0|1:2|0:0,0:0:0:0:
153,347,64803,6,0,P|96:371|26:360,1,100,0|0,1:0|1:0,0:0:0:0:
9,361,65320,2,0,L|21:248,1,100,8|0,0:0|0:0,0:0:0:0:
23,211,65837,1,6,1:3:0:0:
30,111,66182,2,0,L|89:139,1,50,4|2,1:2|0:0,0:0:0:0:
119,155,66527,2,0,L|176:123,1,50,2|8,1:2|0:0,0:0:0:0:
201,98,66872,5,4,1:2:0:0:
287,158,67216,1,0,0:0:0:0:
287,158,67389,2,0,P|336:143|431:185,1,150,8|6,0:0|1:3,0:0:0:0:
415,277,68251,2,0,L|409:342,2,50,2|2|8,1:2|1:2|0:0,0:0:0:0:
507,238,68941,5,6,1:2:0:0:
460,155,69285,1,0,1:0:0:0:
460,155,69458,2,0,L|468:85,1,50,8|0,0:0|0:0,0:0:0:0:
474,59,69803,1,0,1:0:0:0:
474,59,69975,2,0,L|359:82,1,100,6|2,1:3|1:2,0:0:0:0:
289,130,70665,2,0,L|277:78,1,50,8|0,0:0|1:0,0:0:0:0:
263,33,71010,6,0,P|210:41|147:11,1,100,8|0,1:3|1:0,0:0:0:0:
117,19,71527,2,0,P|104:70|123:150,1,100,8|0,0:0|0:0,0:0:0:0:
129,162,72044,1,6,1:3:0:0:
67,242,72389,1,0,0:0:0:0:
67,242,72561,2,0,L|4:240,2,50,2|8|0,0:0|0:0|1:0,0:0:0:0:
116,247,73078,6,0,L|133:356,1,100,4|0,1:2|1:0,0:0:0:0:
176,367,73596,2,0,P|241:333|312:351,1,150,8|4,0:0|1:2,0:0:0:0:
409,371,74458,1,2,1:2:0:0:
452,281,74803,2,0,L|444:212,1,50,8|0,0:0|1:0,0:0:0:0:
442,181,75147,5,6,1:2:0:0:
422,87,75492,1,0,1:0:0:0:
422,87,75665,2,0,P|375:108|349:201,1,150,8|6,0:0|1:3,0:0:0:0:
334,299,76527,1,2,1:2:0:0:
334,299,76699,2,0,L|332:352,2,50,8|8|0,0:0|0:0|1:0,0:0:0:0:
304,259,77216,6,0,P|257:256|200:279,1,100,4|0,1:2|1:0,0:0:0:0:
163,249,77734,2,0,L|187:87,1,150,8|0,0:0|1:0,0:0:0:0:
227,11,78596,1,0,1:0:0:0:
401,54,79285,6,0,P|421:98|424:202,2,134.999995880127,6|2|2,0:0|0:0|0:0,0:0:0:0:
333,114,80665,2,0,P|282:94|240:67,1,89.9999972534181,2|2,0:0|0:0,0:0:0:0:
187,139,81354,2,0,P|131:157|92:156,1,89.9999972534181,2|0,0:0|0:0,0:0:0:0:
54,157,81872,1,2,0:0:0:0:
17,241,82216,1,0,0:0:0:0:
17,241,82389,2,0,P|9:297|14:365,2,89.9999972534181,2|2|2,0:0|0:0|0:0,0:0:0:0:
101,273,83423,6,0,P|151:293|251:313,2,134.999995880127,6|2|2,0:0|0:0|0:0,0:0:0:0:
166,210,84803,2,0,P|218:186|258:179,1,89.9999972534181,2|2,0:0|0:0,0:0:0:0:
334,213,85492,2,0,L|344:103,1,89.9999972534181,2|0,0:0|0:0,0:0:0:0:
347,78,86010,1,2,0:0:0:0:
268,47,86354,1,2,0:0:0:0:
268,47,86527,2,0,P|220:73|180:82,2,89.9999972534181,2|2|2,0:0|0:0|0:0,0:0:0:0:
354,22,87561,6,0,P|418:23|487:46,2,134.999995880127,6|2|2,0:0|0:0|0:0,0:0:0:0:
321,106,88941,2,0,P|336:168|353:206,1,89.9999972534181,2|2,0:0|0:0,0:0:0:0:
350,281,89630,2,0,P|289:294|236:281,1,89.9999972534181,2|0,0:0|0:0,0:0:0:0:
217,286,90147,1,2,0:0:0:0:
132,255,90492,1,2,0:0:0:0:
132,255,90665,2,0,L|126:317,2,44.999998626709,2|2|2,0:0|0:0|0:0,0:0:0:0:
136,165,91354,1,0,0:0:0:0:
139,75,91699,6,0,P|97:54|-3:47,2,134.999995880127,6|2|2,0:0|0:0|0:0,0:0:0:0:
213,125,93078,2,0,P|271:112|299:86,1,89.9999972534181,2|2,0:0|0:0,0:0:0:0:
330,10,93768,2,0,P|374:51|384:86,1,89.9999972534181,6|0,0:0|0:0,0:0:0:0:
386,123,94285,1,2,0:0:0:0:
341,202,94630,1,0,0:0:0:0:
341,202,94803,2,0,P|306:256|310:312,2,89.9999972534181,2|2|2,0:0|0:0|0:0,0:0:0:0:
430,205,95837,1,6,0:0:0:0:
256,192,96182,12,0,104113,0:0:0:0:
