osu file format v14

[General]
AudioFilename: audio.mp3
AudioLeadIn: 0
PreviewTime: 43252
Countdown: 0
SampleSet: Soft
StackLeniency: 0.4
Mode: 0
LetterboxInBreaks: 0
WidescreenStoryboard: 1

[Editor]
DistanceSpacing: 1.4
BeatDivisor: 4
GridSize: 4
TimelineZoom: 1

[Metadata]
Title:Kagi o Kakushita Kago no Tori
TitleUnicode:鍵を隠したカゴのトリ
Artist:Shimotsuki Haruka
ArtistUnicode:霜月はるか
Creator:Kuse
Version:Hard
Source:鍵を隠したカゴのトリ-BIRD IN CAGE HIDING THE KEY-
Tags:galgame eroge visual novel opening famale vocals cabbit MANYO marie japanese video game op KuBsNia_ZhoYL_ 真理絵
BeatmapID:2392542
BeatmapSetID:1145924

[Difficulty]
HPDrainRate:5
CircleSize:3.8
OverallDifficulty:7
ApproachRate:7.6
SliderMultiplier:1.2
SliderTickRate:1

[Events]
//Background and Video events
0,0,"bg.jpg",0,0
//Break Periods
//Storyboard Layer 0 (Background)
//Storyboard Layer 1 (Fail)
//Storyboard Layer 2 (Pass)
//Storyboard Layer 3 (Foreground)
//Storyboard Layer 4 (Overlay)
//Storyboard Sound Samples

[TimingPoints]
11010,344.827586206897,6,2,1,40,1,0
27561,-133.333333333333,6,2,1,40,0,0
44113,-100,6,2,1,60,0,1
60492,-100,6,2,1,40,0,0
60665,-100,6,2,1,60,0,1
77216,-100,6,2,1,50,0,1
79285,-133.333333333333,6,2,1,40,0,0
104113,-133.333333333333,6,2,1,20,0,0

[Colours]
Combo1 : 135,156,254
Combo2 : 23,217,238

[HitObjects]
21,249,11010,6,0,P|62:297|137:297,1,120,6|0,0:0|0:0,0:0:0:0:
180,261,11527,2,0,P|235:247|300:269,1,120,2|0,0:0|0:0,0:0:0:0:
348,321,12044,2,0,L|433:318,1,60,2|0,0:0|0:0,0:0:0:0:
478,284,12389,2,0,P|460:241|463:211,1,60,2|0,0:0|0:0,0:0:0:0:
489,155,12734,2,0,L|425:128,1,60,2|0,0:0|0:0,0:0:0:0:
358,112,13078,6,0,P|321:126|239:98,1,120,2|0,0:0|0:0,0:0:0:0:
167,111,13596,2,0,P|114:101|44:124,1,120,2|0,0:0|0:0,0:0:0:0:
6,183,14113,1,2,0:0:0:0:
86,316,14458,1,2,0:0:0:0:
219,234,14803,1,2,0:0:0:0:
260,299,14975,1,2,0:0:0:0:
296,230,15147,6,0,P|338:207|420:210,1,120,6|0,0:0|0:0,0:0:0:0:
484,227,15665,2,0,P|499:175|489:105,1,120,2|0,0:0|0:0,0:0:0:0:
445,46,16182,2,0,P|400:70|366:76,1,60,2|0,0:0|0:0,0:0:0:0:
314,58,16527,2,0,P|281:38|238:27,1,60,2|0,0:0|0:0,0:0:0:0:
205,86,16872,1,2,0:0:0:0:
130,63,17044,1,2,0:0:0:0:
59,95,17216,6,0,P|92:151|91:224,1,120,2|0,0:0|0:0,0:0:0:0:
36,256,17734,2,0,P|3:312|4:385,1,120,2|0,0:0|0:0,0:0:0:0:
76,382,18251,1,2,0:0:0:0:
210,302,18596,1,2,0:0:0:0:
353,364,18941,1,2,0:0:0:0:
404,305,19113,1,2,0:0:0:0:
327,290,19285,6,0,P|309:243|309:170,1,120,6|0,0:0|0:0,0:0:0:0:
325,97,19803,2,0,P|384:113|449:100,1,120,2|0,0:0|0:0,0:0:0:0:
502,152,20320,2,0,P|495:191|508:227,1,60,2|0,0:0|0:0,0:0:0:0:
507,288,20665,2,0,P|517:320|501:365,1,60,2|0,0:0|0:0,0:0:0:0:
437,323,21010,1,2,0:0:0:0:
364,352,21182,1,2,0:0:0:0:
304,301,21354,6,0,P|267:279|181:274,1,120,2|0,0:0|0:0,0:0:0:0:
115,291,21872,2,0,P|87:242|90:157,1,120,2|0,0:0|0:0,0:0:0:0:
100,103,22389,1,2,0:0:0:0:
250,144,22734,1,2,0:0:0:0:
392,80,23078,1,0,0:0:0:0:
443,21,23251,1,2,0:0:0:0:
368,3,23423,6,0,P|326:18|268:73,1,120,6|0,0:0|0:0,0:0:0:0:
250,144,23941,2,0,P|184:133|124:95,1,120,2|0,0:0|0:0,0:0:0:0:
66,137,24458,2,0,P|61:185|62:210,1,60,2|0,0:0|0:0,0:0:0:0:
90,269,24803,2,0,P|124:279|158:296,1,60,2|0,0:0|0:0,0:0:0:0:
175,361,25147,1,2,0:0:0:0:
238,314,25320,1,2,0:0:0:0:
284,370,25492,6,0,P|341:378|411:366,1,120,6|0,0:0|0:0,0:0:0:0:
477,343,26010,2,0,P|481:282|463:209,1,120,2|0,0:0|0:0,0:0:0:0:
453,148,26527,2,0,P|425:156|394:184,1,60,2|0,0:0|0:0,0:0:0:0:
336,219,26872,2,0,P|299:214|266:191,1,60,2|0,0:0|0:0,0:0:0:0:
237,137,27216,1,2,0:0:0:0:
28,185,27561,6,0,B|116:163|104:239|202:209,1,180.000006866455,6|0,0:0|0:0,0:0:0:0:
290,136,28596,2,0,B|333:117|346:52|346:52|353:85|384:128,1,180.000006866455,2|0,0:0|0:0,0:0:0:0:
431,224,29630,2,0,P|385:214|411:296,1,180.000006866455,2|0,0:0|0:0,0:0:0:0:
307,350,30665,6,0,P|281:360|252:364,1,45.0000017166138,2|0,0:0|0:0,0:0:0:0:
216,302,31010,2,0,P|186:300|166:293,1,45.0000017166138,2|0,0:0|0:0,0:0:0:0:
143,224,31354,2,0,P|118:204|109:187,1,45.0000017166138,2|0,0:0|0:0,0:0:0:0:
120,116,31699,5,2,0:0:0:0:
195,126,31872,1,2,0:0:0:0:
166,55,32044,2,0,P|230:39|321:99,1,180.000006866455,2|0,0:0|0:0,0:0:0:0:
459,149,33078,6,0,P|433:139|404:131,1,45.0000017166138,2|0,0:0|0:0,0:0:0:0:
355,180,33423,2,0,P|330:180|295:186,1,45.0000017166138,2|0,0:0|0:0,0:0:0:0:
246,224,33768,1,2,0:0:0:0:
246,224,33941,2,0,P|238:228|115:185,1,135.000005149841,2|0,0:0|0:0,0:0:0:0:
21,80,34803,2,0,B|72:155|-17:156|39:262,1,180.000006866455,2|0,0:0|0:0,0:0:0:0:
157,348,35837,6,0,B|204:343|243:368|243:368|285:344|341:354,1,180.000006866455,6|0,0:0|0:0,0:0:0:0:
391,306,36699,1,2,0:0:0:0:
320,276,36872,2,0,P|332:241|297:90,1,180.000006866455,2|0,0:0|0:0,0:0:0:0:
156,139,37906,2,0,P|198:132|135:72,1,180.000006866455,2|0,0:0|0:0,0:0:0:0:
28,161,38941,6,0,P|62:158|89:168,1,45.0000017166138,2|0,0:0|0:0,0:0:0:0:
121,218,39285,2,0,P|162:224|178:232,1,45.0000017166138,2|0,0:0|0:0,0:0:0:0:
217,281,39630,2,0,P|248:299|261:318,1,45.0000017166138,2|0,0:0|0:0,0:0:0:0:
319,345,39975,5,2,0:0:0:0:
380,299,40147,1,2,0:0:0:0:
313,260,40320,2,0,P|309:221|317:150,1,90.0000034332277,2|0,0:0|0:0,0:0:0:0:
437,80,41010,2,0,B|350:116|350:36|249:81,1,180.000006866455,2|0,0:0|0:0,0:0:0:0:
148,189,42044,1,6,0:0:0:0:
97,132,42216,1,2,0:0:0:0:
75,205,42389,2,0,P|80:254|193:316,1,180.000006866455,2|0,0:0|0:0,0:0:0:0:
255,292,43251,1,0,1:0:0:0:
312,342,43423,5,0,1:0:0:0:
376,299,43596,1,0,1:0:0:0:
442,335,43768,2,0,L|499:346,1,45.0000017166138,0|0,1:0|0:0,0:0:0:0:
377,227,44113,6,0,P|323:219|258:266,1,120,4|0,1:2|0:1,0:0:0:0:
207,191,44630,2,0,P|197:158|201:67,1,120,8|0,0:0|1:0,0:0:0:0:
269,27,45147,2,0,P|282:59|277:92,1,60,6|0,0:3|0:0,0:0:0:0:
318,159,45492,2,0,P|353:140|388:140,1,60,2|2,1:2|0:0,0:0:0:0:
440,188,45837,1,8,0:0:0:0:
378,244,46010,1,0,1:0:0:0:
419,316,46182,6,0,P|362:286|299:284,1,120,8|0,1:3|1:0,0:0:0:0:
217,326,46699,2,0,P|157:321|105:292,1,120,8|0,0:0|1:0,0:0:0:0:
62,219,47216,1,6,0:3:0:0:
116,59,47561,1,0,1:0:0:0:
178,115,47734,1,0,0:2:0:0:
194,32,47906,2,0,P|244:6|266:4,1,60,8|0,0:0|1:0,0:0:0:0:
314,56,48251,6,0,P|301:96|324:177,1,120,0|0,1:0|1:0,0:0:0:0:
401,187,48768,2,0,P|414:227|391:308,1,120,8|0,0:0|1:0,0:0:0:0:
329,352,49285,2,0,P|284:345|251:345,1,60,6|0,0:3|1:0,0:0:0:0:
186,357,49630,1,2,1:2:0:0:
217,278,49803,1,8,0:0:0:0:
167,210,49975,1,2,1:2:0:0:
132,287,50147,1,8,0:0:0:0:
48,300,50320,6,0,P|31:260|34:165,1,120,0|0,1:0|1:0,0:0:0:0:
94,131,50837,2,0,B|146:162|146:162|223:145,1,120,8|0,0:0|1:0,0:0:0:0:
285,126,51354,1,6,0:3:0:0:
447,82,51699,1,2,1:2:0:0:
386,23,51872,1,2,1:2:0:0:
369,105,52044,2,0,P|371:149|382:185,1,60,8|0,0:0|0:0,0:0:0:0:
447,199,52389,6,0,P|457:140|442:69,1,120,4|0,1:2|1:0,0:0:0:0:
386,23,52906,2,0,P|338:57|280:54,1,120,8|0,0:0|1:0,0:0:0:0:
204,14,53423,2,0,P|177:4|128:1,1,60,6|0,0:3|0:0,0:0:0:0:
113,77,53768,1,0,1:0:0:0:
50,20,53941,1,2,1:2:0:0:
30,101,54113,2,0,P|31:132|36:172,1,60,8|0,0:0|1:0,0:0:0:0:
47,244,54458,6,0,P|100:267|169:261,1,120,8|0,1:3|1:0,0:0:0:0:
230,215,54975,2,0,P|289:193|366:206,1,120,8|0,0:0|1:0,0:0:0:0:
417,240,55492,1,6,0:3:0:0:
450,75,55837,1,2,1:2:0:0:
474,155,56010,1,2,1:2:0:0:
392,137,56182,2,0,P|359:116|335:89,1,60,8|0,0:0|1:0,0:0:0:0:
288,37,56527,6,0,P|237:16|166:11,1,120,0|0,1:0|1:0,0:0:0:0:
88,21,57044,2,0,P|101:79|100:145,1,120,8|0,0:0|1:0,0:0:0:0:
67,216,57561,1,6,0:3:0:0:
166,351,57906,1,0,1:0:0:0:
111,287,58078,1,0,1:0:0:0:
193,272,58251,2,0,P|233:268|269:270,1,60,8|0,0:0|1:0,0:0:0:0:
323,222,58596,6,0,P|377:214|449:226,1,120,0|0,1:0|1:0,0:0:0:0:
445,307,59113,2,0,P|391:315|319:303,1,120,8|0,0:0|1:0,0:0:0:0:
252,268,59630,1,6,0:3:0:0:
95,330,59975,1,2,1:2:0:0:
173,301,60147,1,8,0:0:0:0:
107,248,60320,2,0,L|100:183,1,60,8|0,0:0|0:0,0:0:0:0:
118,105,60665,6,0,P|155:94|243:116,1,120,4|0,1:2|1:0,0:0:0:0:
281,40,61182,2,0,P|345:54|413:42,1,120,8|0,0:0|1:0,0:0:0:0:
467,96,61699,2,0,P|444:126|428:157,1,60,6|0,0:3|0:0,0:0:0:0:
374,206,62044,2,0,P|375:256|381:282,1,60,2|2,1:2|1:2,0:0:0:0:
443,317,62389,1,8,0:0:0:0:
363,343,62561,1,0,1:0:0:0:
301,284,62734,6,0,P|246:269|179:293,1,120,8|0,1:3|1:0,0:0:0:0:
157,365,63251,2,0,P|100:382|43:367,1,120,8|0,0:0|1:0,0:0:0:0:
20,286,63768,1,6,0:3:0:0:
24,117,64113,1,0,1:0:0:0:
76,182,64285,1,2,1:2:0:0:
101,101,64458,2,0,P|141:84|169:80,1,60,8|0,0:0|1:0,0:0:0:0:
232,119,64803,6,0,P|280:148|348:131,1,120,0|0,1:0|1:0,0:0:0:0:
414,97,65320,2,0,P|440:147|436:217,1,120,8|0,0:0|1:0,0:0:0:0:
394,281,65837,2,0,P|353:269|314:269,1,60,6|0,0:3|1:0,0:0:0:0:
255,294,66182,1,4,1:2:0:0:
186,246,66354,1,2,0:0:0:0:
110,283,66527,1,0,1:0:0:0:
179,329,66699,1,8,0:0:0:0:
255,294,66872,6,0,P|267:235|237:185,1,120,4|0,1:2|1:0,0:0:0:0:
176,127,67389,2,8,P|237:104|293:129,1,120,8|0,0:0|1:0,0:0:0:0:
339,182,67906,1,6,0:3:0:0:
506,190,68251,1,2,1:2:0:0:
457,123,68423,1,2,1:2:0:0:
373,135,68596,2,0,P|347:162|338:188,1,60,8|0,0:0|1:0,0:0:0:0:
358,264,68941,6,0,P|289:248|260:210,1,120,4|0,1:2|1:0,0:0:0:0:
228,133,69458,2,0,P|188:89|130:80,1,120,8|0,0:0|1:0,0:0:0:0:
48,99,69975,2,0,L|54:168,1,60,6|0,0:3|0:0,0:0:0:0:
62,243,70320,1,0,1:0:0:0:
38,323,70492,1,0,1:0:0:0:
120,308,70665,2,0,P|149:291|184:286,1,60,8|0,0:0|1:0,0:0:0:0:
250,323,71010,6,0,P|303:294|365:293,1,120,8|0,1:3|1:0,0:0:0:0:
444,310,71527,2,0,P|468:255|469:196,1,120,8|0,0:0|1:0,0:0:0:0:
437,117,72044,1,6,0:3:0:0:
268,114,72389,1,2,1:2:0:0:
346,84,72561,1,0,1:0:0:0:
333,166,72734,2,0,P|304:191|261:202,1,60,8|0,0:0|1:0,0:0:0:0:
205,168,73078,6,0,P|139:149|74:185,1,120,4|0,1:2|1:0,0:0:0:0:
32,224,73596,2,0,P|87:284|144:277,1,120,8|0,0:0|1:0,0:0:0:0:
198,251,74113,1,4,1:2:0:0:
345,332,74458,1,0,1:0:0:0:
399,268,74630,1,2,1:2:0:0:
315,253,74803,2,0,L|309:193,1,60,8|0,0:0|1:0,0:0:0:0:
315,109,75147,6,0,P|251:121|189:113,1,120,4|0,1:2|1:0,0:0:0:0:
113,99,75665,2,0,P|121:147|97:227,1,120,8|0,0:0|1:0,0:0:0:0:
29,254,76182,1,6,0:3:0:0:
195,233,76527,1,2,1:2:0:0:
241,302,76699,1,8,0:0:0:0:
280,227,76872,2,0,P|321:212|356:210,1,60,8|0,0:0|1:0,0:0:0:0:
420,210,77216,6,0,P|406:155|416:91,1,120,4|0,1:2|1:0,0:0:0:0:
447,14,77734,2,0,P|396:2|322:12,1,120,8|0,0:0|1:0,0:0:0:0:
258,55,78251,1,0,1:0:0:0:
94,14,78596,1,0,1:0:0:0:
344,35,79285,6,0,P|355:78|355:125,1,90.0000034332277,6|0,0:0|0:0,0:0:0:0:
334,197,79803,2,0,P|323:240|323:287,1,90.0000034332277,2|0,0:0|0:0,0:0:0:0:
381,334,80320,1,2,0:0:0:0:
230,305,80665,1,2,0:0:0:0:
86,357,81010,1,2,0:0:0:0:
34,213,81354,6,0,P|54:156|56:113,1,90.0000034332277,2|0,0:0|0:0,0:0:0:0:
21,57,81872,2,0,L|20:11,2,45.0000017166138,2|2|2,0:0|0:0|0:0,0:0:0:0:
97,55,82389,1,2,0:0:0:0:
240,107,82734,1,2,0:0:0:0:
378,43,83078,1,2,0:0:0:0:
445,89,83251,1,2,0:0:0:0:
445,89,83423,6,0,P|436:131|431:180,1,90.0000034332277,6|0,0:0|0:0,0:0:0:0:
473,242,83941,2,0,L|526:238,2,45.0000017166138,2|0|0,0:0|0:0|0:0,0:0:0:0:
421,298,84458,1,2,0:0:0:0:
272,260,84803,1,2,0:0:0:0:
206,366,85147,1,2,0:0:0:0:
171,300,85320,1,2,0:0:0:0:
171,300,85492,6,0,P|126:290|63:293,1,90.0000034332277,2|0,0:0|0:0,0:0:0:0:
5,298,86010,2,0,P|-4:247|0:197,1,90.0000034332277,2|0,0:0|0:0,0:0:0:0:
9,133,86527,1,2,0:0:0:0:
151,188,86872,1,2,0:0:0:0:
266,88,87216,1,2,0:0:0:0:
217,28,87389,1,2,0:0:0:0:
217,28,87561,6,0,P|192:63|196:120,1,90.0000034332277,6|0,0:0|0:0,0:0:0:0:
245,162,88078,2,0,P|270:197|271:215,2,45.0000017166138,2|2|2,0:0|0:0|0:0,0:0:0:0:
196,221,88596,1,2,0:0:0:0:
57,155,88941,1,2,0:0:0:0:
70,307,89285,1,2,0:0:0:0:
136,267,89458,1,2,0:0:0:0:
136,267,89630,6,0,P|163:291|218:295,1,90.0000034332277,2|0,0:0|0:0,0:0:0:0:
281,257,90147,1,2,0:0:0:0:
348,294,90320,1,2,0:0:0:0:
348,294,90492,2,0,L|341:346,2,45.0000017166138,2|2|0,0:0|0:0|0:0,0:0:0:0:
358,217,91010,1,2,0:0:0:0:
473,117,91354,1,2,0:0:0:0:
416,168,91527,1,2,0:0:0:0:
416,168,91699,6,0,P|389:144|334:142,1,90.0000034332277,6|0,0:0|0:0,0:0:0:0:
276,188,92216,2,0,P|231:188|196:160,1,90.0000034332277,2|0,0:0|0:0,0:0:0:0:
153,96,92734,1,2,0:0:0:0:
41,200,93078,1,2,0:0:0:0:
122,329,93423,1,2,0:0:0:0:
187,288,93596,1,2,0:0:0:0:
187,288,93768,6,0,P|230:280|279:295,1,90.0000034332277,6|0,0:0|0:0,0:0:0:0:
342,325,94285,2,0,P|384:336|428:329,1,90.0000034332277,2|0,0:0|0:0,0:0:0:0:
501,301,94803,1,2,0:0:0:0:
460,153,95147,1,2,0:0:0:0:
325,225,95492,1,2,0:0:0:0:
284,77,95837,1,6,0:0:0:0:
256,192,96182,12,0,104113,0:0:0:0:
