osu file format v14

[General]
AudioFilename: audio.mp3
AudioLeadIn: 0
PreviewTime: 93140
Countdown: 0
SampleSet: Soft
StackLeniency: 0.2
Mode: 0
LetterboxInBreaks: 0
WidescreenStoryboard: 1

[Editor]
Bookmarks: 24556,36122,47689,59255,70821,82387,93954,105520,122869,134436,146002,157568,169134,180701,192267,203833,215399,226966,238532,250098,261664,273683,284797,290580,302146,313713,319857
DistanceSpacing: 2.2
BeatDivisor: 4
GridSize: 32
TimelineZoom: 1.7

[Metadata]
Title:Inochi no Tomoshikata
TitleUnicode:イノチの灯し方
Artist:Shimotsuki Haruka
ArtistUnicode:霜月はるか
Creator:Lasse
Version:Twilight
Source:月影のシミュラクル-解放の羽-
Tags:Tsukikage no Simulacre -Kaihou no Hane- Ending Eroge Visual Novel Applique Kyohei Nishizaka
BeatmapID:1480163
BeatmapSetID:698922

[Difficulty]
HPDrainRate:6
CircleSize:4
OverallDifficulty:8
ApproachRate:8.3
SliderMultiplier:2
SliderTickRate:1

[Events]
//Background and Video events
0,0,"b.jpg",0,0
//Break Periods
//Storyboard Layer 0 (Background)
//Storyboard Layer 1 (Fail)
//Storyboard Layer 2 (Pass)
//Storyboard Layer 3 (Foreground)
//Storyboard Sound Samples

[TimingPoints]
1424,722.89156626506,4,2,43,14,1,0
1424,-200,4,2,43,14,0,0
18050,-200,4,2,43,16,0,0
18411,-200,4,2,43,18,0,0
18773,-166.666666666667,4,2,43,20,0,0
22026,-166.666666666667,4,2,43,18,0,0
22387,-166.666666666667,4,2,43,16,0,0
22749,-166.666666666667,4,2,43,14,0,0
23110,-250,4,2,1,12,0,0
23201,-250,4,2,43,8,0,0
24195,-250,4,2,43,5,0,0
24556,-166.666666666667,4,2,1,22,0,0
36122,-166.666666666666,4,2,1,24,0,0
36303,-166.666666666666,4,2,98,10,0,0
36484,-166.666666666666,4,2,1,24,0,0
36664,-166.666666666666,4,2,98,10,0,0
36845,-333.333333333331,4,2,1,24,0,0
37207,-333.333333333331,4,2,98,10,0,0
37568,-166.666666666666,4,2,1,24,0,0
37749,-166.666666666666,4,2,98,10,0,0
37930,-166.666666666666,4,2,1,24,0,0
38110,-166.666666666666,4,2,98,10,0,0
38291,-333.333333333331,4,2,1,24,0,0
38652,-333.333333333331,4,2,98,10,0,0
39014,-166.666666666666,4,2,1,24,0,0
39195,-166.666666666666,4,2,98,10,0,0
39375,-166.666666666666,4,2,1,24,0,0
39556,-166.666666666666,4,2,98,10,0,0
39737,-166.666666666666,4,2,1,24,0,0
39917,-333.333333333331,4,2,98,10,0,0
40098,-166.666666666666,4,2,1,24,0,0
40279,-166.666666666666,4,2,98,10,0,0
40460,-166.666666666666,4,2,1,24,0,0
40640,-166.666666666666,4,2,98,10,0,0
40821,-166.666666666666,4,2,1,24,0,0
41002,-166.666666666666,4,2,98,10,0,0
41183,-333.333333333331,4,2,1,24,0,0
41544,-166.666666666666,4,2,98,14,0,0
41905,-166.666666666666,4,2,1,24,0,0
42086,-166.666666666666,4,2,98,10,0,0
42267,-166.666666666666,4,2,1,24,0,0
42448,-166.666666666666,4,2,98,10,0,0
42628,-333.333333333331,4,2,1,24,0,0
42990,-333.333333333331,4,2,98,18,0,0
43351,-166.666666666666,4,2,1,24,0,0
43532,-166.666666666666,4,2,98,10,0,0
43713,-166.666666666666,4,2,1,24,0,0
43893,-166.666666666666,4,2,98,10,0,0
44074,-333.333333333331,4,2,1,24,0,0
44436,-333.333333333331,4,2,98,10,0,0
44797,-166.666666666666,4,2,1,24,0,0
44978,-166.666666666666,4,2,98,10,0,0
45158,-166.666666666666,4,2,1,24,0,0
45339,-166.666666666666,4,2,98,10,0,0
45520,-111.111111111111,4,2,1,24,0,0
45881,-111.111111111111,4,2,1,16,0,0
46243,-166.666666666666,4,2,1,12,0,0
46604,-166.666666666666,4,2,1,10,0,0
46966,-166.666666666666,4,2,1,24,0,0
47327,-166.666666666666,4,2,98,16,0,0
47689,-200,4,2,1,18,0,0
58893,-200,4,2,1,16,0,0
59255,-166.666666666667,4,2,1,20,0,0
59436,-166.666666666667,4,2,98,10,0,0
59616,-166.666666666667,4,2,1,20,0,0
59797,-166.666666666667,4,2,98,10,0,0
59978,-166.666666666667,4,2,1,20,0,0
60158,-166.666666666667,4,2,98,10,0,0
60339,-166.666666666667,4,2,1,20,0,0
60520,-166.666666666667,4,2,1,16,0,0
60701,-333.333333333331,4,2,1,20,0,0
62146,-166.666666666667,4,2,1,20,0,0
62327,-166.666666666667,4,2,98,10,0,0
62508,-166.666666666667,4,2,1,20,0,0
62689,-166.666666666667,4,2,98,10,0,0
62869,-166.666666666667,4,2,1,20,0,0
63050,-166.666666666667,4,2,98,10,0,0
63231,-166.666666666667,4,2,1,20,0,0
63411,-166.666666666667,4,2,98,10,0,0
63592,-333.333333333331,4,2,1,20,0,0
65038,-166.666666666666,4,2,1,20,0,0
65219,-166.666666666666,4,2,98,10,0,0
65399,-166.666666666666,4,2,1,20,0,0
65579,-166.666666666666,4,2,98,10,0,0
65761,-166.666666666666,4,2,1,20,0,0
65941,-166.666666666666,4,2,98,10,0,0
66122,-166.666666666666,4,2,1,20,0,0
66302,-166.666666666666,4,2,98,10,0,0
66484,-249.999999999999,4,2,1,20,0,0
67930,-156.25,4,2,1,20,0,0
68110,-156.25,4,2,98,10,0,0
68291,-156.25,4,2,1,20,0,0
68472,-156.25,4,2,98,10,0,0
68652,-249.999999999999,4,2,1,20,0,0
69014,-249.999999999999,4,2,98,14,0,0
69375,-156.25,4,2,1,20,0,0
69737,-156.25,4,2,1,16,0,0
70098,-156.25,4,2,1,12,0,0
70460,-156.25,4,2,1,14,0,0
70821,-125,4,2,1,16,0,0
71544,-125,4,2,1,8,0,0
71905,-125,4,2,1,12,0,0
72267,-125,4,2,1,16,0,0
73351,-125,4,2,1,14,0,0
73713,-125,4,2,1,16,0,0
74436,-125,4,2,1,8,0,0
74797,-125,4,2,1,12,0,0
75159,-125,4,2,1,16,0,0
76243,-125,4,2,1,12,0,0
76604,-125,4,2,1,16,0,0
77327,-125,4,2,1,8,0,0
77689,-125,4,2,1,12,0,0
78050,-125,4,2,1,16,0,0
79134,-125,4,2,1,14,0,0
79496,-125,4,2,1,16,0,0
79857,-125,4,2,1,10,0,0
80219,-125,4,2,1,12,0,0
80761,-125,4,2,1,14,0,0
80942,-125,4,2,1,16,0,0
81664,-125,4,2,1,18,0,0
82026,-125,4,2,1,12,0,0
82387,-222.222222222222,4,2,1,16,0,0
82749,-222.222222222222,4,2,1,17,0,0
83110,-222.222222222222,4,2,1,18,0,0
83472,-222.222222222222,4,2,1,19,0,0
83833,-222.222222222222,4,2,1,20,0,0
84195,-222.222222222222,4,2,1,21,0,0
84556,-222.222222222222,4,2,1,22,0,0
84917,-222.222222222222,4,2,1,14,0,0
85279,-222.222222222222,4,2,1,22,0,0
85640,-222.222222222222,4,2,1,21,0,0
86002,-222.222222222222,4,2,1,20,0,0
86363,-222.222222222222,4,2,1,19,0,0
86725,-222.222222222222,4,2,1,18,0,0
87086,-222.222222222222,4,2,1,17,0,0
87448,-222.222222222222,4,2,1,16,0,0
87809,-222.222222222222,4,2,1,18,0,0
88170,-222.222222222222,4,2,1,20,0,0
89074,-222.222222222222,4,2,1,8,0,0
90339,-222.222222222222,4,2,1,16,0,0
90701,-249.999999999999,4,2,1,14,0,0
91062,-249.999999999999,4,2,1,12,0,0
91423,-333.333333333331,4,2,1,14,0,0
91604,-333.333333333331,4,2,1,6,0,0
92508,-333.333333333331,4,2,99,5,0,0
93231,-166.666666666666,4,2,1,26,0,0
93592,-166.666666666666,4,2,98,12,0,0
93954,-66.6666666666667,4,2,43,40,0,1
94315,-66.6666666666667,4,2,1,40,0,1
102086,-66.6666666666667,4,2,1,44,0,1
102628,-66.6666666666667,4,2,1,40,0,1
104436,-66.6666666666667,4,2,1,30,0,1
104797,-66.6666666666667,4,2,1,36,0,0
104978,-66.6666666666667,4,2,1,37,0,0
105158,-66.6666666666667,4,2,1,38,0,0
105339,-66.6666666666667,4,2,1,39,0,0
105520,-66.6666666666667,4,2,43,40,0,1
105881,-66.6666666666667,4,2,1,40,0,1
115640,-83.3333333333333,4,2,1,40,0,1
116363,-83.3333333333333,4,2,1,36,0,1
116725,-83.3333333333333,4,2,1,32,0,1
117086,-142.857142857143,4,2,1,28,0,0
117809,-142.857142857143,4,2,1,26,0,0
118532,-142.857142857143,4,2,1,24,0,0
119255,-142.857142857143,4,2,1,22,0,0
119978,-142.857142857143,4,2,1,20,0,0
121423,-200,4,2,1,20,0,0
121514,-200,4,2,1,7,0,0
122508,-200,4,2,99,5,0,0
122869,-166.666666666667,4,2,1,22,0,0
134436,-166.666666666666,4,2,1,24,0,0
134617,-166.666666666666,4,2,98,10,0,0
134797,-166.666666666666,4,2,1,24,0,0
134978,-166.666666666666,4,2,98,10,0,0
135158,-333.333333333331,4,2,1,24,0,0
135520,-333.333333333331,4,2,98,10,0,0
135881,-166.666666666666,4,2,1,24,0,0
136062,-166.666666666666,4,2,98,10,0,0
136243,-166.666666666666,4,2,1,24,0,0
136423,-166.666666666666,4,2,98,10,0,0
136604,-333.333333333331,4,2,1,24,0,0
136966,-333.333333333331,4,2,98,10,0,0
137327,-166.666666666666,4,2,1,24,0,0
137508,-166.666666666666,4,2,98,10,0,0
137689,-166.666666666666,4,2,1,24,0,0
137869,-166.666666666666,4,2,98,10,0,0
138050,-166.666666666666,4,2,1,24,0,0
138231,-333.333333333331,4,2,98,10,0,0
138411,-166.666666666666,4,2,1,24,0,0
138592,-166.666666666666,4,2,98,10,0,0
138773,-166.666666666666,4,2,1,24,0,0
138954,-166.666666666666,4,2,98,10,0,0
139134,-166.666666666666,4,2,1,24,0,0
139315,-166.666666666666,4,2,98,10,0,0
139496,-333.333333333331,4,2,1,24,0,0
139857,-333.333333333331,4,2,98,14,0,0
139858,-166.666666666666,4,2,98,14,0,0
140219,-166.666666666666,4,2,1,24,0,0
140399,-166.666666666666,4,2,98,10,0,0
140580,-166.666666666666,4,2,1,24,0,0
140761,-166.666666666666,4,2,98,10,0,0
140942,-333.333333333331,4,2,1,24,0,0
141303,-333.333333333331,4,2,98,18,0,0
141664,-166.666666666666,4,2,1,24,0,0
141846,-166.666666666666,4,2,98,10,0,0
142026,-166.666666666666,4,2,1,24,0,0
142207,-166.666666666666,4,2,98,10,0,0
142387,-333.333333333331,4,2,1,24,0,0
142749,-333.333333333331,4,2,98,10,0,0
143110,-166.666666666666,4,2,1,24,0,0
143291,-166.666666666666,4,2,98,10,0,0
143472,-166.666666666666,4,2,1,24,0,0
143652,-166.666666666666,4,2,98,10,0,0
143833,-111.111111111111,4,2,1,24,0,0
144195,-111.111111111111,4,2,1,16,0,0
144556,-166.666666666666,4,2,1,12,0,0
144917,-166.666666666666,4,2,1,10,0,0
145279,-217.391304347826,4,2,1,24,0,0
145640,-217.391304347826,4,2,98,16,0,0
146002,-125,4,2,1,26,0,0
148532,-125,4,2,1,20,0,0
148893,-125,4,2,1,26,0,0
149255,-125,4,2,1,20,0,0
149616,-125,4,2,1,26,0,0
156664,-125,4,2,1,20,0,0
156845,-125,4,2,1,26,0,0
157207,-125,4,2,1,20,0,0
157568,-111.111111111111,4,2,1,26,0,0
157749,-111.111111111111,4,2,98,10,0,0
157930,-111.111111111111,4,2,1,26,0,0
158110,-111.111111111111,4,2,98,10,0,0
158291,-111.111111111111,4,2,1,26,0,0
158472,-111.111111111111,4,2,98,10,0,0
158652,-111.111111111111,4,2,1,26,0,0
159195,-111.111111111111,4,2,98,10,0,0
159375,-111.111111111111,4,2,1,20,0,0
159737,-111.111111111111,4,2,1,26,0,0
159917,-111.111111111111,4,2,98,10,0,0
160098,-111.111111111111,4,2,1,26,0,0
160279,-111.111111111111,4,2,98,10,0,0
160460,-111.111111111111,4,2,1,26,0,0
160640,-111.111111111111,4,2,98,10,0,0
160821,-111.111111111111,4,2,1,26,0,0
161002,-111.111111111111,4,2,98,10,0,0
161183,-111.111111111111,4,2,1,26,0,0
161363,-111.111111111111,4,2,98,10,0,0
161544,-111.111111111111,4,2,1,26,0,0
162267,-111.111111111111,4,2,1,20,0,0
162628,-111.111111111111,4,2,1,26,0,0
162809,-111.111111111111,4,2,98,10,0,0
162990,-111.111111111111,4,2,1,26,0,0
163170,-111.111111111111,4,2,98,10,0,0
163351,-111.111111111111,4,2,1,26,0,0
163532,-111.111111111111,4,2,98,10,0,0
163713,-111.111111111111,4,2,1,20,0,0
163893,-111.111111111111,4,2,98,10,0,0
164074,-111.111111111111,4,2,1,26,0,0
164255,-111.111111111111,4,2,98,10,0,0
164435,-111.111111111111,4,2,1,26,0,0
164978,-111.111111111111,4,2,98,10,0,0
165158,-111.111111111111,4,2,1,20,0,0
165520,-111.111111111111,4,2,1,26,0,0
165701,-111.111111111111,4,2,98,10,0,0
165881,-111.111111111111,4,2,1,26,0,0
166062,-111.111111111111,4,2,98,10,0,0
166243,-111.111111111111,4,2,1,26,0,0
166423,-111.111111111111,4,2,98,10,0,0
166604,-111.111111111111,4,2,1,26,0,0
166785,-111.111111111111,4,2,98,10,0,0
166966,-111.111111111111,4,2,1,26,0,0
167146,-111.111111111111,4,2,98,10,0,0
167327,-111.111111111111,4,2,1,26,0,0
168050,-111.111111111111,4,2,1,20,0,0
168411,-111.111111111111,4,2,1,26,0,0
168773,-111.111111111111,4,2,1,22,0,0
169134,-120.481927710843,4,2,1,20,0,0
170942,-120.481927710843,4,2,98,10,0,0
171122,-120.481927710843,4,2,1,16,0,0
171303,-120.481927710843,4,2,1,20,0,0
171664,-120.481927710843,4,2,1,16,0,0
172026,-120.481927710843,4,2,1,20,0,0
173833,-120.481927710843,4,2,98,10,0,0
174014,-120.481927710843,4,2,1,16,0,0
174195,-120.481927710843,4,2,1,20,0,0
174556,-120.481927710843,4,2,1,16,0,0
174917,-120.481927710843,4,2,1,20,0,0
176725,-120.481927710843,4,2,98,10,0,0
176905,-120.481927710843,4,2,1,16,0,0
177086,-120.481927710843,4,2,1,20,0,0
177448,-120.481927710843,4,2,1,16,0,0
177809,-120.481927710843,4,2,1,20,0,0
179616,-120.481927710843,4,2,98,10,0,0
179797,-120.481927710843,4,2,1,16,0,0
179978,-120.481927710843,4,2,1,20,0,0
180339,-120.481927710843,4,2,1,18,0,0
180701,-138.888888888889,4,2,1,22,0,0
180881,-138.888888888889,4,2,98,10,0,0
181062,-138.888888888889,4,2,1,22,0,0
181243,-138.888888888889,4,2,98,10,0,0
181423,-138.888888888889,4,2,1,22,0,0
181604,-277.777777777778,4,2,98,10,0,0
181785,-138.888888888889,4,2,1,22,0,0
182327,-138.888888888889,4,2,98,10,0,0
182508,-138.888888888889,4,2,1,16,0,0
182869,-138.888888888889,4,2,1,22,0,0
183050,-277.777777777778,4,2,98,10,0,0
183231,-138.888888888889,4,2,1,22,0,0
183411,-138.888888888889,4,2,98,10,0,0
183592,-138.888888888889,4,2,1,22,0,0
184134,-138.888888888889,4,2,98,10,0,0
184315,-138.888888888889,4,2,1,22,0,0
184496,-277.777777777778,4,2,98,10,0,0
184677,-138.888888888889,4,2,1,22,0,0
185399,-138.888888888889,4,2,1,16,0,0
185761,-166.666666666667,4,2,1,22,0,0
186122,-166.666666666667,4,2,1,10,0,0
186484,-200,4,2,1,22,0,0
187930,-200,4,2,1,8,0,0
188652,-200,4,2,1,16,0,0
189014,-200,4,2,1,18,0,0
190098,-250,4,2,1,22,0,0
190640,-250,4,2,1,14,0,0
191544,-200,4,2,1,26,0,0
191905,-200,4,2,98,12,0,0
192267,-62.5,4,2,43,42,0,1
192628,-62.5,4,2,1,42,0,1
200399,-62.5,4,2,1,44,0,1
200942,-62.5,4,2,1,40,0,1
202749,-62.5,4,2,1,30,0,1
203110,-62.5,4,2,1,36,0,0
203291,-62.5,4,2,1,37,0,0
203472,-62.5,4,2,1,38,0,0
203652,-62.5,4,2,1,39,0,0
203833,-62.5,4,2,43,42,0,1
204195,-62.5,4,2,1,42,0,1
213954,-83.3333333333333,4,2,1,42,0,1
214677,-83.3333333333333,4,2,1,36,0,1
215038,-166.666666666667,4,2,1,26,0,0
215309,-166.666666666667,4,2,98,10,0,0
215399,-71.4285714285714,4,2,1,40,0,0
215670,-71.4285714285714,4,2,98,10,0,0
215761,-71.4285714285714,4,2,1,40,0,0
216032,-71.4285714285714,4,2,98,10,0,0
216122,-71.4285714285714,4,2,1,40,0,0
216303,-71.4285714285714,4,2,1,30,0,0
216484,-71.4285714285714,4,2,1,36,0,0
216845,-71.4285714285714,4,2,1,40,0,0
217930,-71.4285714285714,4,2,1,32,0,0
218291,-71.4285714285714,4,2,1,40,0,0
218562,-71.4285714285714,4,2,98,10,0,0
218652,-71.4285714285714,4,2,1,40,0,0
218923,-71.4285714285714,4,2,98,10,0,0
219014,-71.4285714285714,4,2,1,40,0,0
219195,-71.4285714285714,4,2,1,30,0,0
219375,-71.4285714285714,4,2,1,36,0,0
219737,-71.4285714285714,4,2,1,40,0,0
220821,-71.4285714285714,4,2,1,32,0,0
221183,-71.4285714285714,4,2,1,40,0,0
221544,-71.4285714285714,4,2,1,32,0,0
221905,-71.4285714285714,4,2,1,40,0,0
222267,-71.4285714285714,4,2,1,36,0,0
222628,-71.4285714285714,4,2,1,40,0,0
223713,-71.4285714285714,4,2,1,32,0,0
224074,-71.4285714285714,4,2,1,40,0,0
224436,-71.4285714285714,4,2,1,30,0,0
224797,-71.4285714285714,4,2,1,40,0,0
224978,-71.4285714285714,4,2,1,38,0,0
225520,-71.4285714285714,4,2,1,40,0,0
225701,-71.4285714285714,4,2,1,30,0,0
225881,-71.4285714285714,4,2,1,38,0,0
226062,-71.4285714285714,4,2,1,30,0,0
226243,-71.4285714285714,4,2,1,40,0,0
226604,-142.857142857143,4,2,1,26,0,0
226785,-142.857142857143,4,2,98,16,0,0
226966,-68.9655172413793,4,2,1,40,0,0
227237,-68.9655172413793,4,2,98,10,0,0
227327,-68.9655172413793,4,2,1,40,0,0
227598,-68.9655172413793,4,2,98,10,0,0
227689,-68.9655172413793,4,2,1,40,0,0
227869,-71.4285714285714,4,2,1,30,0,0
228050,-68.9655172413793,4,2,1,36,0,0
228411,-68.9655172413793,4,2,1,40,0,0
229496,-68.9655172413793,4,2,1,32,0,0
229857,-68.9655172413793,4,2,1,40,0,0
230128,-68.9655172413793,4,2,98,10,0,0
230219,-68.9655172413793,4,2,1,40,0,0
230490,-68.9655172413793,4,2,98,10,0,0
230580,-68.9655172413793,4,2,1,40,0,0
230761,-71.4285714285714,4,2,1,30,0,0
230942,-68.9655172413793,4,2,1,36,0,0
231303,-68.9655172413793,4,2,1,40,0,0
232387,-68.9655172413793,4,2,1,32,0,0
232749,-68.9655172413793,4,2,1,40,0,0
233110,-68.9655172413793,4,2,1,30,0,0
233472,-68.9655172413793,4,2,1,40,0,0
233833,-68.9655172413793,4,2,1,36,0,0
234195,-68.9655172413793,4,2,1,40,0,0
234556,-68.9655172413793,4,2,1,32,0,0
234737,-68.9655172413793,4,2,1,40,0,0
235279,-68.9655172413793,4,2,1,32,0,0
235640,-68.9655172413793,4,2,1,40,0,0
236002,-68.9655172413793,4,2,1,30,0,0
236183,-68.9655172413793,4,2,1,34,0,0
236363,-68.9655172413793,4,2,1,38,0,0
237086,-68.9655172413793,4,2,1,40,0,0
237809,-68.9655172413793,4,2,1,42,0,0
238170,-137.931034482759,4,2,1,26,0,0
238351,-137.931034482759,4,2,98,16,0,0
238532,-66.6666666666667,4,2,1,40,0,0
238803,-66.6666666666667,4,2,98,10,0,0
238893,-66.6666666666667,4,2,1,40,0,0
239164,-66.6666666666667,4,2,98,10,0,0
239255,-66.6666666666667,4,2,1,40,0,0
239436,-71.4285714285714,4,2,1,30,0,0
239616,-66.6666666666667,4,2,1,36,0,0
239978,-66.6666666666667,4,2,1,40,0,0
241062,-66.6666666666667,4,2,1,32,0,0
241423,-66.6666666666667,4,2,1,40,0,0
241695,-66.6666666666667,4,2,98,10,0,0
241785,-66.6666666666667,4,2,1,40,0,0
242056,-66.6666666666667,4,2,98,10,0,0
242146,-66.6666666666667,4,2,1,40,0,0
242327,-71.4285714285714,4,2,1,30,0,0
242508,-66.6666666666667,4,2,1,36,0,0
242869,-66.6666666666667,4,2,1,40,0,0
243954,-66.6666666666667,4,2,1,32,0,0
244315,-66.6666666666667,4,2,1,40,0,0
244677,-66.6666666666667,4,2,1,30,0,0
245038,-66.6666666666667,4,2,1,40,0,0
245399,-66.6666666666667,4,2,1,36,0,0
245761,-66.6666666666667,4,2,1,40,0,0
246122,-66.6666666666667,4,2,1,32,0,0
246303,-66.6666666666667,4,2,1,40,0,0
246845,-66.6666666666667,4,2,1,32,0,0
247207,-66.6666666666667,4,2,1,40,0,0
247568,-66.6666666666667,4,2,1,30,0,0
247749,-66.6666666666667,4,2,1,34,0,0
247930,-66.6666666666667,4,2,1,38,0,0
248652,-66.6666666666667,4,2,1,40,0,0
249375,-66.6666666666667,4,2,1,42,0,0
249737,-133.333333333333,4,2,1,26,0,0
249917,-133.333333333333,4,2,98,16,0,0
250098,-76.9230769230769,4,2,1,38,0,0
250460,-76.9230769230769,4,2,1,32,0,0
250821,-66.6666666666667,4,2,1,38,0,0
251183,-76.9230769230769,4,2,1,32,0,0
251544,-76.9230769230769,4,2,1,38,0,0
251905,-76.9230769230769,4,2,1,32,0,0
252990,-76.9230769230769,4,2,1,38,0,0
253351,-76.9230769230769,4,2,1,28,0,0
253532,-76.9230769230769,4,2,1,32,0,0
253713,-66.6666666666667,4,2,1,38,0,0
254074,-66.6666666666667,4,2,1,32,0,0
254436,-76.9230769230769,4,2,1,38,0,0
254707,-76.9230769230769,4,2,99,5,0,0
254797,-76.9230769230769,4,2,1,40,0,0
254978,-76.9230769230769,4,2,98,20,0,0
255158,-76.9230769230769,4,2,1,40,0,0
255339,-76.9230769230769,4,2,98,20,0,0
255520,-76.9230769230769,4,2,1,40,0,0
255701,-76.9230769230769,4,2,98,20,0,0
255881,-76.9230769230769,4,2,43,42,0,0
256062,-76.9230769230769,4,2,98,20,0,0
256243,-76.9230769230769,4,2,1,42,0,0
256423,-76.9230769230769,4,2,98,20,0,0
256604,-76.9230769230769,4,2,1,42,0,0
256785,-76.9230769230769,4,2,98,20,0,0
256966,-76.9230769230769,4,2,1,36,0,0
257327,-76.9230769230769,4,2,1,40,0,0
257508,-76.9230769230769,4,2,98,20,0,0
257689,-76.9230769230769,4,2,1,40,0,0
257869,-76.9230769230769,4,2,98,20,0,0
258050,-76.9230769230769,4,2,1,40,0,0
258231,-76.9230769230769,4,2,98,20,0,0
258411,-76.9230769230769,4,2,1,36,0,0
258773,-76.9230769230769,4,2,1,38,0,0
259134,-76.9230769230769,4,2,1,32,0,0
259496,-76.9230769230769,4,2,1,42,0,0
259857,-76.9230769230769,4,2,1,32,0,0
260038,-76.9230769230769,4,2,1,36,0,0
260219,-76.9230769230769,4,2,1,38,0,0
260942,-250,4,2,1,20,0,0
261303,-250,4,2,1,10,0,0
261664,-100,4,2,43,20,0,0
262026,-100,4,2,43,10,0,0
263110,-100,4,2,1,14,0,0
263833,-100,4,2,1,12,0,0
264195,-100,4,2,1,14,0,0
264556,-100,4,2,1,20,0,0
264737,-100,4,2,1,10,0,0
266002,-100,4,2,1,18,0,0
266725,-100,4,2,1,12,0,0
267087,-100,4,2,1,14,0,0
267448,-100,4,2,1,20,0,0
267809,-100,4,2,1,10,0,0
268893,-100,4,2,1,18,0,0
269797,-100,4,2,1,14,0,0
269978,-100,4,2,1,12,0,0
270158,-100,4,2,1,10,0,0
270339,-100,4,2,1,20,0,0
270701,-100,4,2,1,10,0,0
271785,-100,4,2,1,14,0,0
272508,-333.333333333331,4,2,1,28,0,0
272869,-333.333333333331,4,2,1,14,0,0
273231,-55.5555555555556,4,2,43,44,0,1
273592,-55.5555555555556,4,2,1,44,0,1
283351,-83.3333333333333,4,2,1,44,0,1
284074,-83.3333333333333,4,2,1,38,0,1
284436,-83.3333333333333,4,2,1,34,0,1
284797,-142.857142857143,4,2,1,28,0,0
285520,-142.857142857143,4,2,1,26,0,0
286243,-142.857142857143,4,2,1,24,0,0
286966,-142.857142857143,4,2,1,22,0,0
287689,-142.857142857143,4,2,1,20,0,0
289134,-200,4,2,1,20,0,0
289225,-200,4,2,1,7,0,0
290219,-200,4,2,99,5,0,0
290580,-166.666666666667,4,2,1,22,0,0
302146,-166.666666666667,4,2,1,20,0,0
302508,-166.666666666667,4,2,1,12,0,0
303592,-166.666666666667,4,2,1,20,0,0
303954,-166.666666666667,4,2,1,12,0,0
305038,-166.666666666667,4,2,1,20,0,0
305400,-166.666666666667,4,2,1,12,0,0
305761,-166.666666666667,4,2,1,20,0,0
306123,-166.666666666667,4,2,1,12,0,0
306484,-166.666666666667,4,2,1,20,0,0
306846,-166.666666666667,4,2,1,12,0,0
307207,-250,4,2,1,20,0,0
307568,-250,4,2,1,10,0,0
307930,-166.666666666667,4,2,1,20,0,0
308291,-166.666666666667,4,2,1,12,0,0
308652,-250,4,2,1,20,0,0
309014,-250,4,2,1,10,0,0
309375,-166.666666666667,4,2,1,20,0,0
309737,-166.666666666667,4,2,1,12,0,0
310098,-250,4,2,1,10,0,0
310821,-250,4,2,1,16,0,0
311183,-250,4,2,1,14,0,0
311544,-250,4,2,1,12,0,0
311905,-250,4,2,1,10,0,0
312267,754.716981132075,4,2,1,10,1,0
312267,-200,4,2,1,10,0,0
313021,1411.76470588235,4,2,1,8,1,0
313726,1600,4,2,1,12,1,0
314126,1428.57142857143,4,2,1,8,1,0
314483,1481.48148148148,4,2,1,8,1,0
314853,1610.73825503356,4,2,1,10,1,0
315255,1785.71428571429,4,2,1,10,1,0
315701,-100,4,2,1,6,0,0
316147,1834.8623853211,4,2,1,10,1,0
316605,1304.34782608696,4,2,1,12,1,0
317257,779.220779220779,4,2,1,12,1,0
317305,-100,4,2,1,8,0,0
317354,-100,4,2,99,5,0,0
317841,2400,4,2,1,10,1,0
318441,2553.1914893617,4,2,1,9,1,0
319079,3157.89473684211,4,2,1,8,1,0
319871,1071.42857142857,4,2,1,10,1,0
319937,-100,4,2,1,6,0,0
320004,-100,4,2,99,5,0,0

[Colours]
Combo1 : 150,210,220
Combo2 : 140,200,250
Combo3 : 160,190,210
Combo4 : 175,190,255

[HitObjects]
152,123,1424,6,0,L|146:66,2,50,2|0|0,0:1|0:0|0:1,0:0:0:0:
360,123,4315,2,0,L|366:66,2,50,2|0|0,0:1|0:0|0:0,0:0:0:0:
167,289,7207,6,0,L|111:283,2,50,2|0|0,0:1|0:0|0:0,0:0:0:0:
345,289,10098,2,0,L|401:283,2,50,2|0|0,0:1|0:0|0:0,0:0:0:0:
256,352,11544,5,2,0:0:0:0:
201,237,12267,1,2,0:0:0:0:
60,181,12990,2,0,L|7:177,2,50,2|0|0,0:1|0:0|0:0,0:0:0:0:
256,352,15158,5,2,0:0:0:0:
311,237,15520,1,2,0:0:0:0:
452,181,15881,2,0,L|505:177,2,50,2|0|0,0:1|0:0|0:0,0:0:0:0:
256,32,18050,5,2,0:0:0:0:
201,147,18411,1,2,0:0:0:0:
60,203,18773,2,0,L|-1:207,2,59.9999981689453,2|0|0,0:1|0:0|0:0,0:0:0:0:
149,267,19857,5,2,0:0:0:0:
256,192,20219,2,0,L|256:128,2,59.9999981689453,2|0|0,0:1|0:0|0:0,0:0:0:0:
363,267,21303,1,2,0:0:0:0:
452,203,21664,5,2,0:1:0:0:
441,119,22026,1,2,0:0:0:0:
393,62,22387,1,2,0:0:0:0:
359,54,22749,1,2,0:0:0:0:
341,64,23110,6,0,L|215:53,1,120,4|0,0:2|0:0,0:0:0:0:
222,54,24556,5,2,0:1:0:0:
233,155,24917,1,0,0:0:0:0:
130,13,25279,1,2,0:2:0:0:
130,13,26002,5,4,0:1:0:0:
222,54,26363,1,0,0:0:0:0:
47,73,26725,1,2,0:0:0:0:
47,73,27448,5,4,0:1:0:0:
130,13,27809,1,0,0:0:0:0:
222,54,28170,1,0,0:0:0:0:
233,155,28532,1,0,0:0:0:0:
150,215,28893,1,0,0:0:0:0:
58,175,29255,1,0,0:0:0:0:
140,114,29616,5,2,0:0:0:0:
421,240,30339,5,2,0:1:0:0:
409,137,30701,1,0,0:0:0:0:
337,298,31062,1,2,0:0:0:0:
337,298,31785,5,4,0:1:0:0:
421,240,32146,1,0,0:0:0:0:
244,256,32508,1,2,0:0:0:0:
244,256,33231,5,4,0:1:0:0:
337,298,33592,1,0,0:0:0:0:
315,96,33954,5,2,0:0:0:0:
233,155,34315,1,0,0:0:0:0:
421,240,34677,5,2,0:0:0:0:
409,137,35038,1,0,0:0:0:0:
244,256,35399,5,6,0:1:0:0:
400,303,36122,6,0,L|370:298,1,29.9999990844727,2|0,0:1|0:0,0:0:0:0:
476,265,36484,2,0,L|495:242,1,29.9999990844727,2|0,0:0|0:0,0:0:0:0:
470,349,36845,2,0,L|480:377,1,29.9999990844727,10|0,0:0|0:0,0:0:0:0:
400,191,37568,6,0,L|386:163,1,29.9999990844727,4|0,0:1|0:0,0:0:0:0:
386,272,37930,2,0,L|369:297,1,29.9999990844727,2|0,0:0|0:0,0:0:0:0:
464,241,38291,2,0,L|493:242,1,29.9999990844727,10|0,0:0|0:0,0:0:0:0:
325,222,39014,6,0,L|295:220,1,29.9999990844727,4|0,0:1|0:0,0:0:0:0:
221,258,39375,2,0,L|191:255,1,29.9999990844727,2|0,0:0|0:0,0:0:0:0:
118,293,39737,2,0,L|84:288,1,29.9999990844727,10|0,0:0|0:0,0:0:0:0:
108,183,40098,6,0,L|121:208,1,29.9999990844727,2|0,0:0|0:0,0:0:0:0:
107,99,40460,2,0,L|122:74,1,29.9999990844727,2|0,0:0|0:0,0:0:0:0:
36,142,40821,2,0,L|6:140,1,29.9999990844727,2|0,0:0|0:0,0:0:0:0:
180,139,41183,2,0,L|213:138,1,29.9999990844727,10|0,0:0|0:0,0:0:0:0:
399,71,41905,6,0,L|373:54,1,29.9999990844727,2|0,0:1|0:0,0:0:0:0:
428,149,42267,2,0,L|425:178,1,29.9999990844727,2|0,0:0|0:0,0:0:0:0:
481,83,42628,2,0,L|507:69,1,29.9999990844727,10|2,0:0|0:0,0:0:0:0:
322,153,43351,6,0,L|292:163,1,29.9999990844727,4|0,0:1|0:0,0:0:0:0:
368,84,43713,2,0,L|372:54,1,29.9999990844727,2|0,0:0|0:0,0:0:0:0:
404,161,44074,2,0,L|425:180,1,29.9999990844727,10|2,0:0|0:0,0:0:0:0:
285,78,44797,6,0,L|263:58,1,29.9999990844727,4|0,0:1|0:0,0:0:0:0:
179,72,45158,2,0,L|153:58,1,29.9999990844727,2|0,0:0|0:0,0:0:0:0:
75,93,45520,2,0,L|-16:74,2,89.999997253418,10|0|0,0:0|0:0|0:0,0:0:0:0:
152,58,46604,1,2,0:0:0:0:
128,295,46966,6,0,L|132:232,1,59.9999981689453,14|2,0:1|0:0,0:0:0:0:
75,93,47689,6,0,P|47:88|21:87,2,50,2|0|0,0:1|0:0|0:0,0:0:0:0:
227,200,48773,5,0,0:0:0:0:
231,204,48954,1,0,0:0:0:0:
235,208,49134,2,0,P|259:212|284:214,1,50,2|0,0:0|0:0,0:0:0:0:
444,114,49857,5,2,0:0:0:0:
437,96,50219,1,0,0:0:0:0:
372,152,50580,5,2,0:0:0:0:
363,67,50942,1,0,0:0:0:0:
300,193,51303,5,2,0:0:0:0:
294,25,51664,1,0,0:0:0:0:
161,104,52026,6,0,P|138:102|110:96,1,50,4|0,0:1|0:0,0:0:0:0:
161,104,52749,2,0,P|184:106|212:112,1,50,2|0,0:0|0:0,0:0:0:0:
56,174,53472,6,0,P|33:172|5:166,2,50,2|0|0,0:1|0:0|0:0,0:0:0:0:
174,222,54556,5,0,0:0:0:0:
178,226,54737,1,0,0:0:0:0:
182,230,54917,2,0,P|186:252|187:281,1,50,2|0,0:0|0:0,0:0:0:0:
316,362,55640,2,0,P|315:337|320:312,1,50,2|0,0:0|0:0,0:0:0:0:
422,105,56363,6,0,P|426:129|425:155,1,50,4|0,0:1|0:0,0:0:0:0:
350,219,57086,1,2,0:0:0:0:
253,192,57448,1,2,0:0:0:0:
174,50,57809,6,0,P|148:46|120:45,2,50,4|0|0,0:1|0:0|0:0,0:0:0:0:
309,82,58893,1,4,0:2:0:0:
171,140,59255,6,0,P|150:135|132:136,1,29.9999990844727,2|0,0:1|0:0,0:0:0:0:
92,199,59616,2,0,P|98:219|108:234,1,29.9999990844727,2|0,0:0|0:0,0:0:0:0:
183,238,59978,2,0,P|197:222|205:206,1,29.9999990844727,2|0,0:0|0:0,0:0:0:0:
171,140,60339,1,2,0:0:0:0:
221,76,60520,1,2,0:0:0:0:
330,127,60701,6,0,P|343:125|360:121,1,29.9999990844727,4|0,0:1|0:0,0:0:0:0:
359,121,61423,2,0,P|361:135|364:150,1,29.9999990844727,2|0,0:0|0:0,0:0:0:0:
413,338,62146,6,0,P|398:333|385:328,1,29.9999990844727,4|0,0:1|0:0,0:0:0:0:
363,250,62508,2,0,P|352:238|344:227,1,29.9999990844727,2|0,0:0|0:0,0:0:0:0:
364,150,62869,2,0,P|361:135|359:121,1,29.9999990844727,2|0,0:0|0:0,0:0:0:0:
415,63,63231,2,0,P|419:49|424:35,1,29.9999990844727,2|0,0:0|0:0,0:0:0:0:
364,150,63592,6,0,P|361:135|358:120,1,29.9999990844727,4|0,0:1|0:0,0:0:0:0:
359,121,64315,2,0,P|344:124|329:127,1,29.9999990844727,2|0,0:0|0:0,0:0:0:0:
229,82,65038,6,0,P|239:94|250:105,1,29.9999990844727,2|0,0:1|0:0,0:0:0:0:
271,184,65399,2,0,P|265:198|261:212,1,29.9999990844727,2|0,0:0|0:0,0:0:0:0:
173,276,65761,6,0,P|188:272|203:270,1,29.9999990844727,2|0,0:0|0:0,0:0:0:0:
283,293,66122,2,0,P|293:303|303:315,1,29.9999990844727,2|0,0:0|0:0,0:0:0:0:
261,212,66484,6,0,P|265:198|280:169,1,40,4|0,0:1|0:0,0:0:0:0:
276,175,67207,2,0,P|257:175|230:171,1,40,2|0,0:0|0:0,0:0:0:0:
161,88,67930,6,0,P|168:102|174:117,1,32,4|0,0:1|0:0,0:0:0:0:
147,224,68291,2,0,P|156:210|166:198,1,32,2|0,0:0|0:0,0:0:0:0:
276,175,68652,2,0,P|257:174|237:172,1,40,2|2,0:0|0:0,0:0:0:0:
276,175,69375,6,0,P|295:175|345:185,2,63.9999999999999,4|0|0,0:1|0:0|0:0,0:0:0:0:
166,198,70460,1,4,0:2:0:0:
275,175,70821,6,0,B|311:188|352:227|325:266|325:266|304:224|353:190|387:183,1,240,2|2,0:1|0:0,0:0:0:0:
387,183,72267,2,0,B|345:195|328:233|328:233|314:193|274:174,1,160,2|4,0:0|0:1,0:0:0:0:
338,90,73351,1,2,0:0:0:0:
387,182,73713,6,0,B|356:172|311:129|338:90|338:90|359:132|308:169|272:176,1,240,2|2,0:1|0:0,0:0:0:0:
276,175,75158,2,0,B|318:162|335:124|335:124|352:164|388:182,1,160,2|6,0:0|0:1,0:0:0:0:
325,266,76243,1,2,0:0:0:0:
213,258,76604,6,0,B|245:267|290:310|263:349|263:349|242:307|293:270|325:266,1,240,2|2,0:1|0:0,0:0:0:0:
325,266,78050,2,0,B|283:278|266:316|266:316|252:276|212:257,1,160,2|4,0:0|0:1,0:0:0:0:
121,217,79134,1,2,0:0:0:0:
214,258,79496,6,0,P|266:258|304:255,2,79.9999999999999,2|0|2,0:1|0:0|0:0,0:0:0:0:
133,304,80580,1,2,0:0:0:0:
129,308,80761,1,2,0:0:0:0:
125,312,80942,2,0,L|121:152,1,160,4|6,0:1|0:1,0:0:0:0:
67,25,82026,1,2,0:0:0:0:
121,152,82387,5,2,0:0:0:0:
227,84,82749,1,2,0:0:0:0:
355,134,83110,1,2,0:0:0:0:
385,266,83472,1,2,0:0:0:0:
286,384,83833,1,2,0:0:0:0:
121,354,84195,1,2,0:0:0:0:
54,195,84556,6,0,L|51:150,1,44.999998626709,4|0,0:1|0:0,0:0:0:0:
121,354,85279,5,2,0:0:0:0:
286,384,85640,1,2,0:0:0:0:
385,266,86002,1,2,0:0:0:0:
355,134,86363,1,2,0:0:0:0:
227,84,86725,1,2,0:0:0:0:
82,244,87448,6,0,L|76:294,1,44.999998626709,6|0,0:1|0:0,0:0:0:0:
154,315,88170,6,0,B|180:308|215:315|238:338|238:338|223:305|182:294|151:300|151:300|106:310|74:286,1,269.999991760254,2|4,0:0|0:1,0:0:0:0:
30,186,90701,6,0,L|28:138,1,40,2|2,0:0|0:0,0:0:0:0:
58,54,91423,6,0,P|87:53|149:39,1,89.999997253418,2|0,0:0|0:0,0:0:0:0:
74,247,93231,6,0,L|70:312,1,59.9999981689453,4|0,0:2|0:0,0:0:0:0:
70,329,93954,6,0,P|133:291|205:302,1,150.000005722046,4|0,3:1|0:2,0:0:0:0:
313,361,94496,1,2,0:2:0:0:
342,174,94677,2,0,P|322:208|316:247,1,75.000002861023,2|0,0:1|0:2,0:0:0:0:
418,305,95038,1,0,1:2:0:0:
418,305,95219,1,0,1:2:0:0:
480,164,95399,6,0,P|412:193|341:173,1,150.000005722046,4|0,3:3|1:2,0:0:0:0:
341,173,95942,1,0,1:2:0:0:
213,31,96122,2,0,P|236:61|248:97,1,75.000002861023,10|0,0:2|0:2,0:0:0:0:
192,281,96484,2,0,P|203:245|226:215,1,75.000002861023,2|0,0:2|0:2,0:0:0:0:
480,164,96845,6,0,P|412:193|341:173,1,150.000005722046,4|0,3:1|0:2,0:0:0:0:
248,97,97387,1,2,0:2:0:0:
192,281,97568,2,0,P|214:251|226:215,1,75.000002861023,2|0,0:1|0:2,0:0:0:0:
156,18,97930,1,2,1:2:0:0:
27,108,98110,1,2,1:2:0:0:
226,215,98291,5,4,3:3:0:0:
27,108,98652,1,0,1:2:0:0:
27,108,98833,1,0,1:2:0:0:
15,282,99014,6,0,L|-4:372,1,75.000002861023,10|0,0:2|0:2,0:0:0:0:
27,108,99375,2,0,L|20:15,1,75.000002861023,2|0,1:2|0:2,0:0:0:0:
105,268,99737,6,0,L|174:340,1,75.000002861023,4|0,3:1|0:2,0:0:0:0:
114,133,100098,2,0,L|192:71,1,75.000002861023,2|0,0:2|0:2,0:0:0:0:
185,206,100460,6,0,L|284:210,1,75.000002861023,2|0,0:1|0:2,0:0:0:0:
0,193,100821,1,2,1:2:0:0:
0,193,101002,1,0,1:2:0:0:
173,86,101183,6,0,B|208:75|247:92|247:92|288:88|310:56,1,150.000005722046,4|0,3:3|1:2,0:0:0:0:
310,57,101725,1,0,1:2:0:0:
407,249,101905,1,8,0:2:0:0:
511,320,102086,5,2,0:2:0:0:
415,124,102267,1,2,0:2:0:0:
299,305,102448,1,2,0:2:0:0:
407,249,102628,6,0,P|446:191|414:124,1,150.000005722046,4|0,3:1|0:2,0:0:0:0:
107,3,103351,1,2,0:1:0:0:
0,186,103713,1,0,1:2:0:0:
0,186,103893,1,0,1:2:0:0:
34,60,104074,6,0,P|104:38|175:58,1,150.000005722046,4|0,3:3|1:2,0:0:0:0:
176,58,104616,1,0,1:2:0:0:
142,277,104797,5,10,0:2:0:0:
108,173,104978,1,2,0:2:0:0:
176,58,105158,1,2,0:2:0:0:
353,40,105339,1,2,0:2:0:0:
483,232,105520,6,0,P|419:195|347:207,1,150.000005722046,4|0,3:1|0:2,0:0:0:0:
288,303,106062,1,2,0:2:0:0:
436,370,106243,2,0,P|424:335|401:306,1,75.000002861023,2|0,0:1|0:2,0:0:0:0:
288,303,106604,1,0,1:2:0:0:
288,303,106785,1,0,1:2:0:0:
97,178,106966,6,0,P|161:214|233:202,1,150.000005722046,4|0,3:3|1:2,0:0:0:0:
233,202,107508,1,0,1:2:0:0:
179,106,107689,2,0,P|168:70|169:33,1,75.000002861023,10|0,0:2|0:2,0:0:0:0:
96,177,108050,1,2,1:2:0:0:
96,177,108231,1,0,1:2:0:0:
233,202,108411,6,0,P|161:214|97:178,1,150.000005722046,4|0,3:1|0:2,0:0:0:0:
0,250,108954,1,2,0:2:0:0:
151,287,109134,2,0,P|161:251|160:214,1,75.000002861023,2|0,0:1|0:2,0:0:0:0:
0,83,109496,1,2,1:2:0:0:
0,250,109677,1,2,1:2:0:0:
141,36,109857,6,0,L|226:27,1,75.000002861023,4|0,3:3|0:0,0:0:0:0:
345,130,110219,2,0,L|430:121,1,75.000002861023,0|0,1:2|1:2,0:0:0:0:
435,111,110490,1,0,1:0:0:0:
448,98,110580,6,0,L|470:-3,1,75.000002861023,10|0,0:2|0:2,0:0:0:0:
448,253,110942,2,0,L|470:354,1,75.000002861023,2|0,1:2|0:2,0:0:0:0:
313,176,111303,6,0,L|163:166,1,150.000005722046,4|0,3:1|1:2,0:0:0:0:
163,166,111845,1,0,1:2:0:0:
313,176,112026,6,0,L|388:181,1,75.000002861023,2|0,0:1|0:2,0:0:0:0:
227,303,112387,1,2,1:2:0:0:
227,303,112568,1,0,1:2:0:0:
50,210,112749,6,0,P|44:136|83:74,1,150.000005722046,4|0,3:3|1:2,0:0:0:0:
83,74,113291,1,0,1:2:0:0:
235,166,113472,6,0,P|199:174|162:165,1,75.000002861023,8|0,0:2|0:2,0:0:0:0:
83,74,113833,1,2,1:2:0:0:
83,74,114014,1,0,1:2:0:0:
315,258,114195,6,0,P|354:195|348:122,1,150.000005722046,4|0,3:1|0:2,0:0:0:0:
50,210,114917,1,2,0:1:0:0:
0,7,115279,1,0,1:2:0:0:
0,7,115460,1,0,1:2:0:0:
83,74,115640,6,0,L|267:66,1,179.999994506836,4|0,3:3|1:2,0:0:0:0:
278,75,116273,1,0,1:1:0:0:
292,85,116363,1,8,1:2:0:0:
350,352,116725,1,2,3:2:0:0:
472,192,117086,5,2,0:1:0:0:
466,169,117809,1,2,0:2:0:0:
456,156,118532,1,2,0:2:0:0:
445,150,119255,1,2,0:2:0:0:
305,197,119978,6,0,P|264:194|219:190,2,69.9999978637695,4|0|0,2:1|0:2|0:2,0:0:0:0:
385,253,121062,1,2,0:2:0:0:
488,136,121423,6,0,B|506:101|500:51|482:23|482:23|470:41|472:64,1,150,4|0,0:2|0:2,0:0:0:0:
471,53,122869,5,2,0:1:0:0:
370,42,123231,1,0,0:0:0:0:
512,145,123592,1,2,0:2:0:0:
512,145,124315,5,4,0:1:0:0:
471,53,124677,1,0,0:0:0:0:
452,228,125038,1,2,0:0:0:0:
452,228,125761,5,4,0:1:0:0:
512,145,126122,1,0,0:0:0:0:
471,53,126484,1,0,0:0:0:0:
370,42,126845,1,0,0:0:0:0:
310,125,127207,1,0,0:0:0:0:
350,217,127568,1,0,0:0:0:0:
411,135,127930,5,2,0:0:0:0:
199,307,128652,5,2,0:1:0:0:
179,202,129014,1,0,0:0:0:0:
116,366,129375,1,2,0:0:0:0:
116,366,130098,5,4,0:1:0:0:
199,307,130460,1,0,0:0:0:0:
22,329,130821,1,2,0:0:0:0:
22,329,131544,5,4,0:1:0:0:
116,366,131905,1,0,0:0:0:0:
84,166,132267,5,2,0:0:0:0:
5,229,132628,1,0,0:0:0:0:
199,307,132990,5,2,0:0:0:0:
179,202,133351,1,0,0:0:0:0:
100,265,133713,5,6,0:1:0:0:
422,258,134436,6,0,L|445:238,1,29.9999990844727,2|0,0:1|0:0,0:0:0:0:
338,263,134797,2,0,L|310:252,1,29.9999990844727,2|0,0:0|0:0,0:0:0:0:
385,334,135158,2,0,L|390:363,1,29.9999990844727,10|0,0:0|0:0,0:0:0:0:
367,161,135881,6,0,L|365:129,1,29.9999990844727,4|0,0:1|0:0,0:0:0:0:
419,225,136243,2,0,L|446:238,1,29.9999990844727,2|0,0:0|0:0,0:0:0:0:
335,236,136604,2,0,L|310:251,1,29.9999990844727,10|0,0:0|0:0,0:0:0:0:
255,345,137327,6,0,L|257:315,1,29.9999990844727,4|0,0:1|0:0,0:0:0:0:
233,245,137689,2,0,L|230:215,1,29.9999990844727,2|0,0:0|0:0,0:0:0:0:
206,144,138050,2,0,L|197:107,1,29.9999990844727,10|0,0:0|0:0,0:0:0:0:
310,161,138411,6,0,L|279:158,1,29.9999990844727,2|0,0:0|0:0,0:0:0:0:
269,84,138773,2,0,L|285:58,1,29.9999990844727,2|0,0:0|0:0,0:0:0:0:
356,86,139134,2,0,L|369:113,1,29.9999990844727,2|0,0:0|0:0,0:0:0:0:
310,161,139496,2,0,L|279:158,1,29.9999990844727,10|0,0:0|0:0,0:0:0:0:
178,127,140219,6,0,L|208:129,1,29.9999990844727,2|0,0:1|0:0,0:0:0:0:
280,158,140580,2,0,L|311:161,1,29.9999990844727,2|0,0:0|0:0,0:0:0:0:
380,189,140942,2,0,L|410:191,1,29.9999990844727,10|2,0:0|0:0,0:0:0:0:
331,262,141664,6,0,L|317:235,1,29.9999990844727,4|0,0:1|0:0,0:0:0:0:
308,160,142026,2,0,L|310:130,1,29.9999990844727,2|0,0:0|0:0,0:0:0:0:
339,60,142387,2,0,L|355:35,1,29.9999990844727,10|2,0:0|0:0,0:0:0:0:
414,127,143110,6,0,L|381:120,1,29.9999990844727,4|0,0:1|0:0,0:0:0:0:
309,130,143472,2,0,L|278:114,1,29.9999990844727,2|0,0:0|0:0,0:0:0:0:
206,134,143833,2,0,L|106:125,2,89.999997253418,10|0|0,0:0|0:0|0:0,0:0:0:0:
282,116,144917,1,2,0:0:0:0:
363,279,145279,6,0,L|365:227,1,45.9999984558105,12|2,0:2|0:0,0:0:0:0:
510,117,146002,6,0,P|471:122|433:112,1,79.9999999999999,4|0,0:1|0:2,0:0:0:0:
302,19,146725,1,10,0:1:0:0:
197,114,147086,5,2,0:2:0:0:
222,36,147267,1,2,1:2:0:0:
187,127,147448,2,0,P|148:130|109:119,1,79.9999999999999,4|0,0:1|0:2,0:0:0:0:
0,267,148170,5,10,1:2:0:0:
100,132,148532,1,2,0:2:0:0:
12,276,148893,5,2,0:2:0:0:
94,147,149255,1,2,0:2:0:0:
164,346,149616,5,10,0:1:0:0:
89,162,149978,1,2,0:2:0:0:
89,162,150158,1,0,1:1:0:0:
183,225,150339,6,0,P|229:223|266:205,1,79.9999999999999,4|0,0:1|0:2,0:0:0:0:
457,292,151062,2,0,P|420:276|380:276,1,79.9999999999999,10|0,1:2|0:2,0:0:0:0:
164,346,151785,6,0,P|127:361|87:361,1,79.9999999999999,4|0,0:1|0:2,0:0:0:0:
0,169,152508,1,10,0:1:0:0:
171,204,152869,5,2,0:2:0:0:
162,116,153050,1,2,1:2:0:0:
184,211,153231,2,0,P|223:214|262:203,1,79.9999999999999,4|0,0:1|0:2,0:0:0:0:
87,361,153954,2,0,P|48:350|9:353,1,79.9999999999999,10|0,1:2|0:2,0:0:0:0:
241,312,154677,6,0,P|279:301|318:304,1,79.9999999999999,2|0,0:2|0:2,0:0:0:0:
512,384,155399,1,10,0:1:0:0:
486,211,155761,1,2,0:2:0:0:
486,211,155942,1,0,1:2:0:0:
416,278,156122,5,4,0:1:0:0:
366,80,156484,1,2,0:2:0:0:
366,80,156664,1,0,1:2:0:0:
318,165,156845,1,8,0:2:0:0:
200,12,157207,1,4,0:2:0:0:
139,154,157568,6,0,P|118:162|96:162,1,44.999998626709,2|0,0:1|0:2,0:0:0:0:
7,81,157930,2,0,P|24:94|35:113,1,44.999998626709,2|0,0:2|0:2,0:0:0:0:
9,229,158291,2,0,P|11:206|22:187,1,44.999998626709,10|0,0:1|0:2,0:0:0:0:
139,154,158652,5,2,0:2:0:0:
226,205,158833,1,2,1:2:0:0:
337,151,159014,6,0,P|360:145|383:144,1,44.999998626709,2|0,0:2|0:2,0:0:0:0:
475,226,159375,1,0,1:1:0:0:
475,226,159556,1,0,1:1:0:0:
455,110,159737,6,0,P|465:90|471:69,1,44.999998626709,10|0,0:2|0:2,0:0:0:0:
381,143,160098,2,0,P|358:145|337:151,1,44.999998626709,2|0,0:2|0:2,0:0:0:0:
475,226,160460,6,0,P|460:211|447:192,1,44.999998626709,4|0,0:1|0:2,0:0:0:0:
337,151,160821,2,0,P|358:145|381:143,1,44.999998626709,2|0,0:2|0:2,0:0:0:0:
469,67,161183,2,0,P|463:88|453:109,1,44.999998626709,10|0,0:1|0:2,0:0:0:0:
337,151,161544,1,2,0:2:0:0:
337,151,161725,1,0,1:2:0:0:
270,80,161905,5,2,0:2:0:0:
134,199,162267,1,0,1:2:0:0:
134,199,162448,1,0,1:2:0:0:
98,108,162628,6,0,P|75:103|53:103,1,44.999998626709,10|0,0:2|0:2,0:0:0:0:
134,199,162990,2,0,P|156:203|178:203,1,44.999998626709,2|0,0:2|0:2,0:0:0:0:
196,318,163351,6,0,P|206:299|221:282,1,44.999998626709,4|0,0:1|0:2,0:0:0:0:
309,299,163713,2,0,P|313:321|316:344,1,44.999998626709,2|0,0:2|0:2,0:0:0:0:
406,355,164074,2,0,P|412:334|423:315,1,44.999998626709,10|0,0:1|0:2,0:0:0:0:
501,267,164436,1,2,0:2:0:0:
501,267,164616,1,0,1:2:0:0:
445,156,164797,6,0,P|420:149|391:145,1,44.999998626709,4|0,0:1|0:2,0:0:0:0:
289,183,165158,1,2,1:2:0:0:
289,183,165339,1,0,1:2:0:0:
344,34,165520,6,0,P|350:55|358:76,1,44.999998626709,10|0,0:2|0:2,0:0:0:0:
401,146,165881,2,0,P|424:150|446:156,1,44.999998626709,2|2,0:2|0:2,0:0:0:0:
289,183,166243,6,0,P|306:165|324:142,1,44.999998626709,4|0,0:1|0:2,0:0:0:0:
344,34,166604,2,0,P|350:55|358:76,1,44.999998626709,2|0,0:2|0:2,0:0:0:0:
444,155,166966,2,0,P|422:149|400:146,1,44.999998626709,8|0,0:1|0:2,0:0:0:0:
289,183,167327,1,2,0:2:0:0:
289,183,167508,1,0,1:2:0:0:
251,68,167689,5,4,0:1:0:0:
82,38,168050,1,0,1:2:0:0:
82,38,168231,1,0,1:2:0:0:
65,136,168411,1,8,0:2:0:0:
175,4,168773,1,4,0:2:0:0:
235,165,169134,6,0,P|279:175|324:166,2,83.0000012031554,2|0|0,0:1|0:2|1:2,0:0:0:0:
112,28,170219,1,2,0:2:0:0:
112,28,170399,1,0,1:2:0:0:
45,84,170580,6,0,P|30:122|30:180,1,83.0000012031554,2|0,0:2|0:2,0:0:0:0:
70,239,171122,1,0,1:2:0:0:
70,239,171303,1,4,1:3:0:0:
236,165,171664,1,2,0:2:0:0:
392,250,172026,6,0,P|437:255|484:243,2,83.0000012031554,2|0|0,0:2|0:2|1:2,0:0:0:0:
236,165,173110,1,2,0:2:0:0:
236,165,173291,1,0,1:2:0:0:
315,129,173472,6,0,P|330:91|323:32,1,83.0000012031554,2|0,0:2|0:2,0:0:0:0:
254,3,174014,1,0,1:2:0:0:
171,110,174195,1,10,1:1:0:0:
0,46,174556,1,2,0:2:0:0:
52,235,174917,6,0,P|63:195|59:154,2,83.0000012031554,2|0|0,0:2|0:2|1:2,0:0:0:0:
184,348,176002,1,2,0:2:0:0:
184,348,176183,1,0,1:2:0:0:
251,293,176363,6,0,P|303:286|339:294,1,83.0000012031554,2|0,0:2|0:2,0:0:0:0:
406,338,176905,1,0,1:2:0:0:
406,338,177086,1,4,1:3:0:0:
502,208,177448,1,2,0:2:0:0:
372,104,177809,6,0,P|360:64|364:23,2,83.0000012031554,2|0|0,0:2|0:2|1:2,0:0:0:0:
502,208,178893,1,2,0:2:0:0:
467,119,179074,1,2,1:2:0:0:
407,193,179255,6,0,P|366:197|326:185,1,83.0000012031554,2|0,0:2|0:2,0:0:0:0:
279,105,179797,1,0,1:2:0:0:
247,233,179978,1,12,1:1:0:0:
198,59,180339,1,4,0:2:0:0:
72,189,180701,6,0,L|57:143,1,36.0000008789062,2|0,0:1|0:2,0:0:0:0:
122,106,181062,2,0,L|119:57,1,36.0000008789062,2|0,0:2|0:2,0:0:0:0:
198,59,181423,2,0,L|206:20,1,36.0000008789063,10|0,0:2|0:2,0:0:0:0:
283,9,181785,1,2,0:2:0:0:
283,9,181966,1,0,1:2:0:0:
389,106,182146,6,0,L|440:100,1,36.0000008789062,4|0,0:1|0:2,0:0:0:0:
502,119,182508,1,2,1:2:0:0:
479,43,182689,1,2,1:2:0:0:
425,102,182869,2,0,L|425:138,1,36.0000008789063,12|0,0:1|0:2,0:0:0:0:
479,43,183231,2,0,L|473:-1,1,36.0000008789062,2|0,0:2|0:2,0:0:0:0:
354,58,183592,6,0,P|336:53|314:51,1,36.0000008789062,4|0,0:1|0:2,0:0:0:0:
242,27,183954,2,0,P|223:31|203:40,1,36.0000008789062,2|0,0:2|0:2,0:0:0:0:
129,56,184315,2,0,P|114:68|101:86,1,36.0000008789062,10|0,0:2|0:2,0:0:0:0:
48,138,184677,1,2,0:2:0:0:
48,138,184857,1,0,1:2:0:0:
132,196,185038,6,0,P|130:178|125:160,1,36.0000008789062,4|0,0:1|0:2,0:0:0:0:
48,138,185399,1,0,1:2:0:0:
48,138,185580,1,0,1:2:0:0:
132,196,185761,6,0,P|156:193|201:203,1,59.9999981689454,6|0,1:1|1:2,0:0:0:0:
302,311,186484,6,0,B|327:266|307:214|307:214|262:215|240:241|240:241|202:182|129:196,1,300,2|8,1:3|1:2,0:0:0:0:
59,310,189014,6,0,P|70:288|77:264,1,50,2|4,0:2|0:1,0:0:0:0:
97,115,189737,1,2,0:2:0:0:
132,195,189917,1,2,0:2:0:0:
89,99,190098,6,0,P|54:88|26:94,1,59.9999999999999,10|0,0:2|1:2,0:0:0:0:
1,366,191544,6,0,L|3:316,1,50,4|0,0:2|0:0,0:0:0:0:
6,295,192267,6,0,B|84:277|79:338|157:320,1,160,4|0,3:1|0:2,0:0:0:0:
259,225,192809,1,2,0:2:0:0:
362,384,192990,2,0,P|323:378|289:358,1,79.9999999999999,2|0,0:1|0:2,0:0:0:0:
259,225,193351,1,0,1:2:0:0:
259,225,193532,1,0,1:2:0:0:
511,120,193713,6,0,B|433:102|438:163|359:145,1,160,4|0,3:3|1:2,0:0:0:0:
238,98,194255,1,0,1:2:0:0:
117,167,194436,2,0,L|101:74,1,79.9999999999999,10|0,0:2|0:2,0:0:0:0:
238,98,194797,2,0,L|254:5,1,79.9999999999999,2|0,0:2|0:2,0:0:0:0:
62,231,195158,6,0,P|126:185|203:195,1,160,4|0,3:1|0:2,0:0:0:0:
315,257,195701,1,2,0:2:0:0:
411,75,195881,2,0,P|383:103|365:139,1,79.9999999999999,2|0,0:1|0:2,0:0:0:0:
203,195,196243,1,2,1:2:0:0:
68,84,196423,1,2,1:2:0:0:
33,334,196604,5,4,3:3:0:0:
203,195,196966,1,0,1:2:0:0:
203,195,197146,1,0,1:2:0:0:
68,84,197327,6,0,L|55:-7,1,79.9999999999999,10|0,0:2|0:2,0:0:0:0:
56,258,197689,2,0,L|30:346,1,79.9999999999999,2|0,1:2|0:2,0:0:0:0:
155,60,198050,6,0,L|236:34,1,79.9999999999999,4|0,3:1|0:2,0:0:0:0:
138,293,198411,2,0,L|215:329,1,79.9999999999999,2|0,0:2|0:2,0:0:0:0:
237,183,198773,6,0,L|332:189,1,79.9999999999999,2|0,0:1|0:2,0:0:0:0:
50,169,199134,1,2,1:2:0:0:
50,169,199315,1,0,1:2:0:0:
231,36,199496,6,0,B|272:27|309:60|309:60|348:71|382:56,1,160,4|0,3:3|1:2,0:0:0:0:
382,56,200038,1,0,1:2:0:0:
264,253,200219,1,8,0:2:0:0:
170,304,200399,5,2,0:2:0:0:
244,116,200580,1,2,0:2:0:0:
369,274,200761,1,2,0:2:0:0:
509,183,200942,6,0,P|449:135|373:151,1,160,4|0,3:1|0:2,0:0:0:0:
279,363,201664,1,2,0:1:0:0:
150,203,202026,1,0,1:2:0:0:
150,203,202207,1,0,1:2:0:0:
65,278,202387,6,0,P|131:238|204:264,1,160,4|0,3:3|1:2,0:0:0:0:
204,264,202930,1,0,1:2:0:0:
279,363,203110,5,10,0:2:0:0:
204,264,203291,1,2,0:2:0:0:
247,112,203472,1,2,0:2:0:0:
411,62,203652,1,2,0:2:0:0:
512,235,203833,6,0,B|435:211|436:272|359:249,1,160,4|0,3:1|0:2,0:0:0:0:
243,190,204375,1,2,0:2:0:0:
188,353,204556,2,0,P|226:344|255:317,1,79.9999999999999,2|0,0:1|0:2,0:0:0:0:
331,164,204917,1,0,1:2:0:0:
331,164,205098,1,0,1:2:0:0:
113,127,205279,6,0,B|191:143|185:82|265:99,1,160,4|0,3:3|1:2,0:0:0:0:
265,99,205821,1,0,1:2:0:0:
258,266,206002,2,0,P|242:229|242:190,1,79.9999999999999,10|0,0:2|0:2,0:0:0:0:
355,73,206363,1,2,1:2:0:0:
355,73,206544,1,0,1:2:0:0:
478,191,206725,6,0,P|400:201|331:164,1,160,4|0,3:1|0:2,0:0:0:0:
288,9,207267,1,2,0:2:0:0:
133,159,207448,2,0,P|172:164|210:151,1,79.9999999999999,2|0,0:1|0:2,0:0:0:0:
288,9,207809,1,2,1:2:0:0:
156,44,207990,1,2,1:2:0:0:
264,225,208170,6,0,P|266:264|258:304,1,79.9999999999999,4|0,3:3|0:0,0:0:0:0:
344,110,208532,2,0,P|384:101|431:102,1,79.9999999999999,0|0,1:2|1:2,0:0:0:0:
438,103,208803,1,0,1:0:0:0:
453,108,208893,6,0,L|468:4,1,79.9999999999999,10|0,0:2|0:2,0:0:0:0:
453,276,209255,2,0,L|468:380,1,79.9999999999999,2|0,1:2|0:2,0:0:0:0:
320,192,209616,6,0,P|246:166|172:192,1,160,4|0,3:1|1:2,0:0:0:0:
172,192,210158,1,0,1:2:0:0:
230,368,210339,6,0,P|243:330|245:291,1,79.9999999999999,2|0,0:1|0:2,0:0:0:0:
172,192,210701,1,2,1:2:0:0:
172,192,210881,1,0,1:2:0:0:
8,334,211062,6,0,P|84:352|149:307,1,160,4|0,3:3|1:2,0:0:0:0:
149,308,211604,1,0,1:2:0:0:
55,166,211785,6,0,P|52:205|64:244,1,79.9999999999999,8|0,0:2|0:2,0:0:0:0:
149,308,212146,1,2,1:2:0:0:
149,308,212327,1,0,1:2:0:0:
312,164,212508,6,0,P|235:147|171:191,1,160,4|0,3:1|0:2,0:0:0:0:
361,359,213231,1,2,0:1:0:0:
465,174,213592,1,0,1:2:0:0:
465,174,213773,1,0,1:2:0:0:
512,277,213954,6,0,L|326:263,1,179.999994506836,4|0,3:3|1:2,0:0:0:0:
318,275,214586,1,0,1:1:0:0:
305,288,214677,5,8,1:2:0:0:
122,97,215038,2,0,L|118:52,1,44.999998626709,4|0,0:2|0:2,0:0:0:0:
123,36,215399,6,0,P|193:44|249:32,1,104.999996795654,4|0,3:1|0:2,0:0:0:0:
218,80,215761,2,0,P|167:72|119:52,1,104.999996795654,2|0,1:2|0:2,0:0:0:0:
113,66,216122,2,0,P|153:97|198:117,1,69.9999978637695,2|0,0:1|0:2,0:0:0:0:
336,40,216484,1,2,3:2:0:0:
336,40,216664,1,0,1:2:0:0:
468,191,216845,6,0,P|436:174|403:164,1,69.9999978637695,4|0,3:3|0:2,0:0:0:0:
217,263,217207,1,2,0:2:0:0:
198,116,217387,1,0,1:2:0:0:
335,174,217568,2,0,P|369:172|403:164,1,69.9999978637695,4|0,0:1|0:2,0:0:0:0:
217,263,217930,1,2,3:2:0:0:
217,263,218110,1,2,1:2:0:0:
410,263,218291,6,0,P|435:197|438:140,1,104.999996795654,4|0,3:1|0:2,0:0:0:0:
423,271,218652,2,0,P|455:229|476:182,1,104.999996795654,2|0,1:2|0:2,0:0:0:0:
435,280,219014,2,0,P|475:249|503:211,1,69.9999978637695,2|0,0:1|0:2,0:0:0:0:
481,33,219375,1,2,3:2:0:0:
481,33,219556,1,0,1:2:0:0:
267,121,219737,6,0,P|238:122|193:114,1,69.9999978637695,4|0,3:3|0:2,0:0:0:0:
79,48,220098,1,2,0:2:0:0:
80,184,220279,1,0,1:2:0:0:
197,115,220460,2,0,P|211:83|220:49,1,69.9999978637695,4|0,0:1|0:2,0:0:0:0:
266,232,220821,1,2,3:2:0:0:
266,232,221002,1,2,1:2:0:0:
421,132,221183,6,0,P|355:114|291:138,1,139.999995727539,4|2,3:1|1:2,0:0:0:0:
291,139,221725,1,2,1:2:0:0:
352,276,221905,2,0,P|362:243|359:209,1,69.9999978637695,2|0,0:1|0:2,0:0:0:0:
197,115,222267,1,2,3:2:0:0:
197,115,222448,1,0,1:2:0:0:
77,234,222628,6,0,P|111:237|144:227,1,69.9999978637695,4|0,3:3|0:2,0:0:0:0:
291,139,222990,1,2,0:2:0:0:
352,276,223170,1,0,1:2:0:0:
212,221,223351,2,0,P|177:217|144:227,1,69.9999978637695,4|0,0:1|0:2,0:0:0:0:
60,360,223713,1,0,3:2:0:0:
60,360,223893,1,0,1:2:0:0:
144,227,224074,6,0,P|160:160|140:90,2,139.999995727539,2|2|2,3:2|0:2|0:1,0:0:0:0:
60,360,224978,5,2,0:2:0:0:
39,162,225158,1,2,3:2:0:0:
144,227,225339,1,2,1:2:0:0:
275,120,225520,6,0,L|281:45,1,69.9999978637695,4|0,3:3|0:2,0:0:0:0:
39,162,225881,2,0,L|33:87,1,69.9999978637695,2|0,0:2|1:2,0:0:0:0:
268,230,226243,1,4,1:1:0:0:
268,230,226604,6,0,L|311:227,1,34.9999989318848,4|0,0:2|0:2,0:0:0:0:
500,298,226966,6,0,P|434:302|379:273,1,108.750003318787,4|0,3:1|0:2,0:0:0:0:
376,279,227327,2,0,P|411:319|460:341,1,108.750003318787,2|0,1:2|0:2,0:0:0:0:
408,360,227689,2,0,P|380:331|365:298,1,72.5000022125244,2|0,0:1|0:2,0:0:0:0:
362,130,228050,1,2,3:2:0:0:
362,130,228231,1,0,1:2:0:0:
511,226,228411,6,0,P|476:229|441:218,1,72.5000022125244,4|0,3:3|0:2,0:0:0:0:
362,130,228773,1,2,0:2:0:0:
286,251,228954,1,0,1:2:0:0:
174,118,229134,2,0,P|209:124|239:143,1,72.5000022125244,4|0,0:1|0:2,0:0:0:0:
286,251,229496,1,2,3:2:0:0:
286,251,229677,1,2,1:2:0:0:
60,195,229857,6,0,P|126:191|181:220,1,108.750003318787,4|0,3:1|0:2,0:0:0:0:
99,152,230219,2,0,P|149:174|184:214,1,108.750003318787,2|0,1:2|0:2,0:0:0:0:
152,133,230580,2,0,P|177:158|193:190,1,72.5000022125244,2|0,0:1|0:2,0:0:0:0:
225,342,230942,1,2,3:2:0:0:
225,342,231122,1,0,1:2:0:0:
357,256,231303,6,0,P|322:249|285:250,1,72.5000022125244,4|0,3:3|0:2,0:0:0:0:
133,282,231664,1,2,0:2:0:0:
193,190,231845,1,0,1:2:0:0:
286,250,232026,2,0,P|321:257|358:256,1,72.5000022125244,4|0,0:1|0:2,0:0:0:0:
452,195,232387,1,2,3:2:0:0:
452,195,232568,1,2,1:2:0:0:
325,148,232749,6,0,P|307:82|340:7,2,145.000004425049,4|2|2,3:1|0:2|0:1,0:0:0:0:
325,148,233833,1,2,3:2:0:0:
325,148,234014,1,0,1:2:0:0:
452,195,234195,6,0,P|399:151|317:151,1,145.000004425049,4|2,3:3|0:2,0:0:0:0:
326,148,234737,1,0,1:2:0:0:
349,322,234917,2,0,P|360:288|361:252,1,72.5000022125244,4|0,0:1|0:2,0:0:0:0:
325,148,235279,1,0,3:2:0:0:
325,148,235460,1,0,1:2:0:0:
120,216,235640,6,0,P|182:244|261:223,1,145.000004425049,2|2,3:2|0:2,0:0:0:0:
325,148,236183,1,2,0:0:0:0:
500,175,236363,2,0,P|463:175|428:168,1,72.5000022125244,2|2,0:1|0:2,0:0:0:0:
292,48,236725,5,2,3:2:0:0:
325,148,236905,1,2,1:2:0:0:
212,243,237086,5,4,3:3:0:0:
222,127,237267,1,2,0:2:0:0:
313,33,237448,1,2,0:2:0:0:
455,59,237628,1,2,1:2:0:0:
504,211,237809,5,4,1:1:0:0:
504,211,238170,6,0,L|508:260,1,36.2500011062622,4|0,0:2|0:2,0:0:0:0:
361,352,238532,6,0,P|295:326|236:322,1,112.500004291534,4|0,3:1|0:2,0:0:0:0:
272,282,238893,2,0,P|323:304|368:338,1,112.500004291534,2|0,1:2|0:2,0:0:0:0:
375,324,239255,2,0,P|344:283|300:249,1,75.000002861023,2|0,0:1|0:2,0:0:0:0:
174,204,239616,1,2,3:2:0:0:
174,204,239797,1,0,1:2:0:0:
0,347,239978,6,0,P|35:344|72:334,1,75.000002861023,4|0,3:3|0:2,0:0:0:0:
174,204,240339,1,2,0:2:0:0:
326,267,240520,1,0,1:2:0:0:
438,146,240701,2,0,P|474:139|512:140,1,75.000002861023,4|0,0:1|0:2,0:0:0:0:
326,267,241062,1,2,3:2:0:0:
326,267,241243,1,2,1:2:0:0:
226,119,241423,6,0,P|207:51|209:-8,1,112.500004291534,4|0,3:1|0:2,0:0:0:0:
211,125,241785,2,0,P|181:77|165:23,1,112.500004291534,2|0,1:2|0:2,0:0:0:0:
196,129,242146,2,0,P|159:94|129:46,1,75.000002861023,2|0,0:1|0:2,0:0:0:0:
1,28,242508,1,2,3:2:0:0:
1,28,242689,1,0,1:2:0:0:
22,247,242869,6,0,P|30:210|31:173,1,75.000002861023,4|0,3:3|0:2,0:0:0:0:
1,28,243231,1,2,0:2:0:0:
144,74,243411,1,0,1:2:0:0:
31,173,243592,2,0,P|22:209|21:246,1,75.000002861023,4|0,0:1|0:2,0:0:0:0:
103,373,243954,1,2,3:2:0:0:
103,373,244134,1,2,1:2:0:0:
255,217,244315,6,0,P|182:214|129:264,1,150.000005722046,4|2,3:1|0:2,0:0:0:0:
103,373,244857,1,2,1:2:0:0:
274,287,245038,2,0,P|272:250|255:217,1,75.000002861023,2|0,0:1|0:2,0:0:0:0:
162,89,245399,1,2,3:2:0:0:
162,89,245580,1,0,1:2:0:0:
255,217,245761,6,0,P|288:233|325:236,1,75.000002861023,4|0,3:3|0:2,0:0:0:0:
473,160,246122,1,2,0:2:0:0:
334,70,246303,1,0,1:2:0:0:
255,217,246484,2,0,P|222:233|185:236,1,75.000002861023,4|0,0:1|0:2,0:0:0:0:
33,166,246845,1,0,3:2:0:0:
33,166,247026,1,0,1:2:0:0:
184,236,247207,6,0,P|206:164|189:92,1,150.000005722046,2|2,3:2|0:2,0:0:0:0:
113,0,247749,1,2,0:0:0:0:
33,166,247930,1,2,0:1:0:0:
113,0,248110,5,2,0:2:0:0:
206,164,248291,1,2,3:2:0:0:
19,57,248472,1,2,1:2:0:0:
120,233,248652,5,4,3:3:0:0:
206,164,248833,1,2,0:2:0:0:
333,149,249014,1,2,0:2:0:0:
437,227,249195,1,2,1:2:0:0:
452,376,249375,5,4,1:1:0:0:
452,376,249737,6,0,L|456:323,1,37.5000014305115,4|0,0:2|0:2,0:0:0:0:
496,181,250098,6,0,B|432:162|434:213|371:194,1,129.999994049072,4|0,3:1|0:2,0:0:0:0:
323,116,250640,1,2,0:2:0:0:
509,193,250821,2,0,B|434:170|436:230|363:208,1,150.000005722046,2|0,1:1|1:2,0:0:0:0:
365,208,251363,1,0,1:2:0:0:
241,230,251544,6,0,P|300:205|365:208,1,129.999994049072,4|0,3:3|1:2,0:0:0:0:
365,208,252086,1,2,1:2:0:0:
241,230,252267,1,2,0:1:0:0:
241,230,252628,1,2,1:2:0:0:
241,230,252809,1,0,1:2:0:0:
89,114,252990,6,0,B|153:95|151:146|214:127,1,129.999994049072,4|0,3:1|3:2,0:0:0:0:
262,49,253532,1,2,0:2:0:0:
76,127,253713,2,0,B|150:104|148:164|221:142,1,150.000005722046,2|0,1:1|1:2,0:0:0:0:
220,142,254255,1,0,1:2:0:0:
372,245,254436,6,0,P|329:221|281:217,1,97.4999955368043,4|0,3:3|0:2,0:0:0:0:
270,234,254797,6,0,L|262:298,1,64.9999970245362,4|0,0:1|0:2,0:0:0:0:
220,142,255158,2,0,L|167:103,1,64.9999970245362,10|0,1:2|0:2,0:0:0:0:
324,144,255520,2,0,L|383:117,1,64.9999970245362,2|0,0:2|0:2,0:0:0:0:
166,233,255881,6,0,L|106:259,1,64.9999970245362,6|0,0:2|0:2,0:0:0:0:
274,53,256243,2,0,L|281:-11,1,64.9999970245362,2|0,0:2|0:2,0:0:0:0:
432,274,256604,2,0,L|379:235,1,64.9999970245362,4|0,0:1|0:2,0:0:0:0:
272,173,256966,5,0,1:2:0:0:
272,173,257146,1,0,1:2:0:0:
261,333,257327,6,0,L|269:268,1,64.9999970245362,4|0,3:3|0:2,0:0:0:0:
413,100,257689,2,0,L|354:127,1,64.9999970245362,2|0,0:2|0:2,0:0:0:0:
138,85,258050,2,0,L|190:124,1,64.9999970245362,10|0,0:2|0:2,0:0:0:0:
272,173,258411,5,2,1:2:0:0:
272,173,258592,1,0,1:2:0:0:
138,85,258773,6,0,P|68:72|-4:77,1,129.999994049072,4|0,3:1|1:2,0:0:0:0:
9,74,259315,1,0,1:2:0:0:
65,192,259496,2,0,P|111:137|142:73,1,129.999994049072,2|0,0:1|3:2,0:0:0:0:
138,85,260038,1,0,1:2:0:0:
65,192,260219,5,4,1:3:0:0:
65,192,260942,6,0,L|62:232,1,40,4|0,0:2|0:2,0:0:0:0:
180,336,261664,6,0,B|257:309|325:325|276:350|388:375|460:342|470:265|438:195|355:196|333:252,1,400,6|2,0:2|0:2,0:0:0:0:
345,233,263833,5,2,0:2:0:0:
290,150,264195,5,2,0:2:0:0:
203,264,264556,6,0,B|161:288|97:283|38:234|44:133|119:95|119:95|160:122|158:182,1,400,4|4,0:2|0:1,0:0:0:0:
158,182,266725,5,0,0:2:0:0:
203,264,267086,5,0,0:2:0:0:
294,178,267448,6,0,B|342:156|394:158|455:184|442:244|442:244|405:196|451:130|469:154|480:122|489:95|480:50,1,400,2|2,0:1|0:2,0:0:0:0:
482,61,269797,6,0,P|484:35|489:5,2,50,2|0|0,0:2|0:2|0:2,0:0:0:0:
434,157,270339,38,0,B|385:136|328:154|349:171|291:186|241:166|241:166|264:134|272:80|245:51|245:51|207:57|184:99,1,400,4|2,0:1|0:2,0:0:0:0:
14,182,272508,6,0,L|19:153,1,29.9999990844727,4|0,0:2|0:2,0:0:0:0:
28,132,273231,6,0,B|74:116|125:146|125:146|170:150|196:121,1,179.999994506836,4|0,3:1|0:2,0:0:0:0:
300,21,273773,1,2,0:2:0:0:
445,190,273954,2,0,P|402:175|370:145,1,89.999997253418,2|0,0:1|0:2,0:0:0:0:
300,21,274315,1,0,1:2:0:0:
300,21,274496,1,0,1:2:0:0:
270,281,274677,6,0,B|299:251|302:201|302:201|275:165|288:113,1,179.999994506836,4|0,3:3|1:2,0:0:0:0:
288,113,275219,1,0,1:2:0:0:
209,219,275399,2,0,P|165:215|125:194,1,89.999997253418,10|0,0:2|0:2,0:0:0:0:
371,145,275761,1,2,1:2:0:0:
371,145,275942,1,0,1:2:0:0:
408,380,276122,6,0,B|372:337|396:275|396:275|366:252|331:267,1,179.999994506836,4|0,3:1|0:2,0:0:0:0:
202,326,276664,1,2,0:2:0:0:
21,196,276845,2,0,P|65:202|106:222,1,89.999997253418,2|0,0:1|0:2,0:0:0:0:
202,326,277207,1,2,1:2:0:0:
331,266,277387,1,2,1:2:0:0:
347,41,277568,6,0,P|324:80|313:124,1,89.999997253418,4|0,3:3|0:0,0:0:0:0:
153,241,277930,2,0,P|109:228|64:230,1,89.999997253418,0|0,1:2|1:2,0:0:0:0:
44,243,278201,1,0,1:0:0:0:
32,261,278291,6,0,L|27:350,1,89.999997253418,10|0,0:2|0:2,0:0:0:0:
32,123,278652,2,0,L|27:33,1,89.999997253418,2|0,1:2|0:2,0:0:0:0:
233,214,279014,6,0,B|324:231|316:173|407:190,1,179.999994506836,4|0,3:1|1:2,0:0:0:0:
407,190,279556,1,0,1:2:0:0:
282,22,279737,6,0,P|265:64|265:109,1,89.999997253418,2|0,0:1|0:2,0:0:0:0:
407,190,280098,1,2,1:2:0:0:
407,190,280279,1,0,1:2:0:0:
265,109,280460,6,0,B|174:92|182:150|91:133,1,179.999994506836,4|0,3:3|1:2,0:0:0:0:
90,133,281002,1,0,1:2:0:0:
220,301,281183,6,0,P|234:258|233:214,1,89.999997253418,8|0,0:2|0:2,0:0:0:0:
90,133,281544,1,2,1:2:0:0:
90,133,281725,1,0,1:2:0:0:
220,301,281905,6,0,B|310:284|302:342|393:325,1,179.999994506836,4|0,3:1|0:2,0:0:0:0:
504,37,282628,1,2,0:1:0:0:
263,121,282990,1,0,1:2:0:0:
263,121,283170,1,0,1:2:0:0:
186,69,283351,6,0,P|235:132|205:228,1,179.999994506836,4|0,3:3|1:2,0:0:0:0:
198,235,283984,1,0,1:1:0:0:
184,245,284074,5,8,1:2:0:0:
467,365,284436,1,2,3:2:0:0:
426,71,284797,5,2,0:1:0:0:
432,48,285520,1,2,0:2:0:0:
442,35,286243,1,2,0:2:0:0:
453,29,286966,1,2,0:2:0:0:
342,68,287689,6,0,P|303:63|262:60,2,69.9999978637695,4|0|0,2:1|0:2|0:2,0:0:0:0:
432,93,288773,1,2,0:2:0:0:
272,60,289134,6,0,B|228:44|182:64|182:64|149:55|132:24,1,150,4|0,0:2|0:2,0:0:0:0:
136,31,290580,5,2,0:1:0:0:
37,56,290942,1,0,0:0:0:0:
207,102,291303,1,2,0:2:0:0:
207,102,292026,5,4,0:1:0:0:
136,31,292387,1,0,0:0:0:0:
180,201,292749,1,2,0:0:0:0:
180,201,293472,5,4,0:1:0:0:
207,102,293833,1,0,0:0:0:0:
136,31,294195,1,0,0:0:0:0:
37,56,294556,1,0,0:0:0:0:
12,155,294917,1,0,0:0:0:0:
81,227,295279,1,0,0:0:0:0:
109,129,295640,5,2,0:0:0:0:
385,153,296363,5,2,0:1:0:0:
305,78,296725,1,0,0:0:0:0:
352,248,297086,1,2,0:0:0:0:
352,248,297809,5,4,0:1:0:0:
385,153,298170,1,0,0:0:0:0:
252,273,298532,1,2,0:0:0:0:
252,273,299255,5,4,0:1:0:0:
352,248,299616,1,0,0:0:0:0:
207,103,299978,5,2,0:0:0:0:
180,201,300339,1,0,0:0:0:0:
385,153,300701,5,2,0:0:0:0:
305,78,301062,1,0,0:0:0:0:
278,176,301423,5,6,0:1:0:0:
89,293,302146,6,0,L|22:289,2,59.9999981689453,2|2|2,0:1|0:2|0:2,0:0:0:0:
314,346,303592,6,0,L|381:350,2,59.9999981689453,4|2|2,0:1|0:2|0:2,0:2:0:0:
217,233,305038,6,0,L|210:170,1,59.9999981689453,4|2,0:1|0:2,0:0:0:0:
335,247,305761,2,0,L|342:184,1,59.9999981689453,2|2,0:2|0:2,0:0:0:0:
223,292,306484,6,0,L|216:229,1,59.9999981689453,2|2,0:2|0:2,0:0:0:0:
326,350,307207,2,0,P|346:344|368:344,1,40,2|2,0:2|0:2,0:0:0:0:
470,241,307930,6,0,L|472:181,1,59.9999981689453,2|2,0:1|0:2,0:0:0:0:
419,99,308652,2,0,P|391:95|373:89,1,40,2|2,0:2|0:2,0:0:0:0:
260,123,309375,6,0,L|188:118,2,59.9999981689453,4|2|2,0:1|0:2|0:2,0:0:0:0:
380,92,310821,5,2,0:2:0:0:
392,183,311183,5,2,0:2:0:0:
377,216,311544,5,2,0:2:0:0:
375,241,311905,5,2,0:2:0:0:
382,257,312267,6,0,P|398:312|384:355,1,100,4|2,0:2|0:2,0:0:0:0:
386,351,313726,6,0,P|356:344|320:342,1,50,4|2,2:1|0:2,0:0:0:0:
245,357,314483,5,2,0:2:0:0:
150,280,314853,5,2,0:2:0:0:
179,196,315255,6,0,P|183:173|185:128,1,50,4|2,0:1|0:2,0:0:0:0:
168,60,316147,5,2,0:2:0:0:
293,8,316605,5,2,0:2:0:0:
433,179,317257,6,0,L|453:182,2,12.5,4|2|0,0:1|0:2|0:2,0:0:0:0:
479,297,317841,5,2,0:2:0:0:
395,356,318441,5,2,0:2:0:0:
308,330,319079,5,2,0:2:0:0:
176,355,319871,6,0,L|156:353,2,12.5,6|2|0,0:1|0:2|0:2,0:0:0:0:
