osu file format v14

[General]
AudioFilename: audio.mp3
AudioLeadIn: 0
PreviewTime: 83896
Countdown: 0
SampleSet: Soft
StackLeniency: 0.7
Mode: 0
LetterboxInBreaks: 0
WidescreenStoryboard: 1

[Editor]
Bookmarks: 35591,52243,59870,69658,74997,75188,76269,78366,133218,147264,158769,183557,215400,224235,236438,239044,259319,265803
DistanceSpacing: 1
BeatDivisor: 4
GridSize: 4
TimelineZoom: 2.5

[Metadata]
Title:Hikari no Kiseki
TitleUnicode:光ノ軌跡
Artist:Shimotsuki Haruka
ArtistUnicode:霜月はるか
Creator:Oakenfold-
Version:Journey
Source:フィリスのアトリエ ~不思議な旅の錬金術士~
Tags:Atelier Firis The Alchemist and the Mysterious Journey Ending ed 結び音リボン ~fushigi na tabi no renkinjutsushi~ japanese video game Sora no Oto Musubine Ribbon vocal collection akkord j-pop jpop pop -Luminate
BeatmapID:4401370
BeatmapSetID:2065724

[Difficulty]
HPDrainRate:5
CircleSize:3.5
OverallDifficulty:8.2
ApproachRate:9
SliderMultiplier:3.59999990463257
SliderTickRate:1

[Events]
//Background and Video events
0,0,"bg.jpg",0,0
//Break Periods
//Storyboard Layer 0 (Background)
//Storyboard Layer 1 (Fail)
//Storyboard Layer 2 (Pass)
//Storyboard Layer 3 (Foreground)
//Storyboard Layer 4 (Overlay)
//Storyboard Sound Samples

[TimingPoints]
-1019,508.474576271186,4,2,1,50,1,0
506,-500,4,2,1,50,0,0
1014,-125,4,2,1,50,0,0
9150,-250,4,2,1,50,0,0
15354,-250,4,2,1,60,0,0
17286,-100,4,2,1,60,0,0
17290,-100,4,2,1,60,0,0
17388,-100,4,2,1,75,0,0
23133,-71.4285714285714,4,2,1,75,0,0
23642,-100,4,2,1,75,0,0
35336,-166.666666666667,4,2,1,75,0,0
35591,-125,4,2,1,75,0,0
35595,-125,4,2,1,75,0,0
35693,-125,4,2,1,55,0,0
35972,-166.666666666667,4,2,1,55,0,0
36353,-250.000000000001,4,2,1,55,0,0
37116,-166.666666666667,4,2,1,55,0,0
37625,-250.000000000001,4,2,1,55,0,0
38642,-166.666666666667,4,2,1,55,0,0
39658,-125,4,2,1,55,0,0
40040,-166.666666666667,4,2,1,55,0,0
40421,-250.000000000001,4,2,1,55,0,0
41184,-166.666666666667,4,2,1,55,0,0
43726,-125,4,2,1,55,0,0
44108,-166.666666666667,4,2,1,55,0,0
44489,-250.000000000001,4,2,1,55,0,0
45252,-166.666666666667,4,2,1,55,0,0
45760,-125,4,2,1,55,0,0
46142,-166.666666666667,4,2,1,55,0,0
46523,-250.000000000001,4,2,1,55,0,0
47286,-166.666666666667,4,2,1,55,0,0
51353,-250.000000000001,4,2,1,55,0,0
51862,-125,4,2,1,55,0,0
52243,-166.666666666667,4,2,1,55,0,0
53387,-166.666666666667,4,2,1,55,0,0
53896,-250,4,2,1,55,0,0
54658,-166.666666666667,4,2,1,55,0,0
55930,-125,4,2,1,55,0,0
56311,-166.666666666667,4,2,1,55,0,0
56692,-250,4,2,1,55,0,0
57455,-166.666666666667,4,2,1,55,0,0
59997,-125,4,2,1,55,0,0
60379,-166.666666666667,4,2,1,55,0,0
60760,-250.000000000001,4,2,1,55,0,0
62031,-125,4,2,1,55,0,0
62413,-166.666666666667,4,2,1,55,0,0
62794,-250,4,2,1,55,0,0
63557,-166.666666666667,4,2,1,55,0,0
68133,-125,4,2,1,55,0,0
68235,-125,4,2,1,65,0,0
68514,-125,4,2,1,5,0,0
68642,-125,4,2,1,65,0,0
70807,-125,4,2,1,65,0,0
70930,-125,4,2,1,65,0,0
83264,-125,4,2,1,65,0,0
83896,-62.5,4,2,1,65,0,0
84341,-83.3333333333333,4,2,1,65,0,0
84404,-83.3333333333333,4,2,1,65,0,1
84506,-83.3333333333333,4,2,1,80,0,1
98387,-100,4,2,1,80,0,1
100803,-125,4,2,1,80,0,1
101438,-100,4,2,1,80,0,1
101947,-125,4,2,1,80,0,1
102709,-125,4,2,1,80,0,0
102811,-125,4,2,1,60,0,0
103091,-250.000000000001,4,2,1,60,0,0
103472,-500.000000000003,4,2,1,60,0,0
104235,-166.666666666667,4,2,1,60,0,0
106777,-125,4,2,1,60,0,0
107158,-250.000000000001,4,2,1,60,0,0
107540,-166.666666666667,4,2,1,60,0,0
108048,-166.666666666667,4,2,1,60,0,0
110845,-125,4,2,1,60,0,0
111226,-250.000000000001,4,2,1,60,0,0
111608,-166.666666666667,4,2,1,60,0,0
118980,-125,4,2,1,60,0,0
119083,-125,4,2,1,70,0,0
135252,-83.3333333333333,4,2,1,70,0,1
135354,-83.3333333333333,4,2,1,80,0,1
149489,-250,4,2,1,80,0,0
149591,-250,4,2,1,55,0,0
156735,-250,4,2,1,5,0,0
156862,-250,4,2,1,55,0,0
157116,-250,4,2,1,55,0,0
157243,-250,4,2,1,5,0,0
157370,-250,4,2,1,55,0,0
157497,-250,4,2,1,5,0,0
157625,-250,4,2,1,55,0,0
163828,-250,4,2,1,60,0,0
164807,-250,4,2,1,5,0,0
164997,-250,4,2,1,60,0,0
165061,-250,4,2,1,5,0,0
165252,-250,4,2,1,60,0,0
165315,-250,4,2,1,5,0,0
165506,-250,4,2,1,60,0,0
165760,-125,4,2,1,60,0,0
182031,-125,4,2,1,65,0,0
197006,-250,4,2,1,60,0,0
197133,-250,4,2,1,60,0,0
198303,-166.666666666667,4,2,1,60,0,0
198405,-166.666666666667,4,1,1,45,0,0
205930,-100,4,1,1,45,0,0
206375,-100,4,1,1,5,0,0
206438,-166.666666666667,4,1,1,45,0,0
209997,-100,4,1,1,45,0,0
210442,-100,4,1,1,5,0,0
210506,-166.666666666667,4,1,1,45,0,0
212286,-250,4,1,1,45,0,0
212540,-166.666666666667,4,1,1,45,0,0
212642,-166.666666666667,4,1,1,55,0,0
212794,-100,4,1,1,55,0,0
213048,-83.3333333333333,4,1,1,55,0,0
214065,-62.5,4,1,1,55,0,0
214167,-62.5,4,2,1,60,0,0
214510,-62.5,4,2,1,5,0,0
214574,-83.3333333333333,4,2,1,60,0,1
214676,-83.3333333333333,4,2,1,80,0,1
228557,-100,4,2,1,80,0,1
232854,-100,4,2,1,75,0,1
232879,-100,4,2,1,75,0,0
238726,-71.4285714285714,4,2,1,75,0,0
239235,-100,4,2,1,75,0,0
250930,-125,4,2,1,75,0,0
251184,-125,4,2,1,75,0,0
251286,-125,4,2,1,60,0,0
267455,-500,4,2,1,60,0,0
267964,-500,4,2,1,30,0,0
269489,-500,4,2,1,20,0,0
271625,-500,4,2,1,10,0,0
271904,-250,4,2,1,5,0,0

[Colours]
Combo1 : 237,209,241
Combo2 : 161,201,255
Combo3 : 165,154,188
Combo4 : 230,187,145

[HitObjects]
23,59,569,6,0,L|21:45,3,8.99999976158142
95,110,1014,6,0,P|149:65|127:-7,1,143.999996185303,2|0,0:0|0:0,0:0:0:0:
127,44,1396,2,0,B|126:138|201:92|180:198,1,143.999996185303
94,194,1777,2,0,P|111:280|162:273,1,143.999996185303,2|0,0:0|0:0,0:0:0:0:
154,268,2158,2,0,P|216:273|317:274,1,143.999996185303
316,353,2540,2,0,P|407:371|380:253,1,215.999994277954,2|0,0:0|0:0,0:0:0:0:
318,230,3048,6,0,B|304:156|372:172|359:98,1,143.999996185303,2|0,0:0|0:0,0:0:0:0:
329,107,3430,2,0,P|326:41|251:53,1,143.999996185303
185,109,3811,2,0,B|185:156|140:197|68:194|68:194|88:160|121:163,1,215.999994277954,2|0,0:0|0:0,0:0:0:0:
110,164,4319,2,0,P|110:200|123:234,1,71.9999980926514
323,310,4574,2,0,B|255:250|194:283|194:283|219:249|199:201,1,215.999994277954,2|0,0:0|0:0,0:0:0:0:
122,233,5082,6,0,P|102:308|176:354,1,143.999996185303,2|0,0:0|0:0,0:0:0:0:
160,345,5464,2,0,B|129:336|74:332|74:332|39:356|43:377,1,143.999996185303
182,363,5845,2,0,B|255:381|301:321|293:268|293:268|273:296|225:283,1,215.999994277954,2|0,0:0|0:0,0:0:0:0:
236,212,6353,2,0,P|216:162|177:139,1,71.9999980926514
334,296,6608,2,0,P|216:213|204:128,1,215.999994277954,2|0,0:0|0:0,0:0:0:0:
336,100,7116,6,0,B|389:99|402:45|402:45|428:25|451:29,1,143.999996185303,2|0,0:0|0:0,0:0:0:0:
478,123,7497,2,0,P|426:107|318:93,1,143.999996185303
224,68,7879,2,0,B|213:33|152:25|152:25|213:63|218:129,1,215.999994277954,2|0,0:0|0:0,0:0:0:0:
287,236,8387,2,0,P|274:269|246:291,1,71.9999980926514
157,339,8642,1,2,0:0:0:0:
505,331,8896,6,0,P|469:323|432:314,1,71.9999980926514
318,349,9150,2,0,B|234:270|231:229|227:176|160:115|240:-78|271:-29|334:-35|393:-34|431:-9|444:76|530:152|416:142|352:199|313:215|289:187|277:146|288:114|235:62|129:137|93:148|107:233|116:318|200:377|270:362|280:311|280:311|298:285|324:285,1,1151.99996948242,4|12,0:1|0:1,0:0:0:0:
318,286,13726,5,8,0:1:0:0:
318,286,14235,5,10,0:1:0:0:
318,286,14743,5,10,0:1:0:0:
497,332,14997,1,8,0:1:0:0:
424,10,15252,1,8,0:0:0:0:
438,25,15506,5,0,0:0:0:0:
308,68,15633,2,0,P|343:75|381:83,1,71.9999980926514,8|0,0:1|0:0,0:0:0:0:
487,158,16014,1,4,0:3:0:0:
404,177,16142,1,8,0:1:0:0:
432,258,16269,5,8,0:0:0:0:
385,97,16396,2,0,L|307:79,1,71.9999980926514,8|8,0:1|0:1,0:0:0:0:
50,74,16777,5,8,0:0:0:0:
98,151,16904,1,8,0:0:0:0:
136,73,17031,1,8,0:0:0:0:
90,168,17158,1,8,0:0:0:0:
144,60,17286,6,0,P|182:99|188:139,1,89.9999976158143,4|0,0:0|0:0,0:0:0:0:
82,184,17540,2,0,P|49:148|45:106,1,89.9999976158143
241,0,17794,2,0,B|341:-5|296:84|427:76,1,179.999995231629,8|8,0:0|0:1,0:0:0:0:
405,94,18175,2,0,P|444:53|487:54,1,89.9999976158143,8|0,0:0|0:0,0:0:0:0:
335,268,18430,1,8,0:1:0:0:
358,247,18557,2,0,P|351:174|247:106,2,179.999995231629,8|8|0,0:1|0:0|0:0,0:0:0:0:
73,363,19319,6,0,P|42:331|33:287,1,89.9999976158143,8|0,0:1|0:0,0:0:0:0:
189,207,19574,2,0,P|131:249|115:291,1,89.9999976158143,8|0,0:1|0:0,0:0:0:0:
413,194,19828,2,0,P|389:228|251:260,1,179.999995231629,8|8,0:0|0:1,0:0:0:0:
488,365,20209,2,0,P|452:339|408:329,1,89.9999976158143,8|0,0:0|0:0,0:0:0:0:
309,154,20464,1,8,0:1:0:0:
320,198,20591,2,0,P|290:246|232:272,1,89.9999976158143,8|0,0:1|0:0,0:0:0:0:
462,56,20845,2,0,B|437:31|383:42|383:42|402:151|474:199,1,269.999992847443,8|0,0:0|0:0,0:0:0:0:
473,198,21353,6,0,P|442:165|400:149,1,89.9999976158143,12|0,0:3|0:0,0:0:0:0:
413,277,21608,2,0,P|347:240|327:196,1,89.9999976158143,8|0,0:1|0:0,0:0:0:0:
172,67,21862,2,0,P|186:155|198:244,1,179.999995231629,8|8,0:0|0:1,0:0:0:0:
196,266,22243,2,0,P|240:263|258:319,1,89.9999976158143,8|0,0:0|0:0,0:0:0:0:
167,384,22497,1,8,0:1:0:0:
111,365,22625,2,0,P|94:281|78:237,1,89.9999976158143,8|0,0:1|0:1,0:0:0:0:
92,69,22879,2,0,P|48:75|17:107,1,89.9999976158143,8|0,0:0|0:0,0:0:0:0:
92,277,23133,6,0,B|124:266|233:216|145:32|60:39|10:89|-13:173|39:239|151:187,1,377.999978450776,4|0,0:0|0:0,0:0:0:0:
68,202,23642,2,0,P|113:193|201:184,1,89.9999976158143,8|0,0:1|0:0,0:0:0:0:
352,212,23896,2,0,P|383:297|407:384,1,179.999995231629,8|8,0:0|0:1,0:0:0:0:
390,134,24277,1,8,0:1:0:0:
422,103,24404,2,0,P|448:90|541:80,1,89.9999976158143,8|0,0:1|0:0,0:0:0:0:
252,7,24658,2,0,P|288:34|332:53,1,89.9999976158143,8|0,0:1|0:0,0:0:0:0:
507,77,24913,6,0,P|463:84|422:103,1,89.9999976158143,8|8,0:0|0:1,0:0:0:0:
176,208,25167,1,8,0:0:0:0:
177,209,25294,1,8,0:0:0:0:
272,241,25421,6,0,P|250:280|214:306,1,89.9999976158143,4|0,0:0|0:0,0:0:0:0:
106,159,25675,2,0,P|153:178|179:216,1,89.9999976158143,8|0,0:1|0:0,0:0:0:0:
370,250,25930,2,0,P|281:250|213:307,1,179.999995231629,8|8,0:0|0:1,0:0:0:0:
173,379,26311,2,0,P|126:361|69:349,1,89.9999976158143,8|0,0:0|0:0,0:0:0:0:
0,194,26565,1,8,0:1:0:0:
19,159,26692,2,0,P|53:187|58:241,1,89.9999976158143,8|0,0:1|0:0,0:0:0:0:
143,187,26947,6,0,P|218:144|319:114,1,179.999995231629,8|0,0:0|0:3,0:0:0:0:
496,27,27455,2,0,P|446:64|397:44,1,89.9999976158143,12|0,0:3|0:0,0:0:0:0:
306,116,27709,2,0,P|264:99|220:87,1,89.9999976158143,8|0,0:1|0:0,0:0:0:0:
0,58,27964,2,0,P|89:29|208:9,1,179.999995231629,8|8,0:0|0:1,0:0:0:0:
220,87,28345,2,0,P|274:103|311:120,1,89.9999976158143,8|0,0:0|0:0,0:0:0:0:
486,61,28599,1,8,0:1:0:0:
459,11,28726,2,0,P|438:51|429:94,1,89.9999976158143,8|0,0:1|0:0,0:0:0:0:
303,212,28980,6,0,P|337:295|354:383,1,179.999995231629,8|0,0:0|0:0,0:0:0:0:
512,308,29362,1,0,0:0:0:0:
498,255,29489,2,0,P|453:264|412:281,1,89.9999976158143,12|0,0:1|0:0,0:0:0:0:
271,382,29743,2,0,P|227:370|195:340,1,89.9999976158143,8|0,0:1|0:0,0:0:0:0:
8,355,29997,6,0,P|95:334|185:327,1,179.999995231629,8|8,0:0|0:1,0:0:0:0:
213,248,30379,2,0,P|223:204|240:163,1,89.9999976158143,8|0,0:0|0:0,0:0:0:0:
405,91,30633,1,8,0:1:0:0:
412,171,30760,2,0,P|483:122|470:37,1,179.999995231629,8|2,0:1|0:0,0:0:0:0:
360,7,31269,6,0,P|347:161|497:125,1,359.999990463257,4|8,0:0|0:1,0:0:0:0:
405,91,32031,2,0,P|229:49|51:32,1,359.999990463257,8|8,0:0|0:1,0:0:0:0:
230,4,32794,2,0,P|209:43|191:88,1,89.9999976158143,8|0,0:1|0:0,0:0:0:0:
120,247,33048,2,0,B|118:270|57:267|38:227|-9:211|-16:76|147:80|114:154|84:151,1,269.999992847443,8|0,0:0|0:0,0:0:0:0:
89,159,33557,2,0,B|205:135|179:237|284:200,1,179.999995231629,2|8,0:1|0:1,0:0:0:0:
329,244,33938,1,8,0:1:0:0:
354,227,34065,1,8,0:0:0:0:
512,239,34319,6,0,P|378:258|247:291,1,269.999992847443,4|0,0:0|0:0,0:0:0:0:
181,368,34828,2,0,P|121:365|98:324,1,89.9999976158143,8|8,0:0|0:0,0:0:0:0:
102,157,35082,1,8,0:3:0:0:
132,212,35209,1,8,0:3:0:0:
107,258,35336,1,4,0:3:0:0:
73,265,35463,1,4,0:3:0:0:
52,255,35591,6,0,P|72:185|140:178,1,143.999996185303,4|0,0:1|0:0,0:0:0:0:
193,123,35972,2,0,B|209:120|235:100|238:57|238:57|229:79|222:80,1,107.999993843079,2|0,0:0|0:0,0:0:0:0:
142,57,36353,2,0,P|66:53|14:6,1,143.999996185303,2|0,0:0|0:0,0:0:0:0:
17,11,37116,2,0,P|40:27|49:111,1,107.999993843079,2|0,0:0|0:0,0:0:0:0:
117,165,37497,1,0,0:0:0:0:
117,165,37625,2,0,P|109:218|106:246,2,71.9999980926514,2|0|0,0:0|0:0|0:1,0:0:0:0:
22,270,38387,5,2,0:1:0:0:
177,298,38642,2,0,P|156:315|127:322,1,53.9999969215394
106,236,38896,1,2,0:1:0:0:
202,91,39150,2,0,P|259:92|298:130,1,107.999993843079
295,124,39658,6,0,P|311:191|376:216,1,143.999996185303,2|0,0:0|0:0,0:0:0:0:
475,196,40040,2,0,B|465:161|444:157|444:157|463:175|462:223,1,107.999993843079,2|0,0:0|0:0,0:0:0:0:
376,216,40421,2,0,B|336:233|316:266|317:309|317:309|333:327|352:331,1,143.999996185303,2|0,0:0|0:0,0:0:0:0:
337,325,41184,2,0,P|287:304|234:309,1,107.999993843079,2|0,0:0|0:0,0:0:0:0:
160,362,41565,1,0,0:0:0:0:
134,383,41692,2,0,P|81:369|28:359,1,107.999993843079,2|0,0:0|0:0,0:0:0:0:
119,138,42201,5,0,0:3:0:0:
300,71,42455,1,2,0:0:0:0:
206,7,42709,1,0,0:0:0:0:
212,26,42964,1,0,0:0:0:0:
407,57,43218,2,0,L|275:74,1,107.999993843079,2|0,0:0|0:0,0:0:0:0:
41,151,43726,6,0,P|85:221|144:211,1,143.999996185303,2|0,0:0|0:0,0:0:0:0:
217,189,44108,2,0,B|224:144|269:134|269:134|269:155|245:163,1,107.999993843079
137,215,44489,2,0,B|98:256|121:303|121:303|151:286|173:293,1,143.999996185303,2|0,0:0|0:0,0:0:0:0:
200,361,45252,1,2,0:0:0:0:
399,246,45506,5,0,0:0:0:0:
399,246,45633,1,0,0:0:0:0:
399,246,45760,2,0,P|407:313|324:333,1,143.999996185303,2|0,0:0|0:0,0:0:0:0:
255,314,46142,2,0,B|222:316|224:357|224:357|239:329|260:326,1,107.999993843079
346,341,46523,2,0,P|322:234|300:181,1,143.999996185303,2|0,0:0|0:0,0:0:0:0:
98,225,47286,6,0,P|44:213|30:157,1,107.999993843079,2|0,0:0|0:0,0:0:0:0:
75,103,47667,1,0,0:0:0:0:
91,78,47794,2,0,P|165:80|228:90,1,107.999993843079,2|0,0:0|0:0,0:0:0:0:
297,37,48303,5,0,0:0:0:0:
510,111,48557,2,0,P|475:165|416:167,1,107.999993843079,2|0,0:0|0:0,0:0:0:0:
302,183,49065,1,0,0:0:0:0:
302,183,49319,2,0,P|237:170|182:169,1,107.999993843079,2|0,0:0|0:0,0:0:0:0:
134,83,49701,1,0,0:0:0:0:
126,65,49828,1,2,0:0:0:0:
52,197,50082,2,0,P|45:171|41:145,1,53.9999969215394
53,133,50336,1,0,0:0:0:0:
174,384,50591,6,0,P|196:315|275:286,1,161.999990764618,2|0,0:0|0:0,0:0:0:0:
274,285,51099,2,0,P|312:313|337:314,1,53.9999969215394
468,309,51353,2,0,P|410:255|373:261,1,107.999997138977,6|0,0:1|0:0,0:0:0:0:
472,192,51862,6,0,P|489:124|429:80,1,143.999996185303,12|0,0:1|0:0,0:0:0:0:
415,3,52243,2,0,P|356:24|351:73,1,107.999993843079
391,147,52625,2,0,P|308:152|164:178,1,215.999987686158,8|0,0:1|0:0,0:0:0:0:
220,260,53387,6,0,P|204:307|118:295,1,107.999993843079,8|0,0:0|0:0,0:0:0:0:
91,253,53768,1,0,0:0:0:0:
71,264,53896,2,0,P|21:256|-35:253,1,71.9999980926514,8|0,0:1|0:0,0:0:0:0:
151,320,54404,1,8,0:1:0:0:
62,130,54658,5,8,0:1:0:0:
114,35,54913,2,0,P|131:56|138:85,1,53.9999969215394,2|0,0:0|0:0,0:0:0:0:
62,130,55167,1,8,0:1:0:0:
221,93,55421,2,0,P|276:102|336:122,1,107.999993843079,8|0,0:0|0:0,0:0:0:0:
382,33,55930,6,0,P|464:69|429:145,1,143.999996185303,8|0,0:1|0:0,0:0:0:0:
506,177,56311,2,0,B|511:209|485:244|485:244|500:242|514:220,1,107.999993843079,2|0,0:0|0:0,0:0:0:0:
414,195,56692,2,0,B|366:221|386:282|386:282|351:267|348:228,1,143.999996185303,8|8,0:1|0:1,0:0:0:0:
320,367,57455,2,0,P|270:346|211:330,1,107.999993843079,8|0,0:0|0:0,0:0:0:0:
39,294,57836,1,0,0:0:0:0:
21,325,57963,2,0,P|47:369|98:374,1,107.999993843079,8|0,0:1|0:0,0:0:0:0:
204,338,58472,5,0,0:0:0:0:
252,173,58726,1,8,0:1:0:0:
406,261,58980,1,2,0:0:0:0:
359,355,59235,1,8,0:1:0:0:
470,166,59489,2,0,P|412:171|338:183,1,107.999993843079,8|0,0:0|0:0,0:0:0:0:
215,135,59997,6,0,P|237:71|304:76,1,143.999996185303,8|0,0:1|0:0,0:0:0:0:
388,61,60379,2,0,B|407:100|453:96|453:96|447:76|435:77,1,107.999993843079,2|0,0:0|0:0,0:0:0:0:
304,76,60760,2,0,B|286:70|251:110|251:110|186:114|144:84,1,143.999996185303,8|8,0:1|0:1,0:0:0:0:
173,98,61523,1,8,0:0:0:0:
31,12,61777,5,8,0:1:0:0:
31,12,61904,1,0,0:0:0:0:
31,12,62031,2,0,B|83:58|59:119|4:145|-4:95|24:93,1,143.999996185303,8|0,0:1|0:0,0:0:0:0:
129,129,62413,2,0,B|157:156|160:180|160:180|150:160|119:141,1,107.999993843079,2|0,0:0|0:0,0:0:0:0:
91,227,62794,2,0,P|172:197|236:182,1,143.999996185303,8|8,0:1|0:1,0:0:0:0:
394,295,63557,6,0,P|387:269|381:243,1,53.9999969215394,8|0,0:0|0:0,0:0:0:0:
396,234,63811,1,8,0:1:0:0:
309,360,64065,2,0,P|235:364|228:291,1,161.999990764618,2|0,0:0|0:0,0:0:0:0:
227,291,64574,2,0,P|206:257|206:235,1,53.9999969215394,8|0,0:1|0:0,0:0:0:0:
367,205,64828,2,0,B|390:165|369:122|329:108|329:108|301:119|306:146,1,161.999990764618,2|0,0:0|0:0,0:0:0:0:
314,263,65336,6,0,P|322:294|326:332,1,53.9999969215394,8|0,0:1|0:0,0:0:0:0:
414,371,65590,2,0,P|473:344|480:288,1,107.999993843079,8|8,0:0|0:1,0:0:0:0:
512,231,65972,1,0,0:0:0:0:
500,213,66099,1,4,0:3:0:0:
300,95,66353,2,0,P|293:69|289:43,1,53.9999969215394,0|2,0:0|0:1,0:0:0:0:
316,17,66607,1,8,0:1:0:0:
477,112,66862,6,0,B|373:106|421:188|312:168,1,161.999990764618,8|0,0:1|0:0,0:0:0:0:
331,264,67370,2,0,P|318:299|285:310,1,53.9999969215394,8|0,0:1|0:0,0:0:0:0:
150,279,67624,2,0,B|141:306|153:343|174:365|203:366|203:366|183:347|182:326,1,161.999990764618,8|0,0:0|0:0,0:0:0:0:
245,240,68133,6,0,P|237:181|98:109,1,215.999994277954,4|0,0:1|0:0,0:0:0:0:
26,77,68642,2,0,P|17:41|8:6,1,71.9999980926514,8|0,0:1|0:0,0:0:0:0:
111,107,68896,2,0,P|104:141|101:178,1,71.9999980926514
202,65,69150,1,10,0:1:0:0:
241,239,69404,2,0,P|276:228|312:223,1,71.9999980926514
405,225,69658,1,8,0:0:0:0:
357,62,69913,6,0,P|369:95|377:130,1,71.9999980926514,8|0,0:1|0:0,0:0:0:0:
475,110,70167,2,0,P|459:40|458:31,1,71.9999980926514,10|0,0:1|0:0,0:0:0:0:
405,225,70421,2,0,P|440:218|475:208,1,71.9999980926514,8|0,0:1|0:0,0:0:0:0:
507,295,70675,1,4,0:3:0:0:
274,382,70930,6,0,P|197:370|198:280,1,143.999996185303,2|0,0:0|0:0,0:0:0:0:
180,314,71311,1,2,0:0:0:0:
180,314,71438,2,0,P|217:325|249:330,1,71.9999980926514
269,239,71692,2,0,P|264:202|253:159,1,71.9999980926514,8|0,0:0|0:0,0:0:0:0:
152,157,71947,1,8,0:1:0:0:
394,90,72201,6,0,P|358:85|322:81,1,71.9999980926514,10|0,0:1|0:0,0:0:0:0:
386,179,72455,2,0,P|421:171|456:166,1,71.9999980926514,8|0,0:1|0:0,0:0:0:0:
419,7,72709,1,0,0:0:0:0:
188,221,72964,6,0,P|115:160|130:94,1,143.999996185303,2|0,0:0|0:0,0:0:0:0:
146,0,73472,1,8,0:1:0:0:
311,69,73726,1,8,0:0:0:0:
188,221,73980,1,0,0:0:0:0:
416,366,74235,6,0,P|461:313|459:243,1,143.999996185303,2|0,0:0|0:0,0:0:0:0:
371,221,74616,2,0,P|325:274|328:344,1,143.999996185303,2|0,0:0|0:0,0:0:0:0:
188,221,74997,2,0,P|121:186|49:177,1,143.999996185303,10|0,0:1|0:0,0:0:0:0:
53,176,75506,2,0,P|135:197|153:32,1,287.999992370606,6|8,0:1|0:1,0:0:0:0:
0,243,76269,6,0,P|8:278|15:316,1,71.9999980926514,8|0,0:1|0:0,0:0:0:0:
172,295,76523,2,0,P|138:282|103:271,1,71.9999980926514,8|0,0:1|0:0,0:0:0:0:
74,372,76777,1,2,0:0:0:0:
224,224,77031,1,0,0:0:0:0:
224,224,77158,1,0,0:0:0:0:
224,224,77286,2,0,P|261:249|265:283,1,71.9999980926514,2|0,0:0|0:0,0:0:0:0:
246,368,77540,2,0,P|314:344|385:330,2,143.999996185303,8|8|8,0:1|0:0|0:1,0:0:0:0:
496,193,78303,6,0,P|487:227|484:263,1,71.9999980926514,2|0,0:1|0:0,0:0:0:0:
385,330,78557,2,0,P|374:295|365:260,1,71.9999980926514
468,362,78811,1,0,0:0:0:0:
410,178,79065,2,0,P|374:172|338:168,1,71.9999980926514,8|0,0:1|0:0,0:0:0:0:
264,213,79319,6,0,P|170:176|179:75,1,215.999994277954
244,136,79828,2,0,P|232:207|223:290,1,143.999996185303,8|0,0:0|0:0,0:0:0:0:
70,383,80336,6,0,P|34:375|0:371,1,71.9999980926514,10|0,0:1|0:0,0:0:0:0:
134,286,80591,2,0,P|141:323|151:357,1,71.9999980926514
43,287,80845,1,0,0:0:0:0:
92,58,81099,6,0,P|138:109|128:178,1,143.999996185303,8|0,0:1|0:0,0:0:0:0:
47,288,81608,1,8,0:1:0:0:
47,288,81735,1,0,0:0:0:0:
47,288,81862,2,0,P|82:284|118:277,1,71.9999980926514,8|0,0:0|0:0,0:0:0:0:
182,384,82116,1,0,0:0:0:0:
390,217,82370,5,2,0:0:0:0:
496,241,82497,1,0,0:0:0:0:
190,8,82752,5,2,0:0:0:0:
135,320,83133,1,2,0:0:0:0:
135,320,83896,6,0,B|178:308|200:272|204:222|154:200|150:156|277:71|348:100|401:144|430:248|296:310|267:226,1,503.99998664856,2|0,0:0|0:0,0:0:0:0:
269,232,84404,2,0,P|315:256|332:306,1,107.999993843079,12|0,0:1|0:0,0:0:0:0:
245,359,84658,2,0,P|198:334|181:284,1,107.999993843079,8|0,0:1|0:0,0:0:0:0:
332,306,84913,6,0,P|411:318|469:193,1,215.999987686158,8|0,0:0|0:0,0:0:0:0:
258,169,85294,2,0,P|299:75|401:77,1,215.999987686158,10|0,0:1|0:0,0:0:0:0:
253,216,85675,2,0,P|223:147|257:90,1,107.999993843079,10|0,0:1|0:0,0:0:0:0:
459,104,85930,2,0,P|433:58|384:40,1,107.999993843079,8|0,0:0|0:0,0:0:0:0:
373,285,86184,2,0,P|431:271|459:225,1,107.999993843079,8|0,0:1|0:0,0:0:0:0:
358,178,86438,5,12,0:3:0:0:
58,298,86692,1,8,0:1:0:0:
428,377,86947,2,0,P|413:326|372:292,1,107.999993843079,8|0,0:0|0:0,0:0:0:0:
245,222,87201,5,2,0:0:0:0:
331,190,87328,2,0,P|213:199|111:214,1,215.999987686158,8|8,0:1|0:0,0:0:0:0:
75,315,87709,2,0,P|29:288|14:238,1,107.999993843079,8|0,0:1|0:0,0:0:0:0:
117,214,87964,2,0,P|133:163|186:143,1,107.999993843079,8|0,0:0|0:0,0:0:0:0:
367,11,88218,6,0,P|381:63|428:93,1,107.999993843079,10|0,0:1|0:0,0:0:0:0:
409,336,88472,2,0,P|404:237|502:220,2,215.999987686158,12|8|8,0:3|0:1|0:0,0:0:0:0:
272,97,89235,1,2,0:0:0:0:
323,192,89362,2,0,P|387:111|343:19,1,215.999987686158,8|0,0:1|0:0,0:0:0:0:
228,9,89743,2,0,P|164:89|208:182,1,215.999987686158,8|8,0:1|0:0,0:0:0:0:
272,97,90252,5,10,0:1:0:0:
76,296,90506,2,0,P|26:259|26:192,1,107.999993843079,4|0,0:3|0:0,0:0:0:0:
205,290,90760,2,0,P|187:340|142:369,1,107.999993843079,8|0,0:1|0:0,0:0:0:0:
11,106,91014,6,0,P|111:107|136:204,1,215.999987686158,8|2,0:0|0:0,0:0:0:0:
135,204,91396,2,0,P|173:195|251:186,1,107.999993843079,2|8,0:0|0:1,0:0:0:0:
484,75,91650,1,8,0:0:0:0:
407,19,91777,2,0,P|355:32|333:86,1,107.999993843079,8|0,0:1|0:0,0:0:0:0:
257,272,92031,5,8,0:0:0:0:
364,289,92158,1,0,0:0:0:0:
293,368,92286,1,8,0:0:0:0:
257,272,92413,1,8,0:0:0:0:
364,289,92540,6,0,P|396:224|339:140,1,107.999993843079,12|0,0:1|0:0,0:0:0:0:
287,168,92794,2,0,P|254:215|256:267,1,107.999993843079,8|0,0:1|0:0,0:0:0:0:
442,194,93048,6,0,P|363:120|226:160,1,215.999987686158,8|0,0:0|0:1,0:0:0:0:
398,326,93430,2,0,P|293:334|218:261,1,215.999987686158,10|0,0:1|0:0,0:0:0:0:
131,92,93811,2,0,P|101:43|55:32,1,107.999993843079,8|0,0:1|0:0,0:0:0:0:
218,261,94066,2,0,P|271:224|273:182,1,107.999993843079,8|0,0:0|0:0,0:0:0:0:
30,253,94320,2,0,P|14:302|42:348,1,107.999993843079,8|0,0:1|0:0,0:0:0:0:
180,174,94574,5,12,0:3:0:0:
256,373,94828,1,8,0:1:0:0:
144,79,95082,2,0,P|106:41|54:39,1,107.999993843079,8|0,0:0|0:0,0:0:0:0:
250,101,95336,1,2,0:0:0:0:
188,165,95464,2,0,P|165:253|142:387,1,215.999987686158,8|2,0:1|0:0,0:0:0:0:
21,264,95845,2,0,P|15:331|49:368,1,107.999993843079,8|0,0:1|0:0,0:0:0:0:
355,340,96099,2,0,P|303:323|251:309,1,107.999993843079,8|0,0:0|0:0,0:0:0:0:
251,309,96353,1,8,0:1:0:0:
70,148,96608,6,0,B|62:96|155:114|178:61|156:-31|94:-35|-12:-33|4:73|44:109|92:121|108:104,1,323.999981529237,12|0,0:1|0:0,0:0:0:0:
201,202,97116,2,0,P|247:230|289:265,1,107.999993843079,8|0,0:0|0:0,0:0:0:0:
444,114,97370,1,8,0:1:0:0:
394,174,97497,2,0,P|418:279|481:371,1,215.999987686158,4|2,0:3|0:0,0:0:0:0:
288,264,97879,2,0,P|220:291|172:344,1,107.999993843079,8|0,0:1|0:0,0:0:0:0:
477,367,98133,1,8,0:0:0:0:
306,174,98387,6,0,B|255:148|204:89|221:46|242:-20|293:7|365:19|321:84|253:105|272:144|307:173,1,359.999990463257,4|8,0:0|0:1,0:0:0:0:
189,318,99150,2,0,P|199:233|202:320,1,179.999995231629,8|2,0:0|0:0,0:0:0:0:
338,309,99531,2,0,P|310:350|267:359,1,89.9999976158143,8|0,0:1|0:0,0:0:0:0:
20,222,99786,1,8,0:0:0:0:
50,186,99913,2,0,P|98:181|143:205,1,89.9999976158143,8|0,0:1|0:0,0:0:0:0:
247,264,100167,6,0,B|254:285|228:325|184:321|146:283|129:235|155:180|192:121|242:118,1,269.999992847443,8|0,0:0|0:0,0:0:0:0:
335,14,100675,2,0,P|358:47|376:102,1,89.9999976158143,4|0,0:1|0:0,0:0:0:0:
380,206,100930,2,0,P|414:200|438:173,1,71.9999980926514,8|8,0:1|0:0,0:0:0:0:
374,93,101184,1,8,0:1:0:0:
367,114,101311,1,8,3:0:0:0:
439,173,101438,6,0,P|312:127|178:107,1,269.999992847443,12|8,0:1|0:0,0:0:0:0:
117,221,101947,2,0,P|73:197|62:169,1,71.9999980926514,8|8,0:1|0:1,0:0:0:0:
130,24,102201,1,8,0:3:0:0:
103,15,102328,1,8,0:1:0:0:
71,29,102455,1,4,0:3:0:0:
65,62,102582,1,4,0:3:0:0:
79,87,102709,6,0,P|149:72|167:1,1,143.999996185303,4|8,0:1|0:1,0:0:0:0:
5,58,103091,2,0,B|-12:87|-6:120|-6:120|5:109|9:83,1,71.9999980926514,10|0,0:0|0:0,0:0:0:0:
68,184,103472,2,0,P|71:202|87:258,1,71.9999980926514,8|8,0:1|0:1,0:0:0:0:
82,170,104235,1,8,0:0:0:0:
63,350,104489,5,0,0:0:0:0:
63,350,104616,1,0,0:0:0:0:
63,350,104743,2,0,B|96:325|141:317|141:317|169:331,1,107.999993843079,8|8,0:1|0:1,0:0:0:0:
244,365,105125,1,8,0:0:0:0:
256,377,105252,2,0,P|290:370|322:363,1,53.9999969215394,8|0,0:1|0:0,0:0:0:0:
398,233,105506,6,0,P|449:226|487:262,1,107.999993843079,10|0,0:1|0:0,0:0:0:0:
360,311,105887,1,0,0:0:0:0:
322,287,106014,2,0,P|313:251|300:213,1,53.9999969215394,8|0,0:1|0:0,0:0:0:0:
243,357,106269,1,8,0:0:0:0:
216,193,106523,6,0,P|221:161|231:136,1,53.9999969215394
305,100,106777,2,0,B|288:38|224:27|224:27|228:46|256:46,1,143.999996185303,8|8,0:1|0:1,0:1:0:0:
368,24,107158,2,0,P|404:31|447:44,1,71.9999980926514,8|0,0:0|0:0,0:0:0:0:
512,13,107540,2,0,P|488:26|456:98,1,107.999993843079,10|0,0:1|0:0,0:0:0:0:
380,121,107921,1,0,0:0:0:0:
357,138,108048,2,0,P|326:133|281:125,1,53.9999969215394
283,140,108303,1,8,0:0:0:0:
26,65,108557,6,0,P|25:98|45:114,1,53.9999969215394
137,126,108811,2,0,P|137:176|89:190,1,107.999993843079,8|8,0:1|0:1,0:0:0:0:
15,229,109192,1,8,0:0:0:0:
0,264,109319,2,0,P|24:318|35:325,1,53.9999969215394,8|0,0:1|0:0,0:0:0:0:
120,384,109574,6,0,B|132:363|150:353|150:353|235:365,1,107.999993843079,10|8,0:1|0:1,0:0:0:0:
296,333,109955,2,0,P|330:307|337:288,1,53.9999969215394,0|2,0:0|0:1,0:0:0:0:
378,239,110209,1,0,0:0:0:0:
394,182,110336,1,8,0:0:0:0:
370,135,110464,1,8,0:1:0:0:
337,114,110591,1,8,0:3:0:0:
306,117,110718,1,4,0:3:0:0:
296,137,110845,6,0,B|370:160|350:81|437:91,1,143.999996185303,4|0,0:1|0:0,0:0:0:0:
496,140,111226,2,0,B|467:130|429:111,1,71.9999980926514,8|0,0:0|0:0,0:0:0:0:
371,0,111608,2,0,P|329:31|332:82,1,107.999993843079,8|2,0:3|0:0,0:0:0:0:
288,169,111989,1,0,0:0:0:0:
275,197,112116,2,0,P|283:227|289:253,1,53.9999969215394,8|0,0:1|0:0,0:0:0:0:
287,270,112370,1,8,0:0:0:0:
508,354,112625,5,8,0:1:0:0:
472,340,112752,1,8,0:0:0:0:
447,365,112879,2,0,P|402:363|375:353,1,53.9999969215394,8|0,0:1|0:0,0:0:0:0:
223,358,113133,1,8,0:2:0:0:
262,286,113260,2,0,P|288:293|314:302,1,53.9999969215394,8|2,0:1|0:0,0:0:0:0:
236,198,113642,6,0,P|168:188|119:189,1,107.999993843079,10|0,0:1|0:0,0:0:0:0:
86,114,114023,1,0,0:0:0:0:
51,126,114150,2,0,P|9:82|3:22,1,107.999993843079,8|8,0:1|0:0,0:0:0:0:
125,199,114658,6,0,P|115:241|111:271,1,53.9999969215394,8|0,0:1|0:0,0:0:0:0:
0,348,114913,2,0,P|42:356|108:374,1,107.999993843079,10|0,0:1|0:0,0:0:0:0:
176,336,115294,1,8,0:0:0:0:
209,353,115421,2,0,P|248:341|264:317,1,53.9999969215394,8|0,0:1|0:0,0:0:0:0:
416,249,115675,6,0,P|405:196|388:144,1,107.999993843079,8|0,0:1|0:0,0:0:0:0:
375,60,116057,1,0,0:0:0:0:
350,34,116184,1,8,0:1:0:0:
471,107,116438,1,8,0:0:0:0:
309,194,116692,6,0,P|276:184|215:172,1,53.9999969215394,8|8,0:1|0:0,0:0:0:0:
187,227,116947,2,0,P|132:208|38:184,1,107.999993843079,10|8,0:1|0:1,0:0:0:0:
27,129,117328,1,8,0:0:0:0:
9,91,117455,1,8,0:1:0:0:
307,3,117709,6,0,P|299:45|280:162,1,161.999990764618,4|8,0:0|0:1,0:0:0:0:
208,204,118218,2,0,P|214:228|220:256,1,53.9999969215394,8|8,0:1|0:1,0:0:0:0:
358,384,118472,1,8,0:0:0:0:
383,303,118599,1,8,0:0:0:0:
317,256,118726,1,8,0:3:0:0:
256,285,118853,1,4,0:3:0:0:
244,350,118980,6,0,P|121:344|97:247,1,215.999994277954,4|0,0:1|0:0,0:0:0:0:
196,113,119489,2,0,P|220:78|207:28,1,71.9999980926514,8|0,0:0|0:0,0:0:0:0:
119,0,119743,2,0,P|96:40|102:72,1,71.9999980926514
145,202,119997,2,0,P|177:209|220:220,1,71.9999980926514,10|0,0:1|0:0,0:0:0:0:
399,121,120252,2,0,P|360:124|320:127,1,71.9999980926514,8|0,0:1|0:0,0:0:0:0:
216,219,120506,6,0,P|224:298|366:285,1,215.999994277954,8|0,0:0|0:0,0:0:0:0:
438,322,121014,2,0,P|468:341|485:373,1,71.9999980926514,10|0,0:1|0:0,0:0:0:0:
404,230,121269,1,8,0:1:0:0:
404,230,121396,1,8,0:0:0:0:
404,230,121523,2,0,P|412:178|425:129,1,71.9999980926514,8|0,0:1|0:0,0:0:0:0:
488,64,121777,6,0,P|464:36|427:29,1,71.9999980926514,2|0,0:0|0:0,0:0:0:0:
334,81,122031,1,8,0:1:0:0:
304,71,122158,1,8,0:0:0:0:
283,41,122286,1,8,0:1:0:0:
294,187,122540,2,0,P|275:217|243:232,1,71.9999980926514,8|0,0:0|0:0,0:0:0:0:
158,224,122794,1,10,0:1:0:0:
0,341,123048,6,0,P|70:330|142:326,1,143.999996185303,12|8,0:3|0:1,0:0:0:0:
291,303,123430,1,2,0:1:0:0:
306,321,123557,2,0,P|302:356|280:383,1,71.9999980926514,8|0,0:0|0:0,0:0:0:0:
163,182,123811,2,0,B|138:93|212:25|318:40|318:40|304:99,1,287.999992370606,2|8,0:0|0:1,0:0:0:0:
310,72,124574,6,0,P|284:47|270:11,1,71.9999980926514,8|0,0:0|0:0,0:0:0:0:
425,56,124828,1,8,0:1:0:0:
463,75,124955,1,0,0:0:0:0:
474,122,125082,2,0,P|444:155|418:147,1,71.9999980926514,4|0,0:1|0:0,0:0:0:0:
353,209,125336,5,8,0:0:0:0:
383,247,125464,1,8,0:0:0:0:
388,289,125591,1,8,0:1:0:0:
373,333,125718,1,8,0:1:0:0:
340,358,125845,2,0,P|278:323|275:303,1,71.9999980926514,4|4,0:3|0:3,0:0:0:0:
181,320,126099,2,0,P|182:295|224:268,1,71.9999980926514,8|0,0:0|0:0,0:0:0:0:
276,103,126353,6,0,B|315:136|365:139|435:66|401:-14|323:34|363:46,1,215.999994277954,6|0,0:1|0:0,0:0:0:0:
154,182,126862,1,8,0:0:0:0:
126,215,126989,1,8,0:0:0:0:
80,222,127116,2,0,P|37:142|157:61,1,215.999994277954,4|0,0:0|0:0,0:0:0:0:
187,92,127625,5,8,0:0:0:0:
32,0,127879,1,0,0:0:0:0:
187,92,128133,2,0,P|222:88|255:73,1,71.9999980926514,8|0,0:0|0:0,0:0:0:0:
408,35,128387,2,0,P|372:21|338:19,1,71.9999980926514,8|0,0:1|0:0,0:0:0:0:
311,143,128642,2,0,P|334:209|396:241,1,143.999996185303,8|8,0:0|0:1,0:0:0:0:
495,384,129023,5,0,0:0:0:0:
512,364,129150,2,0,P|464:334|285:349,1,215.999994277954,10|0,0:0|0:0,0:0:0:0:
241,384,129658,2,0,P|187:372|160:328,1,71.9999980926514,8|0,0:0|0:0,0:0:0:0:
36,258,129913,2,0,P|92:285|98:348,1,71.9999980926514,8|0,0:1|0:0,0:0:0:0:
244,372,130167,5,8,0:0:0:0:
32,268,130421,1,8,0:1:0:0:
281,185,130675,1,8,0:0:0:0:
139,30,130930,1,8,0:1:0:0:
182,31,131057,1,0,0:0:0:0:
224,45,131184,6,0,P|241:77|244:112,1,71.9999980926514,4|0,0:0|0:0,0:0:0:0:
390,46,131438,2,0,P|362:68|340:97,1,71.9999980926514,8|0,0:1|0:0,0:0:0:0:
182,31,131692,6,0,P|206:56|219:90,1,71.9999980926514,4|0,0:3|0:0,0:0:0:0:
384,74,131947,2,0,P|359:98|343:130,1,71.9999980926514,8|0,0:1|0:0,0:0:0:0:
139,30,132201,6,0,P|170:48|191:78,1,71.9999980926514,4|0,0:3|0:0,0:0:0:0:
396,97,132455,2,0,P|364:134|359:166,1,71.9999980926514,8|0,0:1|0:0,0:0:0:0:
179,340,132709,6,0,P|125:338|73:214,1,143.999996185303,4|8,0:3|0:1,0:0:0:0:
511,215,133218,2,0,P|479:279|465:349,1,143.999996185303,12|8,0:3|0:1,0:0:0:0:
352,340,133599,5,12,0:3:0:0:
279,384,133726,1,8,0:1:0:0:
198,340,133853,1,0,0:0:0:0:
208,247,133980,2,0,P|193:177|161:113,1,143.999996185303,10|6,0:1|0:1,0:0:0:0:
269,3,134362,5,0,0:0:0:0:
366,18,134489,1,8,0:3:0:0:
330,108,134616,1,8,0:3:0:0:
352,25,134743,5,12,0:3:0:0:
420,88,134870,1,12,0:3:0:0:
394,186,134997,1,8,0:3:0:0:
511,214,135125,5,8,0:3:0:0:
292,254,135252,2,0,P|261:325|297:387,1,107.999993843079,12|0,0:1|0:0,0:0:0:0:
479,377,135506,2,0,P|442:313|390:302,1,107.999993843079,8|0,0:1|0:0,0:0:0:0:
267,351,135760,6,0,P|113:311|116:184,1,215.999987686158,8|0,0:0|0:0,0:0:0:0:
512,362,136142,2,0,P|451:272|333:299,1,215.999987686158,10|0,0:1|0:0,0:0:0:0:
109,348,136523,2,0,P|57:282|66:232,1,107.999993843079,10|0,0:1|0:0,0:0:0:0:
192,118,136777,2,0,P|180:66|139:32,1,107.999993843079,8|0,0:0|0:0,0:0:0:0:
56,262,137031,2,0,P|109:243|134:198,1,107.999993843079,8|0,0:1|0:0,0:0:0:0:
139,32,137286,5,12,0:3:0:0:
306,270,137540,1,8,0:1:0:0:
6,345,137794,2,0,P|48:264|101:266,1,107.999993843079,8|0,0:0|0:0,0:0:0:0:
306,270,138048,1,2,0:0:0:0:
383,384,138175,2,0,P|494:303|479:219,1,215.999987686158,8|8,0:1|0:0,0:0:0:0:
304,140,138557,2,0,P|266:101|255:43,1,107.999993843079,8|0,0:1|0:0,0:0:0:0:
488,237,138811,2,0,P|443:276|396:286,1,107.999993843079,8|0,0:0|0:0,0:0:0:0:
32,206,139065,5,10,0:1:0:0:
114,154,139192,1,0,0:0:0:0:
184,218,139319,2,0,P|242:180|232:47,2,215.999987686158,12|8|8,0:3|0:1|0:0,0:0:0:0:
388,262,140082,5,2,0:0:0:0:
497,256,140209,2,0,P|440:169|337:169,1,215.999987686158,8|0,0:1|0:0,0:0:0:0:
438,359,140591,2,0,P|335:359|277:273,1,215.999987686158,8|8,0:1|0:0,0:0:0:0:
227,4,141099,5,10,0:1:0:0:
178,79,141226,1,8,0:0:0:0:
315,20,141353,2,0,P|356:54|360:116,1,107.999993843079,4|0,0:3|0:0,0:0:0:0:
226,164,141608,2,0,P|184:129|181:68,1,107.999993843079,8|0,0:1|0:0,0:0:0:0:
472,141,141862,6,0,P|422:285|298:260,1,215.999987686158,8|2,0:0|0:0,0:0:0:0:
377,295,142243,2,0,P|427:305|444:353,1,107.999993843079,2|8,0:0|0:1,0:0:0:0:
232,322,142497,1,8,0:0:0:0:
320,350,142625,2,0,P|262:359|211:378,1,107.999993843079,8|0,0:1|0:0,0:0:0:0:
89,164,142879,6,0,P|142:156|195:143,1,107.999993843079,8|0,0:0|0:0,0:0:0:0:
315,10,143133,1,8,0:0:0:0:
417,92,143260,1,8,0:0:0:0:
196,144,143387,6,0,P|185:200|211:252,1,107.999993843079,12|0,0:1|0:0,0:0:0:0:
490,155,143642,2,0,P|462:103|383:107,1,107.999993843079,8|0,0:1|0:0,0:0:0:0:
204,245,143896,6,0,P|108:241|73:132,1,215.999987686158,8|0,0:0|0:0,0:0:0:0:
420,317,144277,2,0,P|401:217|280:202,1,215.999987686158,10|0,0:1|0:0,0:0:0:0:
118,216,144658,2,0,P|86:173|94:121,1,107.999993843079,8|0,0:1|0:0,0:0:0:0:
273,285,144913,2,0,P|306:244|301:192,1,107.999993843079,8|0,0:0|0:0,0:0:0:0:
20,316,145167,2,0,P|46:362|96:381,1,107.999993843079,8|0,0:1|0:0,0:0:0:0:
398,215,145421,6,0,P|348:185|290:197,1,107.999993843079,12|0,0:3|0:0,0:0:0:0:
448,379,145675,2,0,P|502:318|496:222,1,107.999993843079,8|0,0:1|0:0,0:0:0:0:
185,294,145930,2,0,P|145:237|189:135,1,107.999993843079,8|0,0:0|0:0,0:0:0:0:
409,246,146184,1,2,0:0:0:0:
484,174,146311,2,0,P|485:70|396:18,1,215.999987686158,8|2,0:1|0:0,0:0:0:0:
355,101,146692,2,0,P|302:109|249:119,1,107.999993843079,8|0,0:1|0:0,0:0:0:0:
0,12,146947,2,0,P|14:62|61:84,1,107.999993843079,8|0,0:0|0:0,0:0:0:0:
178,23,147201,1,8,0:1:0:0:
29,349,147455,6,0,B|65:354|70:377|70:377|43:367|17:291|48:240|100:206|179:212|190:283|141:305|118:309|102:259|130:267,1,323.999981529237,12|0,0:1|0:0,0:0:0:0:
221,367,147964,2,0,P|280:315|271:259,1,107.999993843079,8|0,0:0|0:0,0:0:0:0:
465,140,148218,1,8,0:1:0:0:
404,58,148345,2,0,P|334:67|304:194,1,215.999987686158,4|2,0:3|0:0,0:0:0:0:
281,290,148726,2,0,P|230:271|177:258,1,107.999993843079,8|0,0:1|0:0,0:0:0:0:
0,69,148980,2,0,P|47:28|100:32,1,107.999993843079,8|0,0:0|0:0,0:0:0:0:
380,145,149235,1,2,0:0:0:0:
414,227,149489,6,0,P|442:248|476:259,2,71.9999980926514,12|0|8,0:1|0:0|0:1,0:0:0:0:
322,262,150252,2,0,P|277:228|190:225,1,143.999996185303,2|2,0:0|0:0,0:0:0:0:
112,169,151014,2,0,P|79:191|81:235,1,71.9999980926514,8|2,0:1|0:0,0:0:0:0:
10,315,151523,2,0,B|92:301|55:368|144:354,1,143.999996185303,8|8,0:1|0:1,0:0:0:0:
254,297,152286,2,0,P|247:261|241:214,1,71.9999980926514,2|8,0:0|0:1,0:0:0:0:
353,224,152794,2,0,P|360:189|372:155,1,71.9999980926514,2|8,0:0|0:1,0:0:0:0:
500,33,153303,5,0,0:0:0:0:
488,55,153430,1,0,0:0:0:0:
449,31,153557,2,0,P|424:57|426:98,1,71.9999980926514,4|0,0:1|0:0,0:0:0:0:
506,148,154065,1,8,0:1:0:0:
433,215,154319,2,0,P|442:242|456:316,2,71.9999980926514,0|8|2,0:0|0:1|0:0,0:0:0:0:
315,133,155082,6,0,P|247:138|189:148,1,107.999997138977,8|0,0:1|0:0,0:0:0:0:
186,119,155591,2,0,P|125:149|137:215,1,143.999996185303,8|8,0:1|0:1,0:0:0:0:
251,242,156353,1,2,0:0:0:0:
158,322,156608,6,0,L|196:316,1,35.9999990463257,8|0,0:3|0:0,0:0:0:0:
251,242,156862,5,8,0:3:0:0:
251,242,156989,1,0,0:0:0:0:
251,242,157116,2,0,L|292:253,1,35.9999990463257,8|0,0:3|0:0,0:0:0:0:
334,350,157370,6,0,L|291:355,1,35.9999990463257,12|0,0:3|0:0,0:0:0:0:
194,317,157625,6,0,P|179:347|168:387,2,71.9999980926514,12|0|8,0:1|0:0|0:1,0:0:0:0:
247,230,158387,2,0,P|213:193|179:185,1,71.9999980926514,2|8,0:0|0:1,0:0:0:0:
194,187,158896,1,2,0:0:0:0:
116,162,159150,2,0,P|107:127|85:72,1,71.9999980926514,8|2,0:1|0:0,0:0:0:0:
178,12,159658,2,0,B|220:4|240:37|240:37|230:71|210:122,1,143.999996185303,8|8,0:1|0:1,0:0:0:0:
216,105,160421,2,0,P|286:114|316:122,1,71.9999980926514,2|8,0:0|0:1,0:0:0:0:
174,191,160930,2,0,P|136:179|121:146,1,71.9999980926514,2|8,0:0|0:1,0:0:0:0:
19,97,161438,5,0,0:0:0:0:
6,74,161565,1,0,0:0:0:0:
36,31,161692,2,0,P|87:19|127:13,2,71.9999980926514,12|0|8,0:1|0:0|0:1,0:0:0:0:
141,104,162455,2,0,P|170:126|207:132,1,71.9999980926514,2|8,0:0|0:1,0:0:0:0:
204,132,162964,1,2,0:0:0:0:
258,218,163218,2,0,P|306:169|290:101,1,143.999996185303,8|8,0:1|0:1,0:0:0:0:
331,20,163980,5,8,0:3:0:0:
307,6,164108,5,8,0:3:0:0:
281,26,164235,5,4,0:3:0:0:
210,33,164362,5,4,0:3:0:0:
137,35,164489,5,8,0:3:0:0:
317,157,164743,6,0,L|305:120,1,35.9999990463257,8|0,0:1|0:0,0:0:0:0:
208,260,164997,6,0,L|216:221,1,35.9999990463257,8|0,0:3|0:0,0:0:0:0:
293,384,165252,6,0,L|289:343,1,35.9999990463257,12|0,0:3|0:0,0:0:0:0:
388,255,165506,5,2,0:0:0:0:
320,184,165760,2,0,B|296:192|288:230|288:230|296:155|267:119|202:105|169:113|169:113|206:115|207:151,1,287.999992370606,12|8,0:1|0:1,0:0:0:0:
5,225,166523,2,0,P|73:202|144:189,1,143.999996185303,0|8,0:0|0:1,0:0:0:0:
209,300,167031,1,2,0:0:0:0:
346,242,167286,2,0,P|267:260|199:283,1,143.999996185303,8|0,0:1|0:0,0:0:0:0:
60,148,167794,6,0,B|36:105|67:34|139:12|197:30|197:30|159:61|168:105,1,287.999992370606,10|8,0:1|0:1,0:0:0:0:
251,105,168557,2,0,P|255:174|317:204,1,143.999996185303,2|8,0:1|0:1,0:1:0:0:
512,171,169065,2,0,P|467:161|352:143,1,143.999996185303,2|8,0:1|0:1,0:1:0:0:
370,145,169574,1,8,0:3:0:0:
426,276,169828,6,0,B|351:297|329:377|329:377|339:294|283:237,1,287.999992370606,12|8,0:1|0:1,0:0:0:0:
415,372,170591,2,0,P|381:358|255:325,1,143.999996185303,0|8,0:0|0:1,0:0:0:0:
179,327,171099,1,2,0:0:0:0:
286,127,171353,2,0,P|329:127|368:222,1,143.999996185303,8|8,0:1|0:3,0:0:0:0:
275,368,171862,1,10,0:1:0:0:
181,328,172116,5,0,0:0:0:0:
192,322,172243,1,0,0:0:0:0:
204,316,172370,1,8,0:1:0:0:
316,250,172625,2,0,L|237:230,1,71.9999980926514,8|0,0:1|0:0,0:0:0:0:
223,212,172879,1,2,0:1:0:0:
70,375,173133,6,0,P|75:347|85:294,1,71.9999980926514,2|0,0:1|0:0,0:0:0:0:
94,156,173387,2,0,P|47:214|76:145,1,215.999994277954,8|0,0:0|0:0,0:0:0:0:
68,177,173896,6,0,B|71:153|21:164|22:191|48:235|114:240|147:125|107:61|107:61|118:86|161:92,1,287.999992370606,12|8,0:1|0:1,0:0:0:0:
349,36,174658,2,0,P|241:20|178:14,1,143.999996185303,0|8,0:0|0:1,0:0:0:0:
359,22,175167,1,2,0:0:0:0:
201,132,175421,2,0,P|272:132|344:142,1,143.999996185303,8|0,0:1|0:1,0:0:0:0:
511,153,175930,6,0,B|429:120|366:135|373:212|354:246|225:209,1,287.999992370606,10|8,0:1|0:1,0:0:0:0:
88,195,176692,2,0,P|144:218|165:295,1,143.999996185303,0|8,0:0|0:1,0:0:0:0:
378,384,177201,2,0,P|450:343|433:270,1,143.999996185303,2|8,0:0|0:0,0:0:0:0:
380,198,177709,1,0,0:0:0:0:
165,293,177964,6,0,B|125:285|76:261|60:169|111:116|111:116|91:174|113:210,1,287.999992370606,12|8,0:1|0:1,0:0:0:0:
70,383,178726,2,0,P|126:353|347:309,1,287.999992370606,2|2,0:0|0:0,0:0:0:0:
394,162,179489,1,8,0:1:0:0:
344,308,179743,6,0,L|331:229,1,71.9999980926514,2|0,0:1|0:0,0:0:0:0:
394,162,179997,2,0,B|407:197|439:200|439:200|449:137|492:55|492:55|470:89|410:100,1,287.999992370606,8|8,0:1|0:1,0:0:0:0:
324,0,180760,5,8,0:3:0:0:
365,1,180887,1,8,0:3:0:0:
408,20,181014,1,12,0:3:0:0:
292,118,181269,6,0,P|275:147|268:185,1,71.9999980926514,2|0,0:0|0:0,0:0:0:0:
154,116,181523,1,4,0:3:0:0:
117,88,181650,1,4,0:3:0:0:
110,44,181777,1,8,0:0:0:0:
269,186,182031,6,0,P|248:222|146:224,1,143.999996185303,12|0,0:1|0:0,0:0:0:0:
15,307,182540,2,0,P|32:301|104:299,1,71.9999980926514,8|0,0:1|0:0,0:0:0:0:
108,317,182794,1,2,0:0:0:0:
231,384,183048,6,0,P|280:373|316:280,1,143.999996185303,8|0,0:1|0:1,0:0:0:0:
212,188,183557,1,10,0:1:0:0:
352,154,183811,6,0,P|316:148|281:141,2,71.9999980926514,8|0|8,0:0|0:0|0:1,0:0:0:0:
217,206,184319,1,2,0:0:0:0:
343,12,184574,2,0,P|401:33|424:121,1,143.999996185303,8|2,0:1|0:0,0:0:0:0:
456,251,185082,6,0,P|460:233|476:168,1,71.9999980926514,8|0,0:1|0:0,0:0:0:0:
490,156,185336,1,2,0:0:0:0:
318,200,185591,1,8,0:1:0:0:
318,200,185845,1,8,0:0:0:0:
501,360,186099,6,0,P|418:339|345:330,1,143.999996185303,12|0,0:1|0:0,0:0:0:0:
163,310,186608,2,0,P|216:355|220:373,1,71.9999980926514,8|0,0:1|0:0,0:0:0:0:
202,375,186862,1,2,0:0:0:0:
53,280,187116,1,8,0:1:0:0:
66,250,187243,1,0,0:0:0:0:
78,221,187370,1,0,0:0:0:0:
264,217,187625,6,0,P|258:199|242:145,1,71.9999980926514,10|0,0:1|0:0,0:0:0:0:
259,126,187879,1,8,0:0:0:0:
138,2,188133,1,8,0:1:0:0:
17,65,188387,1,2,0:0:0:0:
341,44,188642,6,0,P|331:100|315:197,1,143.999996185303,8|2,0:1|0:0,0:0:0:0:
389,353,189150,2,0,P|438:334|443:305,1,71.9999980926514,8|0,0:1|0:0,0:0:0:0:
441,296,189404,1,8,0:0:0:0:
193,249,189658,6,0,P|163:226|165:188,1,71.9999980926514,8|8,0:0|0:3,0:0:0:0:
301,301,189913,2,0,P|301:336|277:361,1,71.9999980926514,4|0,0:3|0:0,0:0:0:0:
10,369,190167,6,0,P|46:346|150:325,1,143.999996185303,12|0,0:1|0:0,0:0:0:0:
143,324,190675,1,8,0:1:0:0:
20,138,190930,6,0,P|123:109|185:269,1,287.999992370606,2|2,0:0|0:0,0:0:0:0:
195,247,191692,1,8,0:1:0:0:
386,202,191947,2,0,P|343:166|327:164,1,71.9999980926514,8|0,0:0|0:0,0:0:0:0:
307,181,192201,1,8,0:1:0:0:
370,357,192455,6,0,B|321:303|389:226|470:241|470:241|462:282|417:308,1,287.999992370606,2|2,0:0|0:0,0:0:0:0:
225,93,193218,2,0,P|238:160|303:181,1,143.999996185303,8|0,0:1|0:1,0:0:0:0:
491,59,193726,6,0,P|459:14|441:11,1,71.9999980926514,2|8,0:1|0:1,0:0:0:0:
337,2,193980,1,8,0:0:0:0:
305,66,194108,1,8,0:0:0:0:
400,91,194235,6,0,P|270:95|102:129,1,287.999992370606,12|8,0:1|0:1,0:0:0:0:
70,12,194997,2,0,P|135:14|156:97,1,143.999996185303,2|8,0:0|0:1,0:0:0:0:
214,244,195506,2,0,L|239:154,1,71.9999980926514,8|0,0:1|0:0,0:0:0:0:
23,135,195760,2,0,L|44:203,1,71.9999980926514,8|0,0:0|0:0,0:0:0:0:
234,175,196014,6,0,P|82:144|44:368,1,431.999988555908,4|0,0:1|0:0,0:0:0:0:
136,380,197031,1,8,0:3:0:0:
166,368,197158,1,8,0:3:0:0:
201,358,197286,1,8,0:0:0:0:
263,283,197540,6,0,L|304:289,1,35.9999990463257
391,371,197794,5,8,0:0:0:0:
358,333,197921,1,8,0:3:0:0:
379,288,198048,1,4,0:3:0:0:
431,296,198175,1,0,0:3:0:0:
434,345,198303,6,0,B|393:342|358:295|366:254|366:254|369:283|386:297,1,161.999990764618,4|0,0:0|0:0,0:0:0:0:
438,215,198811,2,0,P|448:167|492:57,2,161.999990764618,2|2|0,0:0|0:0|0:0,0:0:0:0:
509,261,199828,1,2,0:0:0:0:
296,185,200082,1,0,0:0:0:0:
309,180,200336,6,0,P|293:227|276:297,2,107.999993843079,2|0|2,0:0|0:0|0:0,0:0:0:0:
231,80,201099,5,2,0:0:0:0:
221,90,201226,2,0,P|165:81|104:74,1,107.999993843079,0|2,0:0|0:0,0:0:0:0:
90,102,201608,2,0,P|41:49|62:14,1,107.999993843079,0|2,0:0|0:0,0:0:0:0:
55,195,202116,6,0,P|49:230|44:267,1,53.9999969215394
96,315,202370,2,0,B|110:352|159:338|159:338|174:264|240:277,1,161.999990764618,10|0,0:0|0:0,0:0:0:0:
350,369,202879,2,0,P|279:354|243:351,1,107.999993843079,2|0,0:0|0:0,0:0:0:0:
210,275,203260,2,0,P|224:219|243:154,1,107.999993843079,2|2,0:0|0:0,0:0:0:0:
177,67,203642,1,0,0:0:0:0:
426,19,203896,6,0,B|387:28|384:37|384:37|406:66|412:95,1,107.999993843079,2|0,0:0|0:0,0:0:0:0:
382,172,204277,1,0,0:0:0:0:
390,178,204404,2,0,B|385:194|385:194|441:163|496:145,2,107.999993843079,10|0|2,0:0|0:0|0:0,0:0:0:0:
317,255,205230,6,0,L|317:297,2,26.9999984607697
248,205,205548,5,2,0:0:0:0:
237,189,205675,1,0,0:0:0:0:
153,242,205930,6,0,B|140:279|103:298|47:299|-6:218|57:148|112:173|112:173|74:184|71:235,1,314.99999165535,2|0,0:0|0:0,0:0:0:0:
166,239,206438,2,0,P|262:252|381:279,1,215.999987686158,12|2,0:3|0:0,0:0:0:0:
486,167,207328,2,0,P|477:101|386:108,1,161.999990764618,2|0,0:0|0:0,0:0:0:0:
308,49,207964,2,0,P|223:30|193:25,1,107.999993843079,2|0,0:0|0:0,0:0:0:0:
91,217,208472,5,2,0:0:0:0:
192,347,208726,1,0,0:0:0:0:
465,248,208980,1,2,0:0:0:0:
377,355,209235,5,2,0:0:0:0:
344,281,209362,1,0,0:0:0:0:
119,244,209616,1,2,0:0:0:0:
146,167,209743,1,0,0:0:0:0:
302,23,209997,6,0,P|227:26|229:237,1,314.99999165535,6|0,0:0|0:0,0:0:0:0:
214,215,210506,2,0,P|275:229|274:324,1,161.999990764618,12|0,0:3|0:0,0:0:0:0:
375,330,211014,2,0,P|429:338|479:359,1,107.999993843079,2|0,0:0|0:0,0:0:0:0:
129,282,211396,2,0,P|76:291|26:313,1,107.999993843079,2|0,0:0|0:0,0:0:0:0:
307,66,211777,1,2,0:0:0:0:
228,374,212031,1,2,0:0:0:0:
124,94,212286,6,0,P|115:67|114:47,1,35.9999990463257,2|0,0:0|0:0,0:0:0:0:
372,161,212540,2,0,P|382:136|384:108,1,53.9999969215394,4|0,0:3|0:0,0:0:0:0:
33,267,212794,2,0,P|5:232|0:188,1,89.9999976158143,4|0,0:3|0:0,0:0:0:0:
476,380,213048,2,0,P|507:320|506:275,1,107.999993843079,8|0,0:0|0:0,0:0:0:0:
466,208,213303,5,8,0:2:0:0:
265,266,213430,1,10,0:2:0:0:
265,266,214065,6,0,B|326:238|378:306|378:306|357:230|402:154|399:95|442:67|584:129|530:197|485:223|461:206,1,503.99998664856,2|0,0:0|0:0,0:0:0:0:
466,208,214574,2,0,P|419:184|403:134,1,107.999993843079,12|0,0:1|0:0,0:0:0:0:
487,0,214828,2,0,P|516:44|510:96,1,107.999993843079,8|0,0:1|0:0,0:0:0:0:
265,266,215082,6,0,P|220:172|117:156,1,215.999987686158,8|0,0:0|0:0,0:0:0:0:
150,384,215464,2,0,P|228:316|217:213,1,215.999987686158,10|0,0:1|0:0,0:0:0:0:
32,172,215845,2,0,P|1:129|7:69,1,107.999993843079,10|0,0:1|0:0,0:0:0:0:
217,213,216099,2,0,P|261:191|288:126,1,107.999993843079,8|0,0:0|0:0,0:0:0:0:
4,75,216353,2,0,P|34:33|94:19,1,107.999993843079,8|0,0:1|0:0,0:0:0:0:
287,140,216608,2,0,P|287:84|252:29,1,107.999993843079,12|0,0:3|0:0,0:0:0:0:
125,213,216862,5,8,0:1:0:0:
179,0,217116,1,8,0:0:0:0:
101,305,217370,1,2,0:0:0:0:
125,213,217497,2,0,P|104:107|27:30,1,215.999987686158,8|8,0:1|0:0,0:0:0:0:
284,312,217879,2,0,P|228:313|184:283,1,107.999993843079,8|0,0:1|0:0,0:0:0:0:
30,32,218133,1,8,0:0:0:0:
260,151,218387,5,10,0:1:0:0:
318,65,218514,1,0,0:0:0:0:
252,0,218642,2,0,P|276:99|307:251,2,215.999987686158,12|8|8,0:3|0:1|0:0,0:0:0:0:
233,369,219404,5,2,0:0:0:0:
312,298,219531,2,0,P|415:284|513:344,1,215.999987686158,8|0,0:1|0:0,0:0:0:0:
233,369,219913,2,0,P|168:325|164:261,1,107.999993843079,8|0,0:1|0:0,0:0:0:0:
457,184,220167,2,0,P|449:236|411:272,1,107.999993843079,8|0,0:0|0:0,0:0:0:0:
136,220,220421,1,10,0:1:0:0:
234,171,220548,1,0,0:0:0:0:
158,299,220675,6,0,P|74:280|57:248,1,107.999993843079,4|0,0:3|0:0,0:0:0:0:
192,79,220930,2,0,P|227:118|235:171,1,107.999993843079,8|0,0:1|0:0,0:0:0:0:
168,322,221184,2,0,P|50:292|32:193,1,215.999987686158,8|2,0:0|0:1,0:0:0:0:
0,121,221565,2,0,P|56:122|112:119,1,107.999993843079,2|8,0:0|0:1,0:0:0:0:
355,121,221819,1,8,0:0:0:0:
315,9,221947,2,0,P|261:66|276:102,1,107.999993843079,8|0,0:1|0:0,0:0:0:0:
381,345,222201,5,8,0:0:0:0:
489,238,222328,1,0,0:3:0:0:
385,261,222455,1,8,0:0:0:0:
485,363,222582,1,8,0:0:0:0:
246,239,222709,6,0,P|218:317|259:358,1,107.999993843079,12|0,0:1|0:0,0:0:0:0:
512,371,222964,2,0,P|450:308|397:310,1,107.999993843079,8|0,0:1|0:0,0:0:0:0:
227,334,223218,6,0,P|133:289|117:186,1,215.999987686158,8|0,0:0|0:0,0:0:0:0:
315,294,223600,2,0,P|256:345|123:302,1,215.999987686158,10|0,0:1|0:0,0:0:0:0:
200,89,223980,2,0,P|172:43|125:16,1,107.999993843079,8|0,0:1|0:0,0:0:0:0:
26,234,224235,2,0,P|78:221|117:185,1,107.999993843079,8|0,0:0|0:0,0:0:0:0:
292,41,224489,5,8,0:1:0:0:
376,11,224616,1,8,0:0:0:0:
460,55,224743,2,0,P|463:107|428:147,1,107.999993843079,12|0,0:3|0:0,0:0:0:0:
292,41,224997,2,0,P|279:93|304:138,1,107.999993843079,8|0,0:1|0:0,0:0:0:0:
434,314,225252,2,0,P|408:266|343:250,1,107.999993843079,8|0,0:0|0:0,0:0:0:0:
0,384,225506,5,2,0:0:0:0:
78,333,225633,2,0,P|186:308|301:293,1,215.999987686158,8|2,0:1|0:0,0:0:0:0:
304,138,226014,2,0,P|238:190|254:235,1,107.999993843079,8|0,0:1|0:0,0:0:0:0:
399,334,226269,2,0,P|451:344|501:365,1,107.999993843079,8|0,0:0|0:0,0:0:0:0:
502,366,226523,1,8,0:1:0:0:
238,203,226777,6,0,B|226:129|296:43|374:69|374:69|319:78|296:154,1,323.999981529237,12|0,0:1|0:0,0:0:0:0:
376,171,227286,2,0,P|390:222|436:249,1,107.999993843079,8|0,0:0|0:0,0:0:0:0:
87,70,227540,1,8,0:1:0:0:
153,13,227667,2,0,P|242:29|304:141,1,215.999987686158,4|2,0:3|0:0,0:0:0:0:
51,216,228048,2,0,P|20:284|36:331,1,107.999993843079,8|0,0:1|0:0,0:0:0:0:
381,384,228303,2,0,P|337:331|267:331,1,107.999993843079,8|0,0:0|0:0,0:0:0:0:
27,314,228557,6,0,B|108:320|192:203|142:115|142:115|97:134|113:208,1,359.999990463257,4|8,0:0|0:1,0:0:0:0:
218,316,229319,2,0,P|335:336|379:202,1,269.999992847443,8|0,0:0|0:0,0:0:0:0:
471,202,229828,2,0,P|502:170|494:124,1,89.9999976158143,8|8,0:1|0:0,0:0:0:0:
372,15,230082,1,8,0:1:0:0:
289,50,230209,1,0,0:0:0:0:
282,150,230336,6,0,B|250:195|148:216|89:173|89:173|124:147|123:105,1,269.999992847443,8|0,0:0|0:0,0:0:0:0:
5,13,230845,2,0,P|25:64|36:106,1,89.9999976158143,4|0,0:1|0:0,0:0:0:0:
129,327,231099,1,8,0:1:0:0:
107,352,231226,1,8,0:0:0:0:
75,367,231353,5,8,0:1:0:0:
68,286,231480,1,0,0:0:0:0:
146,244,231608,1,12,0:1:0:0:
226,278,231735,1,0,0:0:0:0:
319,223,231862,6,0,P|327:178|336:134,1,89.9999976158143,8|8,0:1|0:0,0:0:0:0:
476,17,232116,5,8,0:1:0:0:
430,30,232243,1,8,0:1:0:0:
435,75,232370,1,8,0:3:0:0:
336,135,232497,5,8,0:1:0:0:
260,70,232625,1,4,0:3:0:0:
152,75,232752,1,4,0:3:0:0:
50,132,232879,6,0,P|16:102|5:59,1,89.9999976158143,4|0,0:0|0:0,0:0:0:0:
115,0,233133,2,0,P|148:36|152:78,1,89.9999976158143
5,259,233387,2,0,P|107:252|189:313,1,179.999995231629,8|8,0:0|0:1,0:0:0:0:
221,362,233769,2,0,P|286:332|330:321,1,89.9999976158143,8|0,0:0|0:0,0:0:0:0:
406,133,234023,1,8,0:1:0:0:
458,146,234150,2,0,P|487:231|511:318,2,179.999995231629,8|8|0,0:1|0:0|0:0,0:0:0:0:
242,86,234912,6,0,P|211:54|201:10,1,89.9999976158143,8|0,0:1|0:0,0:0:0:0:
331,172,235167,2,0,P|355:134|362:90,1,89.9999976158143,8|0,0:1|0:0,0:0:0:0:
150,234,235421,2,0,P|96:147|111:31,1,179.999995231629,8|8,0:0|0:1,0:0:0:0:
224,325,235803,2,0,P|250:288|259:245,1,89.9999976158143,8|0,0:0|0:0,0:0:0:0:
103,373,236057,1,8,0:1:0:0:
53,363,236184,2,0,P|20:316|18:260,1,89.9999976158143,8|0,0:1|0:0,0:0:0:0:
173,124,236438,6,0,B|164:68|136:36|53:22|53:22|72:61|41:89|79:118,1,269.999992847443,8|0,0:0|0:0,0:0:0:0:
75,115,236947,2,0,P|116:109|152:78,1,89.9999976158143,8|0,0:1|0:0,0:0:0:0:
246,191,237201,2,0,P|283:167|327:157,1,89.9999976158143,8|0,0:1|0:0,0:0:0:0:
390,33,237455,2,0,P|480:73|490:162,1,179.999995231629,8|8,0:0|0:1,0:0:0:0:
403,308,237836,2,0,P|392:264|377:221,1,89.9999976158143,8|0,0:0|0:1,0:0:0:0:
263,69,238091,1,8,0:1:0:0:
227,103,238218,2,0,P|244:187|260:231,1,89.9999976158143,8|0,0:1|0:1,0:0:0:0:
403,308,238472,6,0,P|372:339|328:345,1,89.9999976158143,8|0,0:0|0:0,0:0:0:0:
143,381,238726,2,0,B|85:304|184:194|297:258|297:258|237:260|220:309,1,377.999978450776,4|0,0:0|0:0,0:0:0:0:
327,344,239235,2,0,P|371:335|415:329,1,89.9999976158143,8|0,0:1|0:0,0:0:0:0:
482,188,239489,2,0,P|458:101|370:116,1,179.999995231629,8|8,0:0|0:1,0:0:0:0:
302,119,239870,1,8,0:1:0:0:
286,146,239997,2,0,P|235:139|177:135,1,89.9999976158143,8|0,0:1|0:0,0:0:0:0:
17,153,240252,2,0,P|26:199|71:229,1,89.9999976158143,2|0,0:0|0:0,0:0:0:0:
297,323,240506,6,0,P|328:289|325:241,1,89.9999976158143,8|8,0:0|0:1,0:0:0:0:
432,54,240760,1,8,0:0:0:0:
289,83,240887,1,8,0:0:0:0:
391,124,241014,6,0,P|427:97|432:51,1,89.9999976158143,4|0,0:0|0:0,0:0:0:0:
259,6,241268,2,0,P|260:50|289:83,1,89.9999976158143,8|0,0:1|0:0,0:0:0:0:
498,221,241523,2,0,P|409:221|341:278,1,179.999995231629,8|8,0:0|0:1,0:0:0:0:
300,357,241904,2,0,P|239:338|225:302,1,89.9999976158143,8|0,0:0|0:0,0:0:0:0:
29,285,242158,1,8,0:1:0:0:
7,312,242285,2,0,P|44:370|88:382,1,89.9999976158143,8|0,0:1|0:0,0:0:0:0:
148,248,242540,6,0,P|131:149|100:66,1,179.999995231629,8|0,0:0|0:3,0:0:0:0:
336,4,243048,2,0,P|326:46|289:71,1,89.9999976158143,12|0,0:3|0:0,0:0:0:0:
103,74,243302,2,0,P|146:85|188:102,1,89.9999976158143,8|0,0:1|0:0,0:0:0:0:
191,264,243557,2,0,B|288:232|273:328|362:294,1,179.999995231629,8|8,0:0|0:1,0:0:0:0:
451,375,243938,2,0,P|476:339|469:295,1,89.9999976158143,8|0,0:0|0:0,0:0:0:0:
376,112,244192,1,8,0:1:0:0:
339,128,244319,2,0,P|317:166|323:210,1,89.9999976158143,8|0,0:1|0:0,0:0:0:0:
213,358,244573,2,0,P|130:366|102:283,1,179.999995231629,8|0,0:0|0:0,0:0:0:0:
24,206,244955,5,0,0:0:0:0:
26,159,245082,2,0,P|67:141|111:133,1,89.9999976158143,12|0,0:1|0:0,0:0:0:0:
326,135,245336,2,0,P|292:162|236:151,1,89.9999976158143,8|0,0:1|0:0,0:0:0:0:
165,34,245590,2,0,P|250:88|243:168,1,179.999995231629,8|8,0:0|0:1,0:0:0:0:
132,237,245972,2,0,P|176:238|221:246,1,89.9999976158143,8|0,0:0|0:0,0:0:0:0:
473,126,246226,1,8,0:1:0:0:
486,213,246353,2,0,P|380:149|395:90,1,179.999995231629,8|2,0:1|0:1,0:0:0:0:
383,110,246862,6,0,P|409:265|231:242,1,359.999990463257,4|8,0:0|0:1,0:0:0:0:
481,366,247624,2,0,P|306:324|127:307,1,359.999990463257,8|8,0:0|0:1,0:0:0:0:
12,190,248387,2,0,P|19:147|59:131,1,89.9999976158143,8|0,0:1|0:0,0:0:0:0:
175,165,248642,2,0,B|155:181|150:197|150:197|48:122|92:33|147:8,1,269.999992847443,8|0,0:0|0:0,0:0:0:0:
244,101,249150,6,0,B|267:124|276:146|276:146|283:90|309:66|354:60,1,179.999995231629,2|8,0:1|0:1,0:0:0:0:
503,7,249531,1,8,0:1:0:0:
460,47,249658,1,4,0:3:0:0:
454,113,249786,1,4,0:3:0:0:
512,184,249913,2,0,P|419:166|371:312,1,269.999992847443,2|0,0:1|0:0,0:0:0:0:
295,371,250421,2,0,P|235:368|212:327,1,89.9999976158143,8|0,0:1|0:0,0:0:0:0:
232,245,250675,5,8,0:3:0:0:
186,191,250802,1,8,0:1:0:0:
135,180,250930,1,4,0:3:0:0:
100,195,251057,1,4,0:3:0:0:
81,220,251184,6,0,P|97:286|164:302,1,143.999996185303,6|0,0:0|0:0,0:0:0:0:
180,288,251566,2,0,B|269:286|223:361|300:344,1,143.999996185303
512,316,251947,2,0,P|444:287|371:276,1,143.999996185303,2|0,0:0|0:0,0:0:0:0:
368,291,252328,2,0,P|360:224|294:215,1,143.999996185303
295,340,252710,2,0,P|362:348|389:213,1,215.999994277954,2|0,0:0|0:0,0:0:0:0:
295,219,253218,6,0,B|281:145|349:161|336:81,1,143.999996185303,2|0,0:0|0:0,0:0:0:0:
301,115,253600,2,0,B|264:124|231:69|256:28|256:28|269:44|258:59,1,143.999996185303
169,108,253981,2,0,B|167:178|92:185|34:153|25:62|124:97|86:145,1,215.999994277954,2|0,0:0|0:0,0:0:0:0:
56,234,254489,2,0,P|75:285|81:332,1,71.9999980926514
177,306,254744,2,0,B|181:336|197:356|197:356|266:310|302:307|302:307|334:328|337:350,1,215.999994277954,2|0,0:0|0:0,0:0:0:0:
333,360,255252,6,0,P|283:311|285:241,1,143.999996185303,2|0,0:0|0:0,0:0:0:0:
376,245,255634,2,0,B|402:254|432:237|432:237|429:193|474:155,1,143.999996185303
496,171,256014,2,0,B|431:212|442:293|489:324|489:324|474:313|441:309,1,215.999994277954,2|0,0:0|0:0,0:0:0:0:
406,376,256523,2,0,P|339:359|289:355,1,71.9999980926514
294,272,256778,2,0,B|236:250|199:292|200:346|200:346|154:326|174:292,1,215.999994277954,2|0,0:0|0:0,0:0:0:0:
170,204,257286,6,0,P|92:179|21:170,1,143.999996185303,2|0,0:0|0:0,0:0:0:0:
16,189,257667,2,0,B|69:188|82:134|82:134|108:114|131:118,1,143.999996185303
210,57,258049,2,0,B|219:89|241:101|241:101|260:9|363:24|399:40,1,215.999994277954,2|0,0:0|0:0,0:0:0:0:
365,30,258557,2,0,P|405:94|447:94,1,71.9999980926514
500,41,258812,1,2,0:0:0:0:
396,90,259065,5,2,0:0:0:0:
396,90,259192,1,2,0:0:0:0:
396,90,259319,2,0,B|394:179|469:133|465:212,1,143.999996185303,4|0,0:1|0:0,0:0:0:0:
442,217,259701,2,0,P|437:285|374:310,1,143.999996185303
285,351,260082,2,0,B|250:316|275:279|275:279|309:265|311:230,1,143.999996185303,2|0,0:0|0:0,0:0:0:0:
328,216,260463,2,0,B|317:155|240:157|240:157|242:187,1,143.999996185303
150,240,260845,2,0,B|160:231|89:259|54:142|54:142|102:158|103:187,1,215.999994277954,2|0,0:0|0:0,0:0:0:0:
103,184,261353,6,0,B|89:110|157:126|144:52,1,143.999996185303,2|0,0:0|0:0,0:0:0:0:
86,102,261735,2,0,P|26:68|28:0,1,143.999996185303
143,40,262116,2,0,B|196:48|188:128|260:125|260:125|261:82|289:69,1,215.999994277954,2|0,0:0|0:0,0:0:0:0:
345,139,262624,2,0,P|366:167|371:202,1,71.9999980926514
329,278,262879,2,0,B|307:277|287:234|287:234|316:287|332:354|377:257|418:320,1,215.999994277954,2|0,0:0|0:0,0:0:0:0:
474,347,263387,6,0,B|515:299|505:244|505:244|473:242|448:213,1,143.999996185303,2|0,0:0|0:0,0:0:0:0:
457,219,263769,2,0,B|421:267|406:195|406:195|376:159|340:187,1,143.999996185303
299,238,264150,2,0,B|228:255|182:195|190:142|190:142|205:178|232:175,1,215.999994277954,2|0,0:0|0:0,0:0:0:0:
260,106,264658,2,0,P|278:76|275:41,1,71.9999980926514
180,63,264913,2,0,B|157:67|138:84|138:84|117:40|52:20|52:20|94:32|99:67,1,215.999994277954,2|0,0:0|0:0,0:0:0:0:
34,103,265421,6,0,B|35:156|89:169|89:169|109:195|105:218,1,143.999996185303,2|0,0:0|0:0,0:0:0:0:
50,280,265803,2,0,B|63:306|45:339|45:339|99:307|123:325,1,143.999996185303
200,361,266184,2,0,B|219:359|242:292|190:258|190:258|242:262|265:213,1,215.999994277954,2|0,0:0|0:0,0:0:0:0:
264,213,266692,2,0,P|225:199|187:160,1,71.9999980926514
155,88,266947,1,2,0:0:0:0:
391,50,267201,5,2,0:0:0:0:
391,50,267328,1,2,0:0:0:0:
391,50,267455,2,0,B|374:21|392:-18|462:-44|519:62|504:90|435:205|479:164|393:107|314:86|254:168|286:236|293:274|335:299|377:316|416:322|455:282|473:240|474:202|436:168|413:155|390:157|378:165,1,629.9999833107,2|0,0:0|0:0,0:0:0:0:
