osu file format v14

[General]
AudioFilename: audio.mp3
AudioLeadIn: 0
PreviewTime: 83871
Countdown: 0
SampleSet: None
StackLeniency: 0.7
Mode: 2
LetterboxInBreaks: 0
WidescreenStoryboard: 0

[Editor]
DistanceSpacing: 0.5
BeatDivisor: 4
GridSize: 8
TimelineZoom: 1.7

[Metadata]
Title:Hikari no Kiseki
TitleUnicode:光ノ軌跡
Artist:Shimotsuki Haruka
ArtistUnicode:霜月はるか
Creator:-Luminate
Version:Mysterious Journey
Source:フィリスのアトリエ ~不思議な旅の錬金術士~
Tags:Atelier Firis The Alchemist and Mysterious Journey ost original soundtrack KECH-8053~6 koei tecmo games jrpg gust trail trails of light Fushigi na Tabi no Renkinjutsushi
BeatmapID:2095060
BeatmapSetID:1000921

[Difficulty]
HPDrainRate:5
CircleSize:3.8
OverallDifficulty:8.5
ApproachRate:8.5
SliderMultiplier:2.5
SliderTickRate:2

[Events]
//Background and Video events
0,0,"firis.jpg",0,0
//Break Periods
//Storyboard Layer 0 (Background)
//Storyboard Layer 1 (Fail)
//Storyboard Layer 2 (Pass)
//Storyboard Layer 3 (Foreground)
//Storyboard Sound Samples

[TimingPoints]
1117,508.474576271186,4,2,1,50,1,0
15354,-100,4,2,1,60,0,0
17388,-100,4,2,1,75,0,1
35693,-100,4,2,1,55,0,0
68235,-100,4,2,1,65,0,0
84506,-100,4,2,1,80,0,1
102811,-100,4,2,1,60,0,0
119083,-100,4,2,1,70,0,0
135354,-100,4,2,1,80,0,1
149591,-100,4,2,1,55,0,0
163828,-100,4,2,1,60,0,0
182133,-100,4,2,1,65,0,0
197006,-100,4,2,1,10,0,0
197133,-100,4,2,1,60,0,0
198405,-100,4,1,1,45,0,0
212642,-100,4,1,1,55,0,0
214167,-100,4,2,1,60,0,0
214676,-100,4,2,1,80,0,1
232854,-100,4,2,1,75,0,0
232981,-100,4,2,1,75,0,1
251286,-100,4,2,1,60,0,0
267811,-100,4,2,1,30,0,0
269591,-100,4,2,1,20,0,0
271625,-100,4,2,1,10,0,0

[Colours]
Combo1 : 183,183,183
Combo2 : 201,175,88
Combo3 : 255,140,85

[HitObjects]
376,248,1117,6,0,P|432:168|344:128,1,187.5,2|0,0:0|0:0,0:0:0:0:
288,120,1625,1,0,0:0:0:0:
416,336,1879,2,0,L|216:336,1,187.5,2|0,0:0|0:0,0:0:0:0:
312,304,2388,1,0,0:0:0:0:
104,208,2642,2,0,P|72:152|112:112,1,125,2|0,0:0|0:0,0:0:0:0:
184,112,3023,1,0,0:0:0:0:
320,64,3150,6,0,L|80:64,1,187.5,2|0,0:0|0:0,0:0:0:0:
216,128,3659,1,0,0:0:0:0:
424,304,3913,2,0,P|480:248|392:192,1,187.5,2|0,0:0|0:0,0:0:0:0:
328,184,4422,1,0,0:0:0:0:
128,184,4676,2,0,L|120:40,1,125,2|0,0:0|0:0,0:0:0:0:
208,56,5057,1,0,0:0:0:0:
344,304,5184,6,0,P|440:256|472:160,1,187.5,2|0,0:0|0:0,0:0:0:0:
384,176,5693,1,0,0:0:0:0:
168,312,5947,2,0,P|88:296|40:200,1,187.5,2|0,0:0|0:0,0:0:0:0:
120,200,6455,1,0,0:0:0:0:
336,136,6710,2,0,L|200:136,1,125,2|0,0:0|0:0,0:0:0:0:
128,136,7091,1,0,0:0:0:0:
272,352,7218,6,0,P|376:320|416:224,1,187.5,2|0,0:0|0:0,0:0:0:0:
336,240,7727,1,0,0:0:0:0:
128,232,7981,2,0,P|80:168|144:96,1,187.5,2|0,0:0|0:0,0:0:0:0:
216,96,8489,1,0,0:0:0:0:
352,200,8744,2,0,L|200:200,1,125,2|0,0:0|0:0,0:0:0:0:
480,320,9252,6,0,L|272:320,1,187.5,4|0,0:1|0:0,0:0:0:0:
368,296,9761,1,0,0:0:0:0:
160,232,10015,2,0,P|104:160|184:112,1,187.5,2|0,0:0|0:0,0:0:0:0:
240,104,10523,1,0,0:0:0:0:
448,104,10778,2,0,L|320:104,1,125,2|0,0:0|0:0,0:0:0:0:
400,152,11159,1,0,0:0:0:0:
272,328,11286,6,0,P|216:248|304:208,1,187.5,2|0,0:0|0:0,0:0:0:0:
360,200,11794,1,0,0:0:0:0:
160,352,12048,2,0,L|360:352,1,187.5,2|0,0:0|0:0,0:0:0:0:
272,336,12557,1,0,0:0:0:0:
72,288,12811,2,0,L|80:160,1,125,2|0,0:0|0:0,0:0:0:0:
168,160,13192,1,0,0:0:0:0:
408,248,13320,6,0,L|416:112,1,125,12|0,0:1|0:0,0:0:0:0:
328,120,13701,1,2,0:1:0:0:
240,152,13828,2,0,L|232:16,1,125,8|2,0:1|0:1,0:0:0:0:
400,32,14337,2,0,L|328:32,2,62.5,10|0|0,0:1|0:0|0:0,0:0:0:0:
248,152,14845,2,0,L|384:152,1,125,10|8,0:1|0:1,0:0:0:0:
56,296,15354,6,0,P|32:216|72:192,1,125,8|0,0:0|0:0,0:0:0:0:
152,192,15735,2,0,L|296:192,1,125,8|0,0:1|0:0,0:0:0:0:
192,144,16116,2,0,L|184:32,1,62.5,4|8,0:3|0:1,0:0:0:0:
424,64,16371,1,8,0:0:0:0:
488,136,16498,2,0,L|352:136,1,125,8|8,0:1|0:1,0:0:0:0:
112,296,16879,2,0,L|96:208,1,62.5,8|8,0:0|0:0,0:0:0:0:
320,192,17133,2,0,L|408:192,1,62.5,8|8,0:0|0:0,0:0:0:0:
176,128,17388,6,0,L|24:128,1,125,4|0,0:0|0:0,0:0:0:0:
248,200,17896,2,0,L|256:344,1,125,8|8,0:0|0:1,0:0:0:0:
168,328,18278,1,8,0:0:0:0:
96,304,18405,1,8,0:1:0:0:
168,256,18532,1,8,0:0:0:0:
96,232,18659,1,8,0:1:0:0:
296,160,18913,2,0,L|432:160,1,125,8|0,0:0|0:0,0:0:0:0:
344,128,19294,1,8,0:1:0:0:
112,136,19422,6,0,L|104:0,1,125,8|8,0:1|0:1,0:0:0:0:
304,256,19930,2,0,L|136:256,1,125,8|8,0:0|0:1,0:0:0:0:
248,224,20311,1,8,0:0:0:0:
320,192,20439,1,8,0:1:0:0:
248,152,20566,1,8,0:0:0:0:
320,112,20693,1,8,0:1:0:0:
96,312,20947,2,0,L|88:184,1,125,8|8,0:0|0:3,0:0:0:0:
384,144,21455,5,12,0:3:0:0:
240,120,21710,1,8,0:1:0:0:
464,208,21964,2,0,L|472:352,1,125,8|8,0:0|0:1,0:0:0:0:
392,336,22345,1,8,0:0:0:0:
320,304,22472,2,0,L|312:224,1,62.5,8|8,0:1|0:0,0:0:0:0:
384,200,22727,2,0,L|312:200,1,62.5,8|8,0:1|0:1,0:0:0:0:
120,192,22981,1,8,0:0:0:0:
320,176,23235,6,0,L|472:176,1,125,4|8,0:0|0:1,0:0:0:0:
320,112,23744,1,8,0:1:0:0:
96,304,23998,2,0,L|248:304,1,125,8|8,0:0|0:1,0:0:0:0:
64,184,24506,1,8,0:1:0:0:
24,152,24633,1,8,0:0:0:0:
64,120,24761,1,8,0:1:0:0:
272,112,25015,1,8,0:0:0:0:
64,256,25269,2,0,L|0:256,1,62.5,8|8,0:0|0:0,0:0:0:0:
232,336,25523,6,0,L|392:336,1,125,4|8,0:0|0:1,0:0:0:0:
152,176,26032,2,0,L|16:176,1,125,8|8,0:0|0:1,0:0:0:0:
88,144,26413,1,8,0:0:0:0:
160,112,26540,1,8,0:1:0:0:
88,72,26667,1,8,0:0:0:0:
160,48,26794,1,8,0:1:0:0:
296,192,27049,2,0,L|144:192,1,125,8|0,0:0|0:3,0:0:0:0:
464,320,27557,6,0,L|280:320,2,125,12|8|8,0:3|0:1|0:0,0:0:0:0:
304,232,28320,1,8,0:1:0:0:
232,200,28447,1,8,0:0:0:0:
160,168,28574,1,8,0:1:0:0:
232,128,28701,1,8,0:0:0:0:
160,96,28828,1,8,0:1:0:0:
360,64,29083,2,0,L|488:64,1,125,8|0,0:0|0:0,0:0:0:0:
168,280,29591,6,0,L|336:280,2,125,12|8|8,0:1|0:1|0:0,0:0:0:0:
360,192,30354,2,0,L|368:120,1,62.5,8|8,0:1|0:0,0:0:0:0:
296,96,30608,2,0,L|392:96,2,62.5,8|8|8,0:1|0:0|0:1,0:0:0:0:
80,88,31116,1,8,0:0:0:0:
440,328,31371,6,0,P|488:272|392:160,1,250,4|8,0:0|0:1,0:0:0:0:
128,112,32133,2,0,L|272:112,1,125,8|0,0:0|0:0,0:0:0:0:
112,192,32642,2,0,L|40:192,2,62.5,8|8|8,0:1|0:0|0:1,0:0:0:0:
256,208,33150,1,8,0:0:0:0:
96,256,33405,1,8,0:1:0:0:
416,336,33659,6,0,P|464:288|472:184,1,125,2|8,0:1|0:1,0:0:0:0:
384,232,34040,1,8,0:1:0:0:
296,240,34167,2,0,L|216:240,1,62.5,8|0,0:0|0:0,0:0:0:0:
464,64,34422,2,0,L|288:64,1,125,4|0,0:0|0:0,0:0:0:0:
136,144,34930,2,0,L|208:144,1,62.5,8|8,0:0|0:0,0:0:0:0:
296,192,35184,2,0,L|304:288,1,62.5,8|8,0:3|0:3,0:0:0:0:
192,256,35439,2,0,L|184:336,1,62.5,4|4,0:3|0:3,0:0:0:0:
408,344,35693,6,0,P|464:288|376:216,1,187.5,4|2,0:1|0:0,0:0:0:0:
224,200,36328,1,0,0:0:0:0:
136,160,36455,2,0,L|344:144,1,187.5,2|0,0:0|0:0,0:0:0:0:
408,104,36964,2,0,L|344:104,1,62.5
184,112,37218,2,0,P|104:88|72:32,1,125,2|0,0:0|0:0,0:0:0:0:
320,304,37727,6,0,L|144:304,1,125,2|0,0:0|0:0,0:0:0:0:
280,264,38108,1,0,0:0:0:0:
192,256,38235,2,0,L|40:248,1,125,0|2,0:1|0:1,0:0:0:0:
184,136,38744,1,0,0:0:0:0:
56,80,38998,1,2,0:1:0:0:
184,56,39252,1,0,0:0:0:0:
392,232,39506,2,0,L|328:232,1,62.5
192,176,39761,6,0,L|360:168,1,125,2|0,0:0|0:0,0:0:0:0:
408,160,40142,2,0,L|416:24,1,125,2|0,0:0|0:0,0:0:0:0:
264,328,40523,2,0,P|208:272|304:208,1,187.5,2|0,0:0|0:0,0:0:0:0:
352,200,41032,1,0,0:0:0:0:
152,200,41286,2,0,L|144:64,1,125,2|0,0:0|0:0,0:0:0:0:
384,304,41794,6,0,L|192:296,1,187.5,2|0,0:0|0:0,0:0:0:0:
104,288,42303,1,0,0:3:0:0:
272,192,42557,2,0,L|136:192,2,125,2|0|0,0:0|0:0|0:0,0:0:0:0:
80,112,43320,2,0,L|72:288,1,125,2|0,0:0|0:0,0:0:0:0:
312,352,43828,6,0,P|392:304|416:192,1,187.5,2|0,0:0|0:0,0:0:0:0:
264,176,44591,2,0,L|440:112,1,187.5,2|0,0:0|0:0,0:0:0:0:
360,104,45100,1,0,0:0:0:0:
120,176,45354,1,2,0:0:0:0:
264,208,45608,1,0,0:0:0:0:
16,344,45862,6,0,P|32:272|168:232,1,187.5,2|0,0:0|0:0,0:0:0:0:
216,216,46371,1,0,0:0:0:0:
88,136,46625,2,0,L|232:136,1,125,2|0,0:0|0:0,0:0:0:0:
288,136,47006,1,0,0:0:0:0:
360,136,47133,1,0,0:0:0:0:
216,272,47388,1,2,0:0:0:0:
376,320,47642,1,0,0:0:0:0:
136,288,47896,6,0,P|88:216|160:168,1,187.5,2|0,0:0|0:0,0:0:0:0:
240,168,48405,1,0,0:0:0:0:
16,64,48659,2,0,L|232:64,1,187.5,2|0,0:0|0:0,0:0:0:0:
296,112,49167,2,0,L|152:112,1,125,0|2,0:0|0:0,0:0:0:0:
304,192,49676,1,0,0:0:0:0:
80,336,49930,5,2,0:0:0:0:
192,336,50184,2,0,L|352:328,1,125
240,280,50566,1,0,0:0:0:0:
168,232,50693,2,0,L|344:208,1,125,2|0,0:0|0:0,0:0:0:0:
416,176,51201,1,0,0:0:0:0:
208,120,51455,2,0,L|64:88,1,125,6|0,0:1|0:0,0:0:0:0:
424,336,51964,6,0,L|216:336,1,187.5,12|0,0:1|0:0,0:0:0:0:
472,208,52727,2,0,P|448:136|296:56,1,250,8|0,0:1|0:0,0:0:0:0:
144,136,53489,2,0,L|136:272,1,125,8|0,0:0|0:0,0:0:0:0:
224,256,53871,1,0,0:0:0:0:
360,328,53998,6,0,L|224:328,1,125,8|0,0:1|0:0,0:0:0:0:
144,296,54379,1,8,0:0:0:0:
224,256,54506,1,8,0:1:0:0:
392,208,54761,1,8,0:1:0:0:
264,144,55015,1,2,0:0:0:0:
392,88,55269,1,8,0:1:0:0:
168,72,55523,2,0,L|32:72,1,125,8|0,0:0|0:0,0:0:0:0:
288,336,56032,6,0,P|384:304|432:208,1,187.5,8|2,0:1|0:0,0:0:0:0:
240,192,56667,1,0,0:0:0:0:
152,136,56794,2,0,L|352:112,1,187.5,8|2,0:1|0:0,0:0:0:0:
248,96,57303,2,0,L|240:24,1,62.5,8|0,0:1|0:0,0:0:0:0:
344,296,57557,2,0,L|480:296,1,125,8|0,0:0|0:0,0:0:0:0:
232,224,58066,6,0,P|184:152|264:96,1,187.5,8|2,0:1|0:1,0:0:0:0:
328,96,58574,1,0,0:0:0:0:
88,304,58828,2,0,L|216:304,2,125,8|2|8,0:1|0:0|0:1,0:0:0:0:
304,192,59591,2,0,L|472:192,1,125,8|0,0:0|0:0,0:0:0:0:
200,248,60100,6,0,P|152:184|224:112,1,187.5,8|2,0:1|0:0,0:0:0:0:
408,208,60862,2,0,L|176:208,1,187.5,8|0,0:1|0:0,0:0:0:0:
144,208,61371,1,8,0:1:0:0:
360,312,61625,1,8,0:0:0:0:
216,312,61879,1,8,0:1:0:0:
448,224,62133,6,0,P|480:144|376:88,1,187.5,8|2,0:1|0:0,0:0:0:0:
336,80,62642,1,8,0:1:0:0:
152,264,62896,2,0,L|336:160,1,187.5,8|0,0:1|0:0,0:0:0:0:
400,136,63405,1,8,0:1:0:0:
176,72,63659,1,8,0:0:0:0:
304,48,63913,1,8,0:1:0:0:
72,296,64167,6,0,P|96:232|224:200,1,187.5,2|0,0:0|0:0,0:0:0:0:
120,152,64676,1,8,0:1:0:0:
352,304,64930,2,0,L|488:296,1,125,2|0,0:0|0:0,0:0:0:0:
312,200,65439,2,0,L|176:184,1,125,8|8,0:1|0:0,0:0:0:0:
352,112,65947,2,0,L|360:32,1,62.5,8|0,0:1|0:0,0:0:0:0:
232,312,66201,6,0,P|120:256|112:208,1,125,4|0,0:3|0:0,0:0:0:0:
200,232,66583,1,2,0:1:0:0:
272,216,66710,1,8,0:1:0:0:
112,176,66964,2,0,P|64:120|152:48,1,187.5,8|0,0:1|0:0,0:0:0:0:
208,40,67472,1,8,0:1:0:0:
32,184,67727,1,8,0:0:0:0:
160,224,67981,1,8,0:1:0:0:
480,168,68235,6,0,L|312:160,1,125,4|0,0:1|0:0,0:0:0:0:
200,168,68744,2,0,L|208:40,1,125,8|0,0:1|0:0,0:0:0:0:
432,296,69252,1,10,0:1:0:0:
272,288,69506,1,0,0:0:0:0:
120,272,69761,1,8,0:0:0:0:
320,184,70015,1,8,0:1:0:0:
24,112,70269,5,10,0:1:0:0:
168,144,70523,2,0,L|272:272,1,125,8|4,0:1|0:3,0:0:0:0:
472,304,71032,1,2,0:0:0:0:
320,336,71286,2,0,L|192:336,1,125,8|0,0:1|0:0,0:0:0:0:
312,216,71794,1,8,0:0:0:0:
184,168,72049,1,8,0:1:0:0:
480,104,72303,5,10,0:1:0:0:
320,264,72557,2,0,P|256:208|264:144,1,125,8|0,0:1|0:0,0:0:0:0:
336,168,72939,1,0,0:0:0:0:
408,120,73066,2,0,L|216:112,1,187.5,2|0,0:0|0:0,0:0:0:0:
144,104,73574,1,8,0:1:0:0:
344,320,73828,2,0,L|480:296,1,125,8|0,0:0|0:0,0:0:0:0:
160,240,74337,6,0,P|120:176|208:104,1,187.5,2|2,0:0|0:0,0:0:0:0:
456,152,75100,2,0,L|232:152,1,187.5,10|0,0:1|0:0,0:0:0:0:
56,248,75608,1,6,0:1:0:0:
240,248,75862,2,0,L|376:248,1,125,2|8,0:1|0:1,0:0:0:0:
48,160,76371,6,0,L|32:16,1,125,8|8,0:1|0:1,0:0:0:0:
264,312,76879,2,0,L|272:184,1,125,2|0,0:0|0:0,0:0:0:0:
96,184,77388,1,2,0:0:0:0:
264,136,77642,2,0,L|280:264,1,125,8|8,0:1|0:0,0:0:0:0:
424,256,78150,1,8,0:1:0:0:
128,336,78405,6,0,P|144:232|296:192,1,250,2|0,0:1|0:0,0:0:0:0:
392,152,79167,2,0,L|248:152,1,125,8|0,0:1|0:0,0:0:0:0:
464,328,79676,2,0,L|336:328,2,125,8|8|0,0:1|0:0|0:0,0:0:0:0:
168,328,80439,6,0,P|32:240|32:152,1,250,10|0,0:1|0:0,0:0:0:0:
168,192,81201,2,0,L|184:56,1,125,8|0,0:1|0:0,0:0:0:0:
40,56,81710,1,8,0:1:0:0:
256,256,81964,2,0,L|104:256,1,125,8|0,0:0|0:0,0:0:0:0:
432,208,82472,6,0,P|440:120|440:56,1,125,2|8,0:0|0:1,0:0:0:0:
312,336,82854,2,0,P|296:248|304:192,1,125,2|0,0:0|0:1,0:0:0:0:
432,208,83235,1,2,0:0:0:0:
184,152,83998,5,2,0:0:0:0:
352,112,84252,1,2,0:0:0:0:
32,320,84506,6,0,L|200:312,1,125,12|8,0:1|0:1,0:0:0:0:
408,240,85015,2,0,L|248:232,1,125,8|0,0:0|0:0,0:0:0:0:
440,176,85396,2,0,P|448:72|432:40,1,125,10|8,0:1|0:0,0:0:0:0:
344,32,85778,1,10,0:1:0:0:
176,104,86032,1,8,0:0:0:0:
344,200,86286,1,8,0:1:0:0:
48,328,86540,6,0,L|224:328,2,125,12|8|8,0:3|0:1|0:0,0:0:0:0:
232,296,87303,1,2,0:0:0:0:
312,224,87430,2,0,L|128:224,1,125,8|8,0:1|0:0,0:0:0:0:
104,160,87811,2,0,L|240:160,1,125,8|8,0:1|0:0,0:0:0:0:
88,72,88320,1,10,0:1:0:0:
392,336,88574,6,0,L|224:336,2,125,12|8|8,0:3|0:1|0:0,0:0:0:0:
208,256,89337,1,2,0:0:0:0:
112,240,89464,2,0,P|80:168|144:144,1,125,8|8,0:1|0:0,0:0:0:0:
208,176,89845,2,0,P|240:120|192:80,1,125,8|8,0:1|0:0,0:0:0:0:
64,64,90354,1,10,0:1:0:0:
368,304,90608,6,0,L|200:304,2,125,4|8|8,0:3|0:1|0:0,0:0:0:0:
296,248,91244,1,10,0:1:0:0:
232,192,91371,1,0,0:1:0:0:
296,128,91498,1,2,0:0:0:0:
376,88,91625,2,0,L|200:88,1,125,8|8,0:1|0:1,0:0:0:0:
472,32,92133,1,8,0:0:0:0:
264,32,92388,2,0,L|168:32,1,62.5,8|8,0:0|0:0,0:0:0:0:
464,344,92642,6,0,L|472:216,1,125,12|8,0:1|0:1,0:0:0:0:
264,240,93150,2,0,L|96:240,1,125,8|8,0:0|0:1,0:0:0:0:
248,176,93532,2,0,L|384:176,1,125,10|8,0:1|0:0,0:0:0:0:
304,128,93913,1,8,0:1:0:0:
160,208,94167,1,8,0:0:0:0:
328,304,94422,1,8,0:1:0:0:
32,296,94676,6,0,L|176:296,2,125,12|8|8,0:3|0:1|0:0,0:0:0:0:
232,184,95439,2,0,L|296:184,1,62.5,2|8,0:0|0:1,0:0:0:0:
104,96,95820,2,0,L|16:96,1,62.5,2|8,0:0|0:1,0:0:0:0:
232,256,96201,1,8,0:0:0:0:
64,320,96455,2,0,L|152:320,1,62.5,8|8,0:1|0:0,0:0:0:0:
328,312,96710,6,0,L|480:312,1,125,12|8,0:1|0:1,0:0:0:0:
248,184,97218,2,0,P|224:120|264:64,1,125,8|8,0:0|0:1,0:0:0:0:
344,72,97600,2,0,L|480:72,1,125,4|2,0:3|0:0,0:0:0:0:
376,128,97981,1,8,0:1:0:0:
160,176,98235,1,8,0:0:0:0:
480,352,98489,6,0,L|216:344,1,250,4|8,0:0|0:1,0:0:0:0:
448,304,99252,2,0,L|456:168,1,125,8|0,0:0|0:0,0:0:0:0:
240,128,99761,2,0,L|152:128,2,62.5,8|8|8,0:1|0:0|0:1,0:0:0:0:
464,56,100269,2,0,L|344:120,1,125,8|8,0:0|0:1,0:0:0:0:
24,296,100778,6,0,L|192:296,1,125,4|8,0:1|0:1,0:0:0:0:
224,256,101159,1,8,0:0:0:0:
144,224,101286,1,8,0:1:0:0:
464,160,101540,2,0,L|240:160,1,187.5,12|8,0:1|0:0,0:0:0:0:
160,296,102049,5,8,0:1:0:0:
80,240,102176,1,8,0:1:0:0:
160,192,102303,1,8,0:3:0:0:
304,176,102430,1,8,0:1:0:0:
392,128,102557,1,4,0:3:0:0:
304,72,102684,1,4,0:3:0:0:
88,216,102811,6,0,P|56:152|112:96,1,125,4|8,0:1|0:1,0:0:0:0:
152,96,103193,1,10,0:0:0:0:
432,248,103574,2,0,P|480:192|376:80,1,250,8|8,0:1|0:1,0:0:0:0:
192,80,104337,2,0,L|176:256,1,125,8|0,0:0|0:0,0:0:0:0:
400,216,104845,6,0,L|416:384,1,125,8|8,0:1|0:1,0:0:0:0:
336,344,105227,1,8,0:0:0:0:
416,344,105354,1,8,0:1:0:0:
192,280,105608,2,0,L|480:264,1,250,10|8,0:1|0:1,0:0:0:0:
264,152,106371,2,0,L|128:128,1,125,8|0,0:0|0:0,0:0:0:0:
392,80,106879,6,8,L|256:80,1,125,8|8,0:1|0:1,0:1:0:0:
192,48,107261,1,8,0:0:0:0:
264,24,107388,1,8,0:1:0:0:
72,256,107642,2,0,L|336:248,1,250,10|0,0:1|0:0,0:0:0:0:
144,192,108405,2,0,L|136:40,1,125,8|0,0:0|0:0,0:0:0:0:
400,192,108913,6,0,L|408:48,1,125,8|8,0:1|0:1,0:0:0:0:
328,64,109294,1,8,0:0:0:0:
256,64,109422,1,8,0:1:0:0:
424,288,109676,1,10,0:1:0:0:
184,312,109930,2,0,L|336:320,1,125,8|2,0:1|0:1,0:0:0:0:
96,240,110439,1,8,0:0:0:0:
48,208,110566,1,8,0:1:0:0:
48,152,110693,1,8,0:3:0:0:
96,128,110820,1,4,0:3:0:0:
312,128,110947,6,0,L|440:128,1,125,4|0,0:1|0:0,0:0:0:0:
328,280,111328,2,0,L|144:280,1,125,8|0,0:0|0:0,0:0:0:0:
88,200,111710,1,8,0:3:0:0:
213,200,111964,1,2,0:0:0:0:
88,200,112218,1,8,0:1:0:0:
272,288,112472,1,8,0:0:0:0:
104,328,112727,2,0,L|96:248,1,62.5,8|8,0:1|0:0,0:0:0:0:
240,224,112981,6,0,L|392:224,1,125,8|8,0:1|0:1,0:0:0:0:
272,160,113362,2,0,L|128:160,1,125,8|0,0:0|0:0,0:0:0:0:
248,336,113744,2,0,P|304:280|216:208,1,187.5,10|0,0:1|0:0,0:0:0:0:
136,200,114252,1,8,0:1:0:0:
296,120,114506,1,8,0:0:0:0:
136,88,114761,1,8,0:1:0:0:
400,320,115015,6,0,P|432:272|384:200,1,125,10|0,0:1|0:0,0:0:0:0:
328,208,115396,1,8,0:0:0:0:
256,208,115523,1,8,0:1:0:0:
480,120,115778,2,0,L|496:288,1,125,8|0,0:1|0:0,0:0:0:0:
352,280,116286,1,8,0:1:0:0:
496,320,116540,1,8,0:0:0:0:
336,328,116794,2,0,L|424:328,1,62.5,8|8,0:1|0:0,0:0:0:0:
264,240,117049,6,0,L|248:88,1,125,10|8,0:1|0:1,0:0:0:0:
328,112,117430,1,8,0:0:0:0:
400,112,117557,1,8,0:1:0:0:
48,184,117811,2,0,P|0:120|88:56,1,187.5,4|8,0:0|0:1,0:0:0:0:
160,56,118320,2,0,L|240:56,1,62.5,8|8,0:1|0:1,0:0:0:0:
128,128,118574,2,0,L|120:216,1,62.5,8|8,0:0|0:0,0:0:0:0:
360,280,118828,2,0,L|280:280,1,62.5,8|4,0:3|0:3,0:0:0:0:
96,336,119083,6,0,L|224:336,1,125,4|0,0:1|0:0,0:0:0:0:
416,208,119591,2,0,L|272:208,1,125,8|0,0:0|0:0,0:0:0:0:
80,296,120100,1,10,0:1:0:0:
256,280,120354,1,8,0:1:0:0:
424,272,120609,1,8,0:0:0:0:
192,184,120863,1,8,0:1:0:0:
504,112,121117,5,10,0:1:0:0:
344,144,121371,1,8,0:1:0:0:
272,144,121498,1,8,0:0:0:0:
200,144,121625,1,8,0:1:0:0:
392,240,121880,1,2,0:0:0:0:
200,328,122133,1,8,0:1:0:0:
272,328,122260,1,8,0:0:0:0:
344,328,122387,1,8,0:1:0:0:
160,240,122642,1,8,0:0:0:0:
352,184,122896,2,0,L|360:88,1,62.5,10|8,0:1|0:1,0:0:0:0:
144,96,123150,6,0,L|0:96,1,125,12|8,0:3|0:1,0:0:0:0:
88,160,123532,1,2,0:1:0:0:
16,208,123659,1,8,0:0:0:0:
240,336,123913,2,0,L|112:336,1,125,2|8,0:0|0:1,0:0:0:0:
192,280,124294,1,10,0:0:0:0:
112,264,124422,1,8,0:1:0:0:
304,120,124676,1,8,0:0:0:0:
136,64,124930,1,8,0:1:0:0:
456,328,125184,6,0,L|464:192,1,125,4|8,0:1|0:0,0:0:0:0:
384,200,125566,1,8,0:0:0:0:
160,200,125693,2,0,L|152:112,1,62.5,8|8,0:1|0:1,0:0:0:0:
352,96,125947,2,0,L|256:96,1,62.5,4|4,0:3|0:3,0:0:0:0:
152,96,126201,1,8,0:0:0:0:
472,104,126455,1,6,0:1:0:0:
312,96,126710,2,0,L|184:88,1,125,10|8,0:1|0:0,0:0:0:0:
256,64,127091,1,8,0:0:0:0:
456,312,127218,6,0,L|464:168,1,125,4|0,0:0|0:0,0:0:0:0:
232,168,127727,2,0,L|96:168,1,125,8|0,0:0|0:0,0:0:0:0:
352,64,128235,2,0,L|216:56,2,125,8|8|8,0:0|0:1|0:0,0:0:0:0:
496,64,128998,1,8,0:1:0:0:
200,312,129252,6,0,L|336:304,2,125,10|8|8,0:0|0:1|0:0,0:0:0:0:
40,288,130015,1,8,0:1:0:0:
264,208,130269,2,0,L|392:192,1,125,8|8,0:0|0:1,0:0:0:0:
240,80,130778,1,8,0:0:0:0:
392,56,131032,1,8,0:1:0:0:
72,336,131286,6,0,L|56:184,1,125,4|8,0:0|0:1,0:0:0:0:
184,160,131794,1,4,0:3:0:0:
336,136,132049,1,8,0:1:0:0:
168,240,132303,1,4,0:3:0:0:
360,312,132557,1,8,0:1:0:0:
168,344,132811,1,4,0:3:0:0:
416,192,133066,1,8,0:1:0:0:
88,184,133320,6,0,L|16:176,2,62.5,12|8|8,0:3|0:1|0:1,0:0:0:0:
320,184,133701,2,0,L|432:168,1,62.5,12|8,0:3|0:1,0:0:0:0:
64,328,134083,1,10,0:1:0:0:
384,296,134337,1,6,0:1:0:0:
216,200,134591,2,0,L|200:96,1,62.5,8|8,0:3|0:3,0:0:0:0:
408,160,134845,2,0,L|416:88,1,62.5,12|12,0:3|0:3,0:0:0:0:
216,64,135100,2,0,L|152:56,1,62.5,8|8,0:3|0:3,0:0:0:0:
355,314,135354,6,0,L|480:320,1,125,12|8,0:1|0:1,0:0:0:0:
176,224,135863,2,0,L|52:231,1,125,8|0,0:0|0:0,0:0:0:0:
184,168,136244,2,0,P|192:64|176:32,1,125,10|8,0:1|0:0,0:0:0:0:
96,48,136626,1,10,0:1:0:0:
272,112,136880,1,8,0:0:0:0:
64,176,137134,1,8,0:1:0:0:
360,288,137388,6,0,L|184:288,2,125,12|8|8,0:3|0:1|0:0,0:0:0:0:
112,224,138151,1,2,0:0:0:0:
200,224,138278,2,0,L|384:224,1,125,8|8,0:1|0:0,0:0:0:0:
232,176,138659,2,0,L|224:48,1,125,8|8,0:1|0:0,0:0:0:0:
408,48,139168,1,10,0:1:0:0:
104,336,139422,6,0,L|272:336,2,125,12|8|8,0:3|0:1|0:0,0:0:0:0:
304,256,140185,1,2,0:0:0:0:
400,240,140312,2,0,P|432:168|368:144,1,125,8|8,0:1|0:0,0:0:0:0:
304,176,140693,2,0,P|272:120|320:80,1,125,8|8,0:1|0:0,0:0:0:0:
456,64,141202,1,10,0:1:0:0:
152,304,141456,6,0,L|320:304,2,125,4|8|8,0:3|0:1|0:0,0:0:0:0:
224,248,142092,1,10,0:1:0:0:
224,168,142219,1,0,0:1:0:0:
144,136,142346,1,2,0:0:0:0:
224,88,142473,2,0,L|400:88,1,125,8|8,0:1|0:1,0:0:0:0:
128,32,142981,1,8,0:0:0:0:
328,32,143236,2,0,L|424:32,1,62.5,8|8,0:0|0:0,0:0:0:0:
168,344,143490,6,0,L|32:344,1,125,12|8,0:1|0:1,0:0:0:0:
248,240,143998,2,0,L|416:240,1,125,8|8,0:0|0:1,0:0:0:0:
264,176,144380,2,0,L|128:176,1,125,10|8,0:1|0:0,0:0:0:0:
200,128,144761,1,8,0:1:0:0:
352,208,145015,1,8,0:0:0:0:
176,304,145270,1,8,0:1:0:0:
480,296,145524,6,0,L|336:296,2,125,12|8|8,0:3|0:1|0:0,0:0:0:0:
280,184,146287,2,0,L|216:184,1,62.5,2|8,0:0|0:1,0:0:0:0:
408,96,146668,2,0,L|496:96,1,62.5,2|8,0:0|0:1,0:0:0:0:
280,256,147049,1,8,0:0:0:0:
448,320,147303,2,0,L|360:320,1,62.5,8|8,0:1|0:0,0:0:0:0:
184,312,147558,6,0,L|32:312,1,125,12|8,0:1|0:1,0:0:0:0:
264,184,148066,2,0,P|288:120|248:64,1,125,8|8,0:0|0:1,0:0:0:0:
168,72,148448,2,0,L|32:72,1,125,4|2,0:3|0:0,0:0:0:0:
136,128,148829,1,8,0:1:0:0:
344,176,149083,1,8,0:0:0:0:
120,280,149337,1,2,0:0:0:0:
440,336,149591,6,0,L|448:184,1,125,12|0,0:1|0:0,0:0:0:0:
264,200,150100,1,8,0:1:0:0:
448,184,150354,2,0,L|456:56,1,125,2|8,0:0|0:1,0:0:0:0:
264,288,150862,2,0,L|256:128,1,125,2|8,0:0|0:1,0:0:0:0:
448,152,151371,1,2,0:0:0:0:
192,128,151625,6,0,L|48:80,2,125,8|0|8,0:1|0:0|0:1,0:0:0:0:
368,192,152388,2,0,L|384:352,1,125,2|8,0:0|0:1,0:0:0:0:
200,336,152896,2,0,L|184:184,1,125,2|8,0:0|0:1,0:0:0:0:
376,184,153405,2,0,L|312:184,1,62.5
112,112,153659,6,0,L|272:112,1,125,4|0,0:1|0:0,0:0:0:0:
96,336,154167,2,0,L|88:192,1,125,8|0,0:1|0:0,0:0:0:0:
224,168,154676,1,8,0:1:0:0:
80,128,154930,1,2,0:0:0:0:
224,80,155184,1,8,0:1:0:0:
80,40,155439,1,2,0:0:0:0:
320,320,155693,6,0,L|456:304,1,125,8|0,0:1|0:0,0:0:0:0:
304,216,156201,1,8,0:1:0:0:
440,152,156455,1,2,0:0:0:0:
192,152,156710,2,0,P|160:64|208:32,1,125,8|0,0:3|0:0,0:0:0:0:
256,48,157091,1,8,0:3:0:0:
340,48,157218,2,0,P|358:106|320:152,1,125,4|8,0:3|0:3,0:0:0:0:
240,152,157600,1,4,0:3:0:0:
40,304,157727,6,0,L|208:304,2,125,12|0|8,0:1|0:0|0:1,0:0:0:0:
288,240,158489,2,0,L|296:104,1,125,2|8,0:0|0:1,0:0:0:0:
104,144,158998,2,0,L|88:16,1,125,2|8,0:0|0:1,0:0:0:0:
280,24,159506,1,2,0:0:0:0:
24,304,159761,6,0,L|192:304,1,125,8|0,0:1|0:0,0:0:0:0:
296,280,160269,1,8,0:1:0:0:
96,192,160523,2,0,L|88:56,1,125,2|8,0:0|0:1,0:0:0:0:
296,48,161032,2,0,L|160:48,1,125,2|8,0:0|0:1,0:0:0:0:
312,128,161540,2,0,L|328:208,1,62.5
136,312,161794,6,0,L|0:312,2,125,12|0|8,0:1|0:0|0:1,0:0:0:0:
336,304,162557,2,0,L|352:152,1,125,2|8,0:0|0:1,0:0:0:0:
144,112,163066,2,0,L|272:112,1,125,2|8,0:0|0:1,0:0:0:0:
400,112,163574,1,2,0:1:0:0:
160,304,163828,5,8,0:1:0:0:
304,288,164083,1,8,0:3:0:0:
341,239,164210,1,8,0:3:0:0:
332,179,164337,1,4,0:3:0:0:
283,143,164464,1,4,0:3:0:0:
200,144,164591,1,8,0:3:0:0:
336,72,164845,1,8,0:1:0:0:
200,48,165100,1,8,0:3:0:0:
472,176,165354,1,12,0:3:0:0:
328,176,165608,1,2,0:0:0:0:
8,232,165862,5,12,0:1:0:0:
200,216,166116,2,0,L|208:80,1,125,0|8,0:0|0:1,0:0:0:0:
16,336,166625,2,0,L|160:336,1,125,0|8,0:0|0:1,0:0:0:0:
376,264,167133,2,0,L|232:264,1,125,2|8,0:0|0:1,0:0:0:0:
24,112,167642,6,0,L|160:112,1,125,0|10,0:0|0:1,0:0:0:0:
352,160,168150,2,0,L|344:304,1,125,0|8,0:1|0:1,0:1:0:0:
160,344,168659,2,0,L|144:200,1,125,2|8,0:1|0:1,0:1:0:0:
336,136,169167,2,0,L|208:136,1,125,2|8,0:1|0:1,0:1:0:0:
360,40,169676,1,8,0:3:0:0:
24,224,169930,5,12,0:1:0:0:
192,224,170184,2,0,L|328:304,1,125,2|8,0:0|0:1,0:0:0:0:
184,360,170693,1,0,0:0:0:0:
448,312,170947,1,8,0:1:0:0:
304,272,171201,2,0,L|296:128,1,125,2|8,0:0|0:1,0:0:0:0:
448,128,171710,1,8,0:3:0:0:
208,80,171964,5,10,0:1:0:0:
368,120,172218,2,0,L|376:264,1,125,0|8,0:0|0:1,0:0:0:0:
208,280,172727,1,0,0:0:0:0:
440,320,172981,2,0,L|264:320,1,125,8|2,0:1|0:1,0:0:0:0:
168,248,173489,1,8,0:0:0:0:
352,200,173744,1,4,0:3:0:0:
32,96,173998,5,4,0:1:0:0:
200,128,174252,2,0,L|208:272,1,125,0|8,0:0|0:1,0:0:0:0:
32,296,174761,2,0,L|184:296,1,125,0|8,0:0|0:1,0:0:0:0:
320,184,175269,2,0,L|152:184,1,125,2|8,0:0|0:1,0:0:0:0:
440,280,175778,6,0,B|448:144,1,125,0|10,0:1|0:1,0:0:0:0:
264,160,176286,2,0,L|256:32,1,125,0|8,0:0|0:1,0:0:0:0:
440,40,176794,2,0,L|312:40,1,125,0|8,0:0|0:1,0:0:0:0:
96,208,177303,1,2,0:0:0:0:
224,120,177557,2,0,L|64:120,1,125,8|0,0:0|0:0,0:0:0:0:
416,328,178066,6,0,L|472:216,2,125,12|0|8,0:1|0:0|0:1,0:0:0:0:
208,320,178828,2,0,L|64:320,1,125,2|8,0:0|0:1,0:0:0:0:
208,216,179337,1,2,0:0:0:0:
416,136,179591,1,8,0:1:0:0:
176,112,179845,6,0,L|160:264,1,125,2|8,0:1|0:1,0:0:0:0:
312,248,180354,1,2,0:0:0:0:
160,304,180608,1,8,0:1:0:0:
320,344,180862,2,0,L|400:344,1,62.5,8|8,0:3|0:3,0:0:0:0:
176,176,181116,6,0,L|48:176,2,125,12|2|8,0:3|0:0|0:0,0:0:0:0:
288,176,181752,1,4,0:3:0:0:
368,176,181879,1,4,0:3:0:0:
48,64,182133,5,12,0:1:0:0:
168,120,182388,1,0,0:0:0:0:
48,184,182642,1,8,0:1:0:0:
320,224,182896,1,2,0:0:0:0:
192,280,183150,1,8,0:1:0:0:
328,336,183405,1,0,0:1:0:0:
64,352,183659,1,10,0:1:0:0:
400,272,183913,5,8,0:0:0:0:
240,232,184167,1,8,0:1:0:0:
472,184,184422,2,0,L|480:48,1,125,2|8,0:0|0:1,0:0:0:0:
336,56,184930,1,2,0:0:0:0:
120,104,185184,1,8,0:1:0:0:
264,136,185439,1,2,0:0:0:0:
16,216,185693,1,8,0:1:0:0:
160,240,185947,1,8,0:0:0:0:
480,64,186201,5,12,0:1:0:0:
360,120,186456,1,0,0:0:0:0:
480,184,186710,1,8,0:1:0:0:
208,224,186964,1,2,0:0:0:0:
336,280,187218,1,8,0:1:0:0:
200,336,187473,1,0,0:0:0:0:
464,352,187727,1,10,0:1:0:0:
128,272,187981,5,8,0:0:0:0:
288,216,188235,1,8,0:1:0:0:
56,168,188489,2,0,L|48:32,1,125,2|8,0:0|0:1,0:0:0:0:
264,32,188998,1,2,0:0:0:0:
120,72,189252,1,8,0:1:0:0:
440,128,189506,1,8,0:0:0:0:
120,232,189761,1,8,0:0:0:0:
64,184,189888,1,8,0:3:0:0:
120,144,190015,1,4,0:3:0:0:
440,296,190269,6,0,L|256:296,1,125,12|0,0:1|0:0,0:0:0:0:
152,296,190778,1,8,0:1:0:0:
376,224,191032,2,0,L|384:80,1,125,2|8,0:0|0:1,0:0:0:0:
240,56,191540,1,2,0:0:0:0:
384,32,191794,1,8,0:1:0:0:
64,72,192049,5,8,0:0:0:0:
216,112,192303,1,8,0:1:0:0:
376,160,192557,1,2,0:0:0:0:
216,224,192811,1,8,0:1:0:0:
408,312,193066,1,2,0:0:0:0:
168,336,193320,2,0,L|160:200,1,125,8|0,0:1|0:1,0:0:0:0:
272,216,193701,2,0,L|288:64,1,125,2|8,0:1|0:1,0:0:0:0:
168,88,194083,1,8,0:0:0:0:
96,88,194210,1,8,0:0:0:0:
328,288,194337,6,0,L|480:288,1,125,12|0,0:1|0:0,0:0:0:0:
288,192,194845,1,8,0:1:0:0:
480,80,195100,2,0,L|328:80,1,125,2|8,0:0|0:1,0:0:0:0:
264,80,195481,1,8,0:1:0:0:
184,80,195608,1,8,0:1:0:0:
424,160,195862,1,8,0:0:0:0:
80,160,196116,6,0,B|145:172|145:172|243:278|128:360|50:264|146:172|146:172|216:160,1,437.5,4|0,0:1|0:0,0:0:0:0:
299,149,197133,1,8,0:3:0:0:
304,69,197261,1,8,0:3:0:0:
187,58,197388,2,0,L|29:57,1,125,8|0,0:0|0:0,0:0:0:0:
176,208,197896,2,0,L|264:208,1,62.5,8|8,0:0|0:3,0:0:0:0:
176,272,198150,1,4,0:3:0:0:
432,320,198405,6,0,P|400:248|240:184,1,250,4|2,0:0|0:0,0:0:0:0:
424,128,199167,1,0,0:0:0:0:
344,112,199294,2,0,L|224:64,1,125,2|0,0:0|0:0,0:0:0:0:
304,56,199676,1,0,0:0:0:0:
160,208,199930,1,2,0:0:0:0:
312,296,200184,1,0,0:0:0:0:
56,336,200439,6,0,L|40:248,1,62.5,2|0,0:0|0:0,0:0:0:0:
112,272,200693,1,0,0:0:0:0:
280,232,200947,1,2,0:0:0:0:
288,168,201074,1,0,0:0:0:0:
216,136,201201,1,2,0:0:0:0:
144,104,201328,2,0,L|312:72,1,125,0|2,0:0|0:0,0:0:0:0:
344,64,201710,1,0,0:0:0:0:
192,40,201964,1,2,0:0:0:0:
344,144,202218,2,0,L|352:248,1,62.5
200,304,202472,6,0,L|376:304,1,125,10|0,0:0|0:0,0:0:0:0:
136,216,202981,2,0,L|128:80,1,125,2|0,0:0|0:0,0:0:0:0:
224,128,203362,2,0,L|384:104,1,125,2|2,0:0|0:0,0:0:0:0:
272,80,203744,1,0,0:0:0:0:
48,280,203998,2,0,L|160:192,1,125,2|0,0:0|0:0,0:0:0:0:
224,200,204379,1,0,0:0:0:0:
368,184,204506,6,0,L|376:40,1,125,10|0,0:0|0:0,0:0:0:0:
192,48,205015,2,0,L|112:48,1,62.5,2|0,0:0|0:0,0:0:0:0:
280,120,205396,1,2,0:0:0:0:
128,216,205650,2,0,L|208:216,1,62.5,2|0,0:0|0:0,0:0:0:0:
336,192,206032,1,2,0:0:0:0:
176,152,206286,1,0,0:0:0:0:
464,336,206540,6,0,L|312:336,1,125,12|0,0:3|0:0,0:0:0:0:
216,296,207049,2,0,L|208:216,1,62.5,2|0,0:0|0:0,0:0:0:0:
288,232,207303,1,0,0:0:0:0:
360,184,207430,2,0,L|200:176,1,125,2|0,0:0|0:0,0:0:0:0:
160,168,207811,1,0,0:0:0:0:
312,96,208066,1,2,0:0:0:0:
160,88,208320,2,0,L|152:0,1,62.5
280,24,208574,6,0,L|416:24,2,125,2|0|2,0:0|0:0|0:0,0:0:0:0:
440,136,209337,2,0,L|368:136,1,62.5,2|0,0:0|0:0,0:0:0:0:
248,216,209718,2,0,L|344:216,1,62.5,2|0,0:0|0:0,0:0:0:0:
488,216,210100,1,6,0:0:0:0:
352,256,210354,1,0,0:0:0:0:
32,208,210608,6,0,L|64:72,1,125,12|0,0:3|0:0,0:0:0:0:
136,88,210989,1,0,0:0:0:0:
216,88,211116,2,0,L|400:88,1,125,2|0,0:0|0:0,0:0:0:0:
240,168,211498,2,0,L|112:168,1,125,2|0,0:0|0:0,0:0:0:0:
176,224,211879,1,2,0:0:0:0:
320,264,212133,1,2,0:0:0:0:
128,336,212388,1,2,0:0:0:0:
448,312,212642,6,0,L|312:312,2,125,4|4|8,0:3|0:3|0:0,0:0:0:0:
376,264,213278,1,8,0:0:0:0:
448,216,213405,1,8,0:2:0:0:
224,184,213532,1,10,0:2:0:0:
328,152,214167,5,2,0:0:0:0:
160,112,214421,1,2,0:0:0:0:
480,320,214675,6,0,L|312:312,1,125,12|8,0:1|0:1,0:0:0:0:
96,240,215184,2,0,L|256:232,1,125,8|0,0:0|0:0,0:0:0:0:
328,208,215565,2,0,L|472:192,1,125,10|8,0:1|0:0,0:0:0:0:
312,128,215947,1,10,0:1:0:0:
160,64,216201,1,8,0:0:0:0:
344,32,216455,1,8,0:1:0:0:
40,328,216709,6,0,L|216:328,2,125,12|8|8,0:3|0:1|0:0,0:0:0:0:
184,296,217472,1,2,0:0:0:0:
272,296,217599,2,0,L|424:232,1,125,8|8,0:1|0:0,0:0:0:0:
296,224,217980,2,0,L|160:224,1,125,8|8,0:1|0:0,0:0:0:0:
328,128,218489,1,10,0:1:0:0:
32,336,218743,6,0,L|200:336,2,125,12|8|8,0:3|0:1|0:0,0:0:0:0:
208,256,219506,1,2,0:0:0:0:
136,192,219633,2,0,L|296:192,1,125,8|8,0:1|0:0,0:0:0:0:
352,128,220014,2,0,L|184:128,1,125,8|8,0:1|0:0,0:0:0:0:
48,128,220523,1,10,0:1:0:0:
344,304,220777,6,0,L|512:304,2,125,4|8|8,0:3|0:1|0:0,0:0:0:0:
264,304,221413,1,10,0:1:0:0:
192,264,221540,1,0,0:1:0:0:
288,224,221667,1,2,0:0:0:0:
192,192,221794,2,0,L|16:192,1,125,8|8,0:1|0:1,0:0:0:0:
272,88,222302,1,8,0:0:0:0:
80,88,222557,2,0,L|-16:88,1,62.5,8|8,0:0|0:0,0:0:0:0:
240,336,222811,6,0,L|424:336,1,125,12|8,0:1|0:1,0:0:0:0:
176,240,223319,2,0,L|8:240,1,125,8|8,0:0|0:1,0:0:0:0:
128,184,223701,2,0,L|264:184,1,125,10|8,0:1|0:0,0:0:0:0:
344,184,224082,1,8,0:1:0:0:
200,240,224336,1,8,0:0:0:0:
344,296,224591,1,8,0:1:0:0:
48,344,224845,6,0,L|192:344,2,125,12|8|8,0:3|0:1|0:0,0:0:0:0:
232,200,225608,2,0,L|296:200,1,62.5,2|8,0:0|0:1,0:0:0:0:
96,96,225989,2,0,L|184:96,1,62.5,2|8,0:0|0:1,0:0:0:0:
352,88,226370,1,8,0:0:0:0:
160,240,226624,2,0,L|72:240,1,62.5,8|8,0:1|0:0,0:0:0:0:
328,312,226879,6,0,L|480:312,1,125,12|8,0:1|0:1,0:0:0:0:
248,184,227387,2,0,P|224:120|264:64,1,125,8|8,0:0|0:1,0:0:0:0:
344,56,227769,2,0,L|208:56,1,125,4|2,0:3|0:0,0:0:0:0:
128,96,228150,1,8,0:1:0:0:
360,176,228404,1,8,0:0:0:0:
40,352,228658,6,0,L|304:344,1,250,4|8,0:0|0:1,0:0:0:0:
64,304,229421,2,0,L|56:168,1,125,8|0,0:0|0:0,0:0:0:0:
272,128,229930,2,0,L|360:128,2,62.5,8|8|8,0:1|0:0|0:1,0:0:0:0:
48,56,230438,2,0,L|168:120,1,125,8|8,0:0|0:1,0:0:0:0:
488,296,230947,6,0,L|320:296,1,125,4|8,0:1|0:1,0:0:0:0:
288,256,231328,1,8,0:0:0:0:
376,224,231455,1,8,0:1:0:0:
56,160,231709,2,0,L|184:160,1,125,12|8,0:1|0:1,0:0:0:0:
256,160,232091,1,8,0:0:0:0:
56,320,232218,5,8,0:1:0:0:
40,240,232345,1,8,0:1:0:0:
232,264,232472,1,8,0:3:0:0:
240,176,232599,1,8,0:1:0:0:
32,128,232726,1,4,0:3:0:0:
104,128,232854,1,4,0:3:0:0:
336,128,232981,6,0,L|488:128,1,125,4|0,0:0|0:0,0:0:0:0:
264,200,233489,2,0,L|256:344,1,125,8|8,0:0|0:1,0:0:0:0:
344,328,233871,1,8,0:0:0:0:
416,304,233998,1,8,0:1:0:0:
344,256,234125,1,8,0:0:0:0:
416,232,234252,1,8,0:1:0:0:
240,160,234506,2,0,L|400:160,1,125,8|0,0:0|0:0,0:0:0:0:
80,144,235015,6,0,L|72:8,1,125,8|8,0:1|0:1,0:0:0:0:
272,256,235523,2,0,L|440:256,1,125,8|8,0:0|0:1,0:0:0:0:
320,224,235904,1,8,0:0:0:0:
248,200,236032,1,8,0:1:0:0:
320,144,236159,1,8,0:0:0:0:
248,120,236286,1,8,0:1:0:0:
464,312,236540,2,0,L|472:184,1,125,8|8,0:0|0:3,0:0:0:0:
160,144,237048,5,8,0:1:0:0:
320,112,237303,1,8,0:1:0:0:
64,208,237557,2,0,L|56:352,1,125,8|8,0:0|0:1,0:0:0:0:
136,336,237938,1,8,0:0:0:0:
208,304,238065,2,0,L|216:224,1,62.5,8|8,0:1|0:0,0:0:0:0:
144,200,238320,2,0,L|216:200,1,62.5,8|8,0:1|0:1,0:0:0:0:
392,192,238574,1,8,0:0:0:0:
208,176,238828,6,0,L|344:176,1,125,4|8,0:0|0:1,0:0:0:0:
192,112,239337,1,8,0:1:0:0:
416,304,239591,2,0,L|264:304,1,125,8|8,0:0|0:1,0:0:0:0:
160,248,240099,1,8,0:1:0:0:
216,248,240226,1,8,0:0:0:0:
272,248,240354,1,8,0:1:0:0:
72,136,240608,1,8,0:0:0:0:
272,104,240862,2,0,L|336:104,1,62.5,8|8,0:0|0:0,0:0:0:0:
136,320,241116,6,0,L|-24:320,1,125,4|8,0:0|0:1,0:0:0:0:
216,200,241625,2,0,L|352:200,1,125,8|8,0:0|0:1,0:0:0:0:
280,168,242006,1,8,0:0:0:0:
208,136,242133,1,8,0:1:0:0:
280,96,242260,1,8,0:0:0:0:
208,72,242387,1,8,0:1:0:0:
392,352,242642,2,0,L|400:208,1,125,8|0,0:0|0:3,0:0:0:0:
104,232,243150,6,0,L|288:232,2,125,12|8|8,0:3|0:1|0:0,0:0:0:0:
208,232,243913,1,8,0:1:0:0:
280,200,244040,1,8,0:0:0:0:
208,168,244167,1,8,0:1:0:0:
136,128,244294,1,8,0:0:0:0:
208,96,244421,1,8,0:1:0:0:
8,72,244676,2,0,L|136:72,1,125,8|0,0:0|0:0,0:0:0:0:
448,296,245184,6,0,L|280:296,2,125,12|8|8,0:1|0:1|0:0,0:0:0:0:
256,216,245947,2,0,L|248:144,1,62.5,8|8,0:1|0:0,0:0:0:0:
328,128,246201,2,0,L|424:128,2,62.5,8|8|8,0:1|0:0|0:1,0:0:0:0:
136,128,246709,1,8,0:0:0:0:
456,328,246964,6,0,P|504:272|408:160,1,250,4|8,0:0|0:1,0:0:0:0:
248,152,247726,2,0,L|104:152,1,125,8|0,0:0|0:0,0:0:0:0:
360,248,248235,2,0,L|432:248,2,62.5,8|8|8,0:1|0:0|0:1,0:0:0:0:
216,264,248743,1,8,0:0:0:0:
408,336,248998,1,8,0:1:0:0:
88,336,249252,6,0,P|40:288|32:184,1,125,2|8,0:1|0:1,0:0:0:0:
96,232,249633,1,8,0:1:0:0:
288,160,249761,2,0,L|304:64,1,62.5,4|4,0:3|0:3,0:0:0:0:
216,104,250015,1,2,0:1:0:0:
440,328,250269,2,0,L|312:240,1,125,4|8,0:1|0:1,0:0:0:0:
192,208,250778,2,0,L|96:208,1,62.5,8|8,0:3|0:1,0:0:0:0:
240,120,251032,2,0,L|320:120,1,62.5,4|4,0:3|0:3,0:0:0:0:
112,248,251286,6,0,P|56:168|144:128,1,187.5,6|0,0:0|0:0,0:0:0:0:
200,120,251794,1,0,0:0:0:0:
40,336,252048,2,0,L|240:336,1,187.5,2|0,0:0|0:0,0:0:0:0:
144,296,252557,1,0,0:0:0:0:
344,200,252811,2,0,P|376:144|336:104,1,125,2|0,0:0|0:0,0:0:0:0:
264,104,253192,1,0,0:0:0:0:
128,248,253319,6,0,L|368:248,1,187.5,2|0,0:0|0:0,0:0:0:0:
400,248,253828,1,0,0:0:0:0:
232,320,254082,2,0,P|176:264|264:208,1,187.5,2|0,0:0|0:0,0:0:0:0:
320,200,254591,1,0,0:0:0:0:
104,208,254845,2,0,L|88:72,1,125,2|0,0:0|0:0,0:0:0:0:
176,80,255226,1,0,0:0:0:0:
320,304,255353,6,0,P|416:256|448:160,1,187.5,2|0,0:0|0:0,0:0:0:0:
360,176,255862,1,0,0:0:0:0:
216,256,256116,2,0,P|310:255|416:256,1,187.5,2|0,0:0|0:0,0:0:0:0:
488,256,256624,1,0,0:0:0:0:
264,192,256879,2,0,L|128:192,1,125,2|0,0:0|0:0,0:0:0:0:
208,144,257260,1,0,0:0:0:0:
352,336,257387,6,0,P|456:304|496:208,1,187.5,2|0,0:0|0:0,0:0:0:0:
408,224,257896,1,0,0:0:0:0:
232,208,258150,2,0,P|184:144|248:72,1,187.5,2|0,0:0|0:0,0:0:0:0:
320,72,258658,1,0,0:0:0:0:
96,320,258913,2,0,L|80:152,1,125,2|0,0:0|0:0,0:0:0:0:
408,320,259421,6,0,L|200:320,1,187.5,4|0,0:1|0:0,0:0:0:0:
136,312,259930,1,0,0:0:0:0:
320,224,260184,2,0,P|376:152|296:104,1,187.5,2|0,0:0|0:0,0:0:0:0:
224,104,260692,1,0,0:0:0:0:
432,48,260947,2,0,L|304:48,1,125,2|0,0:0|0:0,0:0:0:0:
223,46,261328,1,0,0:0:0:0:
368,328,261455,6,0,P|424:248|336:208,1,187.5,2|0,0:0|0:0,0:0:0:0:
272,200,261964,1,0,0:0:0:0:
104,112,262217,2,0,L|304:112,1,187.5,2|0,0:0|0:0,0:0:0:0:
208,152,262726,1,0,0:0:0:0:
432,272,262980,2,0,L|296:272,1,125,2|0,0:0|0:0,0:0:0:0:
224,272,263361,1,0,0:0:0:0:
96,208,263489,6,0,P|72:144|168:72,1,187.5,2|0,0:0|0:0,0:0:0:0:
232,72,263998,1,0,0:0:0:0:
400,72,264252,2,0,P|464:120|432:216,1,187.5,2|0,0:0|0:0,0:0:0:0:
344,232,264761,1,0,0:0:0:0:
128,336,265015,2,0,L|296:336,1,125,2|0,0:0|0:0,0:0:0:0:
336,336,265396,1,0,0:0:0:0:
200,256,265523,6,0,L|24:256,1,125,2|0,0:0|0:0,0:0:0:0:
144,216,265905,1,0,0:0:0:0:
224,184,266032,1,0,0:0:0:0:
72,128,266286,2,0,L|216:80,1,125,2|0,0:0|0:0,0:0:0:0:
272,64,266667,1,0,0:0:0:0:
304,128,266794,1,0,0:0:0:0:
80,336,267049,2,0,L|64:168,1,125,2|0,0:0|0:0,0:0:0:0:
336,192,267557,5,2,0:0:0:0:
256,192,267811,12,0,271625,0:0:0:0:
