osu file format v14

[General]
AudioFilename: audio.mp3
AudioLeadIn: 0
PreviewTime: 70461
Countdown: 0
SampleSet: Soft
StackLeniency: 0.2
Mode: 0
LetterboxInBreaks: 0
WidescreenStoryboard: 1

[Editor]
DistanceSpacing: 3.5
BeatDivisor: 4
GridSize: 8
TimelineZoom: 3.399999

[Metadata]
Title:Hikari no Furu Mori
TitleUnicode:光の降る森
Artist:Shimotsuki Haruka
ArtistUnicode:霜月はるか
Creator:Lv9
Version:Elthia
Source:
Tags:月追いの都市 翼の降る王国 光の降る森~捻子巻く月 vol.1 trial ver.~ tieLeaf M3-33 宇都圭輝 渡邉"nabeken"賢一 石井康幸 矢吹正則 土屋玲子 旭 孝 坂 知学 日山尚 空乃蒼 Novelty Japanese
BeatmapID:1771397
BeatmapSetID:723074

[Difficulty]
HPDrainRate:5
CircleSize:5.2
OverallDifficulty:8.6
ApproachRate:8.6
SliderMultiplier:0.86
SliderTickRate:1

[Events]
//Background and Video events
0,0,"bgEDIT.jpg",0,0
//Break Periods
2,193714,200220
2,202389,206726
//Storyboard Layer 0 (Background)
//Storyboard Layer 1 (Fail)
//Storyboard Layer 2 (Pass)
//Storyboard Layer 3 (Foreground)
//Storyboard Sound Samples

[TimingPoints]
1063,600,3,2,1,30,1,0
1063,-62.5,3,2,1,30,0,0
14363,-62.5,3,2,1,14,0,0
14863,-62.5,3,2,1,21,0,0
15463,-62.5,3,2,1,28,0,0
16063,-62.5,3,2,1,35,0,0
16663,-62.5,3,2,1,42,0,0
17263,-62.5,3,2,1,49,0,0
17863,-62.5,3,2,1,56,0,0
18463,-62.5,3,2,1,63,0,0
18963,361.44578313253,3,2,2,70,1,0
19136,361.44578313253,3,2,2,70,1,0
19136,-62.5,3,2,2,70,0,1
22389,-62.5,3,2,90,70,0,1
22750,-62.5,3,2,2,70,0,1
23111,-62.5,3,2,91,70,0,1
23473,-62.5,3,2,2,70,0,1
23774,-62.5,3,2,2,5,0,1
23834,-76.9230769230769,3,2,2,70,0,1
24136,-76.9230769230769,3,2,2,5,0,1
24196,-100,3,2,2,70,0,1
24858,-100,3,2,2,5,0,1
24919,-76.9230769230769,3,2,2,70,0,1
25220,-76.9230769230769,3,2,2,5,0,1
25280,-62.5,3,2,2,70,0,1
31063,-62.5,3,2,90,70,0,1
31425,-62.5,3,2,2,70,0,1
31786,-62.5,3,2,91,70,0,1
32148,-62.5,3,2,2,70,0,1
32449,-62.5,3,2,2,5,0,1
32509,-76.9230769230769,3,2,2,70,0,1
32750,-76.9230769230769,3,2,2,5,0,1
32870,-76.9230769230769,3,2,2,70,0,1
33172,-76.9230769230769,3,2,2,5,0,1
33232,-100,3,2,2,70,0,1
33473,-100,3,2,2,5,0,1
33593,-100,3,2,2,70,0,1
33895,-100,3,2,2,5,0,1
33955,-142.857142857143,3,2,2,70,0,1
34256,-142.857142857143,3,2,2,5,0,1
34316,-100,3,2,2,70,0,1
35039,-100,3,2,2,70,0,1
35099,-100,3,2,2,5,0,1
35220,-100,3,2,2,70,0,1
35280,-100,3,2,2,5,0,1
35401,-62.5,3,2,2,70,0,1
36485,-100,3,2,1,50,0,0
41093,-100,3,2,1,5,0,0
41184,-100,3,2,1,50,0,0
42539,-100,3,2,1,5,0,0
42629,-100,3,2,1,50,0,0
42901,-100,3,2,1,5,0,0
42991,-100,3,2,1,50,0,0
45160,-76.9230769230769,3,2,1,55,0,0
46515,-76.9230769230769,3,2,1,5,0,0
46605,-76.9230769230769,3,2,1,55,0,0
51575,-76.9230769230769,3,2,1,5,0,0
51666,-76.9230769230769,3,2,1,55,0,0
53111,-76.9230769230769,3,2,1,55,0,0
53172,-76.9230769230769,3,2,1,5,0,0
53292,-76.9230769230769,3,2,1,55,0,0
53352,-76.9230769230769,3,2,1,5,0,0
53473,-76.9230769230769,3,2,1,55,0,0
53834,-62.5,3,2,1,55,0,0
56003,-62.5,3,2,2,60,0,0
57087,-62.5,3,2,90,60,0,0
57449,-62.5,3,2,2,60,0,0
57810,-62.5,3,2,91,60,0,0
58172,-62.5,3,2,1,60,0,0
58443,-62.5,3,2,1,5,0,0
58533,-62.5,3,2,1,60,0,0
60611,-62.5,3,2,1,5,0,0
60702,-62.5,3,2,1,60,0,0
61425,-55.5555555555556,3,2,1,65,0,0
61786,-58.8235294117647,3,2,1,65,0,0
62148,-62.5,3,2,1,65,0,0
63593,-55.5555555555556,3,2,1,65,0,0
63955,-58.8235294117647,3,2,1,65,0,0
64316,-62.5,3,2,1,65,0,0
66846,-62.5,3,2,1,70,0,0
67931,-58.8235294117647,3,2,1,75,0,0
69015,-55.5555555555556,3,2,1,80,0,0
70099,-55.5555555555556,3,2,2,85,0,0
71033,-100,3,2,2,85,0,0
71123,-100,3,2,2,5,0,0
71184,-55.5555555555556,3,2,2,85,0,1
74798,-71.4285714285714,3,2,2,85,0,1
75160,-62.5,3,2,2,85,0,1
75521,-55.5555555555556,3,2,2,85,0,1
78774,-62.5,3,2,90,85,0,1
78864,-62.5,3,2,90,5,0,1
78955,-71.4285714285714,3,2,90,85,0,1
79045,-71.4285714285714,3,2,90,5,0,1
79135,-71.4285714285714,3,2,2,85,0,1
79497,-71.4285714285714,3,2,91,85,0,1
79587,-71.4285714285714,3,2,91,5,0,1
79678,-62.5,3,2,91,85,0,1
79768,-62.5,3,2,91,5,0,1
79858,-55.5555555555556,3,2,2,85,0,1
82389,-62.5,3,2,2,85,0,1
82750,-71.4285714285714,3,2,2,85,0,1
83533,-71.4285714285714,3,2,2,5,0,1
83654,-71.4285714285714,3,2,2,85,0,1
83714,-71.4285714285714,3,2,2,5,0,1
83834,-62.5,3,2,2,85,0,1
83895,-62.5,3,2,2,5,0,1
84015,-62.5,3,2,2,85,0,1
84075,-62.5,3,2,2,5,0,1
84196,-55.5555555555556,3,2,2,85,0,1
87449,-71.4285714285714,3,2,2,85,0,1
87810,-62.5,3,2,2,85,0,1
88172,-55.5555555555556,3,2,2,85,0,1
92148,-71.4285714285714,3,2,2,85,0,1
92509,-62.5,3,2,2,85,0,1
92870,-55.5555555555556,3,2,2,85,0,1
96123,-62.5,3,2,90,85,0,1
96214,-62.5,3,2,90,5,0,1
96304,-71.4285714285714,3,2,90,85,0,1
96395,-71.4285714285714,3,2,90,5,0,1
96485,-71.4285714285714,3,2,2,85,0,1
96846,-71.4285714285714,3,2,91,85,0,1
96937,-71.4285714285714,3,2,91,5,0,1
97027,-62.5,3,2,91,85,0,1
97117,-62.5,3,2,91,5,0,1
97208,-55.5555555555556,3,2,2,85,0,1
103352,-200,3,2,2,85,0,1
103714,-100,3,2,2,85,0,1
105521,-200,3,2,1,50,0,0
114557,-200,3,2,1,55,0,0
115642,-142.857142857143,3,2,1,50,0,0
118895,-62.5,3,2,1,50,0,0
119196,-62.5,3,2,1,5,0,0
119256,-76.9230769230769,3,2,1,50,0,0
119497,-76.9230769230769,3,2,1,5,0,0
119617,-76.9230769230769,3,2,1,50,0,0
119919,-76.9230769230769,3,2,1,5,0,0
119979,-100,3,2,1,50,0,0
120220,-100,3,2,1,5,0,0
120340,-100,3,2,1,50,0,0
120702,-142.857142857143,3,2,1,50,0,0
121003,-142.857142857143,3,2,1,5,0,0
121063,-100,3,2,1,50,0,0
123232,-76.9230769230769,3,2,2,55,0,0
131184,-61.5384615384615,3,2,2,55,0,0
131545,-51.2820512820513,3,2,2,55,0,0
131907,-76.9230769230769,3,2,2,55,0,0
138413,-142.857142857143,3,2,2,55,0,0
138774,-100,3,2,2,55,0,0
139045,-100,3,2,2,5,0,0
139135,-76.9230769230769,3,2,2,55,0,0
139497,-71.4285714285714,3,2,1,55,0,0
139768,-71.4285714285714,3,2,1,5,0,0
139858,-66.6666666666667,3,2,1,55,0,0
140129,-66.6666666666667,3,2,1,5,0,0
140220,-62.5,3,2,1,55,0,0
142750,-62.5,3,2,2,60,0,0
143834,-62.5,3,2,90,60,0,0
144015,-100,3,2,90,60,0,0
144196,-100,3,2,2,60,0,0
144557,-100,3,2,91,60,0,0
144919,-62.5,3,2,1,60,0,0
145190,-62.5,3,2,1,5,0,0
145280,-62.5,3,2,1,60,0,0
147358,-62.5,3,2,1,5,0,0
147449,-62.5,3,2,1,60,0,0
148172,-62.5,3,2,1,65,0,0
148533,-142.857142857143,3,2,1,65,0,0
149256,-62.5,3,2,1,65,0,0
150702,-142.857142857143,3,2,1,65,0,0
151425,-62.5,3,2,1,65,0,0
153593,-62.5,3,2,1,70,0,0
154678,-58.8235294117647,3,2,1,75,0,0
155762,-55.5555555555556,3,2,1,80,0,0
156033,-55.5555555555556,3,2,2,80,0,0
156304,-55.5555555555556,3,2,1,80,0,0
156846,-55.5555555555556,3,2,2,85,0,0
157795,-33.3333333333333,3,2,2,85,0,0
157931,-55.5555555555556,3,2,2,85,0,1
165521,-62.5,3,2,90,85,0,1
165611,-62.5,3,2,90,5,0,1
165702,-71.4285714285714,3,2,90,85,0,1
165792,-71.4285714285714,3,2,90,5,0,1
165882,-71.4285714285714,3,2,2,85,0,1
166244,-71.4285714285714,3,2,91,85,0,1
166334,-71.4285714285714,3,2,91,5,0,1
166425,-62.5,3,2,91,85,0,1
166515,-62.5,3,2,91,5,0,1
166605,-55.5555555555556,3,2,2,85,0,1
182870,-62.5,3,2,90,85,0,1
182961,-62.5,3,2,90,5,0,1
183051,-71.4285714285714,3,2,90,85,0,1
183142,-71.4285714285714,3,2,90,5,0,1
183232,-71.4285714285714,3,2,2,85,0,1
183593,-71.4285714285714,3,2,91,85,0,1
183684,-71.4285714285714,3,2,91,5,0,1
183774,-62.5,3,2,91,85,0,1
183864,-62.5,3,2,91,5,0,1
183955,-55.5555555555556,3,2,2,85,0,1
191184,-100,3,2,2,85,0,1
192629,-100,3,2,1,50,0,0
207810,-100,3,2,1,60,0,0
208262,-100,3,2,1,5,0,0
208352,-100,3,2,1,60,0,0
208714,-100,3,2,1,60,0,0
208804,-100,3,2,1,5,0,0
208895,-100,3,2,1,60,0,0
208985,-66.6666666666667,3,2,1,70,0,0
209979,-55.5555555555556,3,2,1,80,0,0
212539,-50,3,2,1,80,0,0
212810,-50,3,2,1,5,0,0
212870,-55.5555555555556,3,2,1,80,0,0
213172,-55.5555555555556,3,2,1,5,0,0
213232,-62.5,3,2,1,80,0,0
213533,-62.5,3,2,1,5,0,0
213593,-71.4285714285714,3,2,1,80,0,0
214316,-100,3,2,1,80,0,0
216786,-100,3,2,1,5,0,0
216846,-76.9230769230769,3,2,1,80,0,0
217148,-76.9230769230769,3,2,1,5,0,0
217208,-62.5,3,2,1,80,0,0
217509,-62.5,3,2,1,5,0,0
217569,-52.6315789473684,3,2,1,80,0,0
218292,-100,3,2,1,80,0,0
218654,-55.5555555555556,3,2,1,80,0,0
219376,-100,3,2,1,80,0,0
221907,-55.5555555555556,3,2,1,80,0,0
222991,-50,3,2,1,90,0,0
227328,-55.5555555555556,3,2,1,80,0,0
229497,-55.5555555555556,3,2,90,90,0,0
229858,-100,3,2,2,80,0,0
229919,-100,3,2,2,5,0,0
230039,-100,3,2,2,80,0,0
230220,-100,3,2,91,80,0,0
230581,-100,3,2,2,80,0,0
231666,-100,3,2,2,80,0,1
231726,-100,3,2,2,5,0,1
232750,-100,3,2,1,40,0,0
233111,-100,3,2,1,60,0,0
233473,-100,3,2,2,80,0,0
234437,-100,3,2,2,5,0,0
234738,-100,3,2,2,80,0,0
234798,-100,3,2,2,5,0,0
234919,-55.5555555555556,3,2,2,80,0,0
236003,-100,3,2,2,80,0,1
236063,-100,3,2,2,5,0,1
236364,-100,3,2,2,80,0,1
236425,-100,3,2,2,5,0,1
236545,-71.4285714285714,3,2,2,80,0,0
237087,-71.4285714285714,3,2,2,80,0,1
237148,-71.4285714285714,3,2,2,5,0,1
237449,-71.4285714285714,3,2,2,80,0,1
237509,-71.4285714285714,3,2,2,5,0,1
237810,-71.4285714285714,3,2,2,80,0,0
238895,-62.5,3,2,2,80,0,0
239316,-62.5,3,2,2,5,0,0
239437,-62.5,3,2,2,80,0,0
240340,-55.5555555555556,3,2,2,80,0,1
247931,-100,3,2,2,80,0,0
248714,-100,3,2,2,5,0,0
248834,-71.4285714285714,3,2,2,80,0,0
248895,-71.4285714285714,3,2,2,5,0,0
249015,-55.5555555555556,3,2,2,90,0,1
251545,-71.4285714285714,3,2,2,90,0,1
251907,-100,3,2,2,90,0,1
252991,-71.4285714285714,3,2,2,90,0,1
253352,-55.5555555555556,3,2,2,90,0,1
256605,-100,3,2,90,90,0,1
256666,-100,3,2,90,5,0,1
256786,-100,3,2,90,90,0,1
256967,-100,3,2,2,90,0,1
257027,-100,3,2,2,5,0,1
257148,-100,3,2,2,90,0,1
257328,-100,3,2,91,90,0,1
257389,-100,3,2,91,5,0,1
257509,-100,3,2,91,90,0,1
257569,-100,3,2,91,5,0,1
257690,-55.5555555555556,3,2,2,90,0,1
260943,-100,3,2,2,90,0,1
261304,-71.4285714285714,3,2,2,90,0,1
261666,-55.5555555555556,3,2,2,90,0,1
264196,-100,3,2,2,90,0,1
265280,-76.9230769230769,3,2,2,80,0,0
266364,-62.5,3,2,2,80,0,1
269617,-62.5,3,2,90,80,0,1
269979,-62.5,3,2,2,80,0,1
270340,-62.5,3,2,91,80,0,1
270702,-62.5,3,2,2,80,0,1
271003,-62.5,3,2,2,5,0,1
271063,-76.9230769230769,3,2,2,80,0,1
271364,-76.9230769230769,3,2,2,5,0,1
271425,-100,3,2,2,80,0,1
272087,-100,3,2,2,5,0,1
272148,-76.9230769230769,3,2,2,80,0,1
272449,-76.9230769230769,3,2,2,5,0,1
272509,-62.5,3,2,2,80,0,1
278292,-62.5,3,2,90,80,0,1
278654,-62.5,3,2,2,80,0,1
279015,-62.5,3,2,91,80,0,1
279376,-62.5,3,2,2,80,0,1
279678,-62.5,3,2,2,5,0,1
279738,-76.9230769230769,3,2,2,80,0,1
279979,-76.9230769230769,3,2,2,5,0,1
280099,-76.9230769230769,3,2,2,80,0,1
280401,-76.9230769230769,3,2,2,5,0,1
280461,-100,3,2,2,80,0,1
280702,-100,3,2,2,5,0,1
280822,-100,3,2,2,80,0,1
281124,-100,3,2,2,5,0,1
281184,-142.857142857143,3,2,2,80,0,1
281485,-142.857142857143,3,2,2,5,0,1
281545,-100,3,2,2,80,0,1
282328,-100,3,2,2,5,0,1
282449,-100,3,2,2,80,0,1
282509,-100,3,2,2,5,0,1
282629,-100,3,2,2,70,0,1
283714,-142.857142857143,3,2,1,60,0,0
288051,-142.857142857143,3,2,1,50,0,0
292389,-142.857142857143,3,2,1,40,0,0
294557,-142.857142857143,3,2,1,35,0,0
296726,-142.857142857143,3,2,1,30,0,0
298895,-142.857142857143,3,2,1,25,0,0
300882,-142.857142857143,3,2,1,20,0,0

[Colours]
Combo1 : 142,53,74
Combo2 : 175,95,60
Combo3 : 251,150,110
Combo4 : 220,159,180
Combo5 : 225,107,140
SliderTrackOverride : 120,85,43
SliderBorder : 202,122,44

[HitObjects]
256,192,1063,6,0,B|286:181|305:207|305:207|324:234|355:223,1,114.666666666667,0|0,0:0|0:0,0:0:0:0:
364,231,1663,2,0,L|431:240,2,68.8,12|0|2,0:0|0:0|0:0,0:0:0:0:
256,192,2863,2,0,B|218:178|196:210|196:210|174:241|135:229,2,137.6,8|0|2,0:0|0:0|0:0,0:0:0:0:
96,32,4663,2,0,P|103:75|143:94,1,91.7333333333333,0|0,0:0|0:0,0:0:0:0:
192,160,5163,1,0,0:0:0:0:
200,152,5263,6,0,P|263:127|331:130,1,137.6,12|2,0:0|0:0,0:0:0:0:
435,242,6163,1,0,0:0:0:0:
384,320,6463,2,0,P|351:329|325:311,1,68.8,8|0,0:0|0:0,0:0:0:0:
256,192,7063,1,2,0:0:0:0:
256,192,8263,54,0,B|225:181|206:207|206:207|187:234|156:223,1,114.666666666667
148,231,8863,2,0,L|80:240,2,68.8,12|0|2,0:0|0:0|0:0,0:0:0:0:
256,192,10063,2,0,B|293:178|315:210|315:210|338:241|376:229,2,137.6,8|0|2,0:0|0:0|0:0,0:0:0:0:
416,32,11863,2,0,P|408:75|368:94,1,91.7333333333333,8|0,0:0|0:0,0:0:0:0:
301,75,12363,1,0,0:0:0:0:
293,67,12463,5,12,0:0:0:0:
244,129,12763,1,0,0:0:0:0:
287,194,13063,1,2,0:0:0:0:
362,173,13663,1,8,0:0:0:0:
368,94,14363,22,0,L|374:84,92,11.4666666666667
366,177,19053,1,0,0:0:0:0:
370,181,19136,38,0,P|369:215|381:247,1,68.8,12|0,0:0|0:0,0:0:0:0:
432,368,19497,2,0,P|444:336|443:301,1,68.8,8|0,0:0|0:0,0:0:0:0:
288,208,19858,2,0,B|225:207|256:239|193:238,1,103.2,2|0,0:0|0:0,0:0:0:0:
176,253,20220,54,0,P|143:248|127:218,1,68.8,8|0,0:0|0:0,0:0:0:0:
224,96,20581,1,8,0:0:0:0:
320,144,20762,1,0,0:0:0:0:
378,104,20943,2,0,L|479:87,1,103.2,0|0,0:0|0:0,0:0:0:0:
464,176,21304,6,0,P|449:205|416:210,1,68.8,8|0,0:0|0:0,0:0:0:0:
275,322,21666,2,0,P|301:341|333:332,1,68.8,8|0,0:0|0:0,0:0:0:0:
423,269,22027,2,0,P|434:238|417:211,1,68.8,2|0,0:0|0:0,0:0:0:0:
355,247,22298,1,0,0:0:0:0:
347,255,22389,53,8,0:0:0:0:
423,269,22569,1,8,0:0:0:0:
480,176,22750,5,8,0:0:0:0:
254,225,22931,1,8,0:0:0:0:
227,358,23111,2,8,P|259:352|274:323,1,68.8,8|8,0:0|0:0,0:0:0:0:
347,255,23473,6,0,L|340:140,1,114.666666666667,8|0,0:0|0:0,0:0:0:0:
324,156,23834,6,0,L|329:62,1,93.1666624018353,8|0,0:0|0:0,0:0:0:0:
337,52,24196,6,0,L|334:9,1,43,2|0,0:0|0:0,0:0:0:0:
138,18,24557,2,0,L|134:90,1,71.6666666666667,8|0,0:0|0:0,0:0:0:0:
145,100,24919,54,0,L|150:193,1,93.1666624018353,8|0,0:0|0:0,0:0:0:0:
135,210,25280,54,0,L|131:278,1,68.8,2|0,0:0|0:0,0:0:0:0:
176,368,25642,53,8,0:0:0:0:
421,338,26003,2,0,B|433:337|433:337|422:363|371:366|357:341,1,103.2,8|0,0:0|0:0,0:0:0:0:
342,325,26364,2,0,L|274:321,1,68.8,2|0,0:0|0:0,0:0:0:0:
256,208,26726,54,0,B|214:201|232:225|191:218,1,68.8,8|0,0:0|0:0,0:0:0:0:
176,368,27087,2,0,B|134:374|152:350|111:357,1,68.8,8|0,0:0|0:0,0:0:0:0:
23,364,27449,1,0,0:0:0:0:
175,300,27629,1,0,0:0:0:0:
179,296,27720,1,0,0:0:0:0:
183,292,27810,6,0,L|251:288,1,68.8,12|0,0:0|0:0,0:0:0:0:
356,339,28172,1,8,0:0:0:0:
448,288,28352,2,0,P|468:260|468:227,1,68.8,0|2,0:0|0:0,0:0:0:0:
352,72,28714,1,0,0:0:0:0:
349,152,28895,54,0,P|363:183|391:199,1,68.8,8|0,0:0|0:0,0:0:0:0:
445,331,29256,2,0,L|341:324,1,103.2,8|0,0:0|0:0,0:0:0:0:
326,340,29617,1,0,0:0:0:0:
205,289,29798,1,0,0:0:0:0:
183,292,29889,1,0,0:0:0:0:
173,312,29979,5,8,0:0:0:0:
208,384,30160,1,0,0:0:0:0:
256,240,30340,2,0,P|253:205|245:172,1,68.8,8|0,0:0|0:0,0:0:0:0:
120,128,30702,1,2,0:0:0:0:
72,72,30882,54,0,P|73:54|77:38,2,34.4,0|0|8,0:0|0:0|0:0,0:0:0:0:
120,128,31244,1,8,0:0:0:0:
158,219,31425,1,8,0:0:0:0:
72,304,31786,1,8,0:0:0:0:
128,120,31967,1,8,0:0:0:0:
243,92,32148,22,0,L|357:85,1,114.666666666667,8|0,0:0|0:0,0:0:0:0:
373,101,32509,2,0,L|456:105,1,74.5333299214683,8|0,0:0|0:0,0:0:0:0:
162,192,32870,2,0,B|218:191|190:220|246:219,1,93.1666624018353,2|0,0:0|0:0,0:0:0:0:
256,208,33232,6,0,L|313:205,1,57.3333333333333,8|0,0:0|0:0,0:0:0:0:
321,300,33593,2,0,P|355:304|370:335,1,71.6666666666667,8|0,0:0|0:0,0:0:0:0:
376,341,33955,2,0,L|426:343,1,50.1666651357015,2|0,0:0|0:0,0:0:0:0:
480,288,34316,6,0,B|491:252|453:225|453:225|431:195|442:159,1,143.333333333333,12|0,0:0|0:0,0:0:0:0:
496,112,34979,1,0,0:0:0:0:
500,108,35039,54,0,L|500:93,1,14.3333333333333,10|0,0:0|0:0,0:0:0:0:
368,133,35220,54,0,L|362:120,1,14.3333333333333,8|0,0:0|0:0,0:0:0:0:
230,135,35401,54,0,P|196:140|167:124,1,68.8,8|0,0:0|0:0,0:0:0:0:
58,57,35762,1,8,0:0:0:0:
166,123,35943,1,0,0:0:0:0:
189,221,36123,1,2,0:0:0:0:
157,294,36304,1,0,0:0:0:0:
106,332,36485,54,0,P|87:342|66:337,1,43
31,207,36846,2,0,P|47:167|52:125,2,86,0|0|8,0:0|0:0|0:0,0:0:0:0:
8,282,37750,1,0,0:0:0:0:
106,332,37931,2,0,B|157:323|135:353|187:345,1,86,2|0,0:0|0:0,0:0:0:0:
264,335,38473,1,0,0:0:0:0:
304,272,38654,6,0,P|295:252|293:231,1,43
408,146,39015,1,0,0:0:0:0:
379,42,39557,2,0,P|376:63|367:82,1,43,0|8,0:0|0:0,0:0:0:0:
288,136,39919,1,0,0:0:0:0:
224,106,40099,2,0,L|138:100,1,86,2|0,0:0|0:0,0:0:0:0:
34,214,40822,54,0,B|72:213|53:233|93:232,1,64.5
109,249,41184,2,0,L|194:245,1,86,0|0,0:0|0:0,0:0:0:0:
480,320,41907,1,8,0:0:0:0:
408,351,42087,1,0,0:0:0:0:
343,310,42268,2,0,B|303:308|322:329|284:327,1,64.5,2|0,0:0|0:0,0:0:0:0:
267,342,42629,2,0,L|332:345,1,64.5,0|0,0:0|0:0,0:0:0:0:
408,351,42991,6,0,L|451:353,1,43
416,224,43352,1,0,0:0:0:0:
395,145,43714,1,0,0:0:0:0:
452,87,44075,1,8,0:0:0:0:
456,83,44256,1,0,0:0:0:0:
512,141,44437,2,0,P|516:161|506:180,1,43,2|0,0:0|0:0,0:0:0:0:
363,239,44798,1,0,0:0:0:0:
355,247,44979,1,0,0:0:0:0:
285,320,45160,54,0,P|279:345|292:370,1,55.8999974411012,6|0,0:0|0:0,0:0:0:0:
384,352,45521,2,0,B|450:331|428:375|492:352,1,111.799994882202,8|0,0:0|0:0,0:0:0:0:
479,234,46063,1,0,0:0:0:0:
368,192,46244,2,0,P|331:172|290:179,1,83.8499961616518,2|0,0:0|0:0,0:0:0:0:
274,195,46605,2,0,P|249:207|222:202,1,55.8999974411012,10|0,0:0|0:0,0:0:0:0:
128,296,46967,1,0,0:0:0:0:
120,304,47148,1,0,0:0:0:0:
168,360,47328,6,0,P|223:360|277:375,1,111.799994882202,0|8,0:0|0:0,0:0:0:0:
317,311,47870,2,0,P|344:310|371:303,1,55.8999974411012,0|0,0:0|0:0,0:0:0:0:
448,256,48232,1,0,0:0:0:0:
493,145,48413,2,0,B|481:76|452:116|443:48,2,111.799994882202,2|10|0,0:0|0:0|0:0,0:0:0:0:
497,293,49497,54,0,P|435:322|448:255,1,167.699992323304
432,336,50220,2,0,P|407:348|380:343,1,55.8999974411012,0|0,0:0|0:0,0:0:0:0:
320,288,50581,1,2,0:0:0:0:
218,275,50762,1,0,0:0:0:0:
116,353,50943,1,10,0:0:0:0:
451,353,51304,2,0,P|412:365|379:342,1,83.8499961616518,0|0,0:0|0:0,0:0:0:0:
362,325,51666,6,0,P|382:273|388:217,1,111.799994882202,0|8,0:0|0:0,0:0:0:0:
256,64,52389,1,0,0:0:0:0:
128,96,52750,1,2,0:0:0:0:
69,172,52931,1,0,0:0:0:0:
73,176,53021,1,0,0:0:0:0:
77,180,53111,22,0,L|95:182,1,18.6333324803671,10|0,0:0|0:0,0:0:0:0:
81,254,53292,2,0,L|99:251,1,18.6333324803671,8|0,0:0|0:0,0:0:0:0:
127,311,53473,38,0,B|150:302|171:317|159:321|180:336|203:328,1,83.8499961616518,4|0,0:3|0:0,0:0:0:0:
263,366,53834,54,0,L|330:362,1,68.8,4|0,0:0|0:0,0:0:0:0:
464,288,54196,1,8,0:0:0:0:
426,145,54376,1,2,0:0:0:0:
355,203,54557,1,8,0:0:0:0:
331,291,54737,1,2,0:0:0:0:
419,315,54919,2,0,B|438:308|455:320|446:323|463:335|482:329,1,68.8,8|0,0:0|0:0,0:0:0:0:
319,178,55280,2,0,B|280:164|246:188|265:195|231:219|192:206,1,137.6,8|0,0:0|0:0,0:0:0:0:
76,191,55822,1,0,0:0:0:0:
72,187,55912,1,0,0:0:0:0:
68,183,56003,5,8,0:0:0:0:
100,102,56364,1,8,0:0:0:0:
100,102,56545,1,2,0:0:0:0:
166,36,56726,1,8,0:0:0:0:
256,24,56906,1,2,0:0:0:0:
256,18,56996,1,0,0:0:0:0:
256,12,57087,53,8,0:0:0:0:
345,36,57268,1,8,0:0:0:0:
411,102,57449,1,8,0:0:0:0:
411,102,57629,1,8,0:0:0:0:
435,192,57810,1,8,0:0:0:0:
435,192,57991,1,8,0:0:0:0:
431,304,58172,6,0,P|381:290|330:290,1,103.2,4|0,0:0|0:0,0:0:0:0:
272,256,58533,2,0,P|240:246|213:266,1,68.8,8|2,0:0|0:0,0:0:0:0:
69,326,58895,2,0,P|96:346|128:336,1,68.8,8|2,0:0|0:0,0:0:0:0:
136,126,59256,1,8,0:0:0:0:
144,264,59617,2,0,L|136:126,1,137.6,8|0,0:0|0:0,0:0:0:0:
64,192,60160,1,0,0:0:0:0:
217,40,60340,54,0,L|212:144,1,103.2
264,188,60702,2,0,B|283:194|300:182|291:179|308:167|327:174,1,68.8,8|2,0:0|0:0,0:0:0:0:
400,308,61063,2,0,P|368:298|356:267,1,68.8,8|2,0:0|0:0,0:0:0:0:
272,320,61425,2,0,P|231:359|176:350,1,116.099996456909,6|0,0:0|0:0,0:0:0:0:
160,366,61786,2,0,P|113:340|105:289,1,109.650002091408,8|0,0:0|0:0,0:0:0:0:
92,281,62148,2,0,P|96:264|110:254,1,34.4,10|0,0:0|0:0,0:0:0:0:
144,176,62328,2,0,P|160:175|174:185,1,34.4,2|0,0:0|0:0,0:0:0:0:
288,272,62509,6,0,L|356:268,1,68.8
432,128,62870,1,10,0:0:0:0:
448,112,63232,1,0,0:0:0:0:
399,58,63413,1,0,0:0:0:0:
347,7,63593,2,0,L|231:0,1,116.099996456909,6|0,0:0|0:0,0:0:0:0:
215,16,63955,2,0,L|105:21,1,109.650002091408,8|0,0:0|0:0,0:0:0:0:
96,12,64316,2,0,L|27:8,1,68.8,10|2,0:0|0:0,0:0:0:0:
316,168,64678,54,0,B|275:160|245:189|265:193|235:222|194:215,1,137.6,0|8,0:0|0:0,0:0:0:0:
112,160,65220,1,0,0:0:0:0:
167,309,65401,2,0,P|133:305|99:310,1,68.8,0|0,0:0|0:0,0:0:0:0:
295,369,65762,2,0,L|304:232,1,137.6,8|0,0:0|0:0,0:0:0:0:
154,126,66485,1,8,0:0:0:0:
160,217,66666,1,0,0:0:0:0:
167,309,66846,6,0,P|199:302|223:279,1,68.8,8|2,0:0|0:0,0:0:0:0:
368,240,67208,2,0,B|376:199|347:169|343:189|314:159|321:118,1,137.6,8|2,0:0|0:0,0:0:0:0:
167,309,67750,1,0,0:0:0:0:
172,324,67840,1,0,0:0:0:0:
185,331,67931,54,0,P|214:312|223:277,1,73.1000013942719,8|2,0:0|0:0,0:0:0:0:
304,231,68292,2,0,L|294:85,1,146.200002788544,8|2,0:0|0:0,0:0:0:0:
204,139,68834,2,0,L|167:141,1,36.5500006971359,0|0,0:0|0:0,0:0:0:0:
203,340,69015,6,0,P|228:313|223:277,1,77.3999976379395,8|2,0:0|0:0,0:0:0:0:
114,228,69376,2,0,B|107:193|131:168|134:185|159:160|153:126,1,116.099996456909,8|0,0:0|0:0,0:0:0:0:
138,110,69738,2,0,L|143:32,1,77.3999976379395,2|0,0:0|0:0,0:0:0:0:
155,288,70099,1,4,0:0:0:0:
155,288,71033,22,0,L|156:309,1,21.5,2|0,0:0|0:0,0:0:0:0:
163,280,71184,38,8,B|205:265|231:301|231:301|256:338|298:323,1,154.799995275879,12|8,0:0|0:0,0:0:0:0:
384,192,71726,1,0,0:0:0:0:
272,176,71907,2,0,P|283:212|314:234,1,77.3999976379395,2|0,0:0|0:0,0:0:0:0:
393,323,72268,2,0,L|399:207,1,116.099996456909,10|0,0:0|0:0,0:0:0:0:
414,191,72629,2,0,L|410:113,1,77.3999976379395,8|0,0:0|0:0,0:0:0:0:
336,32,72991,1,0,0:0:0:0:
224,112,73172,1,0,0:0:0:0:
220,116,73263,1,0,0:0:0:0:
216,120,73352,54,0,B|184:108|165:135|165:135|146:163|115:152,1,116.099996456909,8|0,0:0|0:0,0:0:0:0:
16,147,73714,2,0,L|130:167,1,116.099996456909,8|0,0:0|0:0,0:0:0:0:
208,224,74075,2,0,P|174:241|168:278,1,77.3999976379395,2|0,0:0|0:0,0:0:0:0:
192,340,74347,1,0,0:0:0:0:
200,348,74437,1,10,0:0:0:0:
336,368,74617,1,0,0:0:0:0:
457,304,74798,2,0,L|484:250,1,60.1999981628419,8|0,0:0|0:0,0:0:0:0:
410,155,75160,2,0,L|400:224,1,68.8,0|0,0:0|0:0,0:0:0:0:
322,166,75521,6,8,L|298:12,1,154.799995275879
282,29,76063,1,0,0:0:0:0:
240,96,76244,2,0,P|213:123|176:117,1,77.3999976379395,2|0,0:0|0:0,0:0:0:0:
16,240,76605,2,0,P|93:239|166:264,2,154.799995275879,10|8|0,0:0|0:0|0:0,0:0:0:0:
176,160,77509,2,0,P|185:176|189:195,1,38.6999988189698,0|0,0:0|0:0,0:0:0:0:
286,294,77690,54,8,B|244:279|218:315|218:315|193:352|151:337,1,154.799995275879
72,365,78232,1,0,0:0:0:0:
68,369,78322,1,0,0:0:0:0:
63,372,78413,2,0,P|26:378|0:352,1,77.3999976379395,2|0,0:0|0:0,0:0:0:0:
290,328,78774,22,0,L|285:293,1,34.4,10|0,0:0|0:0,0:0:0:0:
384,256,78955,6,0,L|363:234,1,30.0999990814209,8|0,0:0|0:0,0:0:0:0:
406,180,79135,5,8,0:0:0:0:
409,101,79497,54,0,L|382:115,1,30.0999990814209,8|0,0:0|0:0,0:0:0:0:
342,4,79678,54,0,L|326:35,1,34.4,8|0,0:0|0:0,0:0:0:0:
176,48,79858,54,0,B|161:90|197:116|197:116|234:141|219:183,1,154.799995275879,8|8,0:0|0:0,0:0:0:0:
192,256,80401,1,0,0:0:0:0:
48,336,80581,2,0,P|58:300|93:287,1,77.3999976379395,0|0,0:0|0:0,0:0:0:0:
208,272,80943,2,8,P|285:272|357:248,1,154.799995275879,10|10,0:0|0:0,0:0:0:0:
448,256,81485,1,0,0:0:0:0:
501,182,81666,2,0,P|471:156|453:123,1,77.3999976379395,0|0,0:0|0:0,0:0:0:0:
368,48,82027,54,0,L|252:41,1,116.099996456909,8|0,0:0|0:0,0:0:0:0:
236,57,82389,2,0,L|132:62,1,103.2,8|0,0:0|0:0,0:0:0:0:
54,127,82750,2,0,P|57:112|67:101,1,30.0999990814209,0|0,0:0|0:0,0:0:0:0:
46,0,82931,2,0,P|57:10|62:25,1,30.0999990814209,0|0,0:0|0:0,0:0:0:0:
218,183,83111,2,0,B|193:174|178:195|178:195|164:216|139:207,1,90.2999972442628,10|0,0:0|0:0,0:0:0:0:
96,272,83473,22,0,L|76:268,1,20.0666660542806,10|0,0:0|0:0,0:0:0:0:
208,352,83654,2,0,L|228:356,1,20.0666660542806,0|0,0:0|0:0,0:0:0:0:
66,258,83834,6,0,L|88:261,1,22.9333333333333
237,365,84015,2,0,L|214:361,1,22.9333333333333,0|0,0:0|0:0,0:0:0:0:
384,352,84196,38,0,B|425:332|417:289|417:289|409:246|450:227,2,154.799995275879,8|8|0,0:0|0:0|0:0,0:0:0:0:
345,187,85280,2,0,L|336:32,1,154.799995275879,10|10,0:0|0:0,0:0:0:0:
328,202,85822,1,0,0:0:0:0:
272,352,86003,2,0,L|276:274,1,77.3999976379395,0|0,0:0|0:0,0:0:0:0:
166,226,86364,54,0,B|134:214|114:241|114:241|96:268|65:256,1,116.099996456909,8|0,0:0|0:0,0:0:0:0:
48,271,86726,2,0,P|12:260|0:225,1,77.3999976379395,8|0,0:0|0:0,0:0:0:0:
160,304,87087,1,0,0:0:0:0:
166,226,87268,2,0,L|168:188,1,38.6999988189698,0|0,0:0|0:0,0:0:0:0:
272,352,87449,2,0,P|313:339|327:298,1,90.2999972442628,10|0,0:0|0:0,0:0:0:0:
328,273,87810,2,0,P|365:307|414:296,1,103.2,10|0,0:0|0:0,0:0:0:0:
427,290,88172,2,0,P|423:308|435:322,1,38.6999988189698,0|0,0:0|0:0,0:0:0:0:
498,279,88352,1,0,0:0:0:0:
379,166,88533,6,0,L|224:176,1,154.799995275879,12|8,0:0|0:0,0:0:0:0:
160,240,89075,1,0,0:0:0:0:
80,208,89256,2,0,P|52:181|45:144,1,77.3999976379395,0|0,0:0|0:0,0:0:0:0:
112,48,89617,2,0,P|169:48|224:66,1,116.099996456909,10|0,0:0|0:0,0:0:0:0:
240,82,89979,2,0,P|273:98|306:82,1,77.3999976379395,10|0,0:0|0:0,0:0:0:0:
352,16,90340,1,0,0:0:0:0:
416,192,90521,1,0,0:0:0:0:
412,188,90611,1,0,0:0:0:0:
408,184,90702,54,0,P|361:215|357:270,1,116.099996456909,8|0,0:0|0:0,0:0:0:0:
456,291,91063,2,0,L|340:284,1,116.099996456909,8|0,0:0|0:0,0:0:0:0:
248,336,91425,2,0,B|270:328|283:346|283:346|295:363|316:355,1,77.3999976379395,0|0,0:0|0:0,0:0:0:0:
376,320,91696,1,0,0:0:0:0:
384,312,91787,1,10,0:0:0:0:
248,232,91967,1,0,0:0:0:0:
90,247,92148,2,0,P|101:273|117:299,1,60.1999981628419,10|0,0:0|0:0,0:0:0:0:
176,208,92509,2,0,P|167:174|164:140,1,68.8,0|0,0:0|0:0,0:0:0:0:
276,3,92870,6,0,P|258:78|254:155,1,154.799995275879,8|8,0:0|0:0,0:0:0:0:
270,171,93413,1,0,0:0:0:0:
352,191,93593,2,0,P|363:156|342:126,1,77.3999976379395,0|0,0:0|0:0,0:0:0:0:
176,64,93955,2,0,B|133:47|106:84|106:84|82:120|40:104,2,154.799995275879,10|10|0,0:0|0:0|0:0,0:0:0:0:
256,64,94858,2,0,P|258:82|248:99,1,38.6999988189698,0|0,0:0|0:0,0:0:0:0:
160,144,95039,54,0,P|155:221|165:297,1,154.799995275879,8|8,0:0|0:0,0:0:0:0:
112,368,95582,1,0,0:0:0:0:
108,372,95672,1,0,0:0:0:0:
104,376,95762,2,0,P|84:343|87:305,1,77.3999976379395,0|0,0:0|0:0,0:0:0:0:
192,192,96123,22,0,L|216:216,1,34.4,10|0,0:0|0:0,0:0:0:0:
289,129,96304,6,0,L|293:158,1,30.0999990814209,8|0,0:0|0:0,0:0:0:0:
365,133,96485,5,10,0:0:0:0:
365,133,96666,1,8,0:0:0:0:
439,152,96846,54,0,L|426:178,1,30.0999990814209,8|0,0:0|0:0,0:0:0:0:
512,243,97027,54,0,L|481:258,1,34.4,8|0,0:0|0:0,0:0:0:0:
416,352,97208,54,2,B|374:368|350:332|350:332|323:295|280:312,1,154.799995275879,10|10,0:0|0:0,0:0:0:0:
208,352,97750,2,0,P|169:357|131:354,2,77.3999976379395,0|0|0,0:0|0:0|0:0,0:0:0:0:
400,272,98292,2,0,P|364:226|339:174,1,116.099996456909,10|0,0:0|0:0,0:0:0:0:
323,190,98654,2,0,P|311:154|333:124,1,77.3999976379395,10|0,0:0|0:0,0:0:0:0:
400,80,99015,1,0,0:0:0:0:
432,208,99196,1,0,0:0:0:0:
347,309,99376,54,0,L|231:302,1,116.099996456909,8|0,0:0|0:0,0:0:0:0:
215,318,99738,2,0,L|137:322,1,77.3999976379395,8|0,0:0|0:0,0:0:0:0:
113,120,100099,1,0,0:0:0:0:
176,176,100280,1,0,0:0:0:0:
130,248,100461,2,0,B|98:235|77:262|77:262|60:289|28:277,1,116.099996456909,10|0,0:0|0:0,0:0:0:0:
12,293,100822,2,0,P|-5:259|0:221,1,77.3999976379395,10|0,0:0|0:0,0:0:0:0:
48,160,101184,1,0,0:0:0:0:
295,95,101364,1,0,0:0:0:0:
358,176,101545,6,0,P|365:232|340:283,1,116.099996456909,8|0,0:0|0:0,0:0:0:0:
323,299,101907,2,0,P|284:301|246:296,1,77.3999976379395,8|0,0:0|0:0,0:0:0:0:
192,352,102268,1,0,0:0:0:0:
40,168,102449,2,0,L|38:187,1,19.3499994094849,0|0,0:0|0:0,0:0:0:0:
44,164,102540,2,0,L|42:183,1,19.3499994094849,0|0,0:0|0:0,0:0:0:0:
48,160,102629,2,0,B|90:144|114:180|114:180|141:217|184:200,1,154.799995275879,10|10,0:0|0:0,0:0:0:0:
240,256,103172,1,0,0:0:0:0:
352,112,103352,2,0,P|343:98|337:84,1,32.25,0|0,0:0|0:0,0:0:0:0:
384,32,103714,54,0,L|374:203,1,172,8|8,0:0|0:0,0:0:0:0:
280,344,104617,1,0,0:0:0:0:
276,348,104707,1,0,0:0:0:0:
272,352,104798,2,0,B|264:328|284:315|284:315|304:300|294:277,1,86,6|0,0:0|0:0,0:0:0:0:
293,276,105521,2,0,L|271:274,1,21.5
192,304,105882,6,0,L|170:305,1,21.5
57,266,106244,2,0,L|14:263,2,43,2|0|2,0:0|0:0|0:0,0:0:0:0:
373,203,107328,2,0,L|330:205,1,43,2|0,0:0|0:0,0:0:0:0:
216,167,107870,1,0,0:0:0:0:
136,196,108051,54,0,L|114:194,2,21.5,8|0|0,0:0|0:0|0:0,0:0:0:0:
50,171,108593,2,0,L|28:173,2,21.5,8|0|0,0:0|0:0|0:0,0:0:0:0:
192,96,109135,1,8,0:0:0:0:
216,167,109497,1,0,0:0:0:0:
240,238,109858,2,0,L|262:240,1,21.5
336,304,110220,6,0,L|358:302,1,21.5
485,215,110581,2,0,L|527:218,2,43,2|0|2,0:0|0:0|0:0,0:0:0:0:
216,167,111666,1,2,0:0:0:0:
216,167,112027,2,0,L|258:163,1,43,0|8,0:0|0:0,0:0:0:0:
386,249,112569,53,0,0:0:0:0:
461,184,112750,2,0,L|483:186,1,21.5,0|0,0:0|0:0,0:0:0:0:
400,128,113111,2,8,L|422:126,1,21.5,8|0,0:0|0:0,0:0:0:0:
333,78,113473,2,0,L|354:74,1,21.5,8|0,0:0|0:0,0:0:0:0:
333,78,113834,1,0,0:0:0:0:
333,78,114015,1,0,0:0:0:0:
386,249,114196,1,0,0:0:0:0:
304,320,114376,1,0,0:0:0:0:
269,330,114466,1,0,0:0:0:0:
240,309,114557,5,4,0:0:0:0:
304,320,114738,1,0,0:0:0:0:
112,352,114919,53,8,0:0:0:0:
176,341,115100,1,0,0:0:0:0:
48,363,115280,5,0,0:0:0:0:
128,240,115461,1,0,0:0:0:0:
120,93,115642,2,0,L|89:91,2,30.0999990814209,10|0|0,0:0|0:0|0:0,0:0:0:0:
192,48,116184,2,0,B|185:34|185:34|186:20,2,30.0999990814209,2|10|0,0:0|0:0|0:0,0:0:0:0:
250,187,116726,53,8,0:0:0:0:
304,320,116907,1,0,0:0:0:0:
289,67,117087,5,8,0:0:0:0:
264,172,117268,1,0,0:0:0:0:
357,15,117449,53,0,0:0:0:0:
301,65,117629,1,0,0:0:0:0:
373,89,117810,2,0,L|404:87,1,30.0999990814209,10|0,0:0|0:0,0:0:0:0:
475,132,118172,2,0,B|482:118|482:118|481:104,1,30.0999990814209,0|2,0:0|0:0,0:0:0:0:
384,218,118533,2,0,L|386:249,1,30.0999990814209,10|0,0:0|0:0,0:0:0:0:
340,320,118895,22,0,B|270:319|304:354|235:353,1,114.666666666667,12|0,0:0|0:0,0:0:0:0:
218,336,119256,2,0,L|143:332,1,74.5333299214683,8|0,0:0|0:0,0:0:0:0:
250,187,119617,2,0,L|156:191,1,93.1666624018353,2|2,0:0|0:0,0:0:0:0:
146,201,119979,6,0,P|118:205|98:186,1,57.3333333333333,8|0,0:0|0:0,0:0:0:0:
240,80,120340,2,0,B|220:89|220:89|200:88,1,43,8|8,0:0|0:0,0:0:0:0:
395,131,120702,2,0,L|343:133,1,50.1666651357015,10|0,0:0|0:0,0:0:0:0:
339,141,121063,6,0,B|371:131|395:165|395:165|422:184|454:174,1,129,12|0,0:0|0:0,0:0:0:0:
256,192,121786,1,2,0:0:0:0:
256,192,122148,2,0,L|256:206,2,14.3333333333333,8|0|0,0:0|0:0|0:0,0:0:0:0:
173,141,122870,1,0,0:0:0:0:
57,174,123051,1,0,0:0:0:0:
80,96,123232,22,0,B|85:82|85:82|83:42,1,55.8999974411012,8|0,0:0|0:0,0:0:0:0:
85,251,123593,2,0,L|82:306,1,55.8999974411012,8|0,0:0|0:0,0:0:0:0:
144,368,123955,1,0,0:0:0:0:
144,368,124135,2,0,L|145:340,1,27.9499987205506,0|0,0:0|0:0,0:0:0:0:
160,208,124316,2,0,B|177:186|177:186|204:183,1,55.8999974411012,8|0,0:0|0:0,0:0:0:0:
307,183,124678,2,0,B|334:186|334:186|352:208,1,55.8999974411012,8|0,0:0|0:0,0:0:0:0:
368,368,125039,1,0,0:0:0:0:
368,368,125220,1,0,0:0:0:0:
430,306,125401,54,0,L|427:251,1,55.8999974411012,8|0,0:0|0:0,0:0:0:0:
432,96,125762,2,0,B|427:82|427:82|429:42,1,55.8999974411012,8|0,0:0|0:0,0:0:0:0:
455,174,126123,1,0,0:0:0:0:
339,141,126304,1,0,0:0:0:0:
201,180,126485,5,8,0:0:0:0:
176,112,126666,1,0,0:0:0:0:
247,124,126846,1,8,0:0:0:0:
184,183,127027,53,0,0:0:0:0:
181,95,127208,2,0,L|196:71,1,27.9499987205506,2|0,0:0|0:0,0:0:0:0:
258,136,127388,1,0,0:0:0:0:
107,143,127569,6,0,B|93:138|93:138|53:140,1,55.8999974411012,8|0,0:0|0:0,0:0:0:0:
110,231,127931,2,0,L|107:286,1,55.8999974411012,8|0,0:0|0:0,0:0:0:0:
64,352,128292,1,0,0:0:0:0:
64,352,128473,2,0,L|36:353,1,27.9499987205506,0|0,0:0|0:0,0:0:0:0:
144,256,128654,2,0,B|161:277|161:277|188:280,1,55.8999974411012,8|0,0:0|0:0,0:0:0:0:
323,280,129015,2,0,B|350:277|350:277|368:256,1,55.8999974411012,8|0,0:0|0:0,0:0:0:0:
448,352,129376,1,0,0:0:0:0:
448,352,129557,2,0,L|475:353,1,27.9499987205506,0|0,0:0|0:0,0:0:0:0:
404,286,129738,54,0,L|402:231,1,55.8999974411012,8|0,0:0|0:0,0:0:0:0:
405,143,130099,2,0,B|419:138|419:138|459:140,1,55.8999974411012,8|0,0:0|0:0,0:0:0:0:
512,64,130461,1,0,0:0:0:0:
512,64,130642,2,0,L|485:63,1,27.9499987205506,0|0,0:0|0:0,0:0:0:0:
413,26,130822,2,0,P|375:16|352:48,1,83.8499961616518,10|0,0:0|0:0,0:0:0:0:
305,112,131184,2,0,P|256:127|207:112,1,104.81250299871,8|0,0:0|0:0,0:0:0:0:
160,48,131545,2,0,P|136:16|98:26,1,83.8499961616518,2|2,0:0|0:0,0:0:0:0:
52,140,131907,6,0,B|47:154|47:154|49:194,1,55.8999974411012,8|0,0:0|0:0,0:0:0:0:
96,264,132268,2,0,B|144:266|144:266|156:273|156:273|204:275,1,111.799994882202,8|0,0:0|0:0,0:0:0:0:
272,320,132810,2,0,L|299:318,1,27.9499987205506,0|0,0:0|0:0,0:0:0:0:
376,312,132991,1,10,0:0:0:0:
256,192,133352,2,0,B|235:201|235:201|238:140,1,83.8499961616518,10|0,0:0|0:0,0:0:0:0:
299,82,133714,1,0,0:0:0:0:
299,82,133895,2,0,L|272:80,1,27.9499987205506,0|0,0:0|0:0,0:0:0:0:
286,12,134075,53,8,0:0:0:0:
176,23,134437,2,0,B|224:21|224:21|236:14|236:14|286:12,1,111.799994882202,8|0,0:0|0:0,0:0:0:0:
353,212,134979,1,0,0:0:0:0:
208,254,135160,2,0,L|319:272,2,111.799994882202,10|10|0,0:0|0:0|0:0,0:0:0:0:
96,304,136063,2,0,L|69:306,1,27.9499987205506,0|0,0:0|0:0,0:0:0:0:
16,256,136244,6,0,B|26:227|26:227|22:147,1,111.799994882202,8|8,0:0|0:0,0:0:0:0:
96,64,136786,1,0,0:0:0:0:
176,160,136967,1,0,0:0:0:0:
176,160,137148,2,0,L|177:132,1,27.9499987205506,0|0,0:0|0:0,0:0:0:0:
184,56,137328,1,10,0:0:0:0:
168,236,137690,1,10,0:0:0:0:
328,56,138051,1,0,0:0:0:0:
328,56,138232,2,0,L|329:84,1,27.9499987205506,0|0,0:0|0:0,0:0:0:0:
336,160,138413,54,0,B|350:153|350:153|364:154,1,30.0999990814209,8|0,0:0|0:0,0:0:0:0:
496,272,138774,2,0,L|432:268,1,64.5,8|0,0:0|0:0,0:0:0:0:
424,261,139135,2,0,B|432:234|432:234|437:261,1,55.8999974411012,0|0,0:0|0:0,0:0:0:0:
368,352,139497,2,0,L|277:356,1,90.2999972442628,8|0,0:0|0:0,0:0:0:0:
267,346,139858,2,0,L|170:340,1,96.7500036907198,8|0,0:0|0:0,0:0:0:0:
154,356,140220,2,0,B|128:347|105:362|118:367|95:383|70:374,1,91.7333333333333,12|0,0:3|0:0,0:0:0:0:
32,256,140581,6,0,P|40:222|42:188,1,68.8,4|0,0:0|0:0,0:0:0:0:
16,96,140943,1,8,0:0:0:0:
64,16,141123,1,2,0:0:0:0:
160,16,141304,2,0,P|193:13|218:35,1,68.8,8|2,0:0|0:0,0:0:0:0:
215,39,141576,1,0,0:0:0:0:
211,43,141666,1,8,0:0:0:0:
307,141,142027,2,0,P|240:134|190:179,1,137.6,8|0,0:0|0:0,0:0:0:0:
76,193,142569,1,0,0:0:0:0:
72,197,142659,1,0,0:0:0:0:
68,201,142750,53,8,0:0:0:0:
100,282,143111,1,8,0:0:0:0:
100,282,143292,1,2,0:0:0:0:
166,348,143473,1,8,0:0:0:0:
256,360,143653,1,2,0:0:0:0:
256,366,143743,1,0,0:0:0:0:
256,372,143834,5,8,0:0:0:0:
345,348,144015,2,0,L|334:329,1,21.5,8|0,0:0|0:0,0:0:0:0:
411,282,144196,2,0,L|392:271,3,21.5,8|0|8|0,0:0|0:0|0:0|0:0,0:0:0:0:
435,192,144557,1,8,0:0:0:0:
435,192,144738,1,8,0:0:0:0:
368,96,144919,54,0,B|337:90|314:111|329:114|307:136|277:130,1,103.2,4|0,0:0|0:0,0:0:0:0:
224,176,145280,2,0,P|191:181|167:158,1,68.8,8|2,0:0|0:0,0:0:0:0:
48,95,145642,2,0,P|70:72|103:77,1,68.8,8|2,0:0|0:0,0:0:0:0:
97,293,146003,1,8,0:0:0:0:
104,155,146364,2,0,L|97:291,1,137.6,8|0,0:0|0:0,0:0:0:0:
16,240,146907,1,0,0:0:0:0:
192,368,147087,6,0,L|186:264,1,103.2
186,264,147449,2,0,B|205:258|222:270|213:273|230:285|249:278,1,68.8,8|2,0:0|0:0,0:0:0:0:
434,191,147810,2,0,B|415:184|398:196|407:199|390:211|371:205,1,68.8,8|2,0:0|0:0,0:0:0:0:
288,144,148172,2,0,L|291:75,1,68.8,6|0,0:0|0:0,0:0:0:0:
352,32,148533,2,0,B|364:40|364:40|378:41,2,30.0999990814209,10|2|8,0:0|0:0|0:0,0:0:0:0:
291,75,149256,54,0,B|252:60|218:85|236:91|202:115|164:103,1,137.6,8|8,0:0|0:0,0:0:0:0:
80,48,149798,1,2,0:0:0:0:
128,192,149979,2,0,P|95:197|79:227,1,68.8,8|2,0:0|0:0,0:0:0:0:
128,320,150340,2,0,L|231:314,1,103.2,6|0,0:0|0:0,0:0:0:0:
304,368,150702,2,0,B|296:354|296:354|297:340,1,30.0999990814209,2|2,0:0|0:0,0:0:0:0:
304,176,151063,1,8,0:0:0:0:
472,155,151425,6,0,L|369:149,1,103.2,8|0,0:0|0:0,0:0:0:0:
304,176,151786,2,0,B|284:172|269:186|278:188|263:202|243:199,1,68.8,8|2,0:0|0:0,0:0:0:0:
160,128,152148,1,8,0:0:0:0:
176,56,152328,1,2,0:0:0:0:
96,160,152509,2,0,P|62:165|32:150,1,68.8,0|0,0:0|0:0,0:0:0:0:
0,88,152870,1,8,0:0:0:0:
0,88,153051,1,8,0:0:0:0:
240,272,153232,2,0,P|190:263|145:286,1,103.2,0|0,0:0|0:0,0:0:0:0:
112,352,153593,53,8,0:0:0:0:
112,352,153774,1,0,0:0:0:0:
304,368,153955,2,0,L|307:299,1,68.8,8|2,0:0|0:0,0:0:0:0:
352,224,154316,1,0,0:0:0:0:
352,224,154497,2,0,B|342:209|342:209|341:193,1,34.4,2|0,0:0|0:0,0:0:0:0:
208,144,154678,6,0,P|172:146|148:173,1,73.1000013942719,8|0,0:0|0:0,0:0:0:0:
236,304,155039,2,0,L|309:308,1,73.1000013942719,8|0,0:0|0:0,0:0:0:0:
340,192,155401,1,0,0:0:0:0:
340,192,155581,2,0,L|376:190,1,36.5500006971359,2|0,0:0|0:0,0:0:0:0:
163,18,155762,54,0,P|127:29|115:64,1,77.3999976379395,8|0,0:0|0:0,0:0:0:0:
121,70,156033,2,0,B|136:80|136:80|155:81,1,38.6999988189698,0|2,0:0|0:0,0:0:0:0:
240,48,156304,1,2,0:0:0:0:
71,176,156485,6,0,L|148:171,1,77.3999976379395
416,160,156846,1,4,0:0:0:0:
416,160,157569,2,0,P|380:149|368:114,1,77.3999976379395,8|0,0:0|0:0,0:0:0:0:
368,100,157795,22,0,P|372:85|383:74,3,32.2500012302399,0|0|0|12,0:0|0:0|0:0|0:0,0:0:0:0:
400,240,158292,37,2,0:0:0:0:
400,240,158473,2,0,P|324:221|247:215,1,154.799995275879,8|0,0:0|0:0,0:0:0:0:
180,284,158925,1,0,0:0:0:0:
175,288,159015,2,0,P|148:312|153:349,1,77.3999976379395,8|0,0:0|0:0,0:0:0:0:
112,160,159376,2,0,P|80:138|80:101,1,77.3999976379395,8|0,0:0|0:0,0:0:0:0:
176,32,159738,2,0,P|232:17|289:13,1,116.099996456909,2|0,0:0|0:0,0:0:0:0:
306,29,160099,53,8,0:0:0:0:
368,96,160461,1,0,0:0:0:0:
354,163,160642,1,8,0:0:0:0:
300,205,160822,1,0,0:0:0:0:
365,292,161003,1,0,0:0:0:0:
369,296,161093,1,0,0:0:0:0:
373,300,161184,2,0,B|352:292|339:310|339:310|326:328|306:321,1,77.3999976379395,8|0,0:0|0:0,0:0:0:0:
216,264,161545,2,0,L|138:259,1,77.3999976379395,8|0,0:0|0:0,0:0:0:0:
64,288,161907,1,2,0:0:0:0:
64,288,162087,2,0,B|54:270|54:270|55:252,1,38.6999988189698,0|0,0:0|0:0,0:0:0:0:
0,192,162268,6,0,B|-15:150|21:124|21:124|58:99|43:57,1,154.799995275879,8|0,0:0|0:0,0:0:0:0:
0,0,162810,1,8,0:0:0:0:
64,112,162991,2,0,P|81:144|117:150,1,77.3999976379395,0|0,0:0|0:0,0:0:0:0:
192,208,163352,2,0,P|268:189|345:183,1,154.799995275879,8|8,0:0|0:0,0:0:0:0:
448,240,163895,1,0,0:0:0:0:
304,288,164075,2,0,P|342:291|380:300,1,77.3999976379395,2|0,0:0|0:0,0:0:0:0:
448,240,164437,54,0,B|463:198|427:172|427:172|390:147|405:105,1,154.799995275879,8|0,0:0|0:0,0:0:0:0:
480,64,164979,1,8,0:0:0:0:
478,58,165070,1,0,0:0:0:0:
478,52,165159,2,0,P|456:22|419:21,1,77.3999976379395,0|0,0:0|0:0,0:0:0:0:
234,43,165521,22,0,L|258:67,1,34.4,8|0,0:0|0:0,0:0:0:0:
183,132,165702,6,0,L|213:136,1,30.0999990814209,8|0,0:0|0:0,0:0:0:0:
192,208,165882,5,8,0:0:0:0:
207,284,166244,54,0,L|234:269,1,30.0999990814209,10|0,0:0|0:0,0:0:0:0:
283,353,166425,54,0,L|298:322,1,34.4,8|0,0:0|0:0,0:0:0:0:
418,367,166605,53,8,0:0:0:0:
418,367,166967,1,0,0:0:0:0:
439,245,167148,2,0,B|397:230|371:266|371:266|346:303|304:288,1,154.799995275879,8|0,0:0|0:0,0:0:0:0:
48,160,167690,2,0,L|202:168,2,154.799995275879,8|8|2,0:0|0:0|0:0,0:0:0:0:
64,288,168593,2,0,B|54:270|54:270|55:252,1,38.6999988189698,0|0,0:0|0:0,0:0:0:0:
32,96,168774,54,0,B|74:81|100:117|100:117|125:154|167:139,1,154.799995275879,8|0,0:0|0:0,0:0:0:0:
256,224,169316,2,0,P|265:186|268:147,1,77.3999976379395,8|0,0:0|0:0,0:0:0:0:
224,64,169678,1,0,0:0:0:0:
384,128,169858,2,0,P|353:78|331:25,1,116.099996456909,8|0,0:0|0:0,0:0:0:0:
347,41,170220,2,0,P|377:63|412:52,1,77.3999976379395,8|0,0:0|0:0,0:0:0:0:
496,16,170581,1,2,0:0:0:0:
464,112,170762,1,0,0:0:0:0:
480,208,170943,6,0,P|483:246|491:284,1,77.3999976379395,8|0,0:0|0:0,0:0:0:0:
400,352,171304,1,0,0:0:0:0:
288,320,171485,2,0,L|134:312,1,154.799995275879,8|0,0:0|0:0,0:0:0:0:
32,144,172027,2,0,B|74:129|100:165|100:165|125:202|167:187,1,154.799995275879,8|8,0:0|0:0,0:0:0:0:
240,96,172569,2,0,B|230:114|230:114|231:132,1,38.6999988189698,0|0,0:0|0:0,0:0:0:0:
296,176,172750,2,0,L|373:172,1,77.3999976379395,2|0,0:0|0:0,0:0:0:0:
512,192,173111,53,8,0:0:0:0:
512,192,173473,1,0,0:0:0:0:
440,150,173654,2,0,B|419:142|406:160|406:160|393:179|372:171,1,77.3999976379395,8|0,0:0|0:0,0:0:0:0:
269,134,174015,2,0,L|231:132,1,38.6999988189698,0|0,0:0|0:0,0:0:0:0:
153,127,174196,1,8,0:0:0:0:
153,127,174557,1,8,0:0:0:0:
16,200,174738,2,0,L|54:198,1,38.6999988189698,0|0,0:0|0:0,0:0:0:0:
132,193,174919,1,2,0:0:0:0:
96,80,175099,6,0,B|86:62|86:62|87:44,2,38.6999988189698,0|0|12,0:0|0:0|0:0,0:0:0:0:
111,259,175642,1,2,0:0:0:0:
111,259,175822,2,0,B|150:280|181:248|181:248|211:216|251:237,1,154.799995275879,8|0,0:0|0:0,0:0:0:0:
320,304,176274,1,0,0:0:0:0:
324,308,176364,2,0,P|359:296|381:266,1,77.3999976379395,10|0,0:0|0:0,0:0:0:0:
464,176,176726,2,0,P|434:153|422:118,1,77.3999976379395,8|0,0:0|0:0,0:0:0:0:
352,56,177087,2,0,P|296:41|239:37,1,116.099996456909,2|0,0:0|0:0,0:0:0:0:
222,53,177449,53,8,0:0:0:0:
160,120,177810,1,0,0:0:0:0:
174,187,177991,1,8,0:0:0:0:
228,229,178171,1,0,0:0:0:0:
163,316,178352,1,0,0:0:0:0:
159,320,178442,1,0,0:0:0:0:
155,324,178533,2,0,L|77:329,1,77.3999976379395,8|0,0:0|0:0,0:0:0:0:
0,240,178895,2,0,B|-8:219|10:206|10:206|29:193|21:172,1,77.3999976379395,8|0,0:0|0:0,0:0:0:0:
0,88,179256,1,2,0:0:0:0:
0,88,179437,2,0,P|19:93|39:95,1,38.6999988189698,0|0,0:0|0:0,0:0:0:0:
128,144,179617,6,0,P|204:125|281:119,1,154.799995275879,8|0,0:0|0:0,0:0:0:0:
408,152,180160,1,8,0:0:0:0:
208,216,180340,2,0,P|246:219|284:228,1,77.3999976379395,0|0,0:0|0:0,0:0:0:0:
408,152,180702,2,0,B|366:137|340:173|340:173|315:210|273:195,1,154.799995275879,8|8,0:0|0:0,0:0:0:0:
280,119,181244,1,0,0:0:0:0:
447,287,181425,2,0,P|421:260|399:228,1,77.3999976379395,2|0,0:0|0:0,0:0:0:0:
298,42,181786,54,0,P|291:119|272:194,1,154.799995275879,8|0,0:0|0:0,0:0:0:0:
232,272,182328,1,8,0:0:0:0:
228,276,182419,1,0,0:0:0:0:
224,280,182509,2,0,P|197:305|161:300,1,77.3999976379395,0|0,0:0|0:0,0:0:0:0:
24,268,182870,22,0,L|54:252,1,34.4,8|0,0:0|0:0,0:0:0:0:
40,156,183051,6,0,L|69:160,1,30.0999990814209,8|0,0:0|0:0,0:0:0:0:
99,95,183232,5,8,0:0:0:0:
99,95,183413,1,8,0:0:0:0:
159,36,183593,54,0,L|163:65,1,30.0999990814209,10|0,0:0|0:0,0:0:0:0:
272,21,183774,54,0,L|256:51,1,34.4,8|0,0:0|0:0,0:0:0:0:
352,144,183955,54,0,B|310:129|284:165|284:165|259:202|217:187,1,154.799995275879,8|0,0:0|0:0,0:0:0:0:
176,128,184497,1,8,0:0:0:0:
320,288,184678,2,0,B|299:295|286:277|286:277|273:259|252:266,1,77.3999976379395,0|0,0:0|0:0,0:0:0:0:
495,225,185039,2,0,L|341:217,1,154.799995275879,8|8,0:0|0:0,0:0:0:0:
278,160,185521,21,0,0:0:0:0:
252,265,185642,1,0,0:0:0:0:
152,304,185762,38,0,P|117:315|115:352,1,77.3999976379395,2|0,0:0|0:0,0:0:0:0:
456,352,186123,54,0,P|381:333|304:326,1,154.799995275879,8|0,0:0|0:0,0:0:0:0:
240,368,186666,1,8,0:0:0:0:
152,304,186846,2,0,P|115:302|104:267,1,77.3999976379395,0|0,0:0|0:0,0:0:0:0:
48,208,187208,2,0,P|62:151|67:94,1,116.099996456909,8|0,0:0|0:0,0:0:0:0:
83,78,187569,2,0,P|65:44|71:7,1,77.3999976379395,8|0,0:0|0:0,0:0:0:0:
72,6,187931,1,2,0:0:0:0:
248,212,188111,1,0,0:0:0:0:
314,174,188292,6,0,P|340:123|330:67,1,116.099996456909,8|0,0:0|0:0,0:0:0:0:
288,8,188654,1,0,0:0:0:0:
330,67,188834,2,0,P|344:101|380:109,1,77.3999976379395,8|0,0:0|0:0,0:0:0:0:
284,345,189196,21,0,0:0:0:0:
280,349,189256,2,0,L|254:350,1,25.7999992126465,0|0,0:0|0:0,0:0:0:0:
239,367,189376,38,0,L|248:213,1,154.799995275879,8|8,0:0|0:0,0:0:0:0:
192,160,189919,2,0,B|180:143|180:143|179:125,1,38.6999988189698,0|0,0:0|0:0,0:0:0:0:
359,21,190099,2,0,B|317:6|291:42|291:42|266:79|224:64,1,154.799995275879,2|8,0:0|0:0,0:0:0:0:
73,20,191184,22,0,L|70:5,2,14.3333333333333
96,160,191545,22,0,B|42:195|42:195|185:231|185:231|149:204,1,258,4|0,0:0|0:0,0:0:0:0:
256,232,201093,38,0,L|256:246,2,14.3333333333333
256,152,201304,38,0,B|242:129|253:106|259:116|269:93|257:71,1,86,2|0,0:0|0:0,0:0:0:0:
256,384,207810,69,2,0:0:0:0:
256,384,208172,2,0,L|256:362,1,21.5,2|0,0:0|0:0,0:0:0:0:
256,240,208352,1,12,0:3:0:0:
256,240,208714,2,0,L|256:218,1,21.5,8|0,0:0|0:0,0:0:0:0:
268,134,208895,54,0,L|278:134,1,10.75,10|0,0:0|0:0,0:0:0:0:
259,125,208985,2,0,B|270:107|261:88|256:96|248:77|258:59,1,64.5,0|0,0:0|0:0,0:0:0:0:
192,16,209256,1,8,0:0:0:0:
256,40,209346,1,0,0:0:0:0:
320,16,209436,1,0,0:0:0:0:
153,169,209617,2,0,P|166:178|175:191,1,32.2500012302399,0|0,0:0|0:0,0:0:0:0:
336,191,209798,2,0,P|345:178|358:169,1,32.2500012302399,0|0,0:0|0:0,0:0:0:0:
477,236,209979,6,0,L|400:232,1,77.3999976379395,2|0,0:0|0:0,0:0:0:0:
256,304,210340,1,8,0:0:0:0:
400,232,210521,1,2,0:0:0:0:
326,374,210702,1,8,0:0:0:0:
303,216,210882,1,2,0:0:0:0:
414,330,211063,1,4,0:0:0:0:
401,323,211425,53,8,0:0:0:0:
269,301,211606,1,2,0:0:0:0:
376,306,211786,1,8,0:0:0:0:
295,318,211967,1,2,0:0:0:0:
390,226,212148,1,0,0:0:0:0:
506,121,212479,21,8,0:0:0:0:
510,117,212539,2,0,L|382:109,1,129,2|0,0:0|0:0,0:0:0:0:
398,94,212870,6,0,B|361:74|332:103|349:109|320:138|283:120,1,128.999996063233,2|0,0:0|0:0,0:0:0:0:
274,110,213232,6,0,P|221:92|176:124,1,114.666666666667,6|0,0:0|0:0,0:0:0:0:
182,129,213593,6,0,L|121:132,1,60.1999981628419,8|0,0:0|0:0,0:0:0:0:
50,143,213955,1,8,0:0:0:0:
50,143,214135,1,8,0:0:0:0:
418,308,214316,6,0,L|375:305,1,43,8|0,0:0|0:0,0:0:0:0:
263,192,214678,1,8,0:0:0:0:
352,148,214859,1,2,0:0:0:0:
421,218,215040,1,8,0:0:0:0:
375,305,215220,1,2,0:0:0:0:
278,289,215401,1,4,0:0:0:0:
406,219,215762,53,8,0:0:0:0:
287,279,215944,1,2,0:0:0:0:
185,245,216123,1,8,0:0:0:0:
134,174,216304,1,2,0:0:0:0:
125,104,216485,54,0,P|140:72|174:67,1,71.6666666666667,2|0,0:0|0:0,0:0:0:0:
179,72,216846,54,0,L|271:57,1,93.1666624018353,2|0,0:0|0:0,0:0:0:0:
280,47,217208,54,0,B|312:29|338:54|323:60|348:85|381:69,1,114.666666666667,2|0,0:0|0:0,0:0:0:0:
398,85,217569,54,0,P|448:165|355:141,1,245.099993455124,6|0,0:0|0:0,0:0:0:0:
480,256,218292,2,8,B|485:276|485:276|479:297,1,43,8|8,0:0|0:0,0:0:0:0:
416,336,218654,54,0,L|338:331,1,77.3999976379395,8|0,0:0|0:0,0:0:0:0:
226,218,219015,1,8,0:0:0:0:
338,331,219196,1,2,0:0:0:0:
180,305,219376,2,0,L|198:294,1,21.5,8|0,0:0|0:0,0:0:0:0:
323,234,219557,2,0,L|303:240,1,21.5,2|0,0:0|0:0,0:0:0:0:
250,375,219738,1,4,0:0:0:0:
252,361,220099,5,8,0:0:0:0:
232,229,220281,1,2,0:0:0:0:
235,335,220461,1,8,0:0:0:0:
248,255,220642,1,2,0:0:0:0:
155,347,220822,1,0,0:0:0:0:
38,286,221184,53,8,0:0:0:0:
152,351,221364,1,2,0:0:0:0:
160,348,221545,1,8,0:0:0:0:
153,342,221726,1,2,0:0:0:0:
148,231,221907,6,0,P|149:173|142:115,1,116.099996456909,4|0,0:0|0:0,0:0:0:0:
136,48,222268,2,0,B|168:29|195:55|179:61|205:86|238:70,1,116.099996456909,8|0,0:0|0:0,0:0:0:0:
304,16,222629,1,10,0:0:0:0:
304,16,222810,2,0,P|319:27|324:45,1,38.6999988189698,8|0,0:0|0:0,0:0:0:0:
413,95,222991,54,0,B|419:154|365:185|366:145|312:177|320:236|320:236|340:266|378:267|378:267|354:297|368:332|368:332|331:320|300:344|300:344|301:306|271:285|271:285|298:278|309:253,2,516,2|4|2,0:0|0:0|0:0,0:0:0:0:
256,192,225250,12,0,227148,0:0:0:0:
371,198,227328,6,0,L|256:192,1,116.099996456909,8|0,0:0|0:0,0:0:0:0:
192,144,227690,2,0,B|159:125|132:151|148:157|122:182|89:166,1,116.099996456909,10|0,0:0|0:0,0:0:0:0:
0,192,228051,1,2,0:0:0:0:
0,192,228232,2,0,P|4:209|19:221,1,38.6999988189698,0|0,0:0|0:0,0:0:0:0:
256,192,228413,54,0,L|333:187,1,77.3999976379395,12|0,0:0|0:0,0:0:0:0:
491,221,228774,1,10,0:0:0:0:
491,221,228955,2,0,P|507:210|512:192,1,38.6999988189698,0|0,0:0|0:0,0:0:0:0:
324,72,229135,1,10,0:0:0:0:
106,107,229316,1,0,0:0:0:0:
90,117,229407,1,0,0:0:0:0:
84,136,229497,21,8,0:0:0:0:
78,220,229678,1,8,0:0:0:0:
127,318,229858,6,0,L|137:308,1,14.3333333333333,8|0,0:0|0:0,0:0:0:0:
256,372,230039,1,8,0:0:0:0:
384,319,230220,5,8,0:0:0:0:
434,220,230400,1,8,0:0:0:0:
428,136,230581,5,12,0:0:0:0:
256,192,230672,12,0,231575,0:0:0:0:
256,12,231666,38,0,L|256:25,1,14.3333333333333,8|0,0:0|0:0,0:0:0:0:
256,372,232750,37,0,0:0:0:0:
256,288,233111,1,0,0:0:0:0:
256,152,233473,1,2,0:0:0:0:
272,142,233564,1,0,0:0:0:0:
278,123,233654,2,0,L|279:101,1,21.5,0|0,0:0|0:0,0:0:0:0:
280,16,233834,53,8,0:0:0:0:
178,249,234015,1,0,0:0:0:0:
334,249,234196,2,0,L|313:247,1,21.5,8|0,0:0|0:0,0:0:0:0:
81,249,234376,2,0,L|95:248,1,14.3333333333333,8|0,0:0|0:0,0:0:0:0:
195,319,234738,2,0,L|195:332,1,14.3333333333333,8|0,0:0|0:0,0:0:0:0:
204,309,234919,6,0,B|236:289|263:316|247:322|273:347|306:331,1,116.099996456909,8|0,0:0|0:0,0:0:0:0:
400,336,235280,6,0,P|379:289|384:238,1,103.199996850586,12|0,0:0|0:0,0:0:0:0:
320,96,235642,2,0,L|314:199,1,103.199996850586,8|0,0:0|0:0,0:0:0:0:
197,347,236003,6,0,L|194:332,1,14.3333333333333,10|0,0:0|0:0,0:0:0:0:
315,347,236364,2,0,L|317:332,1,14.3333333333333,10|0,0:0|0:0,0:0:0:0:
206,337,237087,6,0,L|208:316,1,20.0666660542806,10|0,0:0|0:0,0:0:0:0:
306,337,237449,2,0,L|304:316,1,20.0666660542806,10|0,0:0|0:0,0:0:0:0:
223,191,238021,2,0,L|192:193,1,30.0999990814209,2|0,0:0|0:0,0:0:0:0:
184,184,238172,6,0,B|174:171|174:171|173:156,1,30.0999990814209,8|0,0:0|0:0,0:0:0:0:
320,176,238352,1,0,0:0:0:0:
324,180,238443,1,0,0:0:0:0:
328,184,238533,2,0,L|331:123,1,60.1999981628419,8|0,0:0|0:0,0:0:0:0:
284,60,238895,2,0,B|255:42|231:66|245:71|222:93|193:79,1,103.2,0|0,0:0|0:0,0:0:0:0:
105,30,239256,38,0,L|128:32,1,22.9333333333333,10|0,0:0|0:0,0:0:0:0:
384,32,239437,21,0,0:0:0:0:
376,46,239527,1,0,0:0:0:0:
378,63,239617,1,8,0:0:0:0:
368,160,239798,1,0,0:0:0:0:
430,272,239979,2,0,P|438:257|435:240,2,34.4,0|0|0,0:0|0:0|0:0,0:0:0:0:
360,328,240340,6,0,P|302:323|245:334,1,116.099996456909,8|0,0:0|0:0,0:0:0:0:
184,368,240702,1,8,0:0:0:0:
64,288,240882,2,0,P|85:213|88:136,1,154.799995275879,0|0,0:0|0:0,0:0:0:0:
215,91,241425,2,0,B|173:106|148:69|148:69|122:33|80:48,2,154.799995275879,10|10|0,0:0|0:0|0:0,0:0:0:0:
376,40,242328,1,0,0:0:0:0:
380,44,242418,1,0,0:0:0:0:
384,48,242509,54,0,P|394:85|396:124,1,77.3999976379395,8|0,0:0|0:0,0:0:0:0:
368,272,242870,2,0,P|313:276|288:227,1,116.099996456909,8|0,0:0|0:0,0:0:0:0:
296,217,243232,2,0,P|275:248|238:250,1,77.3999976379395,0|0,0:0|0:0,0:0:0:0:
15,304,243593,2,0,P|92:297|168:312,2,154.799995275879,10|10|0,0:0|0:0|0:0,0:0:0:0:
5,313,244497,1,0,0:0:0:0:
376,344,244678,6,0,P|427:272|343:299,1,232.199992913819,8|0,0:0|0:0,0:0:0:0:
237,249,245401,1,0,0:0:0:0:
381,307,245581,1,0,0:0:0:0:
385,303,245671,1,0,0:0:0:0:
389,299,245762,2,0,L|380:144,1,154.799995275879,10|10,0:0|0:0,0:0:0:0:
288,80,246304,1,0,0:0:0:0:
480,192,246485,2,0,L|485:114,1,77.3999976379395,0|0,0:0|0:0,0:0:0:0:
304,16,246846,54,0,B|262:1|236:37|236:37|211:74|169:59,1,154.799995275879,8|0,0:0|0:0,0:0:0:0:
152,42,247389,2,0,L|113:35,1,38.6999988189698,0|0,0:0|0:0,0:0:0:0:
80,176,247569,2,0,L|2:180,1,77.3999976379395,0|0,0:0|0:0,0:0:0:0:
256,372,247931,1,14,0:0:0:0:
256,372,248654,38,0,P|249:368|245:362,1,14.3333333333333,10|0,0:0|0:0,0:0:0:0:
160,336,248834,2,0,P|155:326|157:316,1,20.0666660542806,10|0,0:0|0:0,0:0:0:0:
86,222,249015,38,0,B|71:180|108:155|108:155|144:129|129:87,1,154.799995275879,12|0,0:0|0:0,0:0:0:0:
64,48,249557,2,0,L|25:45,1,38.6999988189698,10|0,0:0|0:0,0:0:0:0:
256,12,249738,1,0,0:0:0:0:
256,12,249919,1,0,0:0:0:0:
384,176,250099,2,0,B|399:134|362:109|362:109|326:83|341:41,1,154.799995275879,10|10,0:0|0:0,0:0:0:0:
224,88,250642,1,0,0:0:0:0:
224,88,250732,1,0,0:0:0:0:
224,88,250822,1,8,0:0:0:0:
298,285,251003,1,0,0:0:0:0:
298,285,251093,1,0,0:0:0:0:
298,285,251184,54,0,P|319:231|304:177,1,116.099996456909,8|0,0:0|0:0,0:0:0:0:
288,161,251545,2,0,L|197:156,1,90.2999972442628,10|0,0:0|0:0,0:0:0:0:
256,352,251907,2,0,B|275:360|275:360|296:359,1,43
368,320,252178,1,0,0:0:0:0:
368,320,252268,1,10,0:0:0:0:
483,312,252449,1,0,0:0:0:0:
167,234,252629,2,0,P|140:249|128:279,1,64.5,10|0,0:0|0:0,0:0:0:0:
165,347,252991,2,0,L|255:351,1,90.2999972442628,8|0,0:0|0:0,0:0:0:0:
368,320,253352,6,0,L|483:313,1,116.099996456909,8|0,0:0|0:0,0:0:0:0:
496,192,253714,1,0,0:0:0:0:
496,192,253895,2,0,B|505:175|505:175|506:156,1,38.6999988189698,10|0,0:0|0:0,0:0:0:0:
416,208,254075,1,0,0:0:0:0:
324,166,254256,1,0,0:0:0:0:
279,47,254437,2,0,B|321:32|346:69|346:69|372:105|414:90,1,154.799995275879,10|10,0:0|0:0,0:0:0:0:
496,32,254979,2,0,P|476:32|457:27,1,38.6999988189698,0|0,0:0|0:0,0:0:0:0:
457,27,255160,1,8,0:0:0:0:
324,166,255340,1,0,0:0:0:0:
324,166,255431,1,0,0:0:0:0:
324,166,255521,54,0,B|282:151|257:188|257:188|231:224|189:209,1,154.799995275879,8|0,0:0|0:0,0:0:0:0:
112,256,256063,2,0,P|92:256|73:261,1,38.6999988189698,10|0,0:0|0:0,0:0:0:0:
32,192,256244,2,0,P|47:134|50:76,1,116.099996456909,0|0,0:0|0:0,0:0:0:0:
128,32,256605,22,0,L|128:17,1,14.3333333333333,10|0,0:0|0:0,0:0:0:0:
208,64,256786,1,0,0:0:0:0:
208,64,256967,6,0,L|217:52,1,14.3333333333333,10|0,0:0|0:0,0:0:0:0:
265,155,257148,1,0,0:0:0:0:
265,155,257328,6,0,L|278:151,1,14.3333333333333,8|0,0:0|0:0,0:0:0:0:
234,285,257509,2,0,L|246:292,1,14.3333333333333,8|0,0:0|0:0,0:0:0:0:
456,328,257690,6,0,P|398:323|345:345,1,116.099996456909,8|0,0:0|0:0,0:0:0:0:
276,360,258051,1,0,0:0:0:0:
276,360,258232,1,10,0:0:0:0:
231,180,258413,1,0,0:0:0:0:
231,180,258594,1,0,0:0:0:0:
41,231,258774,2,0,B|72:242|91:214|91:214|110:187|141:198,1,116.099996456909,10|0,0:0|0:0,0:0:0:0:
231,180,259135,38,0,L|222:230,1,51.599998425293,10|0,0:0|0:0,0:0:0:0:
208,304,259376,1,0,0:0:0:0:
345,344,259497,22,0,L|338:228,1,116.099996456909,8|0,0:0|0:0,0:0:0:0:
360,148,259858,6,0,B|402:132|428:168|428:168|453:205|494:191,2,154.799995275879,8|0|10,0:0|0:0|0:0,0:0:0:0:
66,79,260762,1,0,0:0:0:0:
66,79,260852,1,0,0:0:0:0:
66,79,260943,2,0,P|96:74|111:47,1,64.5,10|0,0:0|0:0,0:0:0:0:
111,47,261304,2,0,P|117:89|155:109,1,90.2999972442628,10|0,0:0|0:0,0:0:0:0:
172,126,261666,2,0,L|165:241,1,116.099996456909,8|0,0:0|0:0,0:0:0:0:
152,312,262027,54,0,B|194:328|220:292|220:292|245:255|286:269,1,154.799995275879,8|0,0:0|0:0,0:0:0:0:
484,244,262569,2,0,P|412:266|352:223,1,154.799995275879,10|0,0:0|0:0,0:0:0:0:
352,223,263021,1,0,0:0:0:0:
352,224,263111,5,10,0:0:0:0:
197,109,263292,1,0,0:0:0:0:
255,293,263473,1,10,0:0:0:0:
316,110,263654,1,0,0:0:0:0:
159,222,263834,1,8,0:0:0:0:
256,192,264196,54,0,B|302:170|305:124|305:124|307:77|262:51|214:72|212:119|233:143,1,236.5,8|0,0:0|0:0,0:0:0:0:
224,127,265280,1,14,0:0:0:0:
256,192,265370,12,0,266274,0:0:0:0:
224,127,266364,6,0,P|222:92|213:59,2,68.8,8|0|0,0:0|0:0|0:0,0:0:0:0:
176,208,266907,1,8,0:0:0:0:
342,193,267087,2,0,P|333:225|331:259,1,68.8,0|0,0:0|0:0,0:0:0:0:
336,264,267359,1,0,0:0:0:0:
340,268,267449,53,10,0:0:0:0:
266,357,267629,1,0,0:0:0:0:
334,384,267810,1,10,0:0:0:0:
379,327,267991,1,0,0:0:0:0:
270,285,268172,2,0,B|207:284|238:316|175:315,1,103.2,2|0,0:0|0:0,0:0:0:0:
158,330,268533,6,8,P|123:328|90:319,2,68.8,8|0|0,0:0|0:0|0:0,0:0:0:0:
266,357,269075,1,8,0:0:0:0:
160,224,269256,2,0,P|132:180|123:130,1,103.2,0|0,0:0|0:0,0:0:0:0:
160,64,269617,53,10,0:0:0:0:
304,16,269798,1,8,0:0:0:0:
405,66,269979,1,10,0:0:0:0:
414,56,270340,5,10,0:0:0:0:
455,129,270521,1,8,0:0:0:0:
459,191,270702,6,0,L|344:198,1,114.666666666667,8|0,0:0|0:0,0:0:0:0:
328,213,271063,6,0,L|234:208,1,93.1666624018353,8|0,0:0|0:0,0:0:0:0:
224,200,271425,6,0,L|181:203,1,43,2|0,0:0|0:0,0:0:0:0:
19,314,271786,2,0,L|90:318,1,71.6666666666667,8|0,0:0|0:0,0:0:0:0:
99,308,272148,54,0,L|193:303,1,93.1666624018353,8|0,0:0|0:0,0:0:0:0:
208,319,272509,54,0,L|276:323,1,68.8,2|0,0:0|0:0,0:0:0:0:
384,352,272870,38,0,P|433:344|456:300,1,103.2,8|0,0:0|0:0,0:0:0:0:
416,232,273232,1,0,0:0:0:0:
288,168,273413,1,8,0:0:0:0:
284,172,273503,1,0,0:0:0:0:
280,176,273594,2,0,P|295:206|328:212,1,68.8,2|0,0:0|0:0,0:0:0:0:
464,160,273955,6,0,P|486:95|483:28,1,137.6,8|10,0:0|0:0,0:0:0:0:
483,27,274497,1,0,0:0:0:0:
416,64,274678,1,10,0:0:0:0:
322,36,274859,1,0,0:0:0:0:
304,27,274949,1,0,0:0:0:0:
300,7,275039,53,12,0:0:0:0:
352,104,275220,1,0,0:0:0:0:
326,188,275401,1,8,0:0:0:0:
269,230,275581,1,0,0:0:0:0:
295,314,275762,2,0,P|327:323|361:325,1,68.8,0|0,0:0|0:0,0:0:0:0:
366,320,276034,1,0,0:0:0:0:
370,316,276124,5,10,0:0:0:0:
444,227,276304,1,0,0:0:0:0:
374,244,276485,1,10,0:0:0:0:
438,343,276665,1,0,0:0:0:0:
483,286,276846,2,0,P|466:237|468:186,1,103.2,2|0,0:0|0:0,0:0:0:0:
484,170,277208,54,0,P|503:143|493:111,1,68.8,8|0,0:0|0:0,0:0:0:0:
384,64,277569,1,8,0:0:0:0:
479,34,277750,2,0,B|416:33|447:65|384:64,1,103.2
320,32,278111,6,0,P|308:19|298:5,2,34.4,0|0|10,0:0|0:0|0:0,0:0:0:0:
336,112,278473,1,8,0:0:0:0:
304,240,278654,1,10,0:0:0:0:
313,249,279015,53,10,0:0:0:0:
228,299,279196,1,8,0:0:0:0:
154,294,279376,22,0,P|97:299|45:277,1,114.666666666667,8|0,0:0|0:0,0:0:0:0:
32,256,279738,6,0,P|44:222|75:202,1,74.5333299214683,8|0,0:0|0:0,0:0:0:0:
216,160,280099,6,0,P|175:139|155:99,1,93.1666624018353,2|0,0:0|0:0,0:0:0:0:
155,83,280461,2,0,P|169:59|196:56,1,57.3333333333333,8|0,0:0|0:0,0:0:0:0:
344,88,280822,54,0,P|316:67|317:33,1,71.6666666666667,8|0,0:0|0:0,0:0:0:0:
323,25,281184,54,0,L|373:27,1,50.1666651357015,2|0,0:0|0:0,0:0:0:0:
432,96,281545,22,0,B|443:132|405:159|405:159|383:189|394:225,1,143.333333333333,12|0,0:0|0:0,0:0:0:0:
448,272,282208,1,0,0:0:0:0:
452,276,282268,54,0,L|452:291,1,14.3333333333333,10|0,0:0|0:0,0:0:0:0:
320,251,282449,54,0,L|314:264,1,14.3333333333333,8|0,0:0|0:0,0:0:0:0:
58,57,282629,53,10,0:0:0:0:
166,123,282810,1,0,0:0:0:0:
189,221,282990,1,2,0:0:0:0:
157,294,283171,1,0,0:0:0:0:
106,332,283352,2,0,P|87:342|66:337,1,43,2|0,0:0|0:0,0:0:0:0:
32,192,283714,53,4,0:0:0:0:
48,95,284075,1,8,0:0:0:0:
144,79,284256,1,2,0:0:0:0:
189,166,284617,1,0,0:0:0:0:
120,237,284798,5,10,0:0:0:0:
39,278,285160,1,10,0:0:0:0:
53,367,285521,1,0,0:0:0:0:
53,367,285611,1,0,0:0:0:0:
53,367,285702,1,0,0:0:0:0:
53,367,285792,1,0,0:0:0:0:
53,367,285882,53,8,0:0:0:0:
143,382,286244,1,8,0:0:0:0:
183,301,286425,1,2,0:0:0:0:
183,301,286515,1,0,0:0:0:0:
183,301,286605,1,0,0:0:0:0:
257,338,286786,1,0,0:0:0:0:
316,280,286967,5,10,0:0:0:0:
279,207,287147,1,0,0:0:0:0:
196,219,287328,1,10,0:0:0:0:
196,219,287419,1,0,0:0:0:0:
196,219,287509,1,0,0:0:0:0:
196,219,287599,1,0,0:0:0:0:
196,219,287690,1,0,0:0:0:0:
121,206,287870,1,0,0:0:0:0:
109,132,288051,53,8,0:0:0:0:
176,98,288413,1,8,0:0:0:0:
229,151,288593,1,2,0:0:0:0:
229,151,288684,1,0,0:0:0:0:
229,151,288774,1,0,0:0:0:0:
290,182,288955,1,0,0:0:0:0:
337,134,289135,5,10,0:0:0:0:
307,73,289497,1,10,0:0:0:0:
239,83,289858,1,0,0:0:0:0:
239,83,289949,1,0,0:0:0:0:
239,83,290039,1,0,0:0:0:0:
180,108,290220,53,8,0:0:0:0:
138,57,290581,1,8,0:0:0:0:
174,2,290762,1,2,0:0:0:0:
174,2,290852,1,0,0:0:0:0:
174,2,290943,1,0,0:0:0:0:
236,18,291123,1,0,0:0:0:0:
292,72,291304,5,10,0:0:0:0:
384,112,291485,1,0,0:0:0:0:
292,72,291666,2,0,L|303:60,1,15.0499995407105,10|0,0:0|0:0,0:0:0:0:
384,112,291846,2,0,L|386:96,1,15.0499995407105
481,90,292027,2,0,L|473:75,2,15.0499995407105
512,192,292389,53,12,0:0:0:0:
256,192,292449,12,8,294557,0:0:0:0:
256,192,294617,12,8,296726,0:0:0:0:
256,192,296786,12,8,298895,0:0:0:0:
256,192,298955,12,8,300702,0:0:0:0:
256,192,300882,5,2,0:0:0:0:
