osu file format v14

[General]
AudioFilename: audio.mp3
AudioLeadIn: 0
PreviewTime: 118384
Countdown: 0
SampleSet: Soft
StackLeniency: 0.2
Mode: 0
LetterboxInBreaks: 0
WidescreenStoryboard: 0

[Editor]
Bookmarks: 50178
DistanceSpacing: 2.5
BeatDivisor: 3
GridSize: 16
TimelineZoom: 1.9

[Metadata]
Title:Hidra Heteromycin
TitleUnicode:Hidra Heteromycin
Artist:Shimotsuki Haruka
ArtistUnicode:霜月はるか
Creator:Weriko
Version:Intense
Source:アルノサージュ~生まれいずる星へ祈る詩~
Tags:
BeatmapID:1640582
BeatmapSetID:781105

[Difficulty]
HPDrainRate:5
CircleSize:4
OverallDifficulty:9.5
ApproachRate:10
SliderMultiplier:2
SliderTickRate:1

[Events]
//Background and Video events
0,0,"bg.jpg",0,0
//Break Periods
//Storyboard Layer 0 (Background)
//Storyboard Layer 1 (Fail)
//Storyboard Layer 2 (Pass)
//Storyboard Layer 3 (Foreground)
//Storyboard Sound Samples

[TimingPoints]
1208,352.941176470588,6,2,1,60,1,0
2531,-100,6,2,1,5,0,0
2619,-100,6,2,1,50,0,0
2884,-100,6,2,1,5,0,0
2972,-100,6,2,1,50,0,0
3237,-100,6,2,1,5,0,0
3325,-100,6,2,1,50,0,0
5443,352.941176470588,4,2,1,50,1,0
10384,-100,4,2,1,50,0,0
10648,-100,4,2,1,5,0,0
10737,-100,4,2,1,50,0,0
11090,-66.6666666666667,4,2,1,50,0,0
11178,-66.6666666666667,4,2,1,5,0,0
11266,-66.6666666666667,4,2,1,50,0,0
11354,-66.6666666666667,4,2,1,5,0,0
11442,-66.6666666666667,4,2,1,50,0,0
11531,-66.6666666666667,4,2,1,5,0,0
11619,-200,4,2,1,50,0,0
11884,-200,4,2,1,5,0,0
11972,-66.6666666666667,4,2,1,50,0,0
12060,-66.6666666666667,4,2,1,5,0,0
12148,-66.6666666666667,4,2,1,50,0,0
12237,-66.6666666666667,4,2,1,5,0,0
12324,-200,4,2,1,50,0,0
12590,-200,4,2,1,5,0,0
12678,-66.6666666666667,4,2,1,50,0,0
12766,-66.6666666666667,4,2,1,5,0,0
12854,-66.6666666666667,4,2,1,50,0,0
12942,-66.6666666666667,4,2,1,5,0,0
13031,-200,4,2,1,50,0,0
13295,-200,4,2,1,5,0,0
13384,-66.6666666666667,4,2,1,50,0,0
13472,-66.6666666666667,4,2,1,5,0,0
13560,-66.6666666666667,4,2,1,50,0,0
13648,-66.6666666666667,4,2,1,5,0,0
13737,-66.6666666666667,4,2,1,50,0,0
13825,-66.6666666666667,4,2,1,5,0,0
13913,-66.6666666666667,4,2,1,50,0,0
14001,-66.6666666666667,4,2,1,5,0,0
14090,-66.6666666666667,4,2,1,50,0,0
14266,-66.6666666666667,4,2,1,50,0,0
14354,-66.6666666666667,4,2,1,5,0,0
14442,-100,4,2,1,50,0,0
15325,-57.1428571428571,4,2,1,50,0,0
16737,-66.6666666666667,4,2,1,50,0,0
17266,-57.1428571428571,4,2,1,50,0,0
18148,-57.1428571428571,4,2,1,50,0,0
18766,-57.1428571428571,4,2,1,5,0,0
18854,-50,4,2,1,50,0,0
19472,-50,4,2,1,5,0,0
19560,-57.1428571428571,4,2,1,50,0,0
20884,-57.1428571428571,4,2,1,5,0,0
20972,-57.1428571428571,4,2,1,50,0,0
21325,-33.3333333333333,4,2,1,50,0,0
21590,-33.3333333333333,4,2,1,5,0,0
21678,-33.3333333333333,4,2,1,50,0,0
21942,-33.3333333333333,4,2,1,5,0,0
22031,-33.3333333333333,4,2,1,50,0,0
22295,-33.3333333333333,4,2,1,5,0,0
22384,-66.6666666666667,4,2,1,50,0,0
22472,-66.6666666666667,4,2,1,5,0,0
22560,-66.6666666666667,4,2,1,50,0,0
22648,-66.6666666666667,4,2,1,5,0,0
22737,-66.6666666666667,4,2,1,50,0,0
22825,-66.6666666666667,4,2,1,5,0,0
22913,-200,4,2,1,50,0,0
23178,-200,4,2,1,5,0,0
23266,-66.6666666666667,4,2,1,50,0,0
23354,-66.6666666666667,4,2,1,5,0,0
23442,-66.6666666666667,4,2,1,50,0,0
23531,-66.6666666666667,4,2,1,5,0,0
23619,-200,4,2,1,50,0,0
23884,-200,4,2,1,5,0,0
23972,-66.6666666666667,4,2,1,50,0,0
24060,-66.6666666666667,4,2,1,5,0,0
24148,-66.6666666666667,4,2,1,50,0,0
24237,-66.6666666666667,4,2,1,5,0,0
24325,-200,4,2,1,50,0,0
24590,-200,4,2,1,5,0,0
24678,-200,4,2,1,50,0,0
24942,-200,4,2,1,5,0,0
25031,-66.6666666666667,4,2,1,50,0,0
25119,-66.6666666666667,4,2,1,5,0,0
25207,-66.6666666666667,4,2,1,50,0,0
25295,-66.6666666666667,4,2,1,5,0,0
25383,-66.6666666666667,4,2,1,50,0,0
25472,-66.6666666666667,4,2,1,5,0,0
25560,-66.6666666666667,4,2,1,50,0,0
25648,-66.6666666666667,4,2,1,5,0,0
25737,-133.333333333333,4,2,1,50,0,0
26619,-57.1428571428571,4,2,1,50,0,0
26972,-66.6666666666667,4,2,1,50,0,0
27237,-66.6666666666667,4,2,1,5,0,0
27325,-57.1428571428571,4,2,1,50,0,0
27590,-57.1428571428571,4,2,1,5,0,0
27678,-50,4,2,1,50,0,0
27942,-50,4,2,1,5,0,0
28031,-1000,4,2,1,50,0,0
28648,-1000,4,2,1,5,0,0
28737,-57.1428571428571,4,2,1,50,0,0
29354,-57.1428571428571,4,2,1,5,0,0
29442,-1000,4,2,1,50,0,0
30060,-1000,4,2,1,5,0,0
30148,-50,4,2,1,50,0,0
30766,-50,4,2,1,5,0,0
30854,-1000,4,2,1,50,0,0
31472,-1000,4,2,1,5,0,0
31560,-40,4,2,1,50,0,0
32178,-40,4,2,1,5,0,0
32266,-50,4,2,1,50,0,0
32531,-50,4,2,1,5,0,0
32619,-50,4,2,1,50,0,0
32884,-50,4,2,1,5,0,0
32972,-50,4,2,1,50,0,0
33237,-50,4,2,1,5,0,0
33325,-50,4,2,1,50,0,0
33590,-50,4,2,1,5,0,0
33678,-50,4,2,1,50,0,0
34384,-400,4,2,1,50,0,0
34472,-400,4,2,1,5,0,0
34560,-100,4,2,1,50,0,0
34648,-100,4,2,1,5,0,0
34737,-50,4,2,1,50,0,0
34825,-50,4,2,1,5,0,0
34913,-33.3333333333333,4,2,1,50,0,0
35001,-33.3333333333333,4,2,1,50,0,0
35090,-80,4,2,1,50,0,0
35531,-80,4,2,1,5,0,0
35619,-80,4,2,1,50,0,0
36942,-80,4,2,1,5,0,0
37031,-80,4,2,1,50,0,0
38354,-80,4,2,1,5,0,0
38442,-80,4,2,1,50,0,0
39324,-50,4,2,1,50,0,0
39678,-57.1428571428571,4,2,1,50,0,0
39942,-57.1428571428571,4,2,1,5,0,0
40031,-57.1428571428571,4,2,1,50,0,0
40295,-57.1428571428571,4,2,1,5,0,0
40384,-57.1428571428571,4,2,1,50,0,0
40648,-57.1428571428571,4,2,1,5,0,0
40737,-80,4,2,1,50,0,0
41178,-80,4,2,1,5,0,0
41266,-80,4,2,1,50,0,0
42590,-80,4,2,1,5,0,0
42678,-80,4,2,1,50,0,0
44001,-80,4,2,1,5,0,0
44090,-80,4,2,1,50,0,0
44972,-57.1428571428571,4,2,1,50,0,0
45766,-57.1428571428571,4,2,1,5,0,0
45854,-57.1428571428571,4,2,1,50,0,0
46384,-80,4,2,1,50,0,0
46825,-80,4,2,1,5,0,0
46913,-80,4,2,1,50,0,0
48237,-80,4,2,1,5,0,0
48325,-80,4,2,1,50,0,0
49648,-80,4,2,1,5,0,0
49737,-80,4,2,1,50,0,0
50442,-50,4,2,1,50,0,0
51237,-50,4,2,1,5,0,0
51325,-50,4,2,1,50,0,0
51590,-50,4,2,1,5,0,0
51678,-50,4,2,1,50,0,0
51942,-50,4,2,1,5,0,0
52031,-80,4,2,1,50,0,0
52472,-80,4,2,1,5,0,0
52560,-80,4,2,1,50,0,0
53884,-80,4,2,1,5,0,0
53972,-80,4,2,1,50,0,0
55384,-57.1428571428571,4,2,1,50,0,0
56266,-50,4,2,1,50,0,0
57678,-33.3333333333333,4,2,1,50,0,0
57766,-33.3333333333333,4,2,1,5,0,0
57854,-33.3333333333333,4,2,1,50,0,0
57942,-33.3333333333333,4,2,1,5,0,0
58031,-33.3333333333333,4,2,1,50,0,0
58119,-33.3333333333333,4,2,1,5,0,0
58207,-33.3333333333333,4,2,1,50,0,0
58295,-33.3333333333333,4,2,1,5,0,0
58384,-33.3333333333333,4,2,1,50,0,0
58472,-33.3333333333333,4,2,1,5,0,0
58560,-33.3333333333333,4,2,1,50,0,0
58648,-33.3333333333333,4,2,1,5,0,0
58737,-33.3333333333333,4,2,1,50,0,0
58825,-33.3333333333333,4,2,1,5,0,0
58913,-133.333333333333,4,2,1,50,0,0
59442,-33.3333333333333,4,2,1,50,0,0
59531,-33.3333333333333,4,2,1,5,0,0
59619,-133.333333333333,4,2,1,50,0,0
60501,-25,4,2,1,50,0,0
60590,-25,4,2,1,5,0,0
60678,-25,4,2,1,50,0,0
60766,-25,4,2,1,5,0,0
60854,-25,4,2,1,50,0,0
60942,-25,4,2,1,5,0,0
61031,-25,4,2,1,50,0,0
61119,-25,4,2,1,5,0,0
61207,-25,4,2,1,50,0,0
61295,-25,4,2,1,5,0,0
61384,-25,4,2,1,50,0,0
61472,-25,4,2,1,5,0,0
61560,-25,4,2,1,50,0,0
61648,-25,4,2,1,5,0,0
61736,-100,4,2,1,50,0,0
62266,-66.6666666666667,4,2,1,50,0,0
62619,-33.3333333333333,4,2,1,50,0,0
63325,-33.3333333333333,4,2,1,50,0,0
63413,-33.3333333333333,4,2,1,5,0,0
63501,-33.3333333333333,4,2,1,50,0,0
63590,-33.3333333333333,4,2,1,5,0,0
63678,-33.3333333333333,4,2,1,50,0,0
63766,-33.3333333333333,4,2,1,5,0,0
63854,-33.3333333333333,4,2,1,50,0,0
63942,-33.3333333333333,4,2,1,5,0,0
64031,-33.3333333333333,4,2,1,50,0,0
64207,-33.3333333333333,4,2,1,50,0,0
64295,-33.3333333333333,4,2,1,5,0,0
64384,-33.3333333333333,4,2,1,50,0,0
64472,-33.3333333333333,4,2,1,5,0,0
64560,-133.333333333333,4,2,1,50,0,0
65089,-33.3333333333333,4,2,1,50,0,0
65178,-33.3333333333333,4,2,1,5,0,0
65266,-133.333333333333,4,2,1,50,0,0
68972,-80,4,2,1,50,0,0
69413,-80,4,2,1,5,0,0
69501,-80,4,2,1,50,0,0
70825,-80,4,2,1,5,0,0
70913,-80,4,2,1,50,0,0
72237,-80,4,2,1,5,0,0
72325,-80,4,2,1,50,0,0
73207,-50,4,2,1,50,0,0
73560,-57.1428571428571,4,2,1,50,0,0
73825,-57.1428571428571,4,2,1,5,0,0
73913,-57.1428571428571,4,2,1,50,0,0
74178,-57.1428571428571,4,2,1,5,0,0
74266,-57.1428571428571,4,2,1,50,0,0
74531,-57.1428571428571,4,2,1,5,0,0
74619,-80,4,2,1,50,0,0
75060,-80,4,2,1,5,0,0
75148,-80,4,2,1,50,0,0
76472,-80,4,2,1,5,0,0
76560,-80,4,2,1,50,0,0
77884,-80,4,2,1,5,0,0
77972,-80,4,2,1,50,0,0
78854,-57.1428571428571,4,2,1,50,0,0
79295,-57.1428571428571,4,2,1,5,0,0
79384,-57.1428571428571,4,2,1,50,0,0
80266,-80,4,2,1,50,0,0
80707,-80,4,2,1,5,0,0
80795,-80,4,2,1,50,0,0
82119,-80,4,2,1,10,0,0
82207,-80,4,2,1,50,0,0
83531,-80,4,2,1,5,0,0
83619,-80,4,2,1,50,0,0
84325,-50,4,2,1,50,0,0
84854,-50,4,2,1,50,0,0
85119,-50,4,2,1,5,0,0
85207,-50,4,2,1,50,0,0
85472,-50,4,2,1,5,0,0
85560,-50,4,2,1,50,0,0
85825,-50,4,2,1,5,0,0
85913,-80,4,2,1,50,0,0
86354,-80,4,2,1,5,0,0
86442,-80,4,2,1,50,0,0
87766,-80,4,2,1,5,0,0
87854,-80,4,2,1,50,0,0
89178,-80,4,2,1,5,0,0
89266,-80,4,2,1,50,0,0
90148,-50,4,2,1,50,0,0
90413,-50,4,2,1,5,0,0
90501,-50,4,2,1,50,0,0
90766,-50,4,2,1,5,0,0
90854,-50,4,2,1,50,0,0
91119,-50,4,2,1,5,0,0
91207,-50,4,2,1,50,0,0
91472,-50,4,2,1,5,0,0
91560,-80,4,2,1,50,0,0
92531,-80,4,2,1,5,0,0
92619,-80,4,2,1,56,0,0
92972,-80,4,2,1,56,0,0
93590,-80,4,2,1,5,0,0
93678,-80,4,2,1,56,0,0
94295,-80,4,2,1,5,0,0
94384,-80,4,2,1,50,0,0
95707,-80,4,2,1,5,0,0
95795,-80,4,2,1,50,0,0
97119,-80,4,2,1,5,0,0
97207,-80,4,2,1,50,0,0
99942,-80,4,2,1,5,0,0
100031,-80,4,2,1,50,0,0
101354,-80,4,2,1,5,0,0
101442,-68.9655172413793,4,2,1,50,0,0
102060,-68.9655172413793,4,2,1,5,0,0
102148,-60.6060606060606,4,2,1,50,0,0
102766,-60.6060606060606,4,2,1,5,0,0
102854,-58.8235294117647,4,2,1,50,0,0
103825,-58.8235294117647,4,2,1,5,0,0
103913,-58.8235294117647,4,2,1,50,0,0
104266,-50,4,2,1,50,0,0
104884,-50,4,2,1,5,0,0
104972,-66.6666666666667,4,2,1,50,0,0
105590,-66.6666666666667,4,2,1,5,0,0
105678,-100,4,2,1,50,0,0
107001,-100,4,2,1,5,0,0
107090,-100,4,2,1,50,0,0
107707,-100,4,2,1,5,0,0
107795,-100,4,2,1,50,0,0
108413,-100,4,2,1,5,0,0
108501,-100,4,2,1,50,0,0
109472,-100,4,2,1,5,0,0
109560,-100,4,2,1,50,0,0
110531,-100,4,2,1,5,0,0
110619,-1000,4,2,1,50,0,0
111237,-1000,4,2,1,5,0,0
111325,-133.333333333333,4,2,1,50,0,0
112648,-133.333333333333,4,2,1,5,0,0
112737,-200,4,2,1,50,0,0
114060,-200,4,2,1,5,0,0
114148,-400,4,2,1,50,0,0
115472,-400,4,2,1,5,0,0
115560,-800,4,2,1,50,0,0
117678,-100,4,2,1,50,0,1
135325,-66.6666666666667,4,2,1,50,0,1
135854,-133.333333333333,4,2,1,50,0,1
139560,-66.6666666666667,4,2,1,50,0,1
140972,-100,4,2,1,50,0,1
159325,-66.6666666666667,4,2,1,50,0,1
160737,-80,4,2,1,50,0,1
163560,-66.6666666666667,4,2,1,50,0,0
163648,-66.6666666666667,4,2,1,5,0,0
163737,-66.6666666666667,4,2,1,50,0,0
163825,-66.6666666666667,4,2,1,5,0,0
163913,-66.6666666666667,4,2,1,50,0,0
164001,-66.6666666666667,4,2,1,5,0,0
164089,-200,4,2,1,50,0,0
164354,-200,4,2,1,5,0,0
164442,-66.6666666666667,4,2,1,50,0,0
164531,-66.6666666666667,4,2,1,5,0,0
164619,-66.6666666666667,4,2,1,50,0,0
164707,-66.6666666666667,4,2,1,5,0,0
164795,-200,4,2,1,50,0,0
165060,-200,4,2,1,5,0,0
165148,-66.6666666666667,4,2,1,50,0,0
165237,-66.6666666666667,4,2,1,8,0,0
165325,-66.6666666666667,4,2,1,50,0,0
165413,-66.6666666666667,4,2,1,6,0,0
165501,-200,4,2,1,50,0,0
165766,-200,4,2,1,5,0,0
165854,-66.6666666666667,4,2,1,50,0,0
165942,-66.6666666666667,4,2,1,5,0,0
166031,-66.6666666666667,4,2,1,50,0,0
166119,-66.6666666666667,4,2,1,5,0,0
166207,-66.6666666666667,4,2,1,50,0,0
166295,-66.6666666666667,4,2,1,5,0,0
166384,-66.6666666666667,4,2,1,50,0,0
166472,-66.6666666666667,4,2,1,5,0,0
166560,-66.6666666666667,4,2,1,50,0,0
166825,-66.6666666666667,4,2,1,5,0,0
166913,-100,4,2,1,50,0,0
167707,-100,4,2,1,5,0,0
167795,-57.1428571428571,4,2,1,50,0,0
169207,-66.6666666666667,4,2,1,50,0,0
169737,-57.1428571428571,4,2,1,50,0,0
171237,-57.1428571428571,4,2,1,5,0,0
171325,-50,4,2,1,50,0,0
171942,-50,4,2,1,5,0,0
172031,-57.1428571428571,4,2,1,50,0,0
173354,-57.1428571428571,4,2,1,5,0,0
173442,-57.1428571428571,4,2,1,50,0,0
173795,-33.3333333333333,4,2,1,50,0,0
174060,-33.3333333333333,4,2,1,5,0,0
174148,-33.3333333333333,4,2,1,50,0,0
174413,-33.3333333333333,4,2,1,5,0,0
174501,-33.3333333333333,4,2,1,50,0,0
174766,-33.3333333333333,4,2,1,5,0,0
174854,-66.6666666666667,4,2,1,50,0,0
174942,-66.6666666666667,4,2,1,5,0,0
175031,-66.6666666666667,4,2,1,50,0,0
175119,-66.6666666666667,4,2,1,5,0,0
175207,-66.6666666666667,4,2,1,50,0,0
175295,-66.6666666666667,4,2,1,5,0,0
175383,-200,4,2,1,50,0,0
175648,-200,4,2,1,5,0,0
175737,-66.6666666666667,4,2,1,50,0,0
175825,-66.6666666666667,4,2,1,5,0,0
175913,-66.6666666666667,4,2,1,50,0,0
176001,-66.6666666666667,4,2,1,5,0,0
176090,-200,4,2,1,50,0,0
176354,-200,4,2,1,5,0,0
176442,-66.6666666666667,4,2,1,50,0,0
176531,-66.6666666666667,4,2,1,5,0,0
176619,-66.6666666666667,4,2,1,50,0,0
176707,-66.6666666666667,4,2,1,5,0,0
176795,-200,4,2,1,50,0,0
177060,-200,4,2,1,5,0,0
177148,-200,4,2,1,50,0,0
177413,-200,4,2,1,5,0,0
177501,-66.6666666666667,4,2,1,50,0,0
178207,-133.333333333333,4,2,1,50,0,0
179090,-66.6666666666667,4,2,1,50,0,0
179707,-66.6666666666667,4,2,1,5,0,0
179795,-57.1428571428571,4,2,1,50,0,0
180060,-57.1428571428571,4,2,1,5,0,0
180148,-50,4,2,1,50,0,0
180413,-50,4,2,1,5,0,0
180501,-1000,4,2,1,50,0,0
181119,-1000,4,2,1,5,0,0
181207,-57.1428571428571,4,2,1,50,0,0
181825,-57.1428571428571,4,2,1,5,0,0
181912,-1000,4,2,1,50,0,0
182531,-1000,4,2,1,5,0,0
182618,-50,4,2,1,50,0,0
183237,-50,4,2,1,5,0,0
183324,-1000,4,2,1,50,0,0
183942,-1000,4,2,1,5,0,0
184030,-40,4,2,1,50,0,0
184648,-40,4,2,1,5,0,0
184737,-50,4,2,1,50,0,0
186854,-100,4,2,1,50,0,0
187384,-66.6666666666667,4,2,1,50,0,0
187560,-66.6666666666667,4,2,1,50,0,1
188089,-100,4,2,1,50,0,1
192678,-57.1428571428571,4,2,1,50,0,1
193207,-50,4,2,1,50,0,1
195325,-33.3333333333333,4,2,1,50,0,1
196031,-80,4,2,1,50,0,1
196912,-66.6666666666667,4,2,1,50,0,1
197265,-80,4,2,1,50,0,1
197442,-66.6666666666667,4,2,1,50,0,1
197972,-57.1428571428571,4,2,1,50,0,1
198854,-80,4,2,1,50,0,1
201678,-25,4,2,1,50,0,1
203619,-28.5714285714286,4,2,1,50,0,1
204677,-50,4,2,1,50,0,1
205206,-66.6666666666667,4,2,1,50,0,1
205913,-100,4,2,1,50,0,1
208031,-66.6666666666667,4,2,1,50,0,1
210148,-80,4,2,1,50,0,1
212972,-50,4,2,1,50,0,1
215795,-100,4,2,1,50,0,1
216500,-80,4,2,1,50,0,1
217207,-57.1428571428571,4,2,1,50,0,1
217559,-80,4,2,1,50,0,1
218266,-100,4,2,1,50,0,1
218618,-133.333333333333,4,2,1,50,0,1
219324,-100,4,2,1,50,0,1
220031,-80,4,2,1,50,0,1
220383,-50,4,2,1,50,0,1
221001,-66.6666666666667,4,2,1,50,0,1
221442,-44.4444444444445,4,2,1,50,0,1
223560,-100,4,2,1,50,0,1
225677,-66.6666666666667,4,2,1,50,0,1
226383,-44.4444444444445,4,2,1,50,0,1
226736,-33.3333333333333,4,2,1,50,0,1
229913,-50,4,2,1,50,0,1
233266,-80,4,2,1,50,0,0
234590,-80,4,2,1,5,0,0
234678,-80,4,2,1,50,0,0
236001,-80,4,2,1,5,0,0
236090,-80,4,2,1,50,0,0
236972,-50,4,2,1,50,0,0
237325,-57.1428571428571,4,2,1,50,0,0
237590,-57.1428571428571,4,2,1,5,0,0
237678,-57.1428571428571,4,2,1,50,0,0
237942,-57.1428571428571,4,2,1,5,0,0
238031,-57.1428571428571,4,2,1,50,0,0
238295,-57.1428571428571,4,2,1,5,0,0
238384,-80,4,2,1,50,0,0
238825,-80,4,2,1,5,0,0
238913,-80,4,2,1,50,0,0
240237,-80,4,2,1,5,0,0
240325,-80,4,2,1,50,0,0
241648,-80,4,2,1,5,0,0
241737,-80,4,2,1,50,0,0
242619,-57.1428571428571,4,2,1,50,0,0
243413,-57.1428571428571,4,2,1,5,0,0
243501,-57.1428571428571,4,2,1,50,0,0
244031,-44.4444444444445,4,2,1,50,0,0
244472,-44.4444444444445,4,2,1,5,0,0
244560,-44.4444444444445,4,2,1,50,0,0
245884,-44.4444444444445,4,2,1,5,0,0
245972,-44.4444444444445,4,2,1,50,0,0
247207,-80,4,2,1,50,0,0
247295,-80,4,2,1,5,0,0
247384,-80,4,2,1,50,0,0
248266,-50,4,2,1,50,0,0
248619,-57.1428571428571,4,2,1,50,0,0
248884,-57.1428571428571,4,2,1,5,0,0
248972,-57.1428571428571,4,2,1,50,0,0
249237,-57.1428571428571,4,2,1,5,0,0
249325,-57.1428571428571,4,2,1,50,0,0
249590,-57.1428571428571,4,2,1,5,0,0
249678,-80,4,2,1,50,0,0
250119,-80,4,2,1,5,0,0
250207,-80,4,2,1,50,0,0
251531,-80,4,2,1,5,0,0
251619,-80,4,2,1,50,0,0
252942,-80,4,2,1,5,0,0
253031,-80,4,2,1,50,0,0
253913,-50,4,2,1,50,0,0
255325,-133.333333333333,4,2,1,50,0,0
279325,-133.333333333333,4,2,1,50,0,1
280560,-133.333333333333,4,2,1,50,0,0
282854,-133.333333333333,4,2,1,50,0,1
283031,-66.6666666666667,4,2,1,50,0,1
283560,-400,4,2,1,50,0,0
283913,-100,4,2,1,50,0,1
299795,-100,4,2,1,50,0,1
300501,-66.6666666666667,4,2,1,50,0,1
301031,-133.333333333333,4,2,1,50,0,1
301913,-200,4,2,1,50,0,1
303325,-133.333333333333,4,2,1,50,0,1
306148,-100,4,2,1,50,0,1
324501,-66.6666666666667,4,2,1,50,0,1
325915,-80,4,2,1,50,0,1
328737,-200,4,2,1,50,0,0
334736,-57.9710144927536,4,2,1,50,0,0
336501,-100,4,2,1,50,0,0
345678,-1000,4,2,1,50,0,0
346295,-1000,4,2,1,5,0,0
346384,-200,4,2,1,50,0,0
347001,-200,4,2,1,5,0,0
347090,-1000,4,2,1,50,0,0
347707,-1000,4,2,1,5,0,0
347795,-133.333333333333,4,2,1,50,0,0
348413,-133.333333333333,4,2,1,5,0,0
348501,-1000,4,2,1,50,0,0
349119,-1000,4,2,1,5,0,0
349206,-100,4,2,1,50,0,0
349825,-100,4,2,1,5,0,0
349913,-100,4,2,1,50,0,0
350178,-100,4,2,1,5,0,0
350266,-100,4,2,1,50,0,0
350531,-100,4,2,1,5,0,0
350619,-100,4,2,1,50,0,0
350884,-100,4,2,1,5,0,0
350972,-100,4,2,1,50,0,0
351237,-100,4,2,1,5,0,0
351325,-100,4,2,1,50,0,0
359795,-200,4,2,1,50,0,0
366854,-333.333333333333,4,2,1,75,0,0
366854,-333.333333333333,4,2,1,50,0,0
366942,-333.333333333333,4,2,1,5,0,0

[Colours]
Combo1 : 0,255,255
Combo2 : 0,255,0
Combo3 : 148,40,255
Combo4 : 255,0,0

[HitObjects]
31,88,1208,6,0,P|58:131|115:127,1,100
100,218,1560,2,0,P|123:173|91:125,1,100
178,92,1913,2,0,P|127:93|102:145,1,100
100,218,2178,1,0,0:0:0:0:
175,178,2266,6,0,L|255:35,1,150
185,194,2619,2,0,L|265:51,1,150
195,210,2972,2,0,L|275:67,1,150
332,223,3325,6,0,P|375:196|371:139,1,100
449,197,3678,2,0,P|422:154|365:158,1,100
422,79,4031,2,0,P|380:103|376:151,1,100
449,197,4296,1,0,0:0:0:0:
414,75,4384,6,0,P|372:99|368:147,1,100
507,104,4737,1,0,0:0:0:0:
304,284,4913,1,0,0:0:0:0:
464,79,5090,1,0,0:0:0:0:
347,309,5266,1,0,0:0:0:0:
418,73,5443,5,0,0:0:0:0:
393,71,5531,1,0,0:0:0:0:
368,70,5619,1,0,0:0:0:0:
343,69,5707,1,0,0:0:0:0:
318,68,5795,2,0,B|267:81|267:81|206:137,1,100
304,284,6148,1,0,0:0:0:0:
319,68,6325,1,0,0:0:0:0:
136,183,6501,1,0,0:0:0:0:
319,68,6678,6,0,B|351:102|351:102|364:153,1,100
136,183,7031,1,0,0:0:0:0:
304,284,7207,1,0,0:0:0:0:
316,69,7384,1,0,0:0:0:0:
304,284,7560,5,0,0:0:0:0:
136,183,7737,1,0,0:0:0:0:
364,153,7913,1,0,0:0:0:0:
218,23,8090,1,0,0:0:0:0:
136,183,8266,5,0,0:0:0:0:
364,153,8442,5,0,0:0:0:0:
314,145,8530,1,0,0:0:0:0:
265,138,8618,1,0,0:0:0:0:
364,153,8795,5,0,0:0:0:0:
309,159,8883,1,0,0:0:0:0:
254,165,8971,1,0,0:0:0:0:
364,153,9148,5,0,0:0:0:0:
306,175,9236,1,0,0:0:0:0:
250,197,9324,1,0,0:0:0:0:
364,153,9501,5,0,0:0:0:0:
309,193,9589,1,0,0:0:0:0:
256,233,9677,1,0,0:0:0:0:
364,153,9854,5,0,0:0:0:0:
316,211,9942,1,0,0:0:0:0:
272,268,10031,2,0,L|226:315,1,50
466,115,10207,5,0,0:0:0:0:
388,63,10295,1,0,0:0:0:0:
298,82,10384,2,0,P|236:114|177:69,1,150
106,142,10737,5,0,0:0:0:0:
152,265,10825,1,0,0:0:0:0:
185,178,10913,1,0,0:0:0:0:
62,224,11001,1,0,0:0:0:0:
254,212,11090,6,0,P|285:188|287:140,1,75.0000028610231
177,70,11266,2,0,P|182:108|222:134,1,75.0000028610231
340,53,11442,2,0,P|303:38|261:60,1,75.0000028610231
254,212,11619,6,0,P|285:188|287:140,1,75.0000028610231
160,222,11972,6,0,L|259:250,1,75.0000028610231
363,174,12148,2,0,L|264:146,1,75.0000028610231
160,222,12325,6,0,L|259:250,1,75.0000028610231
60,251,12678,6,0,P|82:220|131:206,1,75.0000028610231
290,153,12854,2,0,P|324:138|345:108,1,75.0000028610231
60,251,13031,6,0,P|82:220|131:206,1,75.0000028610231
134,341,13384,2,0,L|77:286,1,75.0000028610231
237,206,13560,2,0,L|289:152,1,75.0000028610231
132,330,13737,2,0,L|75:275,1,75.0000028610231
235,195,13913,6,0,L|287:141,1,75.0000028610231
111,115,14090,2,0,L|57:62,1,75.0000028610231
130,319,14266,2,0,L|73:264,1,75.0000028610231
109,104,14442,2,0,B|53:51|53:51|-18:169|128:205|128:205|157:114|195:66|256:64,1,450
288,258,15325,6,0,P|254:228|242:176,1,87.500000834465
365,60,15501,2,0,P|399:90|411:142,1,87.500000834465
285,262,15678,2,0,P|249:230|236:175,1,87.500000834465
367,55,15854,2,0,P|402:86|415:141,1,87.500000834465
283,268,16031,6,0,P|245:234|232:177,1,87.500000834465
369,49,16207,2,0,P|406:82|419:139,1,87.500000834465
278,275,16384,2,0,P|238:240|224:180,1,87.500000834465
374,42,16560,2,0,P|414:77|427:137,1,87.500000834465
218,126,16737,6,0,P|152:168|152:262,1,150.000005722046
190,325,17001,1,0,0:0:0:0:
278,275,17089,1,0,0:0:0:0:
296,175,17177,1,0,0:0:0:0:
218,104,17266,6,0,B|150:108|126:157|126:157|86:186|86:186|46:218|-7:204|-7:204|0:166|0:166|-12:129|-12:129|23:117|23:117|43:132|75:118|75:118|90:178|90:178|63:230|63:230|88:310,1,612.500005841255
190,325,17972,1,0,0:0:0:0:
278,275,18060,1,0,0:0:0:0:
365,216,18148,6,0,B|317:315|317:315|475:301|475:301|412:242|381:78|435:49|464:35|464:35|464:109,1,612.500005841255
352,189,18854,2,0,B|286:318|286:318|173:288|173:288|234:255|261:171|222:58|222:58|145:64|145:64|166:118|163:188,1,700
159,328,19560,6,0,B|294:364|294:364|334:279|334:279|373:206|373:206|400:192|400:192|451:159|503:198|568:266|487:331|443:341|401:329|401:329|400:192|400:192|377:97|348:46|348:46|312:88|312:88|283:128|283:128|279:71|245:26|245:26|67:38,1,1312.50001251698
178,79,20972,2,0,L|284:72,1,87.500000834465
303,307,21148,2,0,L|197:314,1,87.500000834465
104,223,21325,6,0,B|107:138|107:138|121:278|232:298|288:288|375:222|362:153|362:153|333:142,1,450.000017166138
104,223,21678,2,0,B|128:141|128:141|106:280|208:328|264:333|366:292|371:222|371:222|346:204,1,450.000017166138
104,223,22031,2,0,B|149:150|149:150|91:279|177:351|230:371|339:357|362:291|362:291|342:267,1,450.000017166138
179,187,22384,6,0,P|173:148|133:122,1,75.0000028610231
1,204,22560,2,0,P|39:198|65:158,1,75.0000028610231
35,20,22737,2,0,P|40:58|80:84,1,75.0000028610231
179,187,22913,6,0,P|173:148|133:122,1,75.0000028610231
117,269,23266,6,0,L|167:201,1,75.0000028610231
330,156,23442,2,0,L|280:224,1,75.0000028610231
117,269,23619,6,0,L|167:201,1,75.0000028610231
10,274,23972,6,0,P|52:299|100:267,1,75.0000028610231
285,216,24148,2,0,P|321:213|350:235,1,75.0000028610231
10,274,24325,6,0,P|52:299|100:267,1,75.0000028610231
350,235,24678,6,0,P|321:212|284:215,1,75.0000028610231
334,352,25031,6,0,P|373:346|399:306,1,75.0000028610231
317,174,25207,2,0,P|323:212|363:238,1,75.0000028610231
501,208,25384,2,0,P|463:213|437:253,1,75.0000028610231
334,352,25560,2,0,P|373:346|399:306,1,75.0000028610231
317,174,25737,6,0,B|311:215|349:235|349:235|392:217|424:180|426:56|306:69|264:93,1,337.500012874604
422,116,26619,6,0,P|391:73|341:50,1,87.500000834465
285,190,26795,2,0,P|312:242|362:265,1,87.500000834465
278,86,26972,6,0,L|60:178,1,225.000008583069
0,166,27325,2,0,L|257:264,1,262.500002503395
311,253,27678,2,0,L|19:356,1,300
153,348,28031,6,0,L|189:336,1,35
340,293,28737,2,0,B|393:307|412:279|497:241|405:101|328:153|292:191|292:191|340:262|456:232|453:136|423:112|389:72|341:93,1,612.500005841255
153,36,29442,6,0,L|189:48,1,35
394,53,30148,2,0,B|419:58|464:92|502:122|506:242|361:279|301:190|301:190|346:143|442:78|557:253|451:300|427:335|388:323,1,700.00000667572
153,348,30854,6,0,L|189:336,1,35
433,353,31560,2,0,B|470:371|499:327|632:268|488:49|368:131|312:190|312:190|387:301|568:254|563:104|516:66|459:24|410:11,1,875
279,77,32266,6,0,P|185:114|221:359,1,300
371,215,32619,6,0,P|334:121|89:157,1,300
233,307,32972,6,0,P|327:270|291:25,1,300
141,169,33325,6,0,P|178:263|423:227,1,300
413,192,33678,1,0,0:0:0:0:
271,192,33766,1,0,0:0:0:0:
409,158,33854,1,0,0:0:0:0:
267,68,34031,5,0,0:0:0:0:
409,68,34119,1,0,0:0:0:0:
271,34,34207,1,0,0:0:0:0:
236,270,34384,6,0,L|220:286,1,12.5
236,270,34560,6,0,L|231:326,1,50
236,270,34737,6,0,L|279:361,1,100
236,270,34913,6,0,L|364:349,1,150.000005722046
411,158,35090,6,0,P|365:185|288:112,1,125
436,117,35354,1,0,0:0:0:0:
274,129,35442,2,0,P|241:100|184:98,1,62.5
237,271,35619,2,0,P|289:234|216:94,1,250
343,226,36148,6,0,P|301:224|232:280,1,125
44,110,36501,6,0,P|86:112|155:56,1,125
2,84,36766,1,0,0:0:0:0:
181,26,36854,2,0,P|216:10|266:24,1,62.5
80,146,37031,2,0,P|100:57|242:12,1,250
172,215,37560,6,0,P|113:196|79:145,1,125
364,124,37913,6,0,P|422:142|456:193,1,125
312,127,38178,1,0,0:0:0:0:
476,238,38266,2,0,P|485:268|518:321,1,62.5
503,78,38442,2,0,P|455:145|508:303,1,250
256,32,38972,1,0,0:0:0:0:
79,145,39148,5,0,0:0:0:0:
170,220,39237,1,0,0:0:0:0:
276,169,39325,2,0,P|321:158|396:198,1,100
79,296,39501,5,0,0:0:0:0:
170,220,39590,1,0,0:0:0:0:
276,272,39678,2,0,P|419:277|511:137,1,262.500002503395
276,272,40031,2,0,P|415:239|468:80,1,262.500002503395
276,272,40384,2,0,P|402:204|412:37,1,262.500002503395
214,56,40737,6,0,P|243:111|298:139,1,125
216,9,41001,1,0,0:0:0:0:
337,166,41090,2,0,P|350:186|348:240,1,62.5
180,102,41266,2,0,P|248:95|352:237,1,250
78,47,41795,6,0,P|137:100|227:73,1,125
60,6,42060,1,0,0:0:0:0:
202,140,42148,6,0,P|217:209|159:274,1,125
179,101,42413,1,0,0:0:0:0:
172,290,42501,2,0,P|170:326|199:362,1,62.5
250,125,42678,2,0,P|192:192|191:369,1,250
60,6,43207,2,0,P|89:39|89:128,1,125
303,198,43560,6,0,P|274:231|273:320,1,125
338,174,43825,1,0,0:0:0:0:
262,353,43913,2,0,P|247:368|193:377,1,62.5
270,174,44090,2,0,P|296:238|206:380,1,250
438,33,44619,6,0,P|425:65|470:136,1,125
470,2,44884,1,0,0:0:0:0:
488,173,44972,6,0,P|463:201|370:186,1,87.500000834465
177,126,45148,2,0,P|149:101|164:8,1,87.500000834465
485,152,45325,2,0,P|462:182|369:176,1,87.500000834465
171,133,45501,6,0,P|141:110|258:61,1,262.500002503395
145,171,45854,2,0,P|88:97|109:-6,1,175.00000166893
285,177,46207,1,0,0:0:0:0:
215,227,46295,1,0,0:0:0:0:
145,171,46384,6,0,P|118:217|191:294,1,125
178,157,46648,1,0,0:0:0:0:
174,308,46737,2,0,P|203:341|205:398,1,62.5
26,342,46913,2,0,P|63:290|192:352,1,187.5
210,358,47266,5,0,0:0:0:0:
237,372,47354,1,0,0:0:0:0:
267,379,47442,1,0,0:0:0:0:
328,365,47531,1,0,0:0:0:0:
371,321,47619,1,0,0:0:0:0:
383,261,47707,1,0,0:0:0:0:
338,182,47795,6,0,P|300:146|310:59,1,125
383,261,48060,1,0,0:0:0:0:
337,56,48148,2,0,P|327:20|301:-8,1,62.5
206,161,48325,2,0,P|332:79|329:3,1,187.5
311,0,48678,5,0,0:0:0:0:
296,27,48766,1,0,0:0:0:0:
289,57,48854,1,0,0:0:0:0:
303,118,48942,1,0,0:0:0:0:
347,161,49031,1,0,0:0:0:0:
407,173,49119,1,0,0:0:0:0:
486,128,49207,6,0,P|453:231|479:282,1,125
407,173,49472,1,0,0:0:0:0:
469,286,49560,2,0,P|466:337|441:377,1,62.5
375,138,49737,2,0,P|440:187|463:316,1,187.5
461,347,50090,5,0,0:0:0:0:
434,362,50178,1,0,0:0:0:0:
397,371,50266,1,0,0:0:0:0:
333,344,50354,1,0,0:0:0:0:
288,262,50442,6,0,B|226:200|130:169|50:223|41:275|41:275|99:328|179:321,1,400
288,262,50884,1,0,0:0:0:0:
331,154,50972,6,0,B|343:96|287:17|287:17|215:103|215:103|277:129,1,300
331,154,51325,2,0,B|375:193|471:184|471:184|433:79|433:79|379:119,1,300
331,154,51678,2,0,B|274:172|234:260|234:260|344:279|344:279|336:213,1,300
305,116,52031,6,0,P|252:152|209:228,1,125
331,78,52295,1,0,0:0:0:0:
196,242,52384,2,0,P|163:264|121:260,1,62.5
226,73,52560,2,0,P|245:147|173:255,1,187.5
141,265,52913,5,0,0:0:0:0:
110,259,53001,1,0,0:0:0:0:
83,245,53090,1,0,0:0:0:0:
45,195,53178,1,0,0:0:0:0:
40,133,53266,1,0,0:0:0:0:
70,80,53354,1,0,0:0:0:0:
151,29,53442,6,0,P|179:105|152:173,1,125
70,80,53707,1,0,0:0:0:0:
165,191,53795,2,0,P|169:217|208:244,1,62.5
262,33,53972,2,0,P|191:92|195:241,1,250
272,149,54413,1,0,0:0:0:0:
262,33,54501,6,0,P|230:50|195:88,1,62.5
405,269,54678,2,0,P|406:232|390:183,1,62.5
137,292,54854,2,0,P|167:311|264:277,1,125
84,300,55119,1,0,0:0:0:0:
276,251,55207,2,0,P|299:229|328:217,1,62.5
474,316,55384,6,0,P|460:331|390:352,1,87.500000834465
272,149,55560,2,0,P|317:128|367:127,1,87.500000834465
313,326,55737,6,0,P|298:312|277:242,1,87.500000834465
419,201,55913,1,0,0:0:0:0:
385,280,56001,1,0,0:0:0:0:
312,325,56089,1,0,0:0:0:0:
400,41,56266,6,0,P|449:51|472:111,1,100
53,142,56442,2,0,P|37:95|77:45,1,100
311,347,56619,2,0,P|277:384|214:374,1,100
85,144,56795,6,0,P|97:56|176:135,1,200
199,162,57060,1,0,0:0:0:0:
279,178,57148,1,0,0:0:0:0:
386,296,57325,6,0,P|416:177|269:202,1,300
256,192,57678,6,0,B|256:144|304:128|304:128|304:192|272:176,1,150
256,192,57854,6,0,B|304:192|320:240|320:240|256:240|272:208,1,150
256,192,58031,6,0,B|256:240|208:256|208:256|208:192|240:208,1,150
256,192,58207,6,0,B|208:192|192:144|192:144|256:144|240:176,1,150
256,192,58384,6,0,B|283:152|332:167|332:167|295:219|278:188,1,150
256,192,58560,6,0,B|295:219|280:268|280:268|228:231|259:214,1,150
256,192,58737,6,0,B|228:231|179:216|179:216|216:164|233:195,1,150
256,192,58913,6,0,B|216:164|231:115|231:115|283:152|252:169,1,150
316,246,59354,1,0,0:0:0:0:
380,191,59442,6,0,B|420:163|405:114|405:114|353:151|384:168,1,150
380,191,59619,6,0,B|340:219|355:268|355:268|407:231|376:214,1,150
454,100,60148,1,0,0:0:0:0:
96,63,60325,1,0,0:0:0:0:
256,192,60501,6,0,B|256:119|183:111|183:111|205:189|253:155,1,200
256,192,60678,6,0,B|183:192|175:265|175:265|253:243|219:195,1,200
256,192,60854,6,0,B|256:265|329:273|329:273|307:195|259:229,1,200
256,192,61031,6,0,B|329:192|337:119|337:119|259:141|293:189,1,200
256,192,61207,6,0,B|204:140|147:186|147:186|217:225|227:167,1,200
256,192,61384,6,0,B|204:243|250:300|250:300|289:230|231:220,1,200
256,192,61560,6,0,B|307:243|364:197|364:197|294:158|284:216,1,200
256,192,61737,6,0,B|307:140|261:83|261:83|222:153|280:163,1,200
303,312,62266,6,0,B|331:352|380:337|380:337|343:285|326:316,1,150
149,282,62619,6,0,B|100:286|88:336|88:336|152:330|134:299,2,150.000005722046
363,102,62972,6,0,B|411:97|423:47|423:47|359:53|377:84,2,150.000005722046
256,192,63325,6,0,B|256:240|208:256|208:256|208:192|240:208,1,150
256,192,63501,6,0,B|208:192|192:144|192:144|256:144|240:176,1,150
256,192,63678,6,0,B|256:144|304:128|304:128|304:192|272:176,1,150
256,192,63854,6,0,B|304:192|320:240|320:240|256:240|272:208,1,150
256,192,64031,6,0,B|229:232|180:217|180:217|217:165|234:196,1,150
256,192,64207,6,0,B|217:165|232:116|232:116|284:153|253:170,1,150
256,192,64384,6,0,B|284:153|333:168|333:168|296:220|279:189,1,150
256,192,64560,6,0,B|296:220|281:269|281:269|229:232|260:215,1,150
196,138,65001,1,0,0:0:0:0:
132,193,65090,6,0,B|92:221|107:270|107:270|159:233|128:216,1,150
132,193,65266,6,0,B|172:165|157:116|157:116|105:153|136:170,1,150
416,321,65795,1,0,0:0:0:0:
58,284,65972,1,0,0:0:0:0:
308,91,66148,5,0,0:0:0:0:
214,321,66325,1,0,0:0:0:0:
303,85,66501,5,0,0:0:0:0:
209,315,66678,1,0,0:0:0:0:
298,79,66854,5,0,0:0:0:0:
204,309,67031,1,0,0:0:0:0:
293,73,67207,5,0,0:0:0:0:
199,303,67384,1,0,0:0:0:0:
137,155,67560,5,0,0:0:0:0:
367,249,67737,1,0,0:0:0:0:
119,105,67913,5,0,0:0:0:0:
376,300,68090,1,0,0:0:0:0:
214,91,68266,5,0,0:0:0:0:
256,192,68354,1,0,0:0:0:0:
298,293,68442,1,0,0:0:0:0:
241,83,68619,5,0,0:0:0:0:
256,192,68707,1,0,0:0:0:0:
270,300,68795,1,0,0:0:0:0:
68,128,68972,6,0,P|114:101|191:174,1,125
43,169,69237,1,0,0:0:0:0:
205,157,69325,2,0,P|238:186|295:188,1,62.5
242,15,69501,2,0,P|190:52|263:192,1,250
470,94,70031,2,0,P|426:94|363:172,1,125
249,305,70384,6,0,P|271:266|234:173,1,125
212,339,70648,1,0,0:0:0:0:
237,148,70737,2,0,P|215:109|208:50,1,62.5
335,266,70913,2,0,P|280:254|210:92,1,250
4,160,71442,2,0,P|54:189|77:291,1,125
287,180,71795,6,0,P|237:151|214:49,1,125
320,219,72060,1,0,0:0:0:0:
198,49,72148,2,0,P|185:18|151:-5,1,62.5
188,192,72325,2,0,P|241:85|155:-2,1,250
256,352,72854,1,0,0:0:0:0:
433,145,73031,5,0,0:0:0:0:
342,220,73119,1,0,0:0:0:0:
236,169,73207,2,0,P|191:158|116:198,1,100
433,296,73384,5,0,0:0:0:0:
342,220,73472,1,0,0:0:0:0:
236,272,73560,6,0,B|187:298|132:302|93:278|75:262|75:262|133:233|133:233|135:261,1,262.500002503395
236,272,73913,2,0,B|188:242|158:196|159:151|164:127|164:127|218:163|218:163|195:179,1,262.500002503395
236,272,74266,2,0,B|237:216|262:166|302:145|325:137|325:137|321:202|321:202|296:190,1,262.500002503395
283,46,74619,6,0,P|355:49|437:104,1,125
244,17,74884,1,0,0:0:0:0:
443,91,74972,2,0,P|475:90|517:58,1,62.5
288,0,75148,2,0,P|362:74|512:71,1,250
342,220,75678,6,0,P|289:161|316:71,1,125
383,238,75942,1,0,0:0:0:0:
249,96,76031,6,0,P|180:81|115:139,1,125
288,119,76295,1,0,0:0:0:0:
103,125,76384,2,0,P|70:117|44:62,1,62.5
283,46,76560,2,0,P|205:95|42:94,1,250
30,259,77090,2,0,P|89:289|119:350,1,125
233,250,77442,6,0,P|230:183|268:127,1,125
256,288,77707,1,0,0:0:0:0:
287,106,77795,2,0,P|291:88|275:34,1,62.5
101,170,77972,2,0,P|219:150|281:10,1,250
30,259,78501,2,0,P|89:289|119:350,1,125
13,213,78766,1,0,0:0:0:0:
150,360,78854,6,0,P|199:362|246:326,1,87.500000834465
406,158,79031,2,0,P|357:156|310:192,1,87.500000834465
177,131,79207,2,0,P|175:180|211:227,1,87.500000834465
378,384,79384,2,0,P|358:296|230:351,1,262.500002503395
424,339,79737,6,0,P|411:294|356:260,1,87.500000834465
150,360,79913,2,0,P|199:362|246:326,1,87.500000834465
289,98,80090,2,0,P|256:131|254:196,1,87.500000834465
441,124,80266,6,0,P|390:83|304:107,1,125
486,136,80531,1,0,0:0:0:0:
289,98,80619,2,0,P|247:75|230:36,1,62.5
404,14,80795,2,0,P|378:96|281:91,1,187.5
239,63,81148,5,0,0:0:0:0:
212,48,81237,1,0,0:0:0:0:
182,41,81325,1,0,0:0:0:0:
121,55,81413,1,0,0:0:0:0:
78,99,81501,1,0,0:0:0:0:
66,159,81590,1,0,0:0:0:0:
87,258,81678,6,0,P|138:299|224:275,1,125
66,159,81942,1,0,0:0:0:0:
239,284,82031,2,0,P|281:307|298:346,1,62.5
124,368,82207,2,0,P|150:286|247:291,1,187.5
288,318,82560,5,0,0:0:0:0:
315,333,82648,1,0,0:0:0:0:
345,340,82737,1,0,0:0:0:0:
406,326,82825,1,0,0:0:0:0:
449,282,82913,1,0,0:0:0:0:
461,222,83001,1,0,0:0:0:0:
438,126,83090,6,0,P|365:84|310:98,1,125
461,222,83354,1,0,0:0:0:0:
288,97,83442,2,0,P|244:94|210:75,1,62.5
404,0,83619,2,0,P|391:68|287:97,1,187.5
227,86,83972,5,0,0:0:0:0:
212,113,84060,1,0,0:0:0:0:
203,150,84148,1,0,0:0:0:0:
230,214,84237,1,0,0:0:0:0:
314,277,84325,2,0,B|343:238|310:183|310:183|395:188|445:298|390:386|246:364,1,400
148,262,84766,1,0,0:0:0:0:
203,125,84854,6,0,B|188:81|245:42|245:42|208:103|187:156|230:214|230:214|266:124,1,300
203,125,85207,6,0,B|248:134|253:202|253:202|219:140|184:95|111:103|111:103|172:180,1,300
203,125,85560,6,0,B|172:159|110:130|110:130|181:131|237:123|266:56|266:56|170:70,1,300
404,56,85913,2,0,P|395:122|435:193,1,125
415,15,86178,1,0,0:0:0:0:
434,213,86266,2,0,P|441:240|433:292,1,62.5
296,125,86442,2,0,P|382:133|432:243,1,187.5
438,274,86795,5,0,0:0:0:0:
411,289,86884,1,0,0:0:0:0:
381,296,86972,1,0,0:0:0:0:
320,282,87060,1,0,0:0:0:0:
277,238,87148,1,0,0:0:0:0:
263,168,87237,1,0,0:0:0:0:
252,57,87325,6,0,P|199:51|128:88,1,125
263,168,87590,1,0,0:0:0:0:
92,89,87678,2,0,P|61:88|19:55,1,62.5
229,9,87854,2,0,P|191:79|83:84,1,187.5
33,73,88207,5,0,0:0:0:0:
62,62,88295,1,0,0:0:0:0:
92,61,88384,1,0,0:0:0:0:
150,85,88472,1,0,0:0:0:0:
185,136,88560,1,0,0:0:0:0:
186,207,88648,1,0,0:0:0:0:
128,296,88737,6,0,P|91:245|91:174,1,125
186,207,89001,1,0,0:0:0:0:
65,143,89090,2,0,P|48:110|17:97,1,62.5
30,306,89266,2,0,P|78:249|60:137,1,187.5
26,98,89619,5,0,0:0:0:0:
15,127,89707,1,0,0:0:0:0:
14,157,89795,1,0,0:0:0:0:
38,215,89884,1,0,0:0:0:0:
89,250,89972,1,0,0:0:0:0:
160,251,90060,1,0,0:0:0:0:
311,183,90148,6,0,B|295:134|242:106|185:112|136:167|136:167|231:192,1,300
337,233,90501,2,0,B|386:217|414:164|408:107|353:58|353:58|328:153,1,300
287,259,90854,2,0,B|303:308|356:336|413:330|462:275|462:275|367:250,1,300
261,209,91207,2,0,B|212:225|184:278|190:335|245:384|245:384|270:289,1,300
129,168,91560,6,0,B|68:212|21:151|21:151|51:61|134:49|173:63|221:109|221:109|253:137|312:166|386:157|420:67|420:67|341:71,1,687.5
326,46,92619,2,0,L|481:41,1,125
304,358,92972,6,0,P|245:321|379:332,1,437.5
304,358,93678,6,0,P|235:315|401:305,1,437.5
315,263,94384,6,0,B|235:247|176:304|176:304|128:352|128:352|48:304|48:304|128:240|128:240|176:304|176:304|230:304|230:304|243:340|296:378|354:373|403:334|409:269|409:269|465:341|465:341|499:257,1,937.5
499,144,95795,6,0,B|534:96|514:-2|396:0|337:65|383:147|383:147|417:109|399:26|336:-14|254:23|250:91|270:146|270:146|313:251|209:298|137:281|101:212|123:139|179:119,1,937.5
29,150,97207,6,0,B|-6:198|14:296|132:294|190:215|145:147|145:147|111:185|130:271|194:293|273:268|295:208|270:159|270:159|217:204|271:348|403:301|403:301|445:281|467:302|508:343|484:407|404:400|404:383|355:365|383:312|403:302|403:302|454:253|494:178|461:104|347:-27|280:53|280:53|352:193|501:106|479:42|479:42|527:82|498:150,1,1937.5
455,268,100031,6,0,P|417:209|349:207,1,125
180,391,100384,2,0,P|239:353|241:285,1,125
110,181,100737,6,0,B|162:245|239:222|270:180|270:180|319:111|387:133|428:175|428:175|366:201,1,437.5
80,178,101442,6,0,B|143:255|235:228|272:177|272:177|331:94|413:121|462:171|462:171|388:202,1,507.500015487671
45,176,102148,6,0,B|120:268|231:235|276:174|276:174|346:75|444:107|503:167|503:167|414:204,1,577.500005507469
155,133,102854,6,0,B|68:81|68:81|226:225|120:366|120:366|79:317|-7:296|-7:296|81:211|263:336|321:164,1,935.00001783371
0,258,103913,2,0,P|46:241|181:248,1,170.000003242493
401,348,104266,6,0,B|316:382|246:329|221:171|358:179|399:169|443:243|443:243|365:269|365:269|374:189|345:118|246:122,1,700
367,268,104972,6,0,B|443:243|443:243|405:178|418:88|485:71|485:71|528:201|528:201|470:184|420:131,1,525.000020027161
247,121,105678,6,0,B|206:128|155:134|120:115|94:67|94:67|152:369|66:366|10:358|-16:278|-16:278|61:244|172:306,1,750
251,380,107090,6,0,P|344:280|241:119,1,350
260,381,107795,2,0,P|353:281|250:120,1,350
269,382,108501,2,0,B|337:365|407:285|376:153|265:123|265:123|268:238|268:238|346:197,1,550
223,144,109560,6,0,B|225:297|225:297|175:190|66:211|28:240|3:303|3:303|52:328|102:326|130:291,1,550
183,193,110619,2,0,L|183:157,1,35
429,69,111325,6,0,B|385:84|372:121|360:198|394:280|494:269|494:269|488:162|488:162|399:204|305:146,1,562.500021457673
182,105,112737,6,0,P|130:90|161:275,1,375
182,105,114148,6,0,P|156:97|171:190,1,187.5
182,105,115560,6,0,P|169:101|172:146,1,87.5
85,58,117678,5,2,0:0:0:0:
79,82,117722,1,2,0:0:0:0:
74,106,117766,1,2,0:0:0:0:
69,131,117810,1,2,0:0:0:0:
63,156,117854,2,0,L|44:242,1,50,2|0,0:0|0:0,0:0:0:0:
182,317,118031,5,2,0:0:0:0:
277,286,118119,1,2,0:0:0:0:
277,186,118207,1,2,0:0:0:0:
182,155,118295,1,2,0:0:0:0:
123,236,118384,5,6,0:0:0:0:
165,260,118472,1,0,0:0:0:0:
215,258,118560,1,0,0:0:0:0:
256,231,118648,1,0,0:0:0:0:
277,186,118737,1,0,0:0:0:0:
296,141,118825,1,0,0:0:0:0:
341,122,118913,1,0,0:0:0:0:
386,141,119001,1,0,0:0:0:0:
405,185,119090,5,2,0:0:0:0:
387,231,119178,1,0,0:0:0:0:
343,251,119266,1,0,0:0:0:0:
297,234,119354,1,0,0:0:0:0:
277,186,119442,1,0,0:0:0:0:
296,141,119531,1,0,0:0:0:0:
307,93,119619,1,0,0:0:0:0:
286,48,119707,1,0,0:0:0:0:
180,113,119795,5,6,0:0:0:0:
190,161,119884,1,0,0:0:0:0:
227,193,119972,1,0,0:0:0:0:
276,197,120060,1,0,0:0:0:0:
318,171,120148,1,0,0:0:0:0:
336,125,120237,1,0,0:0:0:0:
323,78,120325,1,0,0:0:0:0:
286,48,120413,1,0,0:0:0:0:
190,161,120501,5,6,0:0:0:0:
221,199,120590,1,0,0:0:0:0:
268,213,120678,1,0,0:0:0:0:
315,199,120766,1,0,0:0:0:0:
346,161,120854,1,0,0:0:0:0:
350,112,120942,1,0,0:0:0:0:
326,69,121031,1,0,0:0:0:0:
286,48,121119,1,0,0:0:0:0:
221,199,121207,5,6,0:0:0:0:
264,223,121295,1,0,0:0:0:0:
313,222,121384,1,0,0:0:0:0:
354,194,121472,1,0,0:0:0:0:
374,149,121560,1,0,0:0:0:0:
367,100,121648,1,0,0:0:0:0:
335,62,121737,1,0,0:0:0:0:
286,48,121825,1,0,0:0:0:0:
241,59,121913,5,2,0:0:0:0:
206,94,122001,1,0,0:0:0:0:
189,139,122090,1,0,0:0:0:0:
143,154,122178,1,0,0:0:0:0:
103,126,122266,1,0,0:0:0:0:
100,78,122354,1,0,0:0:0:0:
137,46,122442,1,0,0:0:0:0:
184,55,122531,1,0,0:0:0:0:
189,175,122619,5,6,0:0:0:0:
140,182,122707,1,0,0:0:0:0:
96,161,122795,1,0,0:0:0:0:
72,118,122884,1,0,0:0:0:0:
77,69,122972,1,0,0:0:0:0:
108,31,123060,1,0,0:0:0:0:
156,18,123148,1,0,0:0:0:0:
202,34,123237,1,0,0:0:0:0:
241,65,123325,5,2,0:0:0:0:
289,79,123413,1,0,0:0:0:0:
338,73,123501,1,0,0:0:0:0:
382,50,123590,1,0,0:0:0:0:
255,17,123678,5,4,0:0:0:0:
241,65,123766,1,0,0:0:0:0:
249,116,123854,1,0,0:0:0:0:
285,155,123942,1,0,0:0:0:0:
382,50,124031,5,6,0:0:0:0:
337,72,124119,1,0,0:0:0:0:
304,109,124207,1,0,0:0:0:0:
285,155,124295,1,0,0:0:0:0:
285,205,124384,1,0,0:0:0:0:
302,251,124472,1,0,0:0:0:0:
406,186,124560,5,4,0:0:0:0:
377,146,124648,1,0,0:0:0:0:
329,134,124737,1,2,0:0:0:0:
285,155,124825,1,0,0:0:0:0:
265,200,124913,1,0,0:0:0:0:
278,247,125001,1,0,0:0:0:0:
318,275,125090,1,0,0:0:0:0:
367,270,125178,1,0,0:0:0:0:
402,235,125266,1,0,0:0:0:0:
406,186,125354,1,0,0:0:0:0:
278,247,125442,5,6,0:0:0:0:
322,226,125531,1,0,0:0:0:0:
344,182,125619,1,0,0:0:0:0:
333,134,125707,1,0,0:0:0:0:
295,104,125795,1,0,0:0:0:0:
246,104,125884,1,0,0:0:0:0:
195,209,125972,5,6,0:0:0:0:
191,244,126060,1,2,0:0:0:0:
239,232,126148,1,6,0:0:0:0:
270,194,126237,1,0,0:0:0:0:
273,144,126325,1,0,0:0:0:0:
246,104,126413,1,0,0:0:0:0:
195,209,126501,5,4,0:0:0:0:
239,232,126590,1,0,0:0:0:0:
286,236,126678,1,0,0:0:0:0:
329,212,126766,1,0,0:0:0:0:
401,111,126854,5,6,0:0:0:0:
353,123,126942,1,0,0:0:0:0:
325,163,127031,1,0,0:0:0:0:
329,212,127119,1,0,0:0:0:0:
363,247,127207,1,0,0:0:0:0:
412,252,127295,1,0,0:0:0:0:
453,225,127384,1,0,0:0:0:0:
466,178,127472,1,0,0:0:0:0:
447,133,127560,5,2,0:0:0:0:
401,111,127648,1,0,0:0:0:0:
353,123,127737,1,0,0:0:0:0:
325,163,127825,1,0,0:0:0:0:
329,212,127913,1,0,0:0:0:0:
334,260,128001,1,0,0:0:0:0:
313,305,128090,1,0,0:0:0:0:
270,330,128178,1,0,0:0:0:0:
221,328,128266,5,2,0:0:0:0:
228,314,128354,1,0,0:0:0:0:
235,301,128442,1,0,0:0:0:0:
242,288,128531,1,0,0:0:0:0:
325,163,128619,5,4,0:0:0:0:
324,212,128707,1,0,0:0:0:0:
296,252,128795,1,0,0:0:0:0:
250,270,128884,1,0,0:0:0:0:
276,163,128972,5,6,0:0:0:0:
325,163,129060,1,0,0:0:0:0:
365,191,129148,1,0,0:0:0:0:
383,237,129237,1,0,0:0:0:0:
276,212,129325,5,4,0:0:0:0:
276,163,129413,1,0,0:0:0:0:
304,123,129501,1,0,0:0:0:0:
350,105,129590,1,0,0:0:0:0:
324,212,129678,5,6,0:0:0:0:
275,212,129766,1,0,0:0:0:0:
235,184,129854,1,0,0:0:0:0:
217,138,129942,1,0,0:0:0:0:
205,90,130031,1,0,0:0:0:0:
165,61,130119,1,0,0:0:0:0:
116,64,130207,1,0,0:0:0:0:
81,98,130295,1,0,0:0:0:0:
76,147,130384,5,2,0:0:0:0:
104,188,130472,1,0,0:0:0:0:
151,201,130560,1,0,0:0:0:0:
195,181,130648,1,0,0:0:0:0:
217,138,130737,1,0,0:0:0:0:
248,99,130825,1,0,0:0:0:0:
295,86,130913,1,0,0:0:0:0:
341,103,131001,1,0,0:0:0:0:
369,144,131090,5,2,0:0:0:0:
356,153,131178,1,0,0:0:0:0:
345,163,131266,1,0,0:0:0:0:
333,172,131354,1,0,0:0:0:0:
208,255,131442,5,4,0:0:0:0:
228,210,131531,1,0,0:0:0:0:
270,184,131619,1,0,0:0:0:0:
319,185,131707,1,0,0:0:0:0:
253,274,131795,5,6,0:0:0:0:
208,255,131884,1,0,0:0:0:0:
182,213,131972,1,0,0:0:0:0:
183,164,132060,1,0,0:0:0:0:
272,229,132148,5,4,0:0:0:0:
253,274,132237,1,0,0:0:0:0:
211,300,132325,1,0,0:0:0:0:
162,298,132413,1,0,0:0:0:0:
228,210,132501,5,6,0:0:0:0:
273,229,132590,1,0,0:0:0:0:
299,271,132678,1,0,0:0:0:0:
298,320,132766,1,0,0:0:0:0:
270,360,132854,1,0,0:0:0:0:
224,378,132942,1,0,0:0:0:0:
176,367,133031,1,0,0:0:0:0:
142,331,133119,1,0,0:0:0:0:
134,283,133207,5,2,0:0:0:0:
147,236,133295,1,0,0:0:0:0:
124,193,133384,1,0,0:0:0:0:
77,179,133472,1,0,0:0:0:0:
35,203,133560,1,0,0:0:0:0:
21,249,133648,1,0,0:0:0:0:
44,292,133737,1,0,0:0:0:0:
91,306,133825,1,0,0:0:0:0:
134,283,133913,5,2,0:0:0:0:
147,236,134001,1,0,0:0:0:0:
173,194,134090,1,0,0:0:0:0:
219,174,134178,1,0,0:0:0:0:
240,302,134266,5,4,0:0:0:0:
194,284,134354,1,0,0:0:0:0:
168,242,134442,1,0,0:0:0:0:
172,193,134531,1,0,0:0:0:0:
277,175,134619,5,6,0:0:0:0:
259,220,134707,1,0,0:0:0:0:
217,246,134795,1,0,0:0:0:0:
168,242,134884,1,0,0:0:0:0:
192,111,134972,5,4,0:0:0:0:
237,129,135060,1,0,0:0:0:0:
263,171,135148,1,0,0:0:0:0:
259,220,135237,1,0,0:0:0:0:
126,216,135325,5,6,0:0:0:0:
97,147,135413,1,0,0:0:0:0:
111,75,135501,1,0,0:0:0:0:
163,22,135590,1,0,0:0:0:0:
235,6,135678,1,0,0:0:0:0:
304,34,135766,1,0,0:0:0:0:
192,111,135854,5,4,0:0:0:0:
206,76,135942,1,0,0:0:0:0:
232,49,136031,1,2,0:0:0:0:
266,33,136119,1,0,0:0:0:0:
304,34,136207,1,0,0:0:0:0:
339,41,136295,1,0,0:0:0:0:
368,64,136384,1,0,0:0:0:0:
388,96,136472,1,0,0:0:0:0:
395,132,136560,1,0,0:0:0:0:
388,169,136648,1,0,0:0:0:0:
277,119,136737,5,4,0:0:0:0:
296,115,136825,1,0,0:0:0:0:
314,111,136913,1,0,0:0:0:0:
332,107,137001,1,0,0:0:0:0:
351,103,137090,1,0,0:0:0:0:
369,99,137178,1,0,0:0:0:0:
480,149,137266,5,4,0:0:0:0:
461,153,137354,1,0,0:0:0:0:
443,157,137442,1,0,0:0:0:0:
425,161,137531,1,0,0:0:0:0:
406,165,137619,1,0,0:0:0:0:
388,169,137707,1,0,0:0:0:0:
329,245,137795,5,4,0:0:0:0:
342,279,137884,1,0,0:0:0:0:
374,296,137972,1,0,0:0:0:0:
410,287,138060,1,0,0:0:0:0:
387,170,138148,5,4,0:0:0:0:
358,145,138237,1,0,0:0:0:0:
323,134,138325,1,0,0:0:0:0:
286,138,138413,1,0,0:0:0:0:
253,156,138501,1,0,0:0:0:0:
230,185,138590,1,0,0:0:0:0:
220,220,138678,1,0,0:0:0:0:
201,253,138766,1,0,0:0:0:0:
171,274,138854,5,0,0:0:0:0:
134,282,138942,1,0,0:0:0:0:
98,274,139031,1,0,0:0:0:0:
68,252,139119,1,0,0:0:0:0:
53,220,139207,1,0,0:0:0:0:
88,210,139295,1,0,0:0:0:0:
125,217,139384,1,0,0:0:0:0:
154,240,139472,1,0,0:0:0:0:
68,252,139560,5,2,0:0:0:0:
37,186,139648,1,0,0:0:0:0:
59,113,139737,1,0,0:0:0:0:
120,77,139825,1,0,0:0:0:0:
125,217,139913,5,6,0:0:0:0:
61,185,140001,1,0,0:0:0:0:
59,113,140090,1,0,0:0:0:0:
120,77,140178,1,0,0:0:0:0:
63,185,140266,5,6,0:0:0:0:
59,113,140354,1,0,0:0:0:0:
119,75,140442,1,0,0:0:0:0:
182,110,140531,1,0,0:0:0:0:
59,113,140619,5,6,0:0:0:0:
119,73,140707,1,0,0:0:0:0:
182,106,140795,1,0,0:0:0:0:
183,178,140884,1,0,0:0:0:0:
99,275,140972,5,4,0:0:0:0:
77,231,141060,1,0,0:0:0:0:
93,185,141148,1,0,0:0:0:0:
137,163,141237,1,0,0:0:0:0:
183,178,141325,1,0,0:0:0:0:
204,222,141413,1,0,0:0:0:0:
189,268,141501,1,0,0:0:0:0:
146,290,141590,1,0,0:0:0:0:
99,275,141678,5,0,0:0:0:0:
77,231,141766,1,0,0:0:0:0:
93,185,141854,1,0,0:0:0:0:
137,163,141942,1,0,0:0:0:0:
183,178,142031,1,0,0:0:0:0:
230,205,142119,1,0,0:0:0:0:
279,205,142207,1,0,0:0:0:0:
323,182,142295,1,0,0:0:0:0:
218,31,142384,5,4,0:0:0:0:
197,76,142472,1,0,0:0:0:0:
200,125,142560,1,0,0:0:0:0:
229,165,142648,1,0,0:0:0:0:
273,186,142737,1,0,0:0:0:0:
323,182,142825,1,0,0:0:0:0:
362,152,142913,1,0,0:0:0:0:
382,107,143001,1,0,0:0:0:0:
150,97,143090,5,4,0:0:0:0:
161,145,143178,1,0,0:0:0:0:
192,184,143266,1,0,0:0:0:0:
236,206,143354,1,0,0:0:0:0:
285,208,143442,1,0,0:0:0:0:
331,190,143531,1,0,0:0:0:0:
365,153,143619,1,0,0:0:0:0:
381,106,143707,1,0,0:0:0:0:
223,94,143795,5,4,0:0:0:0:
234,142,143884,1,0,0:0:0:0:
272,174,143972,1,0,0:0:0:0:
320,177,144060,1,0,0:0:0:0:
362,151,144148,1,0,0:0:0:0:
381,106,144237,1,0,0:0:0:0:
369,59,144325,1,0,0:0:0:0:
330,27,144413,1,0,0:0:0:0:
282,24,144501,5,0,0:0:0:0:
240,51,144590,1,0,0:0:0:0:
223,94,144678,1,0,0:0:0:0:
234,142,144766,1,0,0:0:0:0:
272,174,144854,1,0,0:0:0:0:
296,216,144942,1,0,0:0:0:0:
294,265,145031,1,0,0:0:0:0:
265,305,145119,1,0,0:0:0:0:
167,221,145207,5,4,0:0:0:0:
166,172,145295,1,0,0:0:0:0:
185,126,145384,1,0,0:0:0:0:
223,94,145472,1,0,0:0:0:0:
270,80,145560,1,0,0:0:0:0:
319,88,145648,1,0,0:0:0:0:
360,117,145737,1,0,0:0:0:0:
406,103,145825,1,0,0:0:0:0:
425,58,145913,5,0,0:0:0:0:
401,16,146001,1,0,0:0:0:0:
354,8,146090,1,0,0:0:0:0:
318,39,146178,1,0,0:0:0:0:
360,148,146266,5,4,0:0:0:0:
408,142,146354,1,0,0:0:0:0:
446,109,146442,1,0,0:0:0:0:
458,62,146531,1,0,0:0:0:0:
319,88,146619,5,4,0:0:0:0:
360,117,146707,1,0,0:0:0:0:
406,103,146795,1,0,0:0:0:0:
425,58,146884,1,0,0:0:0:0:
401,16,146972,1,0,0:0:0:0:
354,8,147060,1,0,0:0:0:0:
360,117,147148,5,4,0:0:0:0:
393,86,147237,1,0,0:0:0:0:
392,37,147325,1,0,0:0:0:0:
354,8,147413,1,0,0:0:0:0:
306,18,147501,1,0,0:0:0:0:
284,61,147590,1,0,0:0:0:0:
273,109,147678,1,0,0:0:0:0:
239,144,147766,1,0,0:0:0:0:
191,155,147854,1,0,0:0:0:0:
144,139,147942,1,0,0:0:0:0:
211,18,148031,5,4,0:0:0:0:
258,5,148119,1,0,0:0:0:0:
306,18,148207,1,0,0:0:0:0:
342,52,148295,1,0,0:0:0:0:
356,100,148384,1,0,0:0:0:0:
346,148,148472,1,0,0:0:0:0:
236,95,148560,5,6,0:0:0:0:
273,109,148648,1,2,0:0:0:0:
239,145,148737,1,4,0:0:0:0:
191,157,148825,1,0,0:0:0:0:
144,139,148913,1,0,0:0:0:0:
115,101,149001,1,0,0:0:0:0:
236,95,149090,5,4,0:0:0:0:
239,145,149178,1,0,0:0:0:0:
231,192,149266,1,0,0:0:0:0:
200,230,149354,1,0,0:0:0:0:
144,139,149442,5,4,0:0:0:0:
138,89,149531,1,0,0:0:0:0:
157,44,149619,1,0,0:0:0:0:
195,12,149707,1,0,0:0:0:0:
244,3,149795,1,0,0:0:0:0:
291,18,149884,1,0,0:0:0:0:
325,54,149972,1,0,0:0:0:0:
338,102,150060,1,0,0:0:0:0:
335,150,150148,5,0,0:0:0:0:
363,190,150237,1,0,0:0:0:0:
411,202,150325,1,0,0:0:0:0:
455,181,150413,1,0,0:0:0:0:
474,136,150501,1,0,0:0:0:0:
461,89,150590,1,0,0:0:0:0:
420,62,150678,1,0,0:0:0:0:
371,67,150766,1,0,0:0:0:0:
338,102,150854,5,2,0:0:0:0:
363,105,150942,1,0,0:0:0:0:
387,99,151031,1,0,0:0:0:0:
407,84,151119,1,0,0:0:0:0:
294,14,151207,5,4,0:0:0:0:
258,48,151295,1,0,0:0:0:0:
240,94,151384,1,0,0:0:0:0:
242,144,151472,1,0,0:0:0:0:
338,102,151560,5,4,0:0:0:0:
304,66,151648,1,0,0:0:0:0:
258,48,151737,1,0,0:0:0:0:
208,50,151825,1,0,0:0:0:0:
250,146,151913,5,4,0:0:0:0:
286,112,152001,1,0,0:0:0:0:
304,66,152090,1,0,0:0:0:0:
302,16,152178,1,0,0:0:0:0:
206,58,152266,5,4,0:0:0:0:
240,94,152354,1,0,0:0:0:0:
286,112,152442,1,0,0:0:0:0:
337,109,152531,1,0,0:0:0:0:
384,94,152619,1,0,0:0:0:0:
431,108,152707,1,0,0:0:0:0:
375,224,152795,5,4,0:0:0:0:
333,199,152884,1,0,0:0:0:0:
319,152,152972,1,0,0:0:0:0:
341,109,153060,1,0,0:0:0:0:
386,90,153148,1,0,0:0:0:0:
431,108,153237,1,0,0:0:0:0:
333,199,153325,5,4,0:0:0:0:
343,150,153413,1,0,0:0:0:0:
378,116,153501,1,0,0:0:0:0:
431,108,153590,1,0,0:0:0:0:
458,239,153678,5,4,0:0:0:0:
430,280,153766,1,0,0:0:0:0:
388,307,153854,1,0,0:0:0:0:
339,316,153942,1,0,0:0:0:0:
291,305,154031,1,0,0:0:0:0:
250,276,154119,1,0,0:0:0:0:
224,234,154207,1,0,0:0:0:0:
215,185,154295,1,0,0:0:0:0:
213,135,154384,5,0,0:0:0:0:
187,93,154472,1,0,0:0:0:0:
143,71,154560,1,0,0:0:0:0:
94,75,154648,1,0,0:0:0:0:
53,103,154737,1,0,0:0:0:0:
33,148,154825,1,0,0:0:0:0:
38,197,154913,1,0,0:0:0:0:
68,236,155001,1,0,0:0:0:0:
157,136,155090,5,4,0:0:0:0:
109,150,155178,1,0,0:0:0:0:
77,187,155266,1,0,0:0:0:0:
68,236,155354,1,0,0:0:0:0:
87,281,155442,1,0,0:0:0:0:
127,311,155531,1,0,0:0:0:0:
172,183,155619,5,4,0:0:0:0:
123,191,155707,1,0,0:0:0:0:
92,228,155795,1,0,0:0:0:0:
94,277,155884,1,0,0:0:0:0:
127,313,155972,1,0,0:0:0:0:
176,318,156060,1,0,0:0:0:0:
151,226,156148,5,4,0:0:0:0:
150,275,156237,1,0,0:0:0:0:
176,318,156325,1,0,0:0:0:0:
219,340,156413,1,0,0:0:0:0:
211,184,156501,5,4,0:0:0:0:
175,218,156590,1,0,0:0:0:0:
164,266,156678,1,0,0:0:0:0:
181,312,156766,1,0,0:0:0:0:
219,340,156854,1,0,0:0:0:0:
270,344,156942,1,0,0:0:0:0:
254,176,157031,5,4,0:0:0:0:
224,215,157119,1,0,0:0:0:0:
217,264,157207,1,0,0:0:0:0:
233,311,157295,1,0,0:0:0:0:
270,344,157384,1,0,0:0:0:0:
317,357,157472,1,0,0:0:0:0:
312,180,157560,5,4,0:0:0:0:
283,220,157648,1,0,0:0:0:0:
275,269,157737,1,0,0:0:0:0:
287,318,157825,1,0,0:0:0:0:
434,309,157913,5,4,0:0:0:0:
451,262,158001,1,0,0:0:0:0:
441,214,158090,1,0,0:0:0:0:
408,178,158178,1,0,0:0:0:0:
360,165,158266,1,0,0:0:0:0:
312,180,158354,1,0,0:0:0:0:
267,200,158442,1,0,0:0:0:0:
220,188,158531,1,0,0:0:0:0:
192,148,158619,5,0,0:0:0:0:
196,99,158707,1,0,0:0:0:0:
230,64,158795,1,0,0:0:0:0:
279,60,158884,1,0,0:0:0:0:
319,87,158972,1,0,0:0:0:0:
332,135,159060,1,0,0:0:0:0:
312,180,159148,1,0,0:0:0:0:
267,200,159237,1,0,0:0:0:0:
222,35,159325,5,4,0:0:0:0:
293,29,159413,1,0,0:0:0:0:
351,69,159501,1,0,0:0:0:0:
370,138,159590,1,0,0:0:0:0:
340,203,159678,1,0,0:0:0:0:
275,233,159766,1,0,0:0:0:0:
207,215,159854,1,0,0:0:0:0:
136,194,159942,1,0,0:0:0:0:
72,229,160031,5,0,0:0:0:0:
51,299,160119,1,0,0:0:0:0:
85,364,160207,1,0,0:0:0:0:
155,385,160295,1,0,0:0:0:0:
220,352,160384,1,0,0:0:0:0:
242,282,160472,1,0,0:0:0:0:
207,215,160560,1,0,0:0:0:0:
206,142,160648,1,0,0:0:0:0:
365,196,160737,5,4,0:0:0:0:
353,255,160825,1,0,0:0:0:0:
303,291,160913,1,0,0:0:0:0:
242,282,161001,1,0,0:0:0:0:
205,234,161090,1,0,0:0:0:0:
210,173,161178,1,0,0:0:0:0:
256,133,161266,1,0,0:0:0:0:
317,135,161354,1,0,0:0:0:0:
375,148,161442,5,0,0:0:0:0:
423,110,161531,1,0,0:0:0:0:
423,50,161619,1,0,0:0:0:0:
376,12,161707,1,0,0:0:0:0:
317,26,161795,1,0,0:0:0:0:
291,80,161884,1,0,0:0:0:0:
317,135,161972,1,0,0:0:0:0:
375,148,162060,1,0,0:0:0:0:
317,26,162148,5,6,0:0:0:0:
255,22,162237,1,0,0:0:0:0:
202,52,162325,1,0,0:0:0:0:
174,107,162413,1,0,0:0:0:0:
315,38,162501,5,2,0:0:0:0:
259,35,162590,1,0,0:0:0:0:
211,62,162678,1,0,0:0:0:0:
186,112,162766,1,0,0:0:0:0:
311,49,162854,5,2,0:0:0:0:
261,47,162942,1,0,0:0:0:0:
217,71,163031,1,0,0:0:0:0:
195,116,163119,1,0,0:0:0:0:
307,58,163207,5,2,0:0:0:0:
263,57,163295,1,0,0:0:0:0:
223,78,163384,1,0,0:0:0:0:
203,119,163472,1,0,0:0:0:0:
273,221,163560,6,0,P|304:197|306:149,1,75.0000028610231
145,81,163737,2,0,P|169:112|217:114,1,75.0000028610231
344,0,163913,2,0,P|313:24|311:72,1,75.0000028610231
273,221,164090,6,0,P|304:197|306:149,1,75.0000028610231
179,231,164442,6,0,L|278:259,1,75.0000028610231
382,183,164619,2,0,L|283:155,1,75.0000028610231
179,231,164795,6,0,L|278:259,1,75.0000028610231
79,260,165148,6,0,P|101:229|150:215,1,75.0000028610231
309,162,165325,2,0,P|343:147|364:117,1,75.0000028610231
79,260,165501,6,0,P|101:229|150:215,1,75.0000028610231
132,361,165854,2,0,L|150:285,1,75.0000028610231
288,236,166031,2,0,L|270:160,1,75.0000028610231
144,84,166207,2,0,L|162:8,1,75.0000028610231
328,110,166384,6,0,P|282:87|228:98,1,75.0000028610231
149,288,166560,2,0,P|191:259|209:207,1,75.0000028610231
59,65,166737,2,0,P|62:116|98:157,1,75.0000028610231
328,110,166913,2,0,B|314:94|287:82|259:86|259:86|282:188|370:219|441:189|453:132|453:132|465:254,1,450
203,240,167795,6,0,P|169:210|157:158,1,87.500000834465
281,40,167972,2,0,P|315:70|327:122,1,87.500000834465
200,244,168148,2,0,P|164:212|151:157,1,87.500000834465
283,35,168325,2,0,P|318:66|331:121,1,87.500000834465
198,250,168501,6,0,P|160:216|147:159,1,87.500000834465
285,29,168678,2,0,P|322:62|335:119,1,87.500000834465
193,257,168854,2,0,P|158:230|140:190,1,87.500000834465
290,22,169031,2,0,P|330:57|343:117,1,87.500000834465
97,96,169207,6,0,P|165:90|252:164,1,150.000005722046
60,360,169560,2,0,P|44:312|48:270,1,75.0000028610231
232,131,169737,6,0,B|191:155|128:142|96:95|96:95|145:47|219:69|261:122|261:122|269:256|368:273|368:273|370:234|319:193,1,612.500005841255
232,229,170442,1,0,0:0:0:0:
125,249,170531,1,0,0:0:0:0:
25,269,170619,6,0,B|66:320|69:370|69:370|79:320|125:249|125:249|174:177|118:74|71:68|71:68|0:139|0:139|65:175,1,612.500005841255
139,4,171325,2,0,B|197:45|218:89|243:164|223:217|223:217|277:114|418:112|485:153|496:208|496:208|451:268|355:216,1,700
223,217,172031,2,0,B|183:225|130:207|143:136|143:136|112:172|79:209|79:209|51:256|-40:228|-39:132|30:103|100:118|96:183|79:209|79:209|29:294|125:342|125:342|189:373|245:304|245:304|266:349|274:367|274:367|288:337|329:278|413:298|424:356|424:356|442:278|474:229|474:229|450:243|422:246|386:230,1,1312.50001251698
223,217,173442,2,0,P|283:187|292:153,1,87.500000834465
363,19,173619,2,0,P|393:79|427:88,1,87.500000834465
237,22,173795,6,0,B|165:34|165:34|157:118|157:118|121:78|121:78|126:115|110:135|108:178|66:189|-7:188|-47:117|22:56,1,450.000017166138
236,22,174148,2,0,B|170:52|170:52|184:135|184:135|139:106|139:106|153:140|143:164|152:206|115:227|44:245|-12:187|38:110,1,450.000017166138
236,22,174501,2,0,B|180:68|180:68|215:145|215:145|164:128|164:128|187:158|183:183|203:221|172:252|108:287|38:246|67:158,1,450.000017166138
164,129,174854,6,0,P|170:168|210:194,1,75.0000028610231
342,112,175031,2,0,P|304:118|278:158,1,75.0000028610231
308,296,175207,2,0,P|303:258|263:232,1,75.0000028610231
164,129,175384,6,0,P|170:168|210:194,1,75.0000028610231
236,40,175737,6,0,L|177:109,1,75.0000028610231
227,292,175913,2,0,L|286:223,1,75.0000028610231
236,40,176090,6,0,L|177:109,1,75.0000028610231
324,286,176442,2,0,P|300:246|258:233,1,75
136,275,176619,2,0,P|103:256|87:223,1,75
324,286,176795,6,0,P|300:246|258:233,1,75
136,275,177148,2,0,P|103:256|87:223,1,75
265,206,177501,6,0,P|259:167|219:141,1,75.0000028610231
87,223,177678,2,0,P|125:217|151:177,1,75.0000028610231
121,39,177854,2,0,P|126:77|166:103,1,75.0000028610231
265,206,178031,2,0,P|259:167|219:141,1,75.0000028610231
87,223,178207,6,0,B|128:229|148:191|148:191|130:148|93:116|-31:114|-18:234|6:276,1,337.500012874604
178,309,179090,6,0,P|201:298|219:254,1,75.0000028610231
105,92,179266,2,0,P|116:115|160:133,1,75.0000028610231
370,220,179442,2,0,P|348:130|452:127,1,225.000008583069
363,234,179795,2,0,P|335:121|465:117,1,262.500002503395
354,252,180148,2,0,P|319:111|479:117,1,300
359,36,180501,6,0,L|323:48,1,35
172,91,181207,2,0,B|119:77|100:105|15:143|107:283|184:231|220:193|220:193|172:122|56:152|59:248|89:272|123:312|171:291,1,612.500005841255
359,348,181913,6,0,L|323:336,1,35
104,324,182619,2,0,B|85:335|61:300|-45:253|70:78|166:143|211:190|211:190|151:279|6:242|10:122|48:92|93:58|118:53,1,700.00000667572
359,36,183325,6,0,L|323:48,1,35
79,31,184031,2,0,B|42:13|13:57|-120:116|24:335|144:253|200:194|200:194|125:83|-56:130|-51:280|-4:318|53:360|102:373,1,875
301,300,184737,6,0,P|349:236|219:72,1,300
148,237,185090,6,0,P|212:285|376:155,1,300
211,84,185442,6,0,P|163:148|293:312,1,300
364,147,185795,6,0,P|300:99|136:229,1,300
187,62,186148,5,0,0:0:0:0:
177,61,186237,1,0,0:0:0:0:
167,61,186325,1,0,0:0:0:0:
157,61,186413,1,0,0:0:0:0:
147,61,186501,1,0,0:0:0:0:
137,60,186590,1,0,0:0:0:0:
127,60,186678,1,0,0:0:0:0:
117,60,186766,1,0,0:0:0:0:
107,60,186854,5,0,0:0:0:0:
67,91,186942,1,0,0:0:0:0:
57,139,187031,1,0,0:0:0:0:
81,182,187119,1,0,0:0:0:0:
127,200,187207,1,0,0:0:0:0:
173,185,187295,1,0,0:0:0:0:
199,143,187384,2,0,P|155:122|114:140,1,75.0000028610231
26,362,187560,5,0,0:0:0:0:
53,294,187648,1,0,0:0:0:0:
123,274,187737,1,0,0:0:0:0:
182,314,187825,1,0,0:0:0:0:
249,342,187913,1,0,0:0:0:0:
315,310,188001,1,0,0:0:0:0:
335,239,188090,5,0,0:0:0:0:
353,286,188178,1,0,0:0:0:0:
367,334,188266,5,0,0:0:0:0:
408,306,188354,1,0,0:0:0:0:
429,261,188442,1,0,0:0:0:0:
426,212,188531,1,0,0:0:0:0:
399,171,188619,1,0,0:0:0:0:
355,148,188707,1,0,0:0:0:0:
306,150,188795,1,0,0:0:0:0:
264,176,188884,1,0,0:0:0:0:
239,219,188972,5,0,0:0:0:0:
242,240,189060,1,0,0:0:0:0:
281,193,189148,1,0,0:0:0:0:
292,209,189237,1,0,0:0:0:0:
306,150,189325,1,0,0:0:0:0:
322,158,189413,1,0,0:0:0:0:
305,101,189501,1,0,0:0:0:0:
321,99,189590,1,0,0:0:0:0:
281,58,189678,1,0,0:0:0:0:
292,47,189766,1,0,0:0:0:0:
238,33,189854,1,0,0:0:0:0:
241,17,189942,1,0,0:0:0:0:
188,32,190031,1,0,0:0:0:0:
181,16,190119,1,0,0:0:0:0:
145,57,190207,1,0,0:0:0:0:
129,46,190295,1,0,0:0:0:0:
121,99,190384,5,0,0:0:0:0:
109,116,190472,1,0,0:0:0:0:
164,123,190560,1,0,0:0:0:0:
161,145,190648,1,0,0:0:0:0:
213,123,190737,1,0,0:0:0:0:
220,145,190825,1,0,0:0:0:0:
256,98,190913,1,0,0:0:0:0:
272,116,191001,1,0,0:0:0:0:
284,58,191090,5,0,0:0:0:0:
290,34,191178,1,0,0:0:0:0:
234,58,191266,1,0,0:0:0:0:
230,34,191354,1,0,0:0:0:0:
191,81,191442,1,0,0:0:0:0:
178,61,191531,1,0,0:0:0:0:
164,123,191619,1,0,0:0:0:0:
146,112,191707,1,0,0:0:0:0:
160,172,191795,5,0,0:0:0:0:
172,190,191884,1,0,0:0:0:0:
141,217,191972,1,0,0:0:0:0:
152,238,192060,1,0,0:0:0:0:
100,244,192148,1,0,0:0:0:0:
109,266,192237,1,0,0:0:0:0:
51,243,192325,1,0,0:0:0:0:
58,264,192413,1,0,0:0:0:0:
12,213,192501,2,0,P|6:186|22:144,1,50
360,220,192678,6,0,B|363:266|316:292|316:292|255:248|247:176|291:72|409:89|409:89|441:121|434:168,1,437.500004172325
253,282,193207,2,0,P|229:198|271:102,2,133.333333333333
429,119,193560,2,0,P|453:203|411:299,2,133.333333333333
237,154,193913,2,0,P|198:145|122:185,3,100
444,246,194266,2,0,P|398:264|349:255,3,100
202,48,194619,5,0,0:0:0:0:
123,55,194707,1,0,0:0:0:0:
62,104,194795,1,0,0:0:0:0:
38,179,194884,1,0,0:0:0:0:
60,255,194972,2,0,P|183:216|205:99,1,200
426,179,195325,2,0,B|428:138|397:92|336:115|336:115|293:215|343:294|490:302,2,400.00001525879
245,223,196031,5,0,0:0:0:0:
229,163,196119,1,0,0:0:0:0:
252,106,196207,1,0,0:0:0:0:
304,74,196295,1,0,0:0:0:0:
365,78,196384,1,0,0:0:0:0:
412,119,196472,1,0,0:0:0:0:
425,179,196560,5,0,0:0:0:0:
373,210,196648,1,0,0:0:0:0:
312,204,196737,1,0,0:0:0:0:
265,164,196825,1,0,0:0:0:0:
252,106,196913,5,0,0:0:0:0:
317,134,197001,1,0,0:0:0:0:
312,204,197090,1,0,0:0:0:0:
242,221,197178,1,0,0:0:0:0:
205,162,197266,5,0,0:0:0:0:
214,223,197354,1,0,0:0:0:0:
195,282,197442,5,0,0:0:0:0:
122,273,197531,1,0,0:0:0:0:
75,217,197619,1,0,0:0:0:0:
81,144,197707,1,0,0:0:0:0:
153,152,197795,1,0,0:0:0:0:
200,208,197884,1,0,0:0:0:0:
195,282,197972,5,0,0:0:0:0:
129,231,198060,1,0,0:0:0:0:
153,152,198148,1,0,0:0:0:0:
232,138,198237,1,0,0:0:0:0:
276,208,198325,1,0,0:0:0:0:
331,273,198413,1,0,0:0:0:0:
416,277,198501,1,0,0:0:0:0:
477,218,198590,1,0,0:0:0:0:
476,133,198678,1,0,0:0:0:0:
413,76,198766,1,0,0:0:0:0:
329,82,198854,5,0,0:0:0:0:
311,79,198942,1,0,0:0:0:0:
328,143,199031,1,0,0:0:0:0:
310,150,199119,1,0,0:0:0:0:
360,196,199207,1,0,0:0:0:0:
347,211,199295,1,0,0:0:0:0:
415,223,199384,1,0,0:0:0:0:
411,242,199472,1,0,0:0:0:0:
477,218,199560,5,0,0:0:0:0:
492,213,199648,1,0,0:0:0:0:
446,165,199737,1,0,0:0:0:0:
456,151,199825,1,0,0:0:0:0:
391,137,199913,1,0,0:0:0:0:
393,119,200001,1,0,0:0:0:0:
328,143,200090,1,0,0:0:0:0:
320,126,200178,1,0,0:0:0:0:
283,185,200266,1,0,0:0:0:0:
268,175,200354,1,0,0:0:0:0:
266,245,200442,1,0,0:0:0:0:
248,244,200531,1,0,0:0:0:0:
285,303,200619,1,0,0:0:0:0:
270,311,200707,1,0,0:0:0:0:
333,342,200795,1,0,0:0:0:0:
325,356,200884,1,0,0:0:0:0:
373,337,200972,5,0,0:0:0:0:
379,293,201060,1,0,0:0:0:0:
350,329,201148,1,0,0:0:0:0:
356,280,201237,1,0,0:0:0:0:
318,315,201325,1,0,0:0:0:0:
325,261,201413,1,0,0:0:0:0:
270,311,201501,1,0,0:0:0:0:
291,231,201590,1,0,0:0:0:0:
225,318,201678,6,0,B|152:289|92:325|92:325|119:293|206:231|83:86|-16:208|-16:208|69:320|152:186,2,600
492,192,202384,6,0,B|439:316|439:316|390:167|250:99|129:174|113:238|113:238|177:277|244:293|301:262|346:201|346:201|365:104|274:62|144:20|15:199,1,1200
291,333,203090,6,0,B|338:328|406:288|414:196|385:130|385:130|296:151|311:277,1,400
226,268,203354,2,0,P|189:208|258:75,1,200
37,142,203531,5,0,0:0:0:0:
43,233,203619,2,0,B|84:318|84:318|72:208|117:200|147:174|147:174|250:172|225:267|225:267|148:275|147:174|147:174|145:100|184:27|184:27|296:-3|463:115|416:286|331:318|331:318|282:243|317:134|389:130|389:130|486:129|492:295,1,1575.00001502037
445,349,204501,5,0,0:0:0:0:
333,315,204590,1,0,0:0:0:0:
315,200,204678,5,0,0:0:0:0:
390,246,204766,1,0,0:0:0:0:
333,315,204854,1,0,0:0:0:0:
236,306,204942,1,0,0:0:0:0:
180,226,205031,1,0,0:0:0:0:
204,132,205119,1,0,0:0:0:0:
292,87,205207,5,0,0:0:0:0:
298,159,205295,1,0,0:0:0:0:
252,216,205384,1,0,0:0:0:0:
180,226,205472,1,0,0:0:0:0:
121,182,205560,1,0,0:0:0:0:
109,110,205648,1,0,0:0:0:0:
99,40,205737,1,0,0:0:0:0:
30,29,205825,1,0,0:0:0:0:
1,94,205913,5,0,0:0:0:0:
46,110,206001,1,0,0:0:0:0:
88,87,206090,1,0,0:0:0:0:
99,40,206178,1,0,0:0:0:0:
30,29,206266,5,0,0:0:0:0:
39,52,206354,1,0,0:0:0:0:
88,87,206442,1,0,0:0:0:0:
83,110,206531,1,0,0:0:0:0:
33,144,206619,1,0,0:0:0:0:
41,166,206707,1,0,0:0:0:0:
90,201,206795,1,0,0:0:0:0:
85,224,206884,1,0,0:0:0:0:
27,258,206972,1,0,0:0:0:0:
35,280,207060,1,0,0:0:0:0:
84,315,207148,1,0,0:0:0:0:
79,338,207237,1,0,0:0:0:0:
22,370,207325,5,0,0:0:0:0:
36,324,207413,1,0,0:0:0:0:
84,315,207501,1,0,0:0:0:0:
133,321,207590,1,0,0:0:0:0:
180,307,207678,1,0,0:0:0:0:
217,274,207766,1,0,0:0:0:0:
237,229,207854,1,0,0:0:0:0:
237,180,207942,1,0,0:0:0:0:
199,127,208031,5,0,0:0:0:0:
208,201,208119,1,0,0:0:0:0:
218,275,208207,1,0,0:0:0:0:
276,236,208295,5,0,0:0:0:0:
266,310,208384,1,0,0:0:0:0:
256,384,208472,1,0,0:0:0:0:
186,332,208560,1,0,0:0:0:0:
266,310,208648,1,0,0:0:0:0:
348,296,208737,5,0,0:0:0:0:
353,286,208825,1,0,0:0:0:0:
443,268,208913,1,0,0:0:0:0:
438,258,209001,1,0,0:0:0:0:
423,172,209090,1,0,0:0:0:0:
418,162,209178,1,0,0:0:0:0:
333,190,209266,1,0,0:0:0:0:
328,200,209354,1,0,0:0:0:0:
366,303,209442,5,0,0:0:0:0:
368,292,209531,1,0,0:0:0:0:
451,251,209619,1,0,0:0:0:0:
443,243,209707,1,0,0:0:0:0:
406,164,209795,1,0,0:0:0:0:
399,155,209884,1,0,0:0:0:0:
324,204,209972,1,0,0:0:0:0:
322,215,210060,1,0,0:0:0:0:
368,292,210148,5,0,0:0:0:0:
309,311,210237,1,0,0:0:0:0:
253,288,210325,1,0,0:0:0:0:
225,233,210413,1,0,0:0:0:0:
239,174,210501,1,0,0:0:0:0:
253,115,210590,1,0,0:0:0:0:
225,60,210678,1,0,0:0:0:0:
169,37,210766,1,0,0:0:0:0:
112,56,210854,5,0,0:0:0:0:
138,111,210942,1,0,0:0:0:0:
195,134,211031,1,0,0:0:0:0:
253,115,211119,1,0,0:0:0:0:
299,74,211207,1,0,0:0:0:0:
360,64,211295,1,0,0:0:0:0:
417,88,211384,1,0,0:0:0:0:
454,138,211472,1,0,0:0:0:0:
458,199,211560,5,0,0:0:0:0:
441,140,211648,1,0,0:0:0:0:
392,103,211737,1,0,0:0:0:0:
331,101,211825,1,0,0:0:0:0:
280,136,211913,1,0,0:0:0:0:
255,192,212001,1,0,0:0:0:0:
205,228,212090,1,0,0:0:0:0:
143,232,212178,1,0,0:0:0:0:
89,204,212266,5,0,0:0:0:0:
139,168,212354,1,0,0:0:0:0:
200,163,212442,1,0,0:0:0:0:
255,192,212531,1,0,0:0:0:0:
290,241,212619,1,0,0:0:0:0:
350,235,212707,1,0,0:0:0:0:
375,181,212795,1,0,0:0:0:0:
340,132,212884,1,0,0:0:0:0:
280,136,212972,6,0,B|301:31|301:31|469:144|469:144|426:269|488:372,1,500
492,121,213501,6,0,B|310:0|310:0|206:30,1,300
455,59,213854,6,0,L|359:-5,1,100
196,80,214031,2,0,B|281:136|281:136|196:183|196:183|228:273|132:331,1,300
65,193,214384,6,0,P|58:98|140:50,1,200
120,222,214648,2,0,P|202:174|196:80,1,200
78,227,214913,2,0,L|147:109,1,100
365,37,215090,6,0,B|470:106|470:106|346:158|346:158|491:155|503:322|401:379|401:379|356:268,1,700
299,215,215795,5,0,0:0:0:0:
268,176,215884,1,0,0:0:0:0:
221,166,215972,1,0,0:0:0:0:
177,189,216060,1,0,0:0:0:0:
159,234,216148,1,0,0:0:0:0:
175,281,216237,1,0,0:0:0:0:
217,306,216325,1,0,0:0:0:0:
265,298,216413,1,0,0:0:0:0:
299,262,216501,5,0,0:0:0:0:
258,217,216590,1,0,0:0:0:0:
199,226,216678,1,0,0:0:0:0:
175,281,216766,1,0,0:0:0:0:
152,337,216854,1,0,0:0:0:0:
95,359,216942,1,0,0:0:0:0:
40,333,217031,1,0,0:0:0:0:
21,275,217119,1,0,0:0:0:0:
50,222,217207,5,0,0:0:0:0:
123,179,217295,1,0,0:0:0:0:
138,95,217384,1,0,0:0:0:0:
85,30,217472,1,0,0:0:0:0:
0,25,217560,5,0,0:0:0:0:
25,80,217648,1,0,0:0:0:0:
79,108,217737,1,0,0:0:0:0:
139,95,217825,1,0,0:0:0:0:
198,79,217913,1,0,0:0:0:0:
258,96,218001,1,0,0:0:0:0:
301,140,218090,1,0,0:0:0:0:
317,200,218178,1,0,0:0:0:0:
300,260,218266,5,0,0:0:0:0:
259,232,218354,1,0,0:0:0:0:
235,188,218442,1,0,0:0:0:0:
235,138,218531,1,0,0:0:0:0:
258,96,218619,5,0,0:0:0:0:
277,128,218707,1,0,0:0:0:0:
283,164,218795,1,0,0:0:0:0:
277,201,218884,1,0,0:0:0:0:
258,233,218972,1,0,0:0:0:0:
230,257,219060,1,0,0:0:0:0:
195,269,219148,1,0,0:0:0:0:
157,269,219237,1,0,0:0:0:0:
124,254,219325,5,0,0:0:0:0:
163,223,219413,1,0,0:0:0:0:
212,216,219501,1,0,0:0:0:0:
258,233,219590,1,0,0:0:0:0:
305,250,219678,1,0,0:0:0:0:
354,245,219766,1,0,0:0:0:0:
396,218,219854,1,0,0:0:0:0:
420,175,219942,1,0,0:0:0:0:
425,126,220031,5,0,0:0:0:0:
367,147,220119,1,0,0:0:0:0:
324,191,220207,1,0,0:0:0:0:
305,250,220295,1,0,0:0:0:0:
312,313,220384,5,0,0:0:0:0:
379,243,220472,1,0,0:0:0:0:
367,147,220560,1,0,0:0:0:0:
285,96,220648,1,0,0:0:0:0:
193,127,220737,5,0,0:0:0:0:
205,222,220825,1,0,0:0:0:0:
287,273,220913,1,0,0:0:0:0:
379,243,221001,5,0,0:0:0:0:
333,185,221090,1,0,0:0:0:0:
260,177,221178,1,0,0:0:0:0:
205,222,221266,1,0,0:0:0:0:
207,297,221354,1,0,0:0:0:0:
210,373,221442,5,0,0:0:0:0:
112,326,221531,1,0,0:0:0:0:
83,221,221619,1,0,0:0:0:0:
142,129,221707,1,0,0:0:0:0:
250,114,221795,1,0,0:0:0:0:
333,185,221884,1,0,0:0:0:0:
420,245,221972,1,0,0:0:0:0:
505,183,222060,1,0,0:0:0:0:
476,82,222148,1,0,0:0:0:0:
370,76,222237,1,0,0:0:0:0:
333,185,222325,2,0,P|324:252|285:333,1,112.500004291535
92,188,222501,6,0,P|74:99|137:40,1,150.000005722046
146,124,222737,1,0,0:0:0:0:
92,202,222854,2,0,P|66:115|124:50,1,150.000005722046
140,133,223090,1,0,0:0:0:0:
93,216,223207,2,0,P|60:132|112:62,1,150.000005722046
135,144,223442,1,0,0:0:0:0:
95,230,223560,5,0,0:0:0:0:
126,268,223648,1,0,0:0:0:0:
173,283,223737,1,0,0:0:0:0:
220,269,223825,1,0,0:0:0:0:
252,232,223913,1,0,0:0:0:0:
292,203,224001,1,0,0:0:0:0:
342,201,224090,1,0,0:0:0:0:
385,225,224178,1,0,0:0:0:0:
433,330,224266,5,0,0:0:0:0:
364,282,224354,1,0,0:0:0:0:
342,201,224442,1,0,0:0:0:0:
375,125,224531,1,0,0:0:0:0:
449,87,224619,2,0,P|353:90|291:60,1,150
168,22,224972,5,0,0:0:0:0:
99,70,225060,1,0,0:0:0:0:
80,153,225148,2,0,P|165:138|229:213,1,150
224,310,225501,1,0,0:0:0:0:
183,281,225590,1,0,0:0:0:0:
172,234,225678,5,0,0:0:0:0:
213,173,225766,1,0,0:0:0:0:
206,100,225854,1,0,0:0:0:0:
154,48,225942,1,0,0:0:0:0:
81,42,226031,1,0,0:0:0:0:
20,84,226119,1,0,0:0:0:0:
1,155,226207,1,0,0:0:0:0:
32,221,226295,1,0,0:0:0:0:
98,253,226384,5,0,0:0:0:0:
206,270,226472,1,0,0:0:0:0:
297,207,226560,1,0,0:0:0:0:
320,100,226648,1,0,0:0:0:0:
263,6,226737,5,0,0:0:0:0:
146,95,226825,1,0,0:0:0:0:
126,239,226913,1,0,0:0:0:0:
213,357,227001,1,0,0:0:0:0:
357,376,227090,5,0,0:0:0:0:
368,369,227178,1,0,0:0:0:0:
349,363,227266,1,0,0:0:0:0:
375,356,227354,1,0,0:0:0:0:
341,350,227442,1,0,0:0:0:0:
383,343,227531,1,0,0:0:0:0:
333,337,227619,1,0,0:0:0:0:
391,330,227707,1,0,0:0:0:0:
358,303,227795,5,0,0:0:0:0:
369,296,227884,1,0,0:0:0:0:
350,290,227972,1,0,0:0:0:0:
376,283,228060,1,0,0:0:0:0:
342,277,228148,1,0,0:0:0:0:
384,270,228237,1,0,0:0:0:0:
334,264,228325,1,0,0:0:0:0:
392,257,228413,1,0,0:0:0:0:
320,217,228501,5,0,0:0:0:0:
393,209,228590,1,0,0:0:0:0:
312,204,228678,1,0,0:0:0:0:
400,196,228766,1,0,0:0:0:0:
304,191,228854,1,0,0:0:0:0:
408,183,228942,1,0,0:0:0:0:
296,178,229031,1,0,0:0:0:0:
416,171,229119,1,0,0:0:0:0:
289,133,229207,5,0,0:0:0:0:
425,126,229295,1,0,0:0:0:0:
282,120,229384,1,0,0:0:0:0:
432,113,229472,1,0,0:0:0:0:
274,107,229560,1,0,0:0:0:0:
440,100,229648,1,0,0:0:0:0:
265,92,229737,1,0,0:0:0:0:
447,87,229825,1,0,0:0:0:0:
253,68,229913,5,0,0:0:0:0:
164,27,230001,1,0,0:0:0:0:
70,54,230090,1,0,0:0:0:0:
17,136,230178,1,0,0:0:0:0:
32,233,230266,1,0,0:0:0:0:
106,296,230354,1,0,0:0:0:0:
204,295,230442,1,0,0:0:0:0:
277,230,230531,1,0,0:0:0:0:
289,133,230619,5,0,0:0:0:0:
320,227,230707,1,0,0:0:0:0:
351,322,230795,5,0,0:0:0:0:
416,248,230884,1,0,0:0:0:0:
424,150,230972,1,0,0:0:0:0:
374,66,231060,1,0,0:0:0:0:
283,28,231148,2,0,P|226:29|152:104,1,100
96,343,231325,6,0,L|223:203,1,100
117,137,231501,1,0,0:0:0:0:
145,368,231590,2,0,L|231:199,1,100
112,163,231766,5,0,0:0:0:0:
205,169,231854,1,0,0:0:0:0:
200,143,231942,1,0,0:0:0:0:
293,140,232031,1,0,0:0:0:0:
288,166,232119,1,0,0:0:0:0:
382,169,232207,1,0,0:0:0:0:
377,143,232295,1,0,0:0:0:0:
444,63,232384,5,0,0:0:0:0:
456,131,232472,1,0,0:0:0:0:
469,200,232560,1,0,0:0:0:0:
481,269,232648,1,0,0:0:0:0:
494,338,232737,1,0,0:0:0:0:
444,63,233266,6,0,P|324:42|277:169,1,250
416,167,233795,6,0,P|370:194|293:121,1,125
441,126,234060,1,0,0:0:0:0:
270,140,234148,2,0,P|237:111|137:121,1,125
307,168,234413,1,0,0:0:0:0:
111,115,234501,2,0,P|75:121|27:107,1,62.5
210,0,234678,2,0,P|177:102|49:117,1,250
160,220,235207,2,0,P|159:281|188:337,1,125
377,194,235560,6,0,P|316:180|270:140,1,125
419,219,235825,1,0,0:0:0:0:
238,105,235913,2,0,P|191:83|153:88,1,62.5
256,262,236090,2,0,P|285:165|179:82,1,250
256,352,236619,1,0,0:0:0:0:
433,145,236795,5,0,0:0:0:0:
342,220,236884,1,0,0:0:0:0:
236,169,236972,2,0,P|191:158|116:198,1,100
433,296,237148,5,0,0:0:0:0:
342,220,237237,1,0,0:0:0:0:
237,271,237325,6,0,B|94:276|86:167|86:167|169:177,1,262.500002503395
237,271,237678,2,0,B|161:149|251:88|251:88|284:165,1,262.500002503395
237,271,238031,2,0,B|304:144|402:192|402:192|352:259,1,262.500002503395
228,367,238384,6,0,P|153:322|150:256,1,125
271,382,238648,1,0,0:0:0:0:
143,249,238737,2,0,P|125:198|97:175,1,62.5
15,353,238913,2,0,P|118:317|119:191,1,250
245,70,239442,6,0,P|304:123|394:96,1,125
227,29,239707,1,0,0:0:0:0:
369,163,239795,6,0,P|384:232|326:297,1,125
346,124,240060,1,0,0:0:0:0:
339,313,240148,2,0,P|337:349|366:385,1,62.5
417,148,240325,2,0,P|359:215|358:392,1,250
74,122,240854,2,0,P|111:193|99:283,1,125
316,262,241207,6,0,P|241:217|238:151,1,125
359,277,241472,1,0,0:0:0:0:
231,144,241560,2,0,P|213:93|185:70,1,62.5
102,275,241737,2,0,P|206:199|207:85,1,250
461,146,242266,6,0,P|402:164|356:258,1,125
505,125,242531,1,0,0:0:0:0:
354,263,242619,6,0,P|316:276|243:243,1,87.500000834465
268,71,242795,2,0,P|298:98|306:177,1,87.500000834465
145,241,242972,2,0,P|153:201|218:155,1,87.500000834465
355,384,243148,2,0,P|264:339|381:281,1,262.500002503395
235,378,243501,2,0,P|218:304|288:224,1,175.00000166893
512,202,243854,5,0,0:0:0:0:
433,138,243942,1,0,0:0:0:0:
358,78,244031,2,0,P|255:34|153:84,1,225.000008583069
433,138,244295,1,0,0:0:0:0:
122,96,244384,2,0,P|71:96|30:53,1,112.500004291535
269,221,244560,2,0,P|179:277|48:31,1,450.000017166138
512,202,245090,2,0,L|488:349,1,112.500004291535
480,208,245266,2,0,L|456:355,1,112.500004291535
446,207,245442,6,0,P|413:147|257:136,1,225.000008583069
461,319,245707,1,0,0:0:0:0:
230,128,245795,2,0,P|165:119|118:73,1,112.500004291535
363,343,245972,2,0,P|220:344|129:90,1,450.000017166138
14,262,246501,2,0,L|75:397,1,112.500004291535
47,259,246678,2,0,L|108:394,1,112.500004291535
79,249,246854,6,0,P|95:182|243:131,1,225.000008583069
93,361,247119,1,0,0:0:0:0:
267,133,247207,2,0,P|302:133|357:80,1,62.5
110,30,247384,2,0,P|181:98|329:121,1,250
256,320,247913,1,0,0:0:0:0:
79,145,248090,5,0,0:0:0:0:
170,220,248178,1,0,0:0:0:0:
276,169,248266,2,0,P|321:158|396:198,1,100
79,296,248442,5,0,0:0:0:0:
170,220,248531,1,0,0:0:0:0:
276,272,248619,6,0,B|280:324|362:360|425:318|431:255|431:255|464:352,1,262.500002503395
276,272,248972,2,0,B|323:294|395:241|390:165|339:129|339:129|439:149,1,262.500002503395
276,272,249325,2,0,B|319:242|309:153|241:119|184:145|184:145|251:69,1,262.500002503395
45,195,249678,6,0,P|72:255|168:308,1,125
45,144,249942,1,0,0:0:0:0:
154,320,250031,2,0,P|175:347|179:380,1,62.5
0,224,250207,2,0,P|92:257|155:320,1,187.5
179,374,250560,5,0,0:0:0:0:
208,383,250648,1,0,0:0:0:0:
238,384,250737,1,0,0:0:0:0:
296,360,250825,1,0,0:0:0:0:
331,309,250913,1,0,0:0:0:0:
332,248,251001,1,0,0:0:0:0:
274,178,251090,6,0,P|293:140|376:108,1,125
332,248,251354,1,0,0:0:0:0:
415,101,251442,2,0,P|446:78|459:28,1,62.5
256,127,251619,2,0,P|343:154|422:76,1,187.5
456,57,251972,5,0,0:0:0:0:
427,48,252060,1,0,0:0:0:0:
397,47,252148,1,0,0:0:0:0:
339,71,252237,1,0,0:0:0:0:
304,122,252325,1,0,0:0:0:0:
303,183,252413,1,0,0:0:0:0:
279,276,252501,6,0,P|253:309|166:326,1,125
303,183,252766,1,0,0:0:0:0:
126,327,252854,2,0,P|91:343|69:390,1,62.5
287,329,253031,2,0,P|205:287|114:350,1,187.5
77,362,253384,2,0,P|43:277|68:196,1,125
256,131,253737,1,0,0:0:0:0:
151,251,253913,6,0,P|223:232|246:19,1,300
315,297,254266,2,0,P|296:225|83:202,1,300
361,133,254619,2,0,P|289:152|266:365,1,300
197,85,254972,2,0,P|216:157|429:180,1,300
448,80,255325,6,0,L|448:5,1,75.0000028610231
448,155,255678,2,0,L|448:80,1,75.0000028610231
448,155,256031,2,0,L|448:0,1,150.000005722046
448,155,256560,2,0,L|448:0,1,150.000005722046
256,80,257090,6,0,L|256:5,1,75.0000028610231
256,155,257442,2,0,L|256:80,1,75.0000028610231
256,230,257795,2,0,L|256:155,1,75.0000028610231
48,240,258148,6,0,L|48:315,1,75.0000028610231
48,165,258501,2,0,L|48:240,1,75.0000028610231
48,90,258854,2,0,L|48:165,1,75.0000028610231
48,15,259207,2,0,L|48:90,1,75.0000028610231
256,80,259737,6,0,L|256:5,1,75.0000028610231
256,155,260090,2,0,L|256:80,1,75.0000028610231
256,230,260442,2,0,L|256:155,1,75.0000028610231
256,305,260795,1,0,0:0:0:0:
256,267,260884,1,0,0:0:0:0:
256,155,260972,6,0,L|256:230,1,75.0000028610231
256,80,261325,2,0,L|256:155,1,75.0000028610231
256,5,261678,2,0,L|256:80,1,75.0000028610231
256,155,262031,2,0,L|256:230,1,75.0000028610231
448,80,262560,6,0,L|448:5,1,75.0000028610231
448,155,262913,2,0,L|448:80,1,75.0000028610231
448,240,263266,1,0,0:0:0:0:
256,305,263442,1,0,0:0:0:0:
48,240,263619,1,0,0:0:0:0:
256,80,263795,6,0,L|256:5,1,75.0000028610231
256,155,264148,2,0,L|256:80,1,75.0000028610231
256,230,264501,2,0,L|256:155,1,75.0000028610231
256,305,264854,2,0,L|256:230,1,75.0000028610231
256,5,265384,1,0,0:0:0:0:
256,305,265560,1,0,0:0:0:0:
448,240,265737,1,0,0:0:0:0:
48,240,265913,1,0,0:0:0:0:
464,16,266090,1,0,0:0:0:0:
48,16,266266,1,0,0:0:0:0:
256,305,266442,1,0,0:0:0:0:
256,80,266619,6,0,L|256:5,1,75.0000028610231
256,155,266972,2,0,L|256:80,1,75.0000028610231
256,155,267325,6,0,L|257:-19,1,150.000005722046
256,155,267854,2,0,L|257:-19,1,150.000005722046
48,90,268384,6,0,L|48:15,1,75.0000028610231
48,165,268737,2,0,L|48:90,1,75.0000028610231
48,240,269090,2,0,L|48:165,1,75.0000028610231
256,230,269442,6,0,L|256:305,1,75.0000028610231
256,155,269795,2,0,L|256:230,1,75.0000028610231
256,80,270148,2,0,L|256:155,1,75.0000028610231
256,5,270501,2,0,L|256:80,1,75.0000028610231
448,80,271031,6,0,L|448:5,1,75.0000028610231
448,155,271384,2,0,L|448:80,1,75.0000028610231
448,240,271737,1,0,0:0:0:0:
64,240,271913,1,0,0:0:0:0:
448,240,272090,1,0,0:0:0:0:
256,230,272266,6,0,L|256:305,1,75.0000028610231
256,155,272619,2,0,L|256:230,1,75.0000028610231
256,80,272972,2,0,L|256:155,1,75.0000028610231
256,5,273325,2,0,L|256:80,1,75.0000028610231
48,90,273854,6,0,L|48:15,1,75.0000028610231
48,165,274207,6,0,L|48:11,1,150.000005722046
48,240,274737,2,0,L|48:165,1,75.0000028610231
200,96,275090,5,0,0:0:0:0:
366,192,275266,1,0,0:0:0:0:
200,287,275442,1,0,0:0:0:0:
311,96,275619,1,0,0:0:0:0:
311,287,275795,1,0,0:0:0:0:
145,191,275972,1,0,0:0:0:0:
366,192,276148,1,0,0:0:0:0:
200,96,276325,1,0,0:0:0:0:
200,96,276678,5,0,0:0:0:0:
366,192,276854,1,0,0:0:0:0:
145,191,277031,1,0,0:0:0:0:
311,287,277207,1,0,0:0:0:0:
311,96,277384,1,0,0:0:0:0:
200,287,277560,1,0,0:0:0:0:
366,192,277737,1,0,0:0:0:0:
200,96,277913,5,0,0:0:0:0:
311,287,278090,1,0,0:0:0:0:
186,92,278266,1,0,0:0:0:0:
325,291,278442,1,0,0:0:0:0:
170,89,278619,1,0,0:0:0:0:
341,294,278795,1,0,0:0:0:0:
152,88,278972,1,0,0:0:0:0:
359,295,279148,1,0,0:0:0:0:
103,103,279325,5,0,0:0:0:0:
407,279,279501,1,0,0:0:0:0:
45,173,279678,5,0,0:0:0:0:
464,210,279854,1,0,0:0:0:0:
17,278,280031,5,0,0:0:0:0:
492,105,280207,1,0,0:0:0:0:
64,383,280384,5,0,0:0:0:0:
446,1,280560,1,0,0:0:0:0:
144,203,282854,5,0,0:0:0:0:
156,189,282898,1,0,0:0:0:0:
173,182,282942,1,0,0:0:0:0:
192,182,282987,1,0,0:0:0:0:
211,189,283031,2,0,P|251:207|285:185,1,75.0000028610231
398,154,283207,5,0,0:0:0:0:
276,194,283295,1,0,0:0:0:0:
276,321,283384,1,0,0:0:0:0:
398,361,283472,1,0,0:0:0:0:
472,257,283560,2,0,P|472:237|467:216,1,37.5
398,154,283913,5,0,0:0:0:0:
365,117,284001,1,0,0:0:0:0:
317,113,284090,1,0,0:0:0:0:
280,145,284178,1,0,0:0:0:0:
276,194,284266,1,0,0:0:0:0:
260,240,284354,1,0,0:0:0:0:
222,272,284442,1,0,0:0:0:0:
174,280,284531,1,0,0:0:0:0:
128,261,284619,1,0,0:0:0:0:
99,221,284707,1,0,0:0:0:0:
95,172,284795,1,0,0:0:0:0:
118,128,284884,1,0,0:0:0:0:
224,226,284972,5,0,0:0:0:0:
185,256,285060,1,0,0:0:0:0:
136,254,285148,1,0,0:0:0:0:
99,221,285237,1,0,0:0:0:0:
92,173,285325,1,0,0:0:0:0:
117,131,285413,1,0,0:0:0:0:
163,115,285501,1,0,0:0:0:0:
209,132,285590,1,0,0:0:0:0:
63,234,285678,5,0,0:0:0:0:
49,186,285766,1,0,0:0:0:0:
58,137,285854,1,0,0:0:0:0:
88,97,285942,1,0,0:0:0:0:
132,75,286031,1,0,0:0:0:0:
181,73,286119,1,0,0:0:0:0:
226,94,286207,1,0,0:0:0:0:
258,133,286295,1,0,0:0:0:0:
93,171,286384,5,0,0:0:0:0:
102,122,286472,1,0,0:0:0:0:
135,86,286560,1,0,0:0:0:0:
184,76,286648,1,0,0:0:0:0:
230,93,286737,1,0,0:0:0:0:
258,133,286825,1,0,0:0:0:0:
257,185,286913,1,0,0:0:0:0:
286,224,287001,1,0,0:0:0:0:
333,239,287090,1,0,0:0:0:0:
380,224,287178,1,0,0:0:0:0:
409,184,287266,1,0,0:0:0:0:
409,135,287354,1,0,0:0:0:0:
381,95,287442,1,0,0:0:0:0:
334,79,287531,1,0,0:0:0:0:
287,93,287619,1,0,0:0:0:0:
258,133,287707,1,0,0:0:0:0:
333,239,287795,5,0,0:0:0:0:
376,215,287884,1,0,0:0:0:0:
395,170,287972,1,0,0:0:0:0:
381,123,288060,1,0,0:0:0:0:
340,96,288148,1,0,0:0:0:0:
291,100,288237,1,0,0:0:0:0:
258,133,288325,1,0,0:0:0:0:
227,171,288413,1,0,0:0:0:0:
180,187,288501,1,0,0:0:0:0:
133,174,288590,1,0,0:0:0:0:
100,137,288678,1,0,0:0:0:0:
92,89,288766,1,0,0:0:0:0:
211,98,288854,5,0,0:0:0:0:
208,147,288942,1,0,0:0:0:0:
180,187,289031,1,0,0:0:0:0:
134,206,289119,1,0,0:0:0:0:
92,89,289207,5,0,0:0:0:0:
141,90,289295,1,0,0:0:0:0:
174,126,289384,1,0,0:0:0:0:
171,175,289472,1,0,0:0:0:0:
134,207,289560,1,0,0:0:0:0:
86,203,289648,1,0,0:0:0:0:
92,89,289737,5,0,0:0:0:0:
134,114,289825,1,0,0:0:0:0:
150,160,289913,1,0,0:0:0:0:
134,207,290001,1,0,0:0:0:0:
114,252,290090,1,0,0:0:0:0:
125,299,290178,1,0,0:0:0:0:
163,331,290266,1,0,0:0:0:0:
212,334,290354,1,0,0:0:0:0:
253,307,290442,1,0,0:0:0:0:
270,261,290531,1,0,0:0:0:0:
150,262,290619,5,0,0:0:0:0:
166,308,290707,1,0,0:0:0:0:
211,327,290795,1,0,0:0:0:0:
255,307,290884,1,0,0:0:0:0:
270,261,290972,1,0,0:0:0:0:
246,219,291060,1,0,0:0:0:0:
145,230,291148,5,0,0:0:0:0:
150,262,291237,1,0,0:0:0:0:
194,241,291325,1,0,0:0:0:0:
207,195,291413,1,0,0:0:0:0:
181,154,291501,1,0,0:0:0:0:
133,147,291590,1,0,0:0:0:0:
100,258,291678,5,0,0:0:0:0:
143,236,291766,1,0,0:0:0:0:
157,189,291854,1,0,0:0:0:0:
133,147,291942,1,0,0:0:0:0:
31,194,292031,5,0,0:0:0:0:
57,235,292119,1,0,0:0:0:0:
100,258,292207,1,0,0:0:0:0:
150,256,292295,1,0,0:0:0:0:
191,229,292384,1,0,0:0:0:0:
233,204,292472,1,0,0:0:0:0:
281,213,292560,1,0,0:0:0:0:
313,250,292648,1,0,0:0:0:0:
313,299,292737,1,0,0:0:0:0:
281,337,292825,1,0,0:0:0:0:
233,345,292913,1,0,0:0:0:0:
191,321,293001,1,0,0:0:0:0:
174,275,293090,1,0,0:0:0:0:
191,229,293178,1,0,0:0:0:0:
214,185,293266,1,0,0:0:0:0:
210,136,293354,1,0,0:0:0:0:
174,101,293442,5,0,0:0:0:0:
164,112,293531,1,0,0:0:0:0:
154,123,293619,1,0,0:0:0:0:
145,135,293707,1,0,0:0:0:0:
191,229,293795,5,0,0:0:0:0:
239,239,293884,1,0,0:0:0:0:
285,223,293972,1,0,0:0:0:0:
317,185,294060,1,0,0:0:0:0:
202,181,294148,5,0,0:0:0:0:
191,229,294237,1,0,0:0:0:0:
207,275,294325,1,0,0:0:0:0:
245,307,294413,1,0,0:0:0:0:
250,192,294501,5,0,0:0:0:0:
202,181,294590,1,0,0:0:0:0:
156,197,294678,1,0,0:0:0:0:
124,235,294766,1,0,0:0:0:0:
239,239,294854,5,0,0:0:0:0:
250,191,294942,1,0,0:0:0:0:
234,145,295031,1,0,0:0:0:0:
196,113,295119,1,0,0:0:0:0:
168,73,295207,1,0,0:0:0:0:
182,27,295295,1,0,0:0:0:0:
227,9,295384,1,0,0:0:0:0:
268,34,295472,1,0,0:0:0:0:
274,82,295560,5,0,0:0:0:0:
240,116,295648,1,0,0:0:0:0:
196,113,295737,1,0,0:0:0:0:
149,129,295825,1,0,0:0:0:0:
116,167,295913,1,0,0:0:0:0:
105,215,296001,1,0,0:0:0:0:
119,262,296090,1,0,0:0:0:0:
153,298,296178,1,0,0:0:0:0:
197,312,296266,5,0,0:0:0:0:
197,297,296354,1,0,0:0:0:0:
197,282,296442,1,0,0:0:0:0:
197,267,296531,1,0,0:0:0:0:
116,167,296619,5,0,0:0:0:0:
68,174,296707,1,0,0:0:0:0:
31,207,296795,1,0,0:0:0:0:
18,254,296884,1,0,0:0:0:0:
124,216,296972,5,0,0:0:0:0:
116,167,297060,1,0,0:0:0:0:
84,130,297148,1,0,0:0:0:0:
36,118,297237,1,0,0:0:0:0:
75,224,297325,5,0,0:0:0:0:
124,216,297413,1,0,0:0:0:0:
161,184,297501,1,0,0:0:0:0:
173,136,297590,1,0,0:0:0:0:
67,175,297678,5,0,0:0:0:0:
75,224,297766,1,0,0:0:0:0:
107,261,297854,1,0,0:0:0:0:
155,273,297942,1,0,0:0:0:0:
198,252,298031,1,0,0:0:0:0:
244,268,298119,1,0,0:0:0:0:
266,312,298207,1,0,0:0:0:0:
250,358,298295,1,0,0:0:0:0:
206,379,298384,5,0,0:0:0:0:
160,363,298472,1,0,0:0:0:0:
138,319,298560,1,0,0:0:0:0:
155,273,298648,1,0,0:0:0:0:
188,236,298737,1,0,0:0:0:0:
197,187,298825,1,0,0:0:0:0:
180,141,298913,1,0,0:0:0:0:
141,110,299001,1,0,0:0:0:0:
92,104,299090,5,0,0:0:0:0:
47,124,299178,1,0,0:0:0:0:
19,165,299266,1,0,0:0:0:0:
16,214,299354,1,0,0:0:0:0:
159,238,299442,5,0,0:0:0:0:
182,194,299531,1,0,0:0:0:0:
175,145,299619,1,0,0:0:0:0:
141,110,299707,1,0,0:0:0:0:
49,164,299795,5,0,0:0:0:0:
91,187,299884,1,0,0:0:0:0:
140,180,299972,1,0,0:0:0:0:
175,145,300060,1,0,0:0:0:0:
72,60,300148,5,0,0:0:0:0:
50,103,300237,1,0,0:0:0:0:
57,152,300325,1,0,0:0:0:0:
91,187,300413,1,0,0:0:0:0:
201,94,300501,5,0,0:0:0:0:
143,48,300590,1,0,0:0:0:0:
72,60,300678,1,0,0:0:0:0:
32,122,300766,1,0,0:0:0:0:
51,192,300854,1,0,0:0:0:0:
115,224,300942,1,0,0:0:0:0:
201,94,301031,5,0,0:0:0:0:
164,85,301119,1,0,0:0:0:0:
128,95,301207,1,0,0:0:0:0:
101,120,301295,1,0,0:0:0:0:
89,155,301384,1,0,0:0:0:0:
95,192,301472,1,0,0:0:0:0:
115,224,301560,1,0,0:0:0:0:
150,238,301648,1,0,0:0:0:0:
187,236,301737,1,0,0:0:0:0:
220,218,301825,1,0,0:0:0:0:
111,125,301913,5,0,0:0:0:0:
112,149,302001,1,0,0:0:0:0:
113,174,302090,1,0,0:0:0:0:
114,199,302178,1,0,0:0:0:0:
115,224,302266,1,0,0:0:0:0:
116,249,302354,1,0,0:0:0:0:
215,342,302442,5,0,0:0:0:0:
216,318,302531,1,0,0:0:0:0:
217,293,302619,1,0,0:0:0:0:
218,268,302707,1,0,0:0:0:0:
219,243,302795,1,0,0:0:0:0:
220,218,302884,1,0,0:0:0:0:
201,94,302972,5,0,0:0:0:0:
193,117,303060,1,0,0:0:0:0:
196,142,303148,1,0,0:0:0:0:
208,164,303237,1,0,0:0:0:0:
283,64,303325,5,0,0:0:0:0:
262,32,303413,1,0,0:0:0:0:
231,13,303501,1,0,0:0:0:0:
194,8,303590,1,0,0:0:0:0:
158,19,303678,1,0,0:0:0:0:
130,44,303766,1,0,0:0:0:0:
116,78,303854,1,0,0:0:0:0:
101,112,303942,1,0,0:0:0:0:
68,128,304031,5,0,0:0:0:0:
33,121,304119,1,0,0:0:0:0:
10,92,304207,1,0,0:0:0:0:
11,55,304295,1,0,0:0:0:0:
35,27,304384,1,0,0:0:0:0:
57,57,304472,1,0,0:0:0:0:
56,93,304560,1,0,0:0:0:0:
32,121,304648,1,0,0:0:0:0:
35,27,304737,5,0,0:0:0:0:
110,29,304825,1,0,0:0:0:0:
162,84,304913,1,0,0:0:0:0:
163,155,305001,1,0,0:0:0:0:
39,89,305090,5,0,0:0:0:0:
99,50,305178,1,0,0:0:0:0:
162,84,305266,1,0,0:0:0:0:
163,155,305354,1,0,0:0:0:0:
98,52,305442,5,0,0:0:0:0:
162,84,305531,1,0,0:0:0:0:
165,155,305619,1,0,0:0:0:0:
103,192,305707,1,0,0:0:0:0:
162,84,305795,5,0,0:0:0:0:
165,155,305884,1,0,0:0:0:0:
103,192,305972,1,0,0:0:0:0:
44,159,306060,1,0,0:0:0:0:
99,50,306148,5,0,0:0:0:0:
146,36,306237,1,0,0:0:0:0:
196,42,306325,1,0,0:0:0:0:
239,67,306413,1,0,0:0:0:0:
270,106,306501,1,0,0:0:0:0:
283,154,306590,1,0,0:0:0:0:
278,203,306678,1,0,0:0:0:0:
273,252,306766,1,0,0:0:0:0:
294,296,306854,5,0,0:0:0:0:
336,322,306942,1,0,0:0:0:0:
386,322,307031,1,0,0:0:0:0:
427,295,307119,1,0,0:0:0:0:
448,250,307207,1,0,0:0:0:0:
442,201,307295,1,0,0:0:0:0:
411,163,307384,1,0,0:0:0:0:
364,147,307472,1,0,0:0:0:0:
294,296,307560,5,0,0:0:0:0:
340,312,307648,1,0,0:0:0:0:
388,301,307737,1,0,0:0:0:0:
421,264,307825,1,0,0:0:0:0:
427,215,307913,1,0,0:0:0:0:
406,171,308001,1,0,0:0:0:0:
364,147,308090,1,0,0:0:0:0:
314,150,308178,1,0,0:0:0:0:
341,351,308266,5,0,0:0:0:0:
389,339,308354,1,0,0:0:0:0:
426,306,308442,1,0,0:0:0:0:
443,260,308531,1,0,0:0:0:0:
436,211,308619,1,0,0:0:0:0:
406,171,308707,1,0,0:0:0:0:
362,150,308795,1,0,0:0:0:0:
312,152,308884,1,0,0:0:0:0:
294,296,308972,5,0,0:0:0:0:
336,322,309060,1,0,0:0:0:0:
386,322,309148,1,0,0:0:0:0:
427,295,309237,1,0,0:0:0:0:
448,250,309325,1,0,0:0:0:0:
442,201,309413,1,0,0:0:0:0:
411,163,309501,1,0,0:0:0:0:
362,150,309590,1,0,0:0:0:0:
312,152,309678,5,0,0:0:0:0:
265,166,309766,1,0,0:0:0:0:
219,149,309854,1,0,0:0:0:0:
194,106,309942,1,0,0:0:0:0:
202,58,310031,1,0,0:0:0:0:
238,25,310119,1,0,0:0:0:0:
287,22,310207,1,0,0:0:0:0:
327,50,310295,1,0,0:0:0:0:
265,188,310384,5,0,0:0:0:0:
216,177,310472,1,0,0:0:0:0:
180,144,310560,1,0,0:0:0:0:
165,96,310648,1,0,0:0:0:0:
177,48,310737,1,0,0:0:0:0:
211,13,310825,1,0,0:0:0:0:
258,0,310913,1,0,0:0:0:0:
306,11,311001,1,0,0:0:0:0:
342,46,311090,5,0,0:0:0:0:
366,89,311178,1,0,0:0:0:0:
407,116,311266,1,0,0:0:0:0:
456,123,311354,1,0,0:0:0:0:
376,10,311442,5,0,0:0:0:0:
342,46,311531,1,0,0:0:0:0:
328,94,311619,1,0,0:0:0:0:
336,143,311707,1,0,0:0:0:0:
456,123,311795,5,0,0:0:0:0:
432,79,311884,1,0,0:0:0:0:
392,50,311972,1,0,0:0:0:0:
343,41,312060,1,0,0:0:0:0:
292,55,312148,1,0,0:0:0:0:
256,83,312237,1,0,0:0:0:0:
336,143,312325,5,0,0:0:0:0:
322,95,312413,1,0,0:0:0:0:
292,55,312501,1,0,0:0:0:0:
250,28,312590,1,0,0:0:0:0:
202,18,312678,1,0,0:0:0:0:
153,27,312766,1,0,0:0:0:0:
110,52,312854,1,0,0:0:0:0:
79,91,312942,1,0,0:0:0:0:
64,139,313031,1,0,0:0:0:0:
67,188,313119,1,0,0:0:0:0:
202,133,313207,5,0,0:0:0:0:
174,92,313295,1,0,0:0:0:0:
127,78,313384,1,0,0:0:0:0:
82,97,313472,1,0,0:0:0:0:
58,140,313560,1,0,0:0:0:0:
67,188,313648,1,0,0:0:0:0:
192,156,313737,5,0,0:0:0:0:
202,133,313825,1,0,0:0:0:0:
162,104,313913,1,0,0:0:0:0:
114,113,314001,1,0,0:0:0:0:
89,154,314090,1,0,0:0:0:0:
101,201,314178,1,0,0:0:0:0:
205,245,314266,5,0,0:0:0:0:
217,198,314354,1,0,0:0:0:0:
192,156,314442,1,0,0:0:0:0:
145,145,314531,1,0,0:0:0:0:
205,245,314619,5,0,0:0:0:0:
253,239,314707,1,0,0:0:0:0:
287,204,314795,1,0,0:0:0:0:
290,155,314884,1,0,0:0:0:0:
261,116,314972,1,0,0:0:0:0:
213,105,315060,1,0,0:0:0:0:
169,127,315148,1,0,0:0:0:0:
151,173,315237,1,0,0:0:0:0:
166,219,315325,5,0,0:0:0:0:
205,245,315413,1,0,0:0:0:0:
253,239,315501,1,0,0:0:0:0:
294,212,315590,1,0,0:0:0:0:
343,206,315678,1,0,0:0:0:0:
390,221,315766,1,0,0:0:0:0:
426,256,315854,1,0,0:0:0:0:
442,303,315942,1,0,0:0:0:0:
437,352,316031,5,0,0:0:0:0:
413,334,316119,1,0,0:0:0:0:
396,310,316207,1,0,0:0:0:0:
386,282,316295,1,0,0:0:0:0:
462,215,316384,5,0,0:0:0:0:
474,263,316472,1,0,0:0:0:0:
465,311,316560,1,0,0:0:0:0:
436,352,316648,1,0,0:0:0:0:
337,238,316737,5,0,0:0:0:0:
385,226,316825,1,0,0:0:0:0:
433,234,316913,1,0,0:0:0:0:
474,263,317001,1,0,0:0:0:0:
360,363,317090,5,0,0:0:0:0:
348,315,317178,1,0,0:0:0:0:
356,267,317266,1,0,0:0:0:0:
385,226,317354,1,0,0:0:0:0:
482,335,317442,5,0,0:0:0:0:
434,347,317531,1,0,0:0:0:0:
386,339,317619,1,0,0:0:0:0:
348,315,317707,1,0,0:0:0:0:
304,290,317795,1,0,0:0:0:0:
255,289,317884,1,0,0:0:0:0:
333,362,317972,5,0,0:0:0:0:
348,315,318060,1,0,0:0:0:0:
339,266,318148,1,0,0:0:0:0:
310,226,318237,1,0,0:0:0:0:
266,203,318325,1,0,0:0:0:0:
216,202,318413,1,0,0:0:0:0:
255,289,318501,5,0,0:0:0:0:
299,268,318590,1,0,0:0:0:0:
310,226,318678,1,0,0:0:0:0:
295,178,318766,1,0,0:0:0:0:
169,210,318854,5,0,0:0:0:0:
185,256,318942,1,0,0:0:0:0:
228,279,319031,1,0,0:0:0:0:
276,267,319119,1,0,0:0:0:0:
303,226,319207,1,0,0:0:0:0:
295,178,319295,1,0,0:0:0:0:
275,133,319384,1,0,0:0:0:0:
280,84,319472,1,0,0:0:0:0:
310,44,319560,1,0,0:0:0:0:
355,24,319648,1,0,0:0:0:0:
404,29,319737,1,0,0:0:0:0:
444,58,319825,1,0,0:0:0:0:
464,104,319913,1,0,0:0:0:0:
458,153,320001,1,0,0:0:0:0:
429,193,320090,1,0,0:0:0:0:
384,213,320178,1,0,0:0:0:0:
369,53,320266,5,0,0:0:0:0:
417,67,320354,1,0,0:0:0:0:
449,104,320442,1,0,0:0:0:0:
458,153,320531,1,0,0:0:0:0:
439,198,320619,1,0,0:0:0:0:
399,228,320707,1,0,0:0:0:0:
354,100,320795,5,0,0:0:0:0:
403,108,320884,1,0,0:0:0:0:
434,145,320972,1,0,0:0:0:0:
432,194,321060,1,0,0:0:0:0:
399,230,321148,1,0,0:0:0:0:
350,235,321237,1,0,0:0:0:0:
375,143,321325,5,0,0:0:0:0:
376,192,321413,1,0,0:0:0:0:
350,235,321501,1,0,0:0:0:0:
307,257,321590,1,0,0:0:0:0:
315,101,321678,5,0,0:0:0:0:
351,135,321766,1,0,0:0:0:0:
362,183,321854,1,0,0:0:0:0:
345,229,321942,1,0,0:0:0:0:
307,257,322031,1,0,0:0:0:0:
256,261,322119,1,0,0:0:0:0:
272,93,322207,5,0,0:0:0:0:
302,132,322295,1,0,0:0:0:0:
309,181,322384,1,0,0:0:0:0:
293,228,322472,1,0,0:0:0:0:
256,261,322560,1,0,0:0:0:0:
209,274,322648,1,0,0:0:0:0:
214,97,322737,5,0,0:0:0:0:
243,137,322825,1,0,0:0:0:0:
251,186,322913,1,0,0:0:0:0:
239,235,323001,1,0,0:0:0:0:
121,175,323090,5,0,0:0:0:0:
130,126,323178,1,0,0:0:0:0:
165,92,323266,1,0,0:0:0:0:
214,84,323354,1,0,0:0:0:0:
258,107,323442,1,0,0:0:0:0:
280,151,323531,1,0,0:0:0:0:
273,199,323619,1,0,0:0:0:0:
239,235,323707,1,0,0:0:0:0:
203,268,323795,5,0,0:0:0:0:
201,316,323884,1,0,0:0:0:0:
235,352,323972,1,0,0:0:0:0:
284,353,324060,1,0,0:0:0:0:
319,319,324148,1,0,0:0:0:0:
319,270,324237,1,0,0:0:0:0:
285,236,324325,1,0,0:0:0:0:
239,235,324413,1,0,0:0:0:0:
341,351,324501,5,0,0:0:0:0:
350,278,324590,1,0,0:0:0:0:
312,215,324678,1,0,0:0:0:0:
243,189,324766,1,0,0:0:0:0:
173,212,324854,1,0,0:0:0:0:
105,239,324942,1,0,0:0:0:0:
38,210,325031,1,0,0:0:0:0:
11,142,325119,5,0,0:0:0:0:
40,75,325207,1,0,0:0:0:0:
108,48,325295,1,0,0:0:0:0:
175,77,325384,1,0,0:0:0:0:
202,145,325472,1,0,0:0:0:0:
173,212,325560,1,0,0:0:0:0:
166,285,325648,1,0,0:0:0:0:
209,344,325737,1,0,0:0:0:0:
281,358,325825,1,0,0:0:0:0:
226,178,325913,5,0,0:0:0:0:
199,246,326001,1,0,0:0:0:0:
220,317,326090,1,0,0:0:0:0:
281,358,326178,1,0,0:0:0:0:
355,351,326266,1,0,0:0:0:0:
407,300,326354,1,0,0:0:0:0:
416,227,326442,1,0,0:0:0:0:
377,165,326531,1,0,0:0:0:0:
335,120,326619,5,0,0:0:0:0:
342,60,326707,1,0,0:0:0:0:
393,27,326795,1,0,0:0:0:0:
451,45,326884,1,0,0:0:0:0:
474,101,326972,1,0,0:0:0:0:
446,155,327060,1,0,0:0:0:0:
377,165,327148,1,0,0:0:0:0:
314,180,327237,1,0,0:0:0:0:
322,344,327325,5,0,0:0:0:0:
340,284,327413,1,0,0:0:0:0:
358,224,327501,1,0,0:0:0:0:
203,308,327590,5,0,0:0:0:0:
262,326,327678,1,0,0:0:0:0:
322,344,327766,1,0,0:0:0:0:
239,189,327854,5,0,0:0:0:0:
221,248,327942,1,0,0:0:0:0:
203,308,328031,1,0,0:0:0:0:
261,288,328119,1,0,0:0:0:0:
297,238,328207,1,0,0:0:0:0:
297,176,328295,1,0,0:0:0:0:
262,126,328384,1,0,0:0:0:0:
224,78,328472,1,0,0:0:0:0:
238,20,328560,1,0,0:0:0:0:
292,0,328648,1,0,0:0:0:0:
347,20,328737,6,0,P|325:65|288:79,1,75
224,78,329090,1,0,0:0:0:0:
60,42,329266,6,0,P|122:47|144:90,1,100
0,110,329795,1,0,0:0:0:0:
141,74,329972,1,0,0:0:0:0:
366,106,330148,6,0,P|344:151|307:165,1,75
243,164,330501,1,0,0:0:0:0:
79,128,330678,6,0,P|141:133|163:176,1,100
19,196,331207,1,0,0:0:0:0:
160,160,331384,1,0,0:0:0:0:
385,192,331560,6,0,P|363:237|326:251,1,75
262,250,331913,1,0,0:0:0:0:
98,214,332090,6,0,P|160:219|182:262,1,100
38,282,332619,1,0,0:0:0:0:
179,246,332795,1,0,0:0:0:0:
404,278,332972,6,0,P|382:323|345:337,1,75
281,336,333325,1,0,0:0:0:0:
117,300,333501,6,0,P|179:305|201:348,1,100
45,347,334031,1,0,0:0:0:0:
199,332,334207,1,0,0:0:0:0:
404,278,334384,5,0,0:0:0:0:
327,235,334472,1,0,0:0:0:0:
251,192,334560,1,0,0:0:0:0:
174,150,334648,1,0,0:0:0:0:
98,107,334737,2,0,B|62:161|68:220|133:279|217:264|250:193|250:193|290:111|388:104|457:179|424:255|405:278,1,603.749985029698
414,107,335442,6,0,B|450:161|444:220|379:279|295:264|262:193|262:193|222:111|124:104|55:179|88:255|107:278,1,603.749985029698
343,153,336148,1,0,0:0:0:0:
243,43,336325,1,0,0:0:0:0:
106,277,336501,6,0,L|178:270,1,50
343,153,336678,1,0,0:0:0:0:
155,272,336854,1,0,0:0:0:0:
243,43,337031,1,0,0:0:0:0:
318,315,337207,1,0,0:0:0:0:
345,293,337295,1,0,0:0:0:0:
372,271,337384,1,0,0:0:0:0:
400,249,337472,1,0,0:0:0:0:
427,227,337560,6,0,P|365:233|287:126,1,200
395,121,338090,1,0,0:0:0:0:
153,69,338266,1,0,0:0:0:0:
427,227,338442,1,0,0:0:0:0:
251,8,338619,1,0,0:0:0:0:
30,128,338795,5,0,0:0:0:0:
64,221,338884,1,0,0:0:0:0:
132,293,338972,2,0,P|159:215|141:163,1,100
251,8,339325,1,0,0:0:0:0:
129,295,339501,1,0,0:0:0:0:
395,210,339678,5,0,0:0:0:0:
318,235,339766,1,0,0:0:0:0:
318,315,339854,1,0,0:0:0:0:
395,340,339942,1,0,0:0:0:0:
395,210,340031,6,0,P|346:159|292:164,1,100
221,363,340384,1,0,0:0:0:0:
149,102,340560,2,0,L|292:259,1,200
236,365,341090,5,0,0:0:0:0:
141,111,341266,2,0,L|297:255,1,200
251,366,341795,5,0,0:0:0:0:
134,121,341972,2,0,L|286:238,1,150
293,244,342325,6,0,P|290:148|356:115,1,150
371,122,342678,2,0,P|334:71|341:24,1,100
293,244,343031,1,0,0:0:0:0:
304,292,343119,1,0,0:0:0:0:
337,328,343207,1,0,0:0:0:0:
204,102,343384,6,0,B|163:186|84:186|17:136|17:136|66:212|54:284|37:326|37:326|94:282,1,450
123,262,344266,5,0,0:0:0:0:
293,244,344442,1,0,0:0:0:0:
114,262,344619,1,0,0:0:0:0:
301,243,344795,1,0,0:0:0:0:
105,263,344972,1,0,0:0:0:0:
310,242,345148,1,0,0:0:0:0:
94,264,345325,1,0,0:0:0:0:
321,241,345501,1,0,0:0:0:0:
121,142,345678,6,0,L|154:129,1,35
255,109,346384,2,0,P|243:162|321:241,1,175
121,142,347090,6,0,L|154:129,1,35
255,109,347795,2,0,P|243:162|402:241,1,262.500010013581
121,142,348501,6,0,L|154:129,1,35
255,109,349207,2,0,P|243:162|454:208,1,350
285,26,349913,6,0,P|225:28|167:114,1,150
299,29,350266,2,0,P|239:25|174:106,1,150
313,33,350619,2,0,P|253:25|181:99,1,150
326,39,350972,2,0,P|268:25|190:93,1,150
121,218,351325,5,0,0:0:0:0:
276,109,351442,1,0,0:0:0:0:
292,298,351560,1,0,0:0:0:0:
115,220,351678,5,0,0:0:0:0:
270,111,351795,1,0,0:0:0:0:
286,300,351913,1,0,0:0:0:0:
109,222,352031,5,0,0:0:0:0:
264,113,352148,1,0,0:0:0:0:
280,302,352266,1,0,0:0:0:0:
103,224,352384,5,0,0:0:0:0:
258,115,352501,1,0,0:0:0:0:
274,304,352619,1,0,0:0:0:0:
180,144,352737,2,0,P|187:197|248:225,1,100
184,94,353001,1,0,0:0:0:0:
245,266,353090,2,0,P|214:303|165:308,1,100
61,74,353442,2,0,P|52:133|127:205,1,150
66,60,353795,2,0,P|52:118|120:196,1,150
245,266,354148,5,0,0:0:0:0:
136,111,354266,1,0,0:0:0:0:
325,95,354384,1,0,0:0:0:0:
247,272,354501,5,0,0:0:0:0:
138,117,354619,1,0,0:0:0:0:
327,101,354737,1,0,0:0:0:0:
249,278,354854,5,0,0:0:0:0:
140,123,354972,1,0,0:0:0:0:
329,107,355090,1,0,0:0:0:0:
251,284,355207,5,0,0:0:0:0:
142,129,355325,1,0,0:0:0:0:
331,113,355442,1,0,0:0:0:0:
166,237,355560,2,0,P|202:193|261:172,1,100
149,282,355825,1,0,0:0:0:0:
285,186,355913,2,0,P|329:163|359:124,1,100
479,215,356266,6,0,P|434:237|414:344,1,150
487,216,356619,2,0,P|442:238|422:345,1,150
395,183,356972,5,0,0:0:0:0:
297,203,357090,1,0,0:0:0:0:
362,278,357207,1,0,0:0:0:0:
393,181,357325,5,0,0:0:0:0:
296,204,357442,1,0,0:0:0:0:
363,277,357560,1,0,0:0:0:0:
392,180,357678,5,0,0:0:0:0:
295,206,357795,1,0,0:0:0:0:
365,277,357913,1,0,0:0:0:0:
390,178,358031,5,0,0:0:0:0:
295,208,358148,1,0,0:0:0:0:
367,276,358266,1,0,0:0:0:0:
296,128,358384,2,0,P|232:155|219:222,1,100
337,106,358648,1,0,0:0:0:0:
174,197,358737,2,0,P|134:167|122:120,1,100
56,219,359090,2,0,L|167:335,1,150
49,228,359442,2,0,L|160:344,1,150
376,57,359795,6,0,B|359:26|359:26|281:89|281:89|314:188|426:180|480:97|480:97|510:180|478:238|417:273|365:258|365:258|392:275|403:314|386:351|341:364,1,775
296,167,362619,6,0,B|250:122|250:75|250:75|145:106|8:184|8:184|0:106|39:28|39:28|120:176|120:176|152:221|208:225,1,800
449,126,366854,6,0,B|433:78|390:47|337:35|289:54|239:91|221:170|270:225|270:225|362:187|366:94|316:-20|193:20|165:48|165:48|174:82|155:140|95:209|-26:152|-35:85|5:25|57:0|57:0|72:74|72:74|97:99|97:99|72:183|117:251|117:251|164:189|164:189|178:265|222:298|249:313|249:313|315:307|365:275|396:230|405:193|405:193|420:347|420:347|368:353|326:382,1,2054.99993728638
