osu file format v14

[General]
AudioFilename: audio.mp3
AudioLeadIn: 0
PreviewTime: 117590
Countdown: 0
SampleSet: None
StackLeniency: 0.2
Mode: 0
LetterboxInBreaks: 0
WidescreenStoryboard: 1

[Editor]
DistanceSpacing: 1
BeatDivisor: 4
GridSize: 16
TimelineZoom: 2.3

[Metadata]
Title:Hidra Heteromycin
TitleUnicode:Hidra Heteromycin
Artist:Shimotsuki Haruka
ArtistUnicode:霜月はるか
Creator:Lasse
Version:Hymn
Source:アルノサージュ~生まれいずる星へ祈る詩~
Tags:Ar Nosurge: Ode to an Unborn Star Gust なないろスコア Nanairo Score Genometric Concert side.紅 天統姫
BeatmapID:1414762
BeatmapSetID:668799

[Difficulty]
HPDrainRate:4
CircleSize:5
OverallDifficulty:9
ApproachRate:9.3
SliderMultiplier:1.6
SliderTickRate:1

[Events]
//Background and Video events
0,0,"bg.jpg",0,0
//Break Periods
//Storyboard Layer 0 (Background)
//Storyboard Layer 1 (Fail)
//Storyboard Layer 2 (Pass)
//Storyboard Layer 3 (Foreground)
//Storyboard Sound Samples

[TimingPoints]
1208,352.941176470588,6,3,1,60,1,0
1208,-125,6,3,1,60,0,0
1296,-125,6,2,1,20,0,0
2090,-125,6,3,1,60,0,0
3413,-125,6,2,1,20,0,0
4207,-125,6,3,1,60,0,0
5443,352.941176470588,4,3,1,50,1,0
5443,-125,4,3,1,50,0,0
8266,-125,4,3,1,60,0,0
10384,-71.4285714285714,4,3,1,70,0,0
10648,-71.4285714285714,4,2,1,40,0,0
10737,-71.4285714285714,4,3,1,50,0,0
10825,-71.4285714285714,4,3,1,54,0,0
10913,-71.4285714285714,4,3,1,58,0,0
11001,-71.4285714285714,4,3,1,64,0,0
11090,-100,4,3,1,70,0,0
11266,-100,4,2,1,30,0,0
11442,-100,4,3,1,70,0,0
11795,-100,4,2,1,30,0,0
11972,-100,4,3,1,70,0,0
14090,-100,4,2,1,30,0,0
14178,-100,4,3,1,70,0,0
15325,-100,4,3,1,60,0,0
16737,-100,4,3,1,70,0,0
16913,-100,4,2,1,30,0,0
17001,-100,4,3,1,70,0,0
19737,-100,4,2,1,30,0,0
19825,-100,4,3,1,70,0,0
20972,-100,4,3,1,60,0,0
22384,-100,4,3,1,70,0,0
22560,-100,4,2,1,30,0,0
22737,-100,4,3,1,70,0,0
23090,-100,4,2,1,30,0,0
23266,-100,4,3,1,70,0,0
25384,-100,4,2,1,30,0,0
25472,-100,4,3,1,70,0,0
26619,-100,4,3,1,60,0,0
28031,-100,4,3,1,70,0,0
32266,-100,4,3,1,60,0,0
33678,-100,4,3,1,70,0,0
34737,-100,4,3,1,60,0,0
34913,-100,4,3,1,50,0,0
35090,-100,4,3,1,60,0,0
57678,-142.857142857143,4,3,1,50,0,0
68266,-142.857142857143,4,3,1,40,0,0
68354,-142.857142857143,4,3,1,42,0,0
68442,-142.857142857143,4,3,1,44,0,0
68531,-142.857142857143,4,3,1,46,0,0
68619,-142.857142857143,4,3,1,48,0,0
68707,-142.857142857143,4,3,1,50,0,0
68795,-142.857142857143,4,3,1,52,0,0
68884,-142.857142857143,4,3,1,54,0,0
68972,-100,4,3,1,60,0,0
73295,-100,4,2,99,5,0,0
73384,-100,4,3,1,60,0,0
91560,-200,4,2,1,40,0,0
91913,-200,4,2,1,20,0,0
92266,-200,4,2,1,40,0,0
93325,-200,4,2,1,20,0,0
93678,-200,4,2,1,40,0,0
94560,-200,4,2,1,20,0,0
95442,-200,4,2,1,40,0,0
96148,-200,4,2,1,20,0,0
96501,-200,4,2,1,40,0,0
97295,-200,4,2,1,20,0,0
98266,-200,4,2,1,40,0,0
98354,-200,4,2,1,20,0,0
99325,-200,4,2,1,40,0,0
103207,-200,4,2,1,20,0,0
103560,-200,4,2,1,40,0,0
104619,-200,4,2,1,20,0,0
104972,-200,4,2,1,40,0,0
105766,-200,4,2,1,20,0,0
106737,-200,4,2,1,40,0,0
111148,-200,4,2,1,30,0,0
111325,-200,4,2,1,40,0,0
111501,-200,4,2,1,20,0,0
111854,-200,4,2,1,30,0,0
112737,-200,4,2,1,40,0,0
112825,-200,4,2,1,20,0,0
113266,-200,4,2,1,30,0,0
113442,-200,4,2,1,40,0,0
113619,-200,4,2,1,30,0,0
114170,-200,4,2,98,16,0,0
115384,-200,4,2,99,5,0,0
115560,-228.571428571429,4,2,1,40,0,0
115582,-228.571428571429,4,2,98,20,0,0
116972,-228.571428571429,4,2,99,5,0,0
117678,-100,4,2,22,50,0,0
117766,-100,4,2,22,55,0,0
117854,-100,4,2,22,60,0,0
117942,-100,4,2,22,65,0,0
118031,-90.9090909090909,4,3,1,70,0,0
118384,-100,4,3,1,80,0,1
119795,-88.4955752212389,4,3,1,80,0,1
120501,-80.6451612903226,4,3,1,80,0,1
121207,-74.0740740740741,4,3,1,80,0,1
122619,-71.4285714285714,4,3,1,80,0,1
123678,-142.857142857143,4,3,1,80,0,1
124031,-100,4,3,1,80,0,1
124560,-83.3333333333333,4,3,1,80,0,1
125442,-105.263157894737,4,3,1,80,0,1
125972,-129.87012987013,4,3,1,80,0,1
126148,-95.2380952380952,4,3,1,80,0,1
126854,-200,4,3,1,80,0,1
127207,-71.4285714285714,4,3,1,80,0,1
128266,-125,4,3,1,80,0,1
128619,-90.9090909090909,4,3,1,80,0,1
131089,-71.4285714285714,4,3,1,80,0,1
132501,-84.7457627118644,4,3,1,80,0,1
133913,-71.4285714285714,4,3,1,80,0,1
135325,-90.9090909090909,4,3,1,80,0,1
136737,-83.3333333333333,4,3,1,80,0,1
137266,-76.9230769230769,4,3,1,80,0,1
137795,-74.6268656716418,4,3,1,80,0,1
138148,-71.4285714285714,4,3,1,80,0,1
139560,-62.5,4,3,1,80,0,1
139913,-76.9230769230769,4,3,1,80,0,1
140266,-71.4285714285714,4,3,1,80,0,1
140619,-58.8235294117647,4,3,1,80,0,0
140972,-100,4,3,1,80,0,1
142384,-88.4955752212389,4,3,1,80,0,1
143090,-80.6451612903226,4,3,1,80,0,1
143795,-74.0740740740741,4,3,1,80,0,1
145207,-71.4285714285714,4,3,1,80,0,1
146266,-142.857142857143,4,3,1,80,0,1
146619,-100,4,3,1,80,0,1
147148,-83.3333333333333,4,3,1,80,0,1
148031,-105.263157894737,4,3,1,80,0,1
148560,-55.5555555555556,4,3,1,80,0,1
148737,-95.2380952380952,4,3,1,80,0,1
149442,-200,4,3,1,80,0,1
149795,-71.4285714285714,4,3,1,80,0,1
150854,-125,4,3,1,80,0,1
151207,-90.9090909090909,4,3,1,80,0,1
152266,-83.3333333333333,4,3,1,80,0,1
153678,-79.3650793650794,4,3,1,80,0,1
155090,-76.9230769230769,4,3,1,80,0,1
156501,-71.4285714285714,4,3,1,80,0,1
157913,-90.9090909090909,4,3,1,80,0,1
159325,-83.3333333333333,4,3,1,80,0,1
160736,-76.9230769230769,4,3,1,80,0,1
162148,-71.4285714285714,4,3,1,80,0,1
163560,-100,4,3,1,70,0,0
163737,-100,4,2,1,30,0,0
163913,-100,4,3,1,70,0,0
164266,-100,4,2,1,30,0,0
164442,-100,4,3,1,70,0,0
166560,-100,4,2,1,30,0,0
166648,-100,4,3,1,70,0,0
167795,-100,4,3,1,60,0,0
169207,-100,4,3,1,70,0,0
169384,-100,4,2,1,30,0,0
169472,-100,4,3,1,70,0,0
172207,-100,4,2,1,30,0,0
172295,-100,4,3,1,70,0,0
173442,-100,4,3,1,60,0,0
174854,-100,4,3,1,70,0,0
175031,-100,4,2,1,30,0,0
175119,-100,4,3,1,70,0,0
175560,-100,4,2,1,30,0,0
175737,-100,4,3,1,70,0,0
177854,-100,4,2,1,30,0,0
177942,-100,4,3,1,70,0,0
179090,-100,4,3,1,60,0,0
180501,-100,4,3,1,70,0,0
184737,-100,4,3,1,60,0,0
186148,-100,4,3,1,54,0,0
186237,-100,4,3,1,56,0,0
186325,-100,4,3,1,58,0,0
186413,-100,4,3,1,60,0,0
186501,-100,4,3,1,62,0,0
186590,-100,4,3,1,64,0,0
186678,-100,4,3,1,66,0,0
186766,-100,4,3,1,68,0,0
186854,-100,4,3,1,70,0,0
186942,-100,4,3,1,71,0,0
187031,-100,4,3,1,72,0,0
187119,-100,4,3,1,73,0,0
187207,-100,4,3,1,74,0,0
187295,-100,4,3,1,75,0,0
187384,-100,4,3,1,76,0,0
187472,-100,4,3,1,77,0,0
187560,-71.4285714285714,4,3,33,80,0,1
190384,-71.4285714285714,4,3,33,80,0,1
193384,-71.4285714285714,4,3,33,64,0,1
193472,-71.4285714285714,4,3,33,65,0,1
193560,-71.4285714285714,4,3,33,66,0,1
193648,-71.4285714285714,4,3,33,67,0,1
193737,-71.4285714285714,4,3,33,68,0,1
193825,-71.4285714285714,4,3,33,69,0,1
193913,-71.4285714285714,4,3,33,70,0,1
194001,-71.4285714285714,4,3,33,71,0,1
194090,-71.4285714285714,4,3,33,72,0,1
194178,-71.4285714285714,4,3,33,73,0,1
194266,-71.4285714285714,4,3,33,74,0,1
194354,-71.4285714285714,4,3,33,75,0,1
194442,-71.4285714285714,4,3,33,76,0,1
194531,-71.4285714285714,4,3,33,77,0,1
194619,-71.4285714285714,4,3,33,80,0,1
197972,-58.8235294117647,4,3,33,80,0,1
198854,-76.9230769230769,4,3,33,80,0,1
200266,-76.9230769230769,4,3,33,75,0,1
200972,-76.9230769230769,4,3,33,70,0,1
201678,-66.6666666666667,4,3,33,80,0,1
202913,-71.4285714285714,4,3,33,80,0,1
205207,-76.9230769230769,4,3,33,80,0,1
205913,-72.992700729927,4,3,33,80,0,1
206972,-76.9230769230769,4,3,33,70,0,1
207325,-76.9230769230769,4,3,33,80,0,1
209090,-76.9230769230769,4,3,33,70,0,1
209619,-76.9230769230769,4,3,33,66,0,0
209884,-76.9230769230769,4,3,33,64,0,0
210148,-71.4285714285714,4,3,33,80,0,1
211560,-69.4444444444444,4,3,33,80,0,1
212972,-76.9230769230769,4,3,33,80,0,1
215795,-76.9230769230769,4,3,33,70,0,1
216501,-76.9230769230769,4,3,33,72,0,1
217207,-76.9230769230769,4,3,33,74,0,1
217913,-76.9230769230769,4,3,33,76,0,1
218266,-76.9230769230769,4,3,33,78,0,1
218619,-76.9230769230769,4,3,33,80,0,1
221442,-66.6666666666667,4,3,33,80,0,1
222325,-76.9230769230769,4,3,33,80,0,1
226384,-74.0740740740741,4,3,33,80,0,1
227090,-71.4285714285714,4,3,33,80,0,1
227795,-68.9655172413793,4,3,33,80,0,1
228501,-66.6666666666667,4,3,33,80,0,1
229207,-64.5161290322581,4,3,33,80,0,1
229913,-62.5,4,3,33,80,0,1
231325,-62.5,4,3,33,70,0,1
231501,-62.5,4,3,33,60,0,1
231854,-62.5,4,3,33,58,0,1
231942,-62.5,4,3,33,56,0,1
232031,-62.5,4,3,33,54,0,1
232119,-62.5,4,3,33,52,0,1
232207,-62.5,4,3,33,50,0,1
232295,-62.5,4,3,33,48,0,1
232384,-100,4,3,33,46,0,1
232472,-100,4,3,33,44,0,1
232560,-100,4,3,33,42,0,1
232648,-100,4,3,33,40,0,1
232737,-100,4,3,1,34,0,0
233266,-100,4,3,1,70,0,0
233354,-100,4,3,1,60,0,0
237060,-100,4,3,99,5,0,0
237148,-100,4,3,1,60,0,0
244031,-90.9090909090909,4,3,1,64,0,0
247384,-99.9999999999999,4,3,1,60,0,0
255325,-111.111111111111,4,3,1,55,0,0
277913,-111.111111111111,4,3,1,60,0,0
279325,-111.111111111111,4,3,1,62,0,0
279501,-111.111111111111,4,3,1,63,0,0
279678,-111.111111111111,4,3,1,64,0,0
279854,-111.111111111111,4,3,1,65,0,0
280031,-111.111111111111,4,3,1,68,0,0
280207,-111.111111111111,4,3,1,70,0,0
280384,-111.111111111111,4,3,1,72,0,0
280560,-111.111111111111,4,3,1,74,0,0
282854,-125,4,2,22,44,0,0
283207,-90.9090909090909,4,3,1,70,0,0
283560,-333.333333333333,4,2,1,50,0,0
283582,-333.333333333333,4,2,99,20,0,0
283825,-200,4,2,99,5,0,0
283913,-100,4,3,1,80,0,1
284972,-88.4955752212389,4,3,1,80,0,1
285678,-80.6451612903226,4,3,1,80,0,1
286384,-74.0740740740741,4,3,1,80,0,1
287795,-71.4285714285714,4,3,1,80,0,1
288854,-142.857142857143,4,3,1,80,0,1
289207,-100,4,3,1,80,0,1
289737,-83.3333333333333,4,3,1,80,0,1
290619,-105.263157894737,4,3,1,80,0,1
291148,-129.87012987013,4,3,1,80,0,1
291325,-95.2380952380952,4,3,1,80,0,1
292031,-200,4,3,1,80,0,1
292384,-71.4285714285714,4,3,1,80,0,1
293442,-125,4,3,1,80,0,1
293795,-90.9090909090909,4,3,1,80,0,1
296266,-71.4285714285714,4,3,1,80,0,1
297678,-84.7457627118644,4,3,1,80,0,1
299090,-71.4285714285714,4,3,1,80,0,1
300501,-90.9090909090909,4,3,1,80,0,1
301913,-83.3333333333333,4,3,1,80,0,1
302442,-76.9230769230769,4,3,1,80,0,1
302972,-74.6268656716418,4,3,1,80,0,1
303325,-71.4285714285714,4,3,1,80,0,1
304737,-62.5,4,3,1,80,0,1
305090,-76.9230769230769,4,3,1,80,0,1
305442,-71.4285714285714,4,3,1,80,0,1
305795,-58.8235294117647,4,3,1,80,0,0
306148,-100,4,3,1,80,0,1
307560,-88.4955752212389,4,3,1,80,0,1
308266,-80.6451612903226,4,3,1,80,0,1
308972,-74.0740740740741,4,3,1,80,0,1
310384,-71.4285714285714,4,3,1,80,0,1
311442,-142.857142857143,4,3,1,80,0,1
311795,-100,4,3,1,80,0,1
312325,-83.3333333333333,4,3,1,80,0,1
313207,-105.263157894737,4,3,1,80,0,1
313737,-55.5555555555556,4,3,1,80,0,1
313913,-95.2380952380952,4,3,1,80,0,1
314619,-200,4,3,1,80,0,1
314972,-71.4285714285714,4,3,1,80,0,1
316031,-125,4,3,1,80,0,1
316384,-90.9090909090909,4,3,1,80,0,1
317442,-83.3333333333333,4,3,1,80,0,1
318854,-79.3650793650794,4,3,1,80,0,1
320266,-76.9230769230769,4,3,1,80,0,1
321678,-71.4285714285714,4,3,1,80,0,1
323090,-90.9090909090909,4,3,1,80,0,1
324501,-83.3333333333333,4,3,1,80,0,1
325913,-76.9230769230769,4,3,1,80,0,1
327325,-71.4285714285714,4,3,1,80,0,1
328737,-111.111111111111,4,3,1,70,0,0
328825,-111.111111111111,4,3,1,30,0,0
329442,-111.111111111111,4,3,1,20,0,0
330148,-111.111111111111,4,3,1,10,0,0
330854,-111.111111111111,4,3,1,5,0,0
331207,-111.111111111111,4,3,1,44,0,0
331913,-111.111111111111,4,3,1,46,0,0
332619,-111.111111111111,4,3,1,48,0,0
333325,-111.111111111111,4,3,1,50,0,0
334031,-111.111111111111,4,3,1,52,0,0
334384,-111.111111111111,4,3,1,46,0,0
334472,-111.111111111111,4,3,1,48,0,0
334560,-111.111111111111,4,3,1,50,0,0
334648,-111.111111111111,4,3,1,52,0,0
334737,-111.111111111111,4,3,1,60,0,0
339678,-111.111111111111,4,3,1,50,0,0
339766,-111.111111111111,4,3,1,54,0,0
339854,-111.111111111111,4,3,1,58,0,0
339942,-111.111111111111,4,3,1,64,0,0
340031,-90.9090909090908,4,3,1,70,0,0
340207,-90.9090909090908,4,2,1,30,0,0
340384,-90.9090909090908,4,3,1,70,0,0
340737,-90.9090909090908,4,2,1,30,0,0
340913,-90.9090909090908,4,3,1,70,0,0
343031,-90.9090909090908,4,2,1,30,0,0
343119,-90.9090909090908,4,3,1,70,0,0
344266,-90.9090909090908,4,3,1,60,0,0
345678,-90.9090909090908,4,3,1,70,0,0
345854,-90.9090909090908,4,2,1,30,0,0
345942,-90.9090909090908,4,3,1,70,0,0
349913,-90.9090909090908,4,3,1,60,0,0
351325,-111.111111111111,4,3,1,58,0,0
354148,-125,4,3,1,56,0,0
356972,-142.857142857143,4,3,1,54,0,0
359795,-142.857142857143,4,3,1,52,0,0
359884,-142.857142857143,4,2,1,50,0,0
361207,-142.857142857143,4,2,1,40,0,0
362619,-142.857142857143,4,2,99,40,0,0
364031,-142.857142857143,4,2,1,20,0,0
365442,-142.857142857143,4,2,99,5,0,0
366854,-287.35632183908,4,2,1,60,0,0
366876,-268.096514745308,4,2,98,30,0,0
368266,-268.096514745308,4,2,97,28,0,0
369678,-268.096514745308,4,2,98,26,0,0
371090,-268.096514745308,4,2,97,24,0,0
372501,-268.096514745308,4,2,98,22,0,0
373913,-268.096514745308,4,2,97,20,0,0
375325,-268.096514745308,4,2,98,18,0,0
376737,-268.096514745308,4,2,97,16,0,0
378148,-268.096514745308,4,2,98,14,0,0
378501,-268.096514745308,4,2,97,12,0,0
378854,-268.096514745308,4,2,99,5,0,0

[Colours]
Combo1 : 250,110,110
Combo2 : 250,170,90
Combo3 : 190,190,190
Combo4 : 200,140,170
Combo5 : 255,40,40
Combo6 : 230,210,110
Combo7 : 150,150,150
Combo8 : 230,110,110

[HitObjects]
40,73,1208,6,0,P|177:135|173:285,1,320,6|0,0:2|1:2,0:0:0:0:
84,330,2266,2,0,L|78:266,1,64,10|0,0:1|0:2,0:0:0:0:
178,349,2619,2,0,L|172:285,1,64,2|0,0:2|0:2,0:0:0:0:
272,368,2972,2,0,L|266:304,1,64,2|0,0:2|0:2,0:0:0:0:
385,282,3325,54,0,P|243:281|294:148,1,320,6|0,0:2|1:2,0:0:0:0:
345,69,4384,2,0,L|272:61,1,64,10|0,0:1|0:2,0:0:0:0:
416,140,4737,2,0,L|343:148,1,64,2|0,0:2|0:2,0:0:0:0:
484,63,5090,2,0,L|410:43,1,64,2|0,0:2|0:2,0:0:0:0:
388,222,5443,5,6,2:2:0:0:
388,222,5795,1,0,1:0:0:0:
285,44,6501,1,0,1:0:0:0:
107,147,7207,1,0,1:0:0:0:
210,325,7913,1,0,1:0:0:0:
210,325,8266,54,0,P|152:299|69:301,1,128,2|0,0:2|1:2,0:0:0:0:
46,365,8795,1,2,0:2:0:0:
46,365,8972,2,0,L|39:226,1,128,2|0,0:2|1:2,0:0:0:0:
87,140,9501,53,2,0:2:0:0:
87,140,9590,1,2,0:2:0:0:
87,140,9678,2,0,P|119:149|164:142,1,64,2|0,0:2|0:2,0:0:0:0:
231,214,10031,2,0,P|261:198|306:196,1,64,2|0,1:2|0:2,0:0:0:0:
446,213,10384,86,2,B|416:199|388:212|388:212|382:202|382:202|337:224|290:194,1,167.999994873047,2|0,0:2|0:2,0:1:0:0:
287,126,10737,53,8,0:2:0:0:
283,109,10825,1,8,0:2:0:0:
276,93,10913,1,8,0:2:0:0:
267,78,11001,1,8,0:2:0:0:
255,66,11090,6,0,P|213:43|176:37,1,80,6|2,0:2|2:0,0:0:0:0:
66,131,11442,1,10,0:1:0:0:
54,51,11619,2,0,L|66:131,1,80,2|0,0:2|2:2,0:0:0:0:
189,152,11972,1,2,0:2:0:0:
76,219,12148,1,10,0:1:0:0:
187,249,12325,1,2,0:2:0:0:
187,249,12413,1,2,0:2:0:0:
187,249,12501,1,2,0:2:0:0:
66,130,12678,53,2,0:2:0:0:
76,219,12854,1,10,0:1:0:0:
189,152,13031,2,0,L|202:59,1,80,2|0,0:2|0:2,0:0:0:0:
187,249,13384,1,2,0:2:0:0:
175,328,13560,2,0,L|187:249,1,80,8|0,0:1|0:2,0:0:0:0:
333,212,13913,54,0,L|253:200,1,80,2|0,0:2|2:2,0:0:0:0:
253,200,14178,1,0,0:2:0:0:
253,200,14266,1,8,0:1:0:0:
403,150,14442,2,0,P|410:75|346:34,1,160,0|0,0:2|0:2,0:0:0:0:
266,97,14884,1,0,0:2:0:0:
266,97,14972,2,0,L|345:108,1,80,8|0,0:1|0:2,0:0:0:0:
474,248,15325,6,2,P|459:233|431:217,1,40,0|0,3:2|3:2,0:2:0:0:
329,236,15501,2,2,P|347:225|378:217,1,40,0|0,3:2|3:2,0:2:0:0:
475,274,15678,54,2,P|465:256|452:241,1,40,8|0,3:1|3:2,0:2:0:0:
321,260,15854,2,2,P|335:245|351:234,1,40,0|0,3:2|3:2,0:2:0:0:
469,299,16031,54,2,P|463:279|455:261,1,40,0|0,3:2|3:2,0:2:0:0:
320,286,16207,2,2,P|329:268|342:253,1,40,0|0,3:2|3:2,0:2:0:0:
391,376,16384,86,2,L|397:291,1,80,10|0,0:1|0:2,1:2:0:0:
251,350,16737,6,0,P|211:331|160:340,1,80,2|0,0:2|0:2,0:0:0:0:
176,333,17001,1,0,0:2:0:0:
176,333,17090,1,10,0:1:0:0:
30,363,17266,2,0,P|88:313|71:239,1,160,2|0,0:2|0:2,0:0:0:0:
19,161,17795,1,8,0:1:0:0:
120,108,17972,53,2,0:2:0:0:
111,99,18060,1,2,0:2:0:0:
101,91,18148,2,0,P|65:155|89:271,1,160,2|8,0:2|0:1,0:0:0:0:
149,279,18678,1,0,0:2:0:0:
303,231,18854,2,0,P|263:226|225:235,1,80,2|0,0:2|0:2,0:0:0:0:
101,91,19207,2,0,P|140:96|179:87,1,80,8|0,0:1|0:2,0:0:0:0:
383,148,19560,54,0,P|345:135|313:111,1,80,2|0,0:2|2:2,0:0:0:0:
313,111,19825,1,0,0:2:0:0:
313,111,19913,1,10,0:1:0:0:
442,236,20090,2,0,P|486:172|474:95,1,160,2|0,0:2|0:2,0:0:0:0:
313,111,20619,2,0,P|345:135|383:148,1,80,8|0,0:1|0:2,0:0:0:0:
420,269,20972,6,2,P|433:254|441:236,1,40,0|0,0:2|0:2,0:2:0:0:
306,261,21148,2,2,P|298:243|292:223,1,40,0|0,0:2|0:2,0:2:0:0:
411,288,21325,54,2,P|427:277|440:262,1,40,8|0,0:1|0:2,0:2:0:0:
309,281,21501,2,2,P|296:266|286:248,1,40,0|0,0:2|0:2,0:2:0:0:
397,304,21678,54,2,P|416:297|432:286,1,40,0|0,0:2|0:2,0:2:0:0:
319,300,21854,2,2,P|302:288|288:274,1,40,0|0,0:2|0:2,0:2:0:0:
389,382,22031,86,2,L|303:373,1,80,10|0,0:1|0:2,1:2:0:0:
209,243,22384,6,0,P|226:200|224:144,1,80,6|2,0:2|2:0,0:0:0:0:
227,166,22648,1,0,0:0:0:0:
227,166,22737,1,10,0:1:0:0:
171,58,22913,2,0,L|92:43,1,80,2|0,0:2|2:2,0:0:0:0:
113,169,23266,1,2,0:2:0:0:
171,58,23442,1,10,0:1:0:0:
241,180,23619,1,2,0:2:0:0:
241,180,23707,1,2,0:2:0:0:
241,180,23795,1,2,0:2:0:0:
171,58,23972,53,2,0:2:0:0:
241,180,24148,1,10,0:1:0:0:
113,169,24325,2,0,L|14:151,1,80,2|0,0:2|0:2,0:0:0:0:
241,180,24678,2,0,L|320:195,1,80,2|8,0:2|0:1,0:0:0:0:
171,58,25031,1,2,0:2:0:0:
227,255,25207,54,0,P|244:221|239:175,1,80,2|0,0:2|2:2,0:0:0:0:
240,180,25472,1,0,0:2:0:0:
240,180,25560,1,8,0:1:0:0:
171,58,25737,2,0,P|237:88|312:32,1,160,2|0,0:2|0:2,0:0:0:0:
393,27,26178,1,0,0:2:0:0:
393,27,26266,2,0,L|472:38,1,80,10|0,0:1|0:2,0:0:0:0:
479,149,26619,6,2,P|468:122|458:108,1,40,2|0,3:2|3:2,0:2:0:0:
362,135,26795,2,2,P|375:109|387:97,1,40,0|0,3:2|3:2,0:2:0:0:
479,185,26972,54,2,P|462:161|448:151,1,40,8|0,3:1|3:2,0:2:0:0:
353,172,27148,2,2,P|372:151|387:142,1,40,0|0,3:2|3:2,0:2:0:0:
501,215,27325,54,2,P|474:203|458:200,1,40,0|0,3:2|3:2,0:2:0:0:
327,200,27501,2,2,P|354:191|371:191,1,40,0|0,3:2|3:2,0:2:0:0:
401,332,27678,86,2,L|409:234,1,80,10|0,0:1|0:2,1:2:0:0:
209,353,28031,6,0,P|169:326|123:326,1,80,2|0,0:2|0:2,0:0:0:0:
138,323,28295,1,0,0:2:0:0:
138,323,28384,1,10,0:1:0:0:
51,338,28560,1,0,0:0:0:0:
97,182,28737,2,0,P|101:221|87:258,1,80,2|0,0:2|0:2,0:0:0:0:
209,353,29090,2,0,P|224:316|255:291,1,80,10|0,0:1|0:2,0:0:0:0:
185,157,29442,54,0,P|161:125|155:86,1,80,2|0,0:2|0:2,0:0:0:0:
155,86,29707,1,0,0:2:0:0:
155,86,29795,1,10,0:1:0:0:
240,36,29972,1,0,0:0:0:0:
255,186,30148,2,0,P|215:159|169:159,1,80,2|0,0:2|0:2,0:0:0:0:
26,211,30501,2,0,P|65:204|96:181,1,80,10|0,0:1|0:2,0:0:0:0:
259,281,30854,54,0,P|219:274|188:251,1,80,2|0,0:2|0:2,0:0:0:0:
188,251,31119,1,0,0:2:0:0:
188,251,31207,1,10,0:1:0:0:
184,156,31384,1,0,0:0:0:0:
35,134,31560,2,0,P|59:164|96:180,1,80,2|0,0:2|0:2,0:0:0:0:
248,91,31913,2,0,P|253:51|239:15,1,80,10|0,0:1|0:2,0:0:0:0:
275,177,32266,6,2,P|293:168|307:156,1,40,0|0,3:3|3:2,0:2:0:0:
184,156,32442,2,2,P|171:140|164:122,1,40,0|0,3:2|3:2,0:2:0:0:
272,224,32619,54,2,P|283:208|290:189,1,40,8|0,3:1|3:2,0:2:0:0:
160,198,32795,2,2,P|157:177|160:158,1,40,0|0,3:2|3:2,0:2:0:0:
287,266,32972,54,2,P|293:246|295:227,1,40,0|0,3:3|3:2,0:2:0:0:
127,224,33148,2,2,P|130:204|137:186,1,40,0|0,3:2|3:2,0:2:0:0:
232,325,33325,86,2,P|199:304|160:298,1,80,10|0,0:1|0:0,1:2:0:0:
51,344,33678,21,2,1:2:0:0:
51,344,33766,1,0,0:2:0:0:
51,344,33854,1,0,0:2:0:0:
21,259,34031,1,8,0:1:0:0:
21,259,34119,1,0,0:2:0:0:
21,259,34207,1,0,0:2:0:0:
51,344,34384,53,0,1:2:0:0:
21,259,34560,1,0,0:2:0:0:
160,298,34737,21,10,0:1:0:0:
21,259,34913,1,10,0:2:0:0:
195,185,35090,6,0,L|202:85,1,80,6|0,0:2|0:2,0:0:0:0:
200,105,35354,1,0,0:2:0:0:
200,105,35442,1,8,3:1:0:0:
346,168,35619,2,0,B|294:161|294:161|245:190|245:190|194:184,1,160,2|0,0:2|0:0,0:0:0:0:
304,319,36148,2,0,L|311:219,1,80,10|0,0:1|0:0,0:0:0:0:
350,171,36413,1,0,0:0:0:0:
350,171,36501,54,0,L|343:71,1,80,2|0,0:2|0:2,0:0:0:0:
344,91,36766,1,0,0:2:0:0:
344,91,36854,1,8,3:1:0:0:
501,154,37031,2,0,B|449:147|449:147|400:176|400:176|349:170,1,160,2|0,0:2|0:0,0:0:0:0:
459,303,37560,2,0,L|466:203,1,80,10|0,0:1|0:0,0:0:0:0:
348,366,37913,54,0,L|341:266,1,80,2|0,0:2|0:2,0:0:0:0:
342,286,38178,1,0,0:2:0:0:
342,286,38266,1,8,3:1:0:0:
198,276,38442,2,0,B|249:269|249:269|298:298|298:298|349:292,1,160,2|0,0:2|0:0,0:0:0:0:
198,276,38972,1,8,0:1:0:0:
349,292,39148,102,2,B|318:291|298:277|298:277|272:271|241:291|241:291|222:288|197:276,1,160,2|0,0:2|0:2,0:1:0:0:
110,349,39678,1,8,0:1:0:0:
110,349,39854,1,0,0:2:0:0:
197,276,40031,2,0,L|204:176,1,80,2|0,0:2|0:2,0:0:0:0:
59,234,40384,2,0,L|52:134,1,80,10|0,0:1|0:2,0:0:0:0:
202,196,40737,6,0,L|209:96,1,80,2|0,0:2|0:2,0:0:0:0:
207,116,41001,1,0,0:2:0:0:
207,116,41090,1,8,3:1:0:0:
197,276,41266,2,0,L|204:176,1,80,2|0,0:2|0:2,0:0:0:0:
291,127,41619,1,2,0:2:0:0:
396,164,41795,1,10,0:1:0:0:
378,62,41972,53,2,0:2:0:0:
368,74,42060,1,0,0:2:0:0:
364,89,42148,1,0,0:2:0:0:
277,154,42325,1,2,0:2:0:0:
287,142,42413,1,0,0:2:0:0:
291,127,42501,1,8,0:1:0:0:
390,243,42678,2,0,L|397:143,1,80,2|0,0:2|0:2,0:0:0:0:
330,289,43031,1,2,0:2:0:0:
320,277,43119,1,0,0:2:0:0:
317,263,43207,1,8,0:1:0:0:
468,280,43384,54,0,B|416:286|416:286|367:257|367:257|316:263,1,160,2|0,0:2|0:2,0:0:0:0:
317,264,43825,1,0,0:2:0:0:
317,264,43913,1,8,0:1:0:0:
208,328,44090,2,0,B|258:321|258:321|307:350|307:350|359:344,1,160,2|0,0:2|0:2,0:0:0:0:
468,280,44619,2,0,L|475:180,1,80,10|0,0:1|0:2,0:0:0:0:
373,55,44972,101,2,0:2:0:0:
490,121,45148,1,2,0:2:0:0:
490,121,45237,1,2,0:2:0:0:
490,121,45325,1,10,0:1:0:0:
397,221,45501,2,0,L|390:121,1,80,2|0,0:2|3:1,0:0:0:0:
465,31,45854,1,2,0:2:0:0:
391,141,46031,1,10,0:1:0:0:
490,121,46207,1,0,1:2:0:0:
373,55,46384,6,0,L|293:49,1,80,6|0,0:2|0:2,0:0:0:0:
293,49,46648,1,0,0:2:0:0:
293,49,46737,1,8,3:1:0:0:
244,198,46913,2,0,B|251:146|251:146|292:106|292:106|299:55,1,160,2|0,0:2|0:0,0:0:0:0:
407,191,47442,2,0,L|328:186,1,80,10|0,0:1|0:0,0:0:0:0:
248,202,47707,1,0,0:0:0:0:
248,202,47795,54,0,L|169:197,1,80,2|0,0:2|0:2,0:0:0:0:
168,196,48060,1,0,0:2:0:0:
168,196,48148,1,8,3:1:0:0:
120,345,48325,2,0,B|127:293|127:293|168:253|168:253|175:202,1,160,2|0,0:2|0:0,0:0:0:0:
283,338,48854,2,0,L|204:333,1,80,10|0,0:1|0:0,0:0:0:0:
254,208,49207,54,0,L|175:203,1,80,2|0,0:2|0:2,0:0:0:0:
173,203,49472,1,0,0:2:0:0:
173,203,49560,1,8,3:1:0:0:
235,68,49737,2,0,B|228:121|228:121|187:160|187:160|180:209,1,160,2|0,0:2|0:0,0:0:0:0:
235,68,50266,1,8,0:1:0:0:
180,209,50442,102,2,B|188:180|208:167|208:167|202:140|207:113|207:113|224:99|235:68,1,160,2|0,0:2|0:2,0:1:0:0:
322,157,50972,1,8,0:1:0:0:
322,157,51148,1,0,0:2:0:0:
180,209,51325,2,0,L|101:204,1,80,2|0,0:2|0:2,0:0:0:0:
235,68,51678,2,0,L|156:63,1,80,10|0,0:1|0:2,0:0:0:0:
100,204,52031,6,0,L|21:199,1,80,2|0,0:2|0:2,0:0:0:0:
20,198,52295,1,0,0:2:0:0:
20,198,52384,1,8,3:1:0:0:
46,345,52560,2,0,B|53:292|53:292|94:253|94:253|100:203,1,160,2|0,0:2|0:2,0:0:0:0:
0,99,53090,1,10,0:1:0:0:
133,34,53266,53,2,0:2:0:0:
121,43,53354,1,0,0:2:0:0:
106,48,53442,1,0,0:2:0:0:
54,148,53619,1,2,0:2:0:0:
66,138,53707,1,0,0:2:0:0:
81,134,53795,1,8,0:1:0:0:
238,123,53972,2,0,L|158:117,1,80,2|0,0:2|0:2,0:0:0:0:
264,187,54325,1,2,0:2:0:0:
279,183,54413,1,0,0:2:0:0:
291,173,54501,1,8,0:1:0:0:
345,315,54678,54,0,B|339:265|339:265|298:226|298:226|291:173,1,160,2|0,0:2|0:2,0:0:0:0:
291,173,55119,1,0,0:2:0:0:
291,173,55207,1,8,0:1:0:0:
455,186,55384,2,0,L|375:192,2,80,2|0|0,0:2|0:0|0:2,0:0:0:0:
345,315,55913,2,0,L|265:321,1,80,10|0,0:1|0:2,0:0:0:0:
105,356,56266,101,2,0:2:0:0:
158,236,56442,1,2,0:2:0:0:
158,236,56531,1,2,0:2:0:0:
158,236,56619,1,10,0:1:0:0:
265,320,56795,2,0,L|185:314,1,80,2|0,0:2|3:1,0:0:0:0:
185,314,57060,1,0,1:0:0:0:
185,314,57148,1,2,1:2:0:0:
341,365,57325,1,10,3:1:0:0:
341,365,57413,1,0,3:0:0:0:
341,365,57501,1,0,3:2:0:0:
275,194,57678,22,0,P|234:185|196:184,2,55.9999982910157,6|0|0,0:2|0:2|0:2,0:0:0:0:
363,221,58207,1,2,0:2:0:0:
363,221,58384,2,0,P|404:230|442:231,2,55.9999982910157,8|0|0,0:1|0:2|0:2,0:0:0:0:
275,194,58913,1,10,0:2:0:0:
194,360,59266,53,2,0:2:0:0:
194,360,59354,1,0,0:2:0:0:
194,360,59442,1,2,0:2:0:0:
149,278,59619,2,0,P|142:246|143:210,1,55.9999982910157,2|8,0:2|0:1,0:0:0:0:
74,159,59972,1,0,0:2:0:0:
74,159,60148,2,0,P|81:131|82:104,1,55.9999982910157,2|0,0:2|0:2,0:0:0:0:
261,74,60501,54,0,P|234:65|209:52,2,55.9999982910157,6|0|0,0:2|0:2|0:2,0:0:0:0:
355,70,61031,1,2,0:2:0:0:
355,70,61207,2,0,P|381:61|406:48,2,55.9999982910157,8|0|0,0:1|0:2|0:2,0:0:0:0:
261,74,61737,2,0,B|235:71|213:55|213:55|184:43|147:60,1,111.999996582031,10|0,0:2|0:2,0:0:0:0:
154,57,62266,53,8,0:2:0:0:
181,183,62442,2,0,P|187:155|188:127,1,55.9999982910157,2|8,0:2|0:2,0:0:0:0:
188,127,62707,1,8,0:2:0:0:
188,127,62795,1,8,2:2:0:0:
161,64,62972,1,0,1:2:0:0:
161,64,63060,1,0,1:2:0:0:
161,64,63148,1,0,1:2:0:0:
274,151,63325,54,0,P|300:143|328:139,2,55.9999982910157,6|0|0,0:2|0:2|0:2,0:0:0:0:
181,183,63854,1,2,0:2:0:0:
181,183,64031,2,0,P|153:189|125:192,2,55.9999982910157,8|0|0,0:1|0:2|0:2,0:0:0:0:
274,151,64560,1,10,0:2:0:0:
342,322,64913,53,2,0:2:0:0:
342,322,65001,1,0,0:2:0:0:
342,322,65090,1,2,0:2:0:0:
408,256,65266,2,0,P|414:229|415:201,1,55.9999982910157,2|8,0:2|0:1,0:0:0:0:
479,135,65619,1,0,0:2:0:0:
479,135,65795,2,0,P|472:107|471:80,1,55.9999982910157,2|0,0:2|0:2,0:0:0:0:
256,48,66148,54,0,P|283:39|308:26,2,55.9999982910157,6|0|0,0:2|0:2|0:2,0:0:0:0:
162,48,66678,1,0,0:2:0:0:
162,48,66854,2,0,P|134:42|106:41,1,55.9999982910157,10|0,0:1|0:2,0:0:0:0:
184,163,67207,2,0,P|196:138|206:111,1,55.9999982910157,0|0,0:2|0:2,0:0:0:0:
106,41,67560,85,14,0:2:0:0:
206,111,67737,1,0,0:2:0:0:
114,275,67913,1,8,0:2:0:0:
114,275,68266,53,8,1:2:0:0:
125,274,68354,1,8,0:2:0:0:
135,272,68442,1,8,1:2:0:0:
146,270,68531,1,8,0:2:0:0:
156,269,68619,1,8,1:2:0:0:
166,267,68707,1,8,0:2:0:0:
177,265,68795,1,8,1:2:0:0:
187,263,68884,1,8,0:2:0:0:
197,262,68972,70,0,L|202:341,1,80,6|0,0:2|0:2,0:0:0:0:
202,341,69237,1,0,0:2:0:0:
202,341,69325,1,8,3:1:0:0:
349,280,69501,2,0,B|297:285|297:285|248:256|248:256|197:262,1,160,2|0,0:2|0:0,0:0:0:0:
322,126,70031,2,0,L|316:205,1,80,10|0,0:1|0:0,0:0:0:0:
353,283,70295,1,0,0:0:0:0:
353,283,70384,54,0,L|358:362,1,80,2|0,0:2|0:2,0:0:0:0:
358,362,70648,1,0,0:2:0:0:
358,362,70737,1,8,3:1:0:0:
505,301,70913,2,0,B|453:306|453:306|404:277|404:277|353:283,1,160,2|0,0:2|0:0,0:0:0:0:
477,148,71442,2,0,L|471:227,1,80,10|0,0:1|0:0,0:0:0:0:
376,62,71795,54,0,L|382:141,1,80,2|0,0:2|0:2,0:0:0:0:
382,141,72060,1,0,0:2:0:0:
382,141,72148,1,8,3:1:0:0:
224,80,72325,2,0,B|275:86|275:86|324:57|324:57|376:62,1,160,2|0,0:2|0:0,0:0:0:0:
224,80,72854,1,8,0:1:0:0:
376,62,73031,102,2,B|336:91|336:91|248:83,1,120,2|0,0:2|0:2,0:1:0:0:
224,80,73384,2,2,B|239:108|239:108|230:159,1,80,0|8,0:0|0:1,0:1:0:0:
100,165,73737,2,2,B|116:138|116:138|165:120,1,80,0|0,0:0|0:0,0:1:0:0:
236,230,74090,2,2,B|204:228|204:228|164:195,2,80,0|8|0,0:0|0:1|0:0,0:1:0:0:
236,75,74619,6,0,L|230:154,1,80,2|0,0:2|0:2,0:0:0:0:
229,154,74884,1,0,0:2:0:0:
229,154,74972,1,8,3:1:0:0:
100,165,75148,2,0,L|94:244,1,80,2|0,0:2|0:2,0:0:0:0:
157,337,75501,1,2,0:2:0:0:
268,342,75678,1,10,0:1:0:0:
355,271,75854,53,2,0:2:0:0:
345,259,75942,1,0,0:2:0:0:
341,244,76031,1,0,0:2:0:0:
422,321,76207,1,2,0:2:0:0:
432,309,76295,1,0,0:2:0:0:
436,294,76384,1,8,0:1:0:0:
346,164,76560,2,0,L|339:264,1,80,2|0,0:2|0:2,0:0:0:0:
274,144,76913,1,2,0:2:0:0:
278,129,77001,1,0,0:2:0:0:
288,116,77090,1,8,0:1:0:0:
439,99,77266,54,0,B|387:93|387:93|338:122|338:122|287:116,1,160,2|0,0:2|0:2,0:0:0:0:
287,116,77707,1,0,0:2:0:0:
287,116,77795,1,8,0:1:0:0:
164,61,77972,2,0,B|216:67|216:67|265:38|265:38|316:44,1,160,2|0,0:2|0:2,0:0:0:0:
439,99,78501,2,0,L|446:199,1,80,10|0,0:1|0:2,0:0:0:0:
370,302,78854,101,2,0:2:0:0:
496,328,79031,1,2,0:2:0:0:
496,328,79119,1,2,0:2:0:0:
496,328,79207,1,10,0:1:0:0:
444,178,79384,2,0,L|437:278,1,80,2|0,0:2|3:1,0:0:0:0:
301,349,79737,1,2,0:2:0:0:
329,181,79913,1,10,0:1:0:0:
438,257,80090,1,2,1:2:0:0:
249,175,80266,6,0,L|329:181,1,80,6|0,0:2|0:2,0:0:0:0:
328,180,80531,1,0,0:2:0:0:
328,180,80619,1,8,3:1:0:0:
304,317,80795,2,0,B|297:265|297:265|256:225|256:225|249:175,1,160,2|0,0:2|0:0,0:0:0:0:
143,296,81325,2,0,L|222:301,1,80,10|0,0:1|0:0,0:0:0:0:
308,321,81590,1,0,0:0:0:0:
308,321,81678,54,0,L|387:326,1,80,2|0,0:2|0:2,0:0:0:0:
387,326,81942,1,0,0:2:0:0:
387,326,82031,1,8,3:1:0:0:
448,191,82207,2,0,B|442:241|442:241|401:281|401:281|394:333,1,160,2|0,0:2|0:0,0:0:0:0:
289,200,82737,2,0,L|368:205,1,80,10|0,0:1|0:0,0:0:0:0:
228,315,83090,54,0,L|307:320,1,80,2|0,0:2|0:2,0:0:0:0:
307,320,83354,1,0,0:2:0:0:
307,320,83442,1,8,3:1:0:0:
153,327,83619,2,0,B|160:275|160:275|201:235|201:235|207:185,1,160,2|0,0:2|0:0,0:0:0:0:
153,327,84148,1,8,0:1:0:0:
207,185,84325,102,2,B|196:219|179:230|179:230|174:257|180:284|180:284|160:298|152:331,1,160,2|0,0:2|0:2,0:1:0:0:
51,363,84854,1,8,0:1:0:0:
51,363,85031,1,0,0:2:0:0:
153,326,85207,2,0,L|232:331,1,80,2|0,0:2|0:2,0:0:0:0:
128,179,85560,2,0,L|207:184,1,80,10|0,0:1|0:2,0:0:0:0:
2,274,85913,6,0,L|81:279,1,80,2|0,0:2|0:2,0:0:0:0:
81,279,86178,1,0,0:2:0:0:
81,279,86266,1,8,3:1:0:0:
56,132,86442,2,0,B|49:185|49:185|8:224|8:224|2:274,1,160,2|0,0:2|0:2,0:0:0:0:
152,326,86972,1,10,0:1:0:0:
256,219,87148,53,2,0:2:0:0:
244,228,87237,1,0,0:2:0:0:
229,233,87325,1,0,0:2:0:0:
164,157,87501,1,2,0:2:0:0:
176,148,87590,1,0,0:2:0:0:
191,143,87678,1,8,0:1:0:0:
256,219,87854,2,0,L|336:225,1,80,2|0,0:2|0:2,0:0:0:0:
411,304,88207,1,2,0:2:0:0:
406,289,88295,1,0,0:2:0:0:
408,273,88384,1,8,0:1:0:0:
488,211,88560,53,2,0:2:0:0:
349,129,88737,2,0,L|429:135,1,80,2|0,0:2|0:0,0:0:0:0:
428,134,89001,1,0,0:0:0:0:
428,134,89090,1,8,0:1:0:0:
488,211,89266,1,0,0:0:0:0:
328,267,89442,2,0,L|408:273,1,80,2|0,0:2|0:2,0:0:0:0:
349,129,89795,2,0,L|429:135,1,80,10|0,0:1|0:2,0:0:0:0:
248,261,90148,54,0,L|328:267,1,80,2|0,0:2|0:2,0:0:0:0:
327,266,90413,1,0,0:2:0:0:
327,266,90501,1,10,0:1:0:0:
429,135,90678,1,0,0:2:0:0:
415,280,90854,1,2,1:1:0:0:
415,280,90942,1,0,1:0:0:0:
415,280,91031,1,0,1:2:0:0:
356,136,91207,1,10,3:1:0:0:
356,136,91295,1,0,3:0:0:0:
356,136,91384,1,0,3:2:0:0:
248,261,91560,70,0,B|160:271|181:227|91:242,1,160,6|0,0:0|0:0,0:0:0:0:
23,188,92442,1,2,0:0:0:0:
23,188,92619,1,2,3:2:0:0:
23,188,92795,1,2,0:0:0:0:
23,188,92972,54,0,L|15:15,1,160,2|8,0:0|0:0,0:0:0:0:
15,28,94031,1,8,3:2:0:0:
127,130,94384,54,0,P|217:140|228:14,1,240,2|8,3:2|0:0,0:0:0:0:
127,130,95795,2,0,P|207:174|284:153,1,160,2|8,0:0|0:0,0:0:0:0:
271,161,97207,54,0,P|181:151|170:277,2,240,2|0|8,3:2|3:0|0:0,0:0:0:0:
271,161,99678,1,0,3:2:0:0:
376,125,100031,53,0,3:2:0:0:
376,125,100737,2,0,L|384:32,1,80,2|8,0:0|0:0,0:0:0:0:
450,148,101442,54,0,P|406:125|360:129,1,80,2|0,0:0|0:0,0:0:0:0:
479,219,102148,2,0,P|473:179|450:147,1,80,2|0,3:2|0:0,0:0:0:0:
445,288,102854,54,0,P|480:219|451:147,1,160,2|8,3:2|0:0,0:0:0:0:
451,147,103913,1,0,3:0:0:0:
372,308,104266,54,0,P|447:288|481:219,1,160,2|8,0:0|0:0,0:0:0:0:
481,218,105325,1,0,3:0:0:0:
307,183,105678,54,0,P|334:290|446:289,1,240,2|8,3:2|0:0,0:0:0:0:
469,213,107090,54,0,P|452:249|446:288,1,80,2|0,0:0|0:0,0:0:0:0:
447,137,107795,2,0,P|463:173|469:212,1,80,2|0,3:2|0:0,0:0:0:0:
494,80,108501,54,0,P|445:137|376:108,1,160,2|0,3:2|0:0,0:0:0:0:
260,138,109560,2,0,P|308:80|377:109,1,160,2|0,3:2|0:0,0:0:0:0:
400,184,110619,54,0,P|383:147|377:108,1,80,10|0,0:0|3:2,0:0:0:0:
441,78,111148,1,2,0:0:0:0:
441,78,111325,54,0,P|376:73|348:21,1,120,2|2,3:2|0:0,0:0:0:0:
349,31,112207,1,2,0:0:0:0:
349,31,112737,54,0,P|314:77|256:78,1,120,2|2,0:0|0:0,0:0:0:0:
188,114,113442,2,0,L|134:107,1,40,0|2,3:0|0:0,0:0:0:0:
59,59,114148,54,0,B|66:82|63:100|63:100|74:116|74:116|66:135|66:135|74:155|98:167|98:167|72:194|72:231|72:231|75:245|86:257|86:257|71:276|69:312,1,280,2|0,3:2|0:0,0:1:0:0:
70,305,115560,54,0,B|63:282|66:264|66:264|55:248|55:248|63:229|63:229|55:209|31:197|31:197|57:170|57:133|57:133|54:119|43:107|43:107|58:88|60:52,1,280,2|0,3:2|0:0,0:1:0:0:
195,97,117678,86,0,L|191:65,1,20,2|0,0:1|0:0,0:1:0:0:
210,94,117766,2,0,L|205:62,1,20,0|0,0:0|0:0,0:0:0:0:
224,90,117854,2,0,L|219:57,1,20,0|0,0:0|0:0,0:0:0:0:
238,86,117942,2,0,L|233:53,1,20,0|0,0:0|0:0,0:0:0:0:
252,82,118031,54,0,P|283:75|315:77,3,44.0000013427735,2|0|0|0,0:0|0:0|0:0|0:0,0:0:0:0:
372,90,118384,37,6,1:1:0:0:
398,118,118472,1,0,0:0:0:0:
417,152,118560,1,8,0:2:0:0:
426,191,118648,1,0,0:0:0:0:
425,230,118737,1,0,1:2:0:0:
414,267,118825,1,0,0:0:0:0:
394,301,118913,1,8,0:2:0:0:
366,328,119001,1,0,0:0:0:0:
333,348,119090,1,0,1:2:0:0:
294,358,119178,1,0,0:0:0:0:
255,358,119266,1,8,0:2:0:0:
218,348,119354,1,0,0:0:0:0:
183,328,119442,1,0,1:2:0:0:
155,301,119531,1,0,0:0:0:0:
135,267,119619,1,8,0:2:0:0:
124,230,119707,1,0,0:0:0:0:
123,191,119795,53,2,1:2:0:0:
160,218,119884,1,0,0:0:0:0:
203,234,119972,1,8,0:2:0:0:
248,239,120060,1,0,0:0:0:0:
293,232,120148,1,0,1:2:0:0:
335,212,120237,1,0,0:0:0:0:
369,182,120325,1,8,0:2:0:0:
394,145,120413,1,0,0:0:0:0:
407,101,120501,53,2,1:2:0:0:
364,127,120590,1,0,0:0:0:0:
318,144,120678,1,8,0:2:0:0:
269,151,120766,1,0,0:0:0:0:
219,149,120854,1,0,1:2:0:0:
171,136,120942,1,0,0:0:0:0:
126,113,121031,1,8,0:2:0:0:
88,82,121119,1,0,0:0:0:0:
56,43,121207,53,2,1:2:0:0:
108,52,121295,1,0,0:0:0:0:
144,91,121384,1,8,0:2:0:0:
147,144,121472,1,0,0:0:0:0:
117,187,121560,1,0,1:2:0:0:
89,232,121648,1,0,0:0:0:0:
92,285,121737,1,8,0:2:0:0:
125,326,121825,1,0,0:0:0:0:
176,341,121913,1,0,1:2:0:0:
227,323,122001,1,0,0:0:0:0:
260,279,122090,1,8,0:2:0:0:
262,225,122178,1,0,0:0:0:0:
243,175,122266,1,0,1:2:0:0:
264,126,122354,1,0,0:0:0:0:
312,105,122442,1,8,0:2:0:0:
362,122,122531,1,0,0:0:0:0:
382,173,122619,22,2,L|388:230,1,55.9999982910157,2|0,1:2|0:0,0:2:0:0:
500,257,122795,1,8,0:2:0:0:
500,257,122884,1,0,0:0:0:0:
500,257,122972,2,2,L|505:201,1,55.9999982910157,0|0,1:2|0:0,0:2:0:0:
388,229,123148,2,2,L|393:284,1,55.9999982910157,8|0,0:2|0:0,0:2:0:0:
494,312,123325,2,2,L|499:257,1,55.9999982910157,0|0,1:2|0:0,0:2:0:0:
393,284,123501,2,2,L|398:339,1,55.9999982910157,8|0,0:2|0:0,0:2:0:0:
488,367,123678,85,2,1:2:0:0:
491,339,123766,1,0,0:0:0:0:
494,312,123854,1,8,0:2:0:0:
496,283,123942,1,0,0:0:0:0:
499,256,124031,53,2,1:2:0:0:
463,238,124119,1,0,0:0:0:0:
439,206,124207,1,8,0:2:0:0:
432,167,124295,1,0,0:0:0:0:
442,129,124384,1,0,1:2:0:0:
469,100,124472,1,0,0:0:0:0:
506,85,124560,53,10,0:2:0:0:
498,133,124648,1,0,0:0:0:0:
475,175,124737,1,0,1:2:0:0:
440,206,124825,1,0,0:0:0:0:
396,224,124913,1,8,0:2:0:0:
348,227,125001,1,0,0:0:0:0:
302,213,125090,1,0,1:2:0:0:
257,197,125178,1,0,0:0:0:0:
209,197,125266,1,8,0:2:0:0:
164,213,125354,1,0,0:0:0:0:
127,243,125442,53,2,1:2:0:0:
120,205,125531,1,0,0:0:0:0:
114,169,125619,1,8,0:2:0:0:
108,132,125707,1,0,0:0:0:0:
103,94,125795,1,0,1:2:0:0:
97,58,125884,1,0,0:0:0:0:
110,24,125972,53,10,0:2:0:0:
123,31,126060,1,0,0:0:0:0:
157,27,126148,53,2,1:2:0:0:
195,42,126237,1,0,0:0:0:0:
237,45,126325,1,8,0:2:0:0:
278,33,126413,1,0,0:0:0:0:
318,47,126501,53,2,1:2:0:0:
352,22,126590,1,0,0:0:0:0:
392,12,126678,1,8,0:2:0:0:
433,12,126766,1,0,0:0:0:0:
469,30,126854,53,2,1:2:0:0:
466,50,126942,1,0,0:0:0:0:
463,70,127031,1,8,0:2:0:0:
460,90,127119,1,0,0:0:0:0:
457,110,127207,86,0,L|532:118,3,55.9999982910157,2|0|8|0,1:2|0:0|0:2|0:0,0:0:0:0:
385,175,127560,2,0,L|309:166,3,55.9999982910157,2|0|8|0,1:2|0:0|0:2|0:0,0:0:0:0:
428,289,127913,54,0,P|435:257|428:232,1,55.9999982910157,0|0,1:2|0:0,0:0:0:0:
270,274,128090,2,0,P|266:246|276:220,1,55.9999982910157,8|0,0:2|0:0,0:0:0:0:
350,326,128266,21,2,1:2:0:0:
350,311,128354,1,0,0:0:0:0:
350,296,128442,1,8,0:2:0:0:
350,281,128531,1,0,0:0:0:0:
350,266,128619,53,2,1:2:0:0:
316,239,128707,1,0,0:0:0:0:
276,220,128795,1,8,0:2:0:0:
233,212,128884,1,0,0:0:0:0:
189,215,128972,53,2,1:2:0:0:
182,257,129060,1,0,0:0:0:0:
186,301,129148,1,8,0:2:0:0:
200,342,129237,1,0,0:0:0:0:
224,379,129325,53,2,1:2:0:0:
265,364,129413,1,0,0:0:0:0:
301,338,129501,1,8,0:2:0:0:
330,306,129590,1,0,0:0:0:0:
350,266,129678,53,6,1:2:0:0:
309,283,129766,1,0,0:0:0:0:
265,289,129854,1,8,0:2:0:0:
221,279,129942,1,0,0:0:0:0:
183,257,130031,1,0,1:2:0:0:
154,223,130119,1,0,0:0:0:0:
137,181,130207,1,8,0:2:0:0:
134,137,130295,1,0,0:0:0:0:
145,94,130384,1,0,1:2:0:0:
170,57,130472,1,0,0:0:0:0:
205,29,130560,1,8,0:2:0:0:
247,15,130648,1,0,0:0:0:0:
291,13,130737,1,0,1:2:0:0:
334,27,130825,1,0,0:0:0:0:
370,53,130913,1,8,0:2:0:0:
396,89,131001,1,0,0:0:0:0:
408,131,131090,54,0,L|401:212,3,55.9999982910157,2|0|8|0,1:2|0:0|0:2|0:0,0:0:0:0:
318,228,131442,53,2,1:2:0:0:
358,200,131531,1,0,0:0:0:0:
403,186,131619,1,8,0:2:0:0:
452,182,131707,1,0,0:0:0:0:
499,189,131795,53,2,1:2:0:0:
502,238,131884,1,0,0:0:0:0:
493,284,131972,1,8,0:2:0:0:
472,329,132060,1,0,0:0:0:0:
443,364,132148,53,2,1:2:0:0:
399,344,132237,1,0,0:0:0:0:
362,312,132325,1,8,0:2:0:0:
335,271,132413,1,0,0:0:0:0:
318,228,132501,53,2,1:2:0:0:
358,251,132590,1,0,0:0:0:0:
405,256,132678,1,8,0:2:0:0:
450,242,132766,1,0,0:0:0:0:
485,211,132854,1,0,1:2:0:0:
506,169,132942,1,0,0:0:0:0:
508,123,133031,1,8,0:2:0:0:
492,79,133119,1,0,0:0:0:0:
459,45,133207,1,0,1:2:0:0:
416,27,133295,1,0,0:0:0:0:
369,27,133384,1,8,0:2:0:0:
326,46,133472,1,0,0:0:0:0:
295,81,133560,1,0,1:2:0:0:
251,99,133648,1,0,0:0:0:0:
205,99,133737,1,8,0:2:0:0:
161,81,133825,1,0,0:0:0:0:
129,47,133913,86,2,P|100:39|70:41,1,55.9999982910157,0|0,1:2|0:0,1:2:0:0:
168,166,134090,2,2,P|194:173|222:172,1,55.9999982910157,10|0,0:1|0:0,0:2:0:0:
100,76,134266,54,2,P|69:75|41:85,1,55.9999982910157,0|0,1:3|0:0,1:2:0:0:
168,180,134442,2,2,P|195:180|222:172,1,55.9999982910157,8|0,0:2|0:0,0:2:0:0:
79,110,134619,54,2,P|49:117|24:134,1,55.9999982910157,0|0,1:3|0:0,1:2:0:0:
172,194,134795,2,2,P|199:187|222:172,1,55.9999982910157,8|0,0:2|0:0,0:2:0:0:
68,149,134972,54,2,P|41:163|22:186,1,55.9999982910157,0|0,1:3|0:0,1:2:0:0:
179,206,135148,2,2,P|203:192|222:172,1,55.9999982910157,8|0,0:2|0:0,0:2:0:0:
55,266,135325,85,2,1:2:0:0:
79,247,135413,1,0,0:0:0:0:
109,237,135501,1,8,0:2:0:0:
140,237,135590,1,0,0:0:0:0:
170,248,135678,1,0,1:2:0:0:
194,267,135766,1,0,0:0:0:0:
211,294,135854,53,10,0:2:0:0:
167,296,135942,1,0,0:0:0:0:
126,282,136031,1,0,1:2:0:0:
92,254,136119,1,0,0:0:0:0:
72,215,136207,1,8,0:2:0:0:
66,172,136295,1,0,0:0:0:0:
77,129,136384,1,0,1:2:0:0:
103,94,136472,1,0,0:0:0:0:
139,70,136560,1,8,0:2:0:0:
182,62,136648,1,0,0:0:0:0:
224,69,136737,53,2,1:2:0:0:
189,100,136825,1,0,0:0:0:0:
175,145,136913,1,8,0:2:0:0:
189,190,137001,1,0,0:0:0:0:
225,221,137090,1,0,1:2:0:0:
272,227,137178,1,0,0:0:0:0:
315,207,137266,53,10,0:2:0:0:
271,180,137354,1,0,0:0:0:0:
220,178,137442,1,0,1:2:0:0:
175,202,137531,1,0,0:0:0:0:
149,246,137619,1,8,0:2:0:0:
148,298,137707,1,0,0:0:0:0:
175,343,137795,53,2,1:2:0:0:
198,295,137884,1,0,0:0:0:0:
246,272,137972,1,8,0:2:0:0:
297,282,138060,1,0,0:0:0:0:
333,321,138148,53,2,1:2:0:0:
284,348,138237,1,0,0:0:0:0:
229,356,138325,1,8,0:2:0:0:
175,343,138413,1,0,0:0:0:0:
128,313,138501,1,0,1:2:0:0:
95,268,138590,1,0,0:0:0:0:
80,214,138678,1,8,0:2:0:0:
85,159,138766,1,0,0:0:0:0:
110,109,138854,1,0,1:2:0:0:
150,70,138942,1,0,0:0:0:0:
201,48,139031,1,8,0:2:0:0:
257,46,139119,1,0,0:0:0:0:
310,64,139207,1,0,1:2:0:0:
353,99,139295,1,0,0:0:0:0:
381,147,139384,1,8,0:2:0:0:
391,202,139472,1,0,0:0:0:0:
380,256,139560,37,6,1:2:0:0:
370,247,139648,1,0,0:0:0:0:
360,238,139737,1,8,0:2:0:0:
350,229,139825,1,0,0:0:0:0:
340,220,139913,101,6,1:1:0:0:
302,254,140001,1,0,0:0:0:0:
251,257,140090,1,8,0:2:0:0:
210,227,140178,1,0,0:0:0:0:
198,177,140266,101,6,1:2:0:0:
250,189,140354,1,0,0:0:0:0:
296,157,140442,1,8,0:2:0:0:
302,104,140531,1,0,0:0:0:0:
268,61,140619,53,6,1:2:0:0:
224,112,140707,1,0,1:2:0:0:
157,118,140795,1,0,1:2:0:0:
106,78,140884,1,0,1:2:0:0:
99,11,140972,101,6,1:1:0:0:
130,35,141060,1,0,0:0:0:0:
151,69,141148,1,8,0:2:0:0:
157,108,141237,1,0,0:0:0:0:
148,147,141325,1,0,1:2:0:0:
126,180,141413,1,0,0:0:0:0:
93,202,141501,1,8,0:2:0:0:
70,234,141590,1,0,0:0:0:0:
61,273,141678,1,0,1:2:0:0:
69,312,141766,1,0,0:0:0:0:
92,344,141854,1,8,0:2:0:0:
126,365,141942,1,0,0:0:0:0:
165,370,142031,1,0,1:2:0:0:
203,359,142119,1,0,0:0:0:0:
234,334,142207,1,8,0:2:0:0:
252,299,142295,1,0,0:0:0:0:
254,259,142384,53,2,1:2:0:0:
211,272,142472,1,0,0:0:0:0:
167,266,142560,1,8,0:2:0:0:
128,244,142648,1,0,0:0:0:0:
100,208,142737,1,0,1:2:0:0:
89,165,142825,1,0,0:0:0:0:
96,121,142913,1,8,0:2:0:0:
120,82,143001,1,0,0:0:0:0:
157,57,143090,53,2,1:2:0:0:
151,105,143178,1,0,0:0:0:0:
166,152,143266,1,8,0:2:0:0:
199,189,143354,1,0,0:0:0:0:
244,210,143442,1,0,1:2:0:0:
293,211,143531,1,0,0:0:0:0:
338,192,143619,1,8,0:2:0:0:
372,156,143707,1,0,0:0:0:0:
388,109,143795,53,2,1:2:0:0:
336,96,143884,1,0,0:0:0:0:
283,104,143972,1,8,0:2:0:0:
237,131,144060,1,0,0:0:0:0:
205,174,144148,1,0,1:2:0:0:
191,226,144237,1,0,0:0:0:0:
199,279,144325,1,8,0:2:0:0:
178,328,144413,1,0,0:0:0:0:
134,358,144501,1,0,1:2:0:0:
81,360,144590,1,0,0:0:0:0:
35,333,144678,1,8,0:2:0:0:
10,286,144766,1,0,0:0:0:0:
15,233,144854,1,0,1:2:0:0:
52,194,144942,1,0,0:0:0:0:
67,142,145031,1,8,0:2:0:0:
57,90,145119,1,0,0:0:0:0:
25,47,145207,22,2,L|-48:39,1,55.9999982910157,2|0,1:2|0:0,0:2:0:0:
74,149,145384,1,8,0:2:0:0:
74,149,145472,1,0,0:0:0:0:
74,149,145560,2,2,L|129:155,1,55.9999982910157,0|0,1:2|0:0,0:2:0:0:
80,53,145737,2,2,L|25:47,1,55.9999982910157,8|0,0:2|0:0,0:2:0:0:
129,155,145913,2,2,L|184:161,1,55.9999982910157,0|0,1:2|0:0,0:2:0:0:
135,59,146090,2,2,L|80:53,1,55.9999982910157,8|0,0:2|0:0,0:2:0:0:
184,161,146266,85,2,1:2:0:0:
194,134,146354,1,0,0:0:0:0:
204,109,146442,1,8,0:2:0:0:
213,81,146531,1,0,0:0:0:0:
223,56,146619,53,2,1:2:0:0:
254,79,146707,1,0,0:0:0:0:
293,91,146795,1,8,0:2:0:0:
332,89,146884,1,0,0:0:0:0:
369,73,146972,1,0,1:2:0:0:
398,46,147060,1,0,0:0:0:0:
416,10,147148,53,10,0:2:0:0:
369,17,147237,1,0,0:0:0:0:
327,41,147325,1,0,1:2:0:0:
298,78,147413,1,0,0:0:0:0:
284,124,147501,1,8,0:2:0:0:
289,171,147590,1,0,0:0:0:0:
311,214,147678,1,0,1:2:0:0:
347,245,147766,1,0,0:0:0:0:
392,261,147854,1,8,0:2:0:0:
440,258,147942,1,0,0:0:0:0:
483,238,148031,53,2,1:2:0:0:
446,230,148119,1,0,0:0:0:0:
420,203,148207,1,8,0:2:0:0:
412,166,148295,1,0,0:0:0:0:
426,131,148384,1,0,1:2:0:0:
457,110,148472,1,0,0:0:0:0:
494,133,148560,53,10,0:2:0:0:
493,147,148648,1,0,0:0:0:0:
478,173,148737,53,2,1:2:0:0:
440,158,148825,1,0,0:0:0:0:
398,155,148913,1,8,0:2:0:0:
357,167,149001,1,0,0:0:0:0:
320,146,149090,53,2,1:2:0:0:
287,172,149178,1,0,0:0:0:0:
247,184,149266,1,8,0:2:0:0:
205,181,149354,1,0,0:0:0:0:
169,163,149442,53,2,1:2:0:0:
166,143,149531,1,0,0:0:0:0:
163,123,149619,1,8,0:2:0:0:
160,103,149707,1,0,0:0:0:0:
157,83,149795,86,0,L|90:75,3,55.9999982910157,2|0|8|0,1:2|0:0|0:2|0:0,0:0:0:0:
23,175,150148,2,0,L|90:183,3,55.9999982910157,2|0|8|0,1:2|0:0|0:2|0:0,0:0:0:0:
186,254,150501,54,0,P|166:234|139:225,1,55.9999982910157,0|0,1:2|0:0,0:0:0:0:
23,281,150678,2,0,P|49:273|70:255,1,55.9999982910157,8|0,0:2|0:0,0:0:0:0:
126,362,150854,21,2,1:2:0:0:
127,346,150942,1,0,0:0:0:0:
130,331,151031,1,8,0:2:0:0:
132,317,151119,1,0,0:0:0:0:
134,301,151207,53,2,1:2:0:0:
177,297,151295,1,0,0:0:0:0:
217,279,151384,1,8,0:2:0:0:
250,250,151472,1,0,0:0:0:0:
271,211,151560,53,2,1:2:0:0:
245,175,151648,1,0,0:0:0:0:
210,149,151737,1,8,0:2:0:0:
168,135,151825,1,0,0:0:0:0:
125,136,151913,53,2,1:2:0:0:
106,176,152001,1,0,0:0:0:0:
101,220,152090,1,8,0:2:0:0:
110,263,152178,1,0,0:0:0:0:
134,300,152266,53,6,1:2:0:0:
160,261,152354,1,0,0:0:0:0:
203,242,152442,1,8,0:2:0:0:
250,249,152531,1,0,0:0:0:0:
286,280,152619,1,0,1:2:0:0:
299,326,152707,1,0,0:0:0:0:
290,371,152795,53,10,0:2:0:0:
253,340,152884,1,0,0:0:0:0:
239,295,152972,1,0,1:2:0:0:
250,249,153060,1,0,0:0:0:0:
284,216,153148,1,8,0:2:0:0:
331,207,153237,1,0,0:0:0:0:
373,229,153325,53,2,1:2:0:0:
402,191,153413,1,0,0:0:0:0:
416,145,153501,1,8,0:2:0:0:
409,97,153590,1,0,0:0:0:0:
383,55,153678,53,2,1:2:0:0:
361,100,153766,1,0,0:0:0:0:
318,125,153854,1,8,0:2:0:0:
269,121,153942,1,0,0:0:0:0:
230,91,154031,1,0,1:2:0:0:
185,68,154119,1,0,0:0:0:0:
136,62,154207,1,8,0:2:0:0:
87,75,154295,1,0,0:0:0:0:
47,103,154384,1,0,1:2:0:0:
19,146,154472,1,0,0:0:0:0:
8,195,154560,1,8,0:2:0:0:
15,244,154648,1,0,0:0:0:0:
41,287,154737,1,0,1:2:0:0:
79,320,154825,1,0,0:0:0:0:
127,335,154913,1,8,0:2:0:0:
177,333,155001,1,0,0:0:0:0:
225,318,155090,53,2,1:2:0:0:
177,300,155178,1,0,0:0:0:0:
144,261,155266,1,8,0:2:0:0:
129,211,155354,1,0,0:0:0:0:
137,161,155442,1,0,1:2:0:0:
167,118,155531,1,0,0:0:0:0:
212,95,155619,53,10,0:2:0:0:
206,146,155707,1,0,0:0:0:0:
224,194,155795,1,0,1:2:0:0:
261,230,155884,1,0,0:0:0:0:
310,245,155972,1,8,0:2:0:0:
361,236,156060,1,0,0:0:0:0:
403,207,156148,53,2,1:2:0:0:
352,198,156237,1,0,0:0:0:0:
305,217,156325,1,8,0:2:0:0:
273,257,156413,1,0,0:0:0:0:
266,308,156501,22,2,P|237:317|207:317,1,55.9999982910157,0|0,1:2|0:0,1:2:0:0:
127,206,156678,2,2,P|152:197|180:197,1,55.9999982910157,8|0,0:2|0:0,0:2:0:0:
251,336,156854,54,2,P|220:337|191:329,1,55.9999982910157,0|0,1:2|0:0,1:2:0:0:
126,192,157031,2,2,P|152:190|180:197,1,55.9999982910157,8|0,0:2|0:0,0:2:0:0:
229,359,157207,54,2,P|198:351|172:336,1,55.9999982910157,0|0,1:2|0:0,1:2:0:0:
130,178,157384,2,2,P|157:183|181:197,1,55.9999982910157,8|0,0:2|0:0,0:2:0:0:
201,375,157560,54,2,P|173:360|152:338,1,55.9999982910157,0|0,1:2|0:0,1:2:0:0:
136,165,157737,2,2,P|160:177|180:196,1,55.9999982910157,8|0,0:2|0:0,0:2:0:0:
23,208,157913,85,2,1:2:0:0:
23,164,158001,1,0,0:0:0:0:
39,123,158090,1,8,0:2:0:0:
68,91,158178,1,0,0:0:0:0:
107,71,158266,1,0,1:2:0:0:
151,67,158354,1,0,0:0:0:0:
193,80,158442,1,8,0:2:0:0:
228,106,158531,1,0,0:0:0:0:
251,143,158619,1,0,1:2:0:0:
273,180,158707,1,0,0:0:0:0:
308,206,158795,1,8,0:2:0:0:
350,218,158884,1,0,0:0:0:0:
394,214,158972,1,0,1:2:0:0:
433,195,159060,1,0,0:0:0:0:
463,163,159148,1,8,0:2:0:0:
479,122,159237,1,0,0:0:0:0:
478,77,159325,53,2,1:2:0:0:
433,89,159413,1,0,0:0:0:0:
398,122,159501,1,8,0:2:0:0:
384,167,159590,1,0,0:0:0:0:
394,214,159678,1,0,1:2:0:0:
403,260,159766,1,0,0:0:0:0:
389,305,159854,1,8,0:2:0:0:
354,338,159942,1,0,0:0:0:0:
309,350,160031,1,0,1:2:0:0:
266,335,160119,1,0,0:0:0:0:
234,299,160207,1,8,0:2:0:0:
225,252,160295,1,0,0:0:0:0:
192,218,160384,1,0,1:2:0:0:
146,210,160472,1,0,0:0:0:0:
102,229,160560,1,8,0:2:0:0:
78,269,160648,1,0,0:0:0:0:
80,316,160737,53,2,1:2:0:0:
117,280,160825,1,0,0:0:0:0:
138,232,160913,1,8,0:2:0:0:
140,181,161001,1,0,0:0:0:0:
122,132,161090,1,0,1:2:0:0:
136,82,161178,1,0,0:0:0:0:
170,44,161266,1,8,0:2:0:0:
218,24,161354,1,0,0:0:0:0:
269,27,161442,1,0,1:2:0:0:
314,52,161531,1,0,0:0:0:0:
344,94,161619,1,8,0:2:0:0:
352,145,161707,1,0,0:0:0:0:
338,195,161795,1,0,1:2:0:0:
334,245,161884,1,0,0:0:0:0:
364,287,161972,1,8,0:2:0:0:
413,301,162060,1,0,0:0:0:0:
460,280,162148,69,6,1:2:0:0:
415,248,162237,1,0,0:0:0:0:
360,240,162325,1,8,0:2:0:0:
307,257,162413,1,0,0:0:0:0:
268,296,162501,1,0,1:2:0:0:
225,332,162590,1,0,0:0:0:0:
172,350,162678,1,8,0:2:0:0:
116,349,162766,1,0,0:0:0:0:
65,328,162854,1,0,1:2:0:0:
24,290,162942,1,0,0:0:0:0:
0,241,163031,1,8,0:2:0:0:
0,185,163119,1,0,0:0:0:0:
8,131,163207,2,0,P|20:105|19:69,3,55.9999982910157,4|0|8|0,1:1|1:2|1:2|1:2,0:0:0:0:
142,88,163560,6,0,P|176:71|219:69,1,80,6|2,0:2|2:0,0:0:0:0:
344,136,163913,1,10,0:1:0:0:
357,57,164090,2,0,L|344:135,1,80,2|0,0:2|2:2,0:0:0:0:
195,152,164442,1,2,0:2:0:0:
336,220,164619,1,10,0:1:0:0:
350,142,164795,1,2,0:2:0:0:
350,142,164884,1,2,0:2:0:0:
350,142,164972,1,2,0:2:0:0:
208,230,165148,53,2,0:2:0:0:
195,152,165325,1,10,0:1:0:0:
336,220,165501,2,0,L|349:142,1,80,2|0,0:2|0:2,0:0:0:0:
208,230,165854,1,2,0:2:0:0:
221,309,166031,2,0,L|208:231,1,80,8|0,0:1|0:2,0:0:0:0:
318,322,166384,54,0,P|352:308|398:310,1,80,2|0,0:2|2:2,0:0:0:0:
394,309,166648,1,0,0:2:0:0:
394,309,166737,1,8,0:1:0:0:
511,133,166913,2,0,P|435:126|394:190,1,160,0|0,0:2|0:2,0:0:0:0:
457,273,167354,1,0,0:2:0:0:
457,273,167442,2,0,L|468:194,1,80,8|0,0:1|0:2,0:0:0:0:
327,222,167795,6,2,P|316:238|302:253,1,40,0|0,3:2|3:2,0:2:0:0:
331,143,167972,2,2,P|324:124|314:108,1,40,0|0,3:2|3:2,0:2:0:0:
308,231,168148,54,2,P|293:244|276:254,1,40,8|0,3:1|3:2,0:2:0:0:
315,129,168325,2,2,P|304:113|290:100,1,40,0|0,3:2|3:2,0:2:0:0:
288,234,168501,54,2,P|270:242|251:248,1,40,0|0,3:2|3:2,0:2:0:0:
296,120,168678,2,2,P|281:107|264:99,1,40,0|0,3:2|3:2,0:2:0:0:
172,168,168854,86,2,L|257:174,1,80,10|0,0:1|0:2,1:2:0:0:
206,306,169207,6,0,P|166:287|115:296,1,80,2|0,0:2|0:2,0:0:0:0:
131,289,169472,1,0,0:2:0:0:
131,289,169560,1,10,0:1:0:0:
12,378,169737,2,0,L|9:189,1,160,2|0,0:2|0:2,0:0:0:0:
87,74,170266,1,8,0:1:0:0:
137,198,170442,53,2,0:2:0:0:
129,208,170531,1,2,0:2:0:0:
119,216,170619,2,0,P|75:151|87:74,1,160,2|8,0:2|0:1,0:0:0:0:
159,21,171148,1,0,0:2:0:0:
315,48,171325,2,0,P|277:60|238:58,1,80,2|0,0:2|0:2,0:0:0:0:
10,84,171678,2,0,P|47:71|87:74,1,80,8|0,0:1|0:2,0:0:0:0:
279,175,172031,54,0,P|243:157|217:127,1,80,2|0,0:2|2:2,0:0:0:0:
217,127,172295,1,0,0:2:0:0:
217,127,172384,1,10,0:1:0:0:
335,259,172560,2,0,P|379:195|362:119,1,160,2|0,0:2|0:2,0:0:0:0:
217,127,173090,2,0,P|243:157|279:175,1,80,8|0,0:1|0:2,0:0:0:0:
481,240,173442,6,2,P|463:228|444:222,1,40,0|0,0:2|0:2,0:2:0:0:
335,259,173619,2,2,P|348:243|363:231,1,40,0|0,0:2|0:2,0:2:0:0:
487,262,173795,54,2,P|473:246|455:236,1,40,8|0,0:1|0:2,0:2:0:0:
335,283,173972,2,2,P|343:264|355:248,1,40,0|0,0:2|0:2,0:2:0:0:
490,289,174148,54,2,P|480:270|466:256,1,40,0|0,0:2|0:2,0:2:0:0:
342,308,174325,2,2,P|345:287|352:269,1,40,0|0,0:2|0:2,0:2:0:0:
426,378,174501,86,2,L|412:273,1,80,10|0,0:1|0:2,1:2:0:0:
277,173,174854,6,0,P|239:168|204:143,1,80,6|2,0:2|2:0,0:0:0:0:
206,145,175119,1,0,0:0:0:0:
206,145,175207,1,10,0:1:0:0:
351,140,175384,2,0,P|373:107|379:68,1,80,2|0,0:2|2:2,0:0:0:0:
251,14,175737,1,2,0:2:0:0:
277,173,175913,1,10,0:1:0:0:
138,119,176090,1,2,0:2:0:0:
138,119,176178,1,2,0:2:0:0:
138,119,176266,1,2,0:2:0:0:
251,14,176442,53,2,0:2:0:0:
138,119,176619,1,10,0:1:0:0:
30,25,176795,2,0,P|64:21|110:37,1,80,2|0,0:2|0:2,0:0:0:0:
215,129,177148,2,0,P|175:132|138:119,1,80,2|8,0:2|0:1,0:0:0:0:
30,25,177501,1,2,0:2:0:0:
138,119,177678,54,0,P|151:156|148:195,1,80,2|0,0:2|2:2,0:0:0:0:
148,195,177942,1,0,0:2:0:0:
148,195,178031,1,8,0:1:0:0:
69,322,178207,2,0,P|127:277|212:303,1,160,2|0,0:2|0:2,0:0:0:0:
285,347,178648,1,0,0:2:0:0:
285,347,178737,2,0,L|364:336,1,80,10|0,0:1|0:2,0:0:0:0:
420,244,179090,6,2,P|430:226|434:207,1,40,0|0,3:2|3:2,0:2:0:0:
335,237,179266,2,2,P|327:218|327:198,1,40,0|0,3:2|3:2,0:2:0:0:
421,176,179442,54,2,P|437:165|451:150,1,40,8|0,3:1|3:2,0:2:0:0:
345,171,179619,2,2,P|329:157|318:140,1,40,0|0,3:2|3:2,0:2:0:0:
457,118,179795,54,2,P|477:117|495:111,1,40,0|0,3:2|3:2,0:2:0:0:
319,107,179972,2,2,P|298:103|281:93,1,40,0|0,3:2|3:2,0:2:0:0:
392,85,180148,86,2,L|398:5,1,80,10|0,0:1|0:2,1:2:0:0:
282,94,180501,6,0,P|242:67|196:67,1,80,2|0,0:2|0:2,0:0:0:0:
211,64,180766,1,0,0:2:0:0:
211,64,180854,1,10,0:1:0:0:
126,91,181031,1,0,0:0:0:0:
199,230,181207,2,0,P|201:191|187:154,1,80,2|0,0:2|0:2,0:0:0:0:
187,307,181560,2,0,P|185:267|199:230,1,80,10|0,0:1|0:2,0:0:0:0:
89,341,181913,54,0,P|64:310|28:291,1,80,2|0,0:2|0:2,0:0:0:0:
28,291,182178,1,0,0:2:0:0:
28,291,182266,1,10,0:1:0:0:
92,210,182442,1,0,0:0:0:0:
275,216,182619,2,0,P|238:230|199:230,1,80,2|0,0:2|0:2,0:0:0:0:
236,367,182972,2,0,P|217:331|186:306,1,80,10|0,0:1|0:2,0:0:0:0:
309,339,183325,54,0,P|315:300|337:267,1,80,2|0,0:2|0:2,0:0:0:0:
337,266,183590,1,0,0:2:0:0:
337,266,183678,1,10,0:1:0:0:
441,263,183854,1,0,0:0:0:0:
355,112,184031,2,0,P|361:151|383:185,1,80,2|0,0:2|0:2,0:0:0:0:
486,326,184384,2,0,P|469:289|440:262,1,80,10|0,0:1|0:2,0:0:0:0:
297,325,184737,6,2,P|278:316|263:304,1,40,0|0,3:3|3:2,0:2:0:0:
382,184,184913,2,2,P|365:173|346:165,1,40,0|0,3:2|3:2,0:2:0:0:
280,286,185090,54,2,P|260:283|242:274,1,40,8|0,3:1|3:2,0:2:0:0:
338,187,185266,2,2,P|325:171|309:159,1,40,0|0,3:2|3:2,0:2:0:0:
247,251,185442,54,2,P|228:258|208:259,1,40,0|0,3:3|3:2,0:2:0:0:
293,170,185619,2,2,P|290:150|281:132,1,40,0|0,3:2|3:2,0:2:0:0:
142,153,185795,86,2,P|181:158|215:180,1,80,10|0,0:1|0:0,1:2:0:0:
65,192,186148,5,2,0:2:0:0:
60,172,186237,1,2,0:2:0:0:
59,152,186325,1,2,0:2:0:0:
63,133,186413,1,2,0:2:0:0:
71,114,186501,1,2,0:2:0:0:
75,94,186590,1,2,0:2:0:0:
76,74,186678,1,2,0:2:0:0:
72,55,186766,1,2,0:2:0:0:
64,36,186854,101,2,0:2:0:0:
45,82,186942,1,2,0:2:0:0:
50,131,187031,1,2,0:2:0:0:
77,172,187119,1,2,0:2:0:0:
120,197,187207,1,2,0:2:0:0:
170,198,187295,1,2,0:2:0:0:
215,177,187384,1,2,0:2:0:0:
245,138,187472,1,2,0:2:0:0:
253,89,187560,54,2,B|198:20|198:20|177:281,1,335.999989746094,6|8,1:1|0:2,0:1:0:0:
101,361,188266,53,2,1:1:0:0:
117,322,188354,1,0,0:2:0:0:
143,290,188442,1,8,0:2:0:0:
178,267,188531,1,0,0:2:0:0:
218,253,188619,1,0,1:2:0:0:
259,251,188707,1,0,0:2:0:0:
300,262,188795,1,8,0:2:0:0:
336,283,188884,1,0,0:2:0:0:
365,313,188972,6,0,P|391:313|430:289,1,55.9999982910157,2|0,1:1|0:0,0:0:0:0:
473,231,189148,2,2,P|485:208|484:162,1,55.9999982910157,8|0,0:2|0:0,0:1:0:0:
365,313,189325,54,0,P|387:300|409:259,1,55.9999982910157,2|0,1:1|0:0,0:0:0:0:
417,187,189501,2,2,P|416:161|392:121,1,55.9999982910157,8|0,0:2|0:0,0:1:0:0:
365,313,189678,54,0,P|378:290|376:244,1,55.9999982910157,2|0,1:1|0:0,0:0:0:0:
347,177,189854,2,2,P|333:154|293:132,1,55.9999982910157,8|0,0:2|0:0,0:1:0:0:
365,313,190031,54,0,P|365:287|340:248,1,55.9999982910157,2|0,1:1|0:0,0:0:0:0:
281,204,190207,2,2,P|258:191|212:192,1,55.9999982910157,8|0,0:2|0:0,0:1:0:0:
70,260,190384,85,2,1:1:0:0:
117,272,190472,1,0,0:0:0:0:
167,262,190560,1,8,0:2:0:0:
206,232,190648,1,0,0:0:0:0:
229,188,190737,1,0,1:1:0:0:
232,138,190825,1,0,0:0:0:0:
212,93,190913,1,8,0:2:0:0:
175,59,191001,1,0,0:0:0:0:
127,46,191090,53,2,1:1:0:0:
89,83,191178,1,0,0:0:0:0:
71,137,191266,1,8,0:2:0:0:
78,190,191354,1,0,0:0:0:0:
107,236,191442,1,0,1:1:0:0:
153,267,191531,1,0,0:0:0:0:
207,272,191619,1,8,0:2:0:0:
260,256,191707,1,0,0:0:0:0:
299,217,191795,53,2,1:1:0:0:
282,194,191884,1,0,0:0:0:0:
274,167,191972,1,8,0:2:0:0:
277,139,192060,1,0,0:0:0:0:
292,115,192148,54,2,P|300:85|301:56,1,55.9999982910157,0|0,1:1|0:0,0:1:0:0:
184,113,192325,2,2,P|176:83|175:54,1,55.9999982910157,8|0,0:2|0:0,0:1:0:0:
346,163,192501,22,0,L|414:155,1,55.9999982910157,2|0,1:1|0:0,0:0:0:0:
197,183,192678,2,2,B|170:187|147:175|147:175|137:182|137:182|96:151|46:172|43:214,1,167.999994873047,8|0,0:1|0:0,0:1:0:0:
22,287,193031,102,2,P|60:249|48:197,1,111.999996582031,2|0,1:1|0:2,0:2:0:0:
5,27,193384,21,10,0:1:0:0:
6,36,193472,1,0,0:2:0:0:
7,45,193560,1,0,1:2:0:0:
8,54,193648,1,0,0:2:0:0:
9,64,193737,1,8,0:2:0:0:
10,73,193825,1,0,0:2:0:0:
11,82,193913,1,0,1:2:0:0:
12,91,194001,1,0,0:2:0:0:
13,100,194090,1,8,0:2:0:0:
14,109,194178,1,0,0:2:0:0:
15,119,194266,1,0,1:2:0:0:
16,128,194354,1,0,0:2:0:0:
17,137,194442,1,8,0:2:0:0:
18,146,194531,1,0,0:2:0:0:
19,155,194619,85,2,1:1:0:0:
48,125,194707,1,0,0:2:0:0:
87,110,194795,1,8,0:2:0:0:
129,111,194884,1,0,0:2:0:0:
166,128,194972,1,0,1:2:0:0:
204,144,195060,1,0,0:2:0:0:
246,145,195148,1,8,0:2:0:0:
285,131,195237,1,0,0:2:0:0:
314,101,195325,6,0,B|299:59|299:59|337:-5,1,111.999996582031,2|8,1:1|0:2,0:0:0:0:
375,65,195590,2,0,B|390:107|390:107|352:171,1,111.999996582031,2|0,0:1|0:2,0:0:0:0:
330,232,195854,2,0,L|407:229,1,55.9999982910157,10|0,0:1|0:2,0:0:0:0:
475,340,196031,102,2,B|489:300|465:270|465:270|431:264|403:274|403:274|376:233|325:232,1,223.999993164063,2|0,1:1|1:2,0:1:0:0:
302,239,196472,1,0,0:2:0:0:
282,258,196560,1,8,0:2:0:0:
270,283,196648,2,0,L|265:347,2,55.9999982910157,2|0|0,0:1|1:2|0:2,0:0:0:0:
162,363,196913,5,10,0:1:0:0:
162,363,197001,1,0,0:2:0:0:
162,363,197090,2,0,L|157:307,1,55.9999982910157,0|0,1:2|0:2,0:0:0:0:
172,202,197266,2,0,L|177:146,1,55.9999982910157,10|0,0:1|0:2,0:0:0:0:
72,224,197442,102,0,P|127:232|173:201,1,111.999996582031,2|8,1:1|0:2,0:0:0:0:
227,245,197707,2,0,P|256:235|292:240,2,55.9999982910157,2|0|0,0:1|1:2|0:2,0:0:0:0:
157,307,197972,54,2,B|146:349|80:372|80:372|16:245|136:136|282:226|241:335|241:335|267:308|310:300|351:321,1,612.000011672974,10|0,3:1|0:2,0:1:0:0:
419,365,198854,69,6,1:1:0:0:
377,353,198942,1,0,0:0:0:0:
349,320,199031,1,8,0:2:0:0:
339,282,199119,1,0,0:0:0:0:
340,241,199207,1,0,1:0:0:0:
355,203,199295,1,0,0:0:0:0:
382,172,199384,1,8,0:2:0:0:
418,152,199472,1,0,0:0:0:0:
458,145,199560,101,2,1:1:0:0:
462,198,199648,1,0,0:0:0:0:
443,250,199737,1,8,0:2:0:0:
403,286,199825,1,0,0:0:0:0:
351,302,199913,1,0,1:0:0:0:
296,293,200001,1,0,0:0:0:0:
252,260,200090,1,8,0:2:0:0:
228,211,200178,1,0,0:0:0:0:
228,157,200266,5,2,1:1:0:0:
236,147,200354,1,0,0:0:0:0:
244,136,200442,1,8,0:2:0:0:
249,124,200531,1,0,0:0:0:0:
252,112,200619,1,0,1:0:0:0:
253,99,200707,1,0,0:0:0:0:
252,86,200795,1,8,0:2:0:0:
248,74,200884,1,0,0:0:0:0:
243,62,200972,101,2,1:1:0:0:
225,64,201060,1,0,0:0:0:0:
208,64,201148,1,8,0:2:0:0:
191,63,201237,1,0,0:0:0:0:
174,60,201325,1,0,1:0:0:0:
157,56,201413,1,0,0:0:0:0:
140,47,201501,1,8,0:2:0:0:
125,42,201590,1,0,0:0:0:0:
111,32,201678,54,0,B|136:21|136:21|113:154,1,120.000004577637,6|8,1:1|0:2,0:0:0:0:
57,160,201942,2,0,B|34:144|34:144|121:112,1,120.000004577637,2|0,0:1|0:0,0:0:0:0:
193,144,202207,2,0,L|275:141,1,60.0000022888184,10|0,0:1|0:0,0:0:0:0:
376,222,202384,54,2,B|344:168|344:168|276:182|259:248|288:308,1,240.000009155274,2|0,1:1|1:2,0:1:0:0:
499,344,202913,6,0,B|387:331,1,111.999996582031,10|0,0:1|1:2,0:0:0:0:
176,296,203266,2,0,B|287:308,1,111.999996582031,10|0,0:1|1:2,0:0:0:0:
497,262,203619,102,0,B|441:247,1,55.9999982910157,10|0,0:1|0:2,0:0:0:0:
372,218,203795,2,2,B|320:171|315:94|338:24|408:4|408:4|481:45|481:45|448:109,1,391.99998803711,2|0,1:1|0:2,0:1:0:0:
420,148,204501,38,0,L|331:138,1,55.9999982910157,2|0,1:1|0:2,0:0:0:0:
211,147,204678,1,8,0:2:0:0:
244,178,204766,1,0,0:2:0:0:
289,189,204854,1,0,1:2:0:0:
333,175,204942,1,0,0:2:0:0:
364,142,205031,1,8,0:2:0:0:
375,95,205119,1,0,0:2:0:0:
358,53,205207,53,2,1:1:0:0:
317,85,205295,1,0,0:0:0:0:
267,98,205384,1,8,0:2:0:0:
216,91,205472,1,0,0:2:0:0:
172,65,205560,1,0,1:2:0:0:
121,54,205648,1,0,0:2:0:0:
74,74,205737,1,8,0:2:0:0:
46,117,205825,1,0,0:2:0:0:
47,169,205913,53,2,1:1:0:0:
92,138,206001,1,0,0:0:0:0:
146,134,206090,1,8,0:2:0:0:
194,159,206178,1,0,0:2:0:0:
222,206,206266,1,0,1:2:0:0:
221,260,206354,1,0,0:2:0:0:
193,306,206442,1,8,0:2:0:0:
145,331,206531,1,0,0:2:0:0:
91,327,206619,53,2,1:1:0:0:
132,292,206707,1,0,0:0:0:0:
186,285,206795,1,8,0:2:0:0:
236,306,206884,1,0,0:2:0:0:
267,350,206972,54,0,L|276:285,1,51.999997619629,2|0,1:1|0:2,0:0:0:0:
222,206,207148,2,0,L|230:140,1,51.999997619629,10|0,0:1|0:2,0:0:0:0:
411,131,207325,70,2,B|376:118|331:135|331:135|290:132|263:81|263:81|206:69|162:116|162:116|127:139|78:142|43:102|43:102|69:111|100:100,1,467.999978576661,2|0,1:1|0:2,0:1:0:0:
97,79,208207,6,0,L|74:256,1,155.999992858887,10|0,0:1|0:2,0:0:0:0:
65,303,208560,2,0,P|91:295|125:296,1,51.999997619629,10|0,0:1|0:2,0:0:0:0:
191,371,208737,5,6,1:1:0:0:
193,338,208825,1,0,0:2:0:0:
196,306,208913,1,8,0:2:0:0:
198,274,209001,1,0,0:2:0:0:
233,254,209090,53,4,1:2:0:0:
236,222,209178,1,0,0:2:0:0:
238,190,209266,1,8,0:2:0:0:
241,158,209354,1,0,0:2:0:0:
243,126,209442,1,0,1:2:0:0:
246,94,209531,1,0,0:2:0:0:
249,62,209619,22,0,P|315:56|351:77,1,103.999995239258,10|0,0:1|1:2,0:0:0:0:
444,84,209884,2,0,P|393:93|346:72,1,103.999995239258,10|0,0:1|1:2,0:0:0:0:
315,182,210148,37,6,1:1:0:0:
365,160,210237,1,0,0:2:0:0:
420,170,210325,1,8,0:2:0:0:
460,208,210413,1,0,0:2:0:0:
475,260,210501,1,0,1:2:0:0:
460,313,210590,1,0,0:2:0:0:
419,350,210678,1,8,0:2:0:0:
364,359,210766,1,0,0:2:0:0:
313,338,210854,1,2,1:1:0:0:
292,286,210942,1,0,0:2:0:0:
247,255,211031,1,8,0:2:0:0:
191,254,211119,1,0,0:2:0:0:
145,285,211207,1,0,1:2:0:0:
124,335,211295,1,0,0:2:0:0:
74,361,211384,1,8,0:2:0:0:
22,339,211472,1,0,0:2:0:0:
13,282,211560,53,2,1:1:0:0:
47,236,211648,1,0,0:2:0:0:
103,235,211737,1,8,0:2:0:0:
141,275,211825,1,0,0:2:0:0:
199,273,211913,1,0,1:2:0:0:
233,227,212001,1,0,0:2:0:0:
235,170,212090,1,8,0:2:0:0:
203,124,212178,1,0,0:2:0:0:
150,104,212266,1,2,1:1:0:0:
95,119,212354,1,0,0:2:0:0:
59,163,212442,1,8,0:2:0:0:
55,219,212531,1,0,0:2:0:0:
94,260,212619,1,0,1:2:0:0:
150,263,212707,1,0,0:2:0:0:
194,227,212795,1,8,0:2:0:0:
201,172,212884,1,0,0:2:0:0:
167,125,212972,22,2,B|112:75|112:75|94:260,1,259.999988098145,2|0,1:1|0:2,0:1:0:0:
45,334,213501,2,0,B|83:294|83:294|217:321,1,155.999992858887,8|0,0:1|0:2,0:0:0:0:
253,362,213854,2,0,L|265:292,1,51.999997619629,10|0,0:1|0:2,0:0:0:0:
399,291,214031,2,0,B|361:331|361:331|262:311,1,155.999992858887,2|0,1:1|0:2,0:0:0:0:
336,256,214384,102,0,B|351:220|351:220|333:135,1,103.999995239258,2|8,1:1|0:2,0:0:0:0:
339,56,214648,2,0,B|324:92|324:92|342:177,1,103.999995239258,2|0,0:1|0:2,0:0:0:0:
412,180,214913,6,0,B|436:186|436:186|474:188,1,51.999997619629,10|0,0:1|0:2,0:0:0:0:
442,73,215090,2,2,B|339:56|339:56|253:111|253:111|146:92,1,311.999985717774,2|8,1:1|0:2,0:1:0:0:
8,27,215795,21,2,1:1:0:0:
26,35,215884,1,0,0:2:0:0:
42,48,215972,1,8,0:2:0:0:
54,64,216060,1,0,0:2:0:0:
61,83,216148,1,0,1:2:0:0:
64,103,216237,1,0,0:2:0:0:
61,123,216325,1,8,0:2:0:0:
54,142,216413,1,0,0:2:0:0:
41,158,216501,53,2,1:1:0:0:
25,179,216590,1,0,0:2:0:0:
16,203,216678,1,8,0:2:0:0:
12,229,216766,1,0,0:2:0:0:
16,255,216854,1,0,1:2:0:0:
25,279,216942,1,0,0:2:0:0:
41,300,217031,1,8,0:2:0:0:
61,316,217119,1,0,0:2:0:0:
85,326,217207,53,2,1:1:0:0:
105,301,217295,1,0,0:2:0:0:
131,281,217384,1,8,0:2:0:0:
161,267,217472,1,0,0:2:0:0:
192,260,217560,1,0,1:2:0:0:
225,260,217648,1,0,0:2:0:0:
256,267,217737,1,8,0:2:0:0:
286,281,217825,1,0,0:2:0:0:
316,289,217913,53,2,1:1:0:0:
345,278,218001,1,0,0:2:0:0:
361,251,218090,1,8,0:2:0:0:
354,220,218178,1,0,0:2:0:0:
335,194,218266,54,2,L|270:180,1,51.999997619629,2|0,1:1|0:2,0:2:0:0:
398,129,218442,2,2,L|448:139,1,51.999997619629,8|0,0:1|0:2,0:2:0:0:
346,58,218619,53,2,1:1:0:0:
323,44,218707,1,0,0:2:0:0:
298,38,218795,1,8,0:2:0:0:
273,40,218884,1,0,0:2:0:0:
249,50,218972,1,0,1:2:0:0:
229,67,219060,1,0,0:2:0:0:
216,89,219148,1,8,0:2:0:0:
210,114,219237,1,0,0:2:0:0:
212,140,219325,1,0,1:1:0:0:
214,165,219413,1,0,0:2:0:0:
208,191,219501,1,8,0:2:0:0:
195,213,219590,1,0,0:2:0:0:
175,230,219678,1,0,1:2:0:0:
151,239,219766,1,0,0:2:0:0:
125,241,219854,1,8,0:2:0:0:
100,235,219942,1,0,0:2:0:0:
78,221,220031,53,2,1:1:0:0:
107,180,220119,1,0,0:2:0:0:
154,159,220207,1,8,0:2:0:0:
205,165,220295,1,0,0:2:0:0:
246,196,220384,1,0,1:2:0:0:
264,244,220472,1,0,0:2:0:0:
256,295,220560,1,8,0:2:0:0:
222,334,220648,1,0,0:2:0:0:
174,350,220737,70,0,B|131:327|131:327|53:337,1,103.999995239258,2|8,1:1|0:2,0:0:0:0:
9,378,221001,2,0,L|7:247,1,103.999995239258,2|0,0:1|0:2,0:0:0:0:
68,238,221266,2,0,B|53:214|53:214|46:190,1,51.999997619629,10|0,0:1|0:2,0:0:0:0:
0,89,221442,54,2,B|68:135|125:137|222:100|171:64|300:25|376:32|441:83|441:83|401:128|363:135|321:125,1,600.000022888184,6|8,0:1|0:2,0:1:0:0:
271,186,222413,1,0,0:2:0:0:
271,186,222501,54,0,P|263:154|250:125,1,51.999997619629,2|0,1:1|0:2,0:0:0:0:
105,186,222678,2,0,P|113:154|126:125,1,51.999997619629,10|0,0:1|0:2,0:0:0:0:
186,188,222854,5,2,1:1:0:0:
190,217,222942,1,0,0:2:0:0:
210,245,223031,53,8,0:1:0:0:
214,275,223119,1,0,0:2:0:0:
248,281,223207,53,2,1:1:0:0:
259,308,223295,1,0,0:2:0:0:
288,332,223384,53,8,0:1:0:0:
300,362,223472,1,0,0:2:0:0:
334,360,223560,85,2,1:1:0:0:
346,310,223648,1,0,0:2:0:0:
382,275,223737,1,8,0:2:0:0:
434,267,223825,1,0,0:2:0:0:
481,287,223913,53,2,1:1:0:0:
429,295,224001,1,0,0:2:0:0:
382,275,224090,1,8,0:2:0:0:
353,233,224178,1,0,0:2:0:0:
352,182,224266,53,2,1:1:0:0:
354,162,224354,1,0,0:2:0:0:
356,143,224442,1,8,0:2:0:0:
358,123,224531,1,0,0:2:0:0:
360,104,224619,86,0,P|372:82|402:58,1,51.999997619629,2|0,1:1|0:2,0:0:0:0:
287,67,224795,1,8,0:2:0:0:
287,67,224884,1,0,0:2:0:0:
287,67,224972,2,0,P|273:45|267:7,1,51.999997619629,2|0,1:1|0:2,0:0:0:0:
219,146,225148,54,0,P|213:120|199:98,1,51.999997619629,10|0,0:1|0:2,0:0:0:0:
114,86,225325,1,0,1:2:0:0:
114,86,225413,1,0,0:2:0:0:
114,86,225501,2,0,P|119:60|133:38,1,51.999997619629,10|0,0:1|0:2,0:0:0:0:
31,180,225678,85,2,1:1:0:0:
80,167,225766,1,0,0:2:0:0:
127,188,225854,1,8,0:2:0:0:
150,233,225942,1,0,0:2:0:0:
140,283,226031,1,0,1:1:0:0:
148,332,226119,1,0,0:2:0:0:
190,360,226207,1,8,0:2:0:0:
239,348,226295,1,0,0:2:0:0:
263,303,226384,53,2,1:1:0:0:
262,251,226472,1,0,0:2:0:0:
299,213,226560,1,8,0:2:0:0:
352,213,226648,1,0,0:2:0:0:
389,249,226737,1,0,1:1:0:0:
390,301,226825,1,0,0:2:0:0:
431,333,226913,1,8,0:2:0:0:
482,319,227001,1,0,0:2:0:0:
501,271,227090,21,2,1:1:0:0:
474,223,227178,1,0,0:2:0:0:
421,215,227266,1,8,0:2:0:0:
381,251,227354,1,0,0:2:0:0:
386,307,227442,1,0,1:1:0:0:
345,343,227531,1,0,0:2:0:0:
291,339,227619,1,8,0:2:0:0:
257,296,227707,1,0,0:2:0:0:
266,242,227795,53,2,1:1:0:0:
310,208,227884,1,0,0:2:0:0:
315,152,227972,1,8,0:2:0:0:
276,110,228060,1,0,0:2:0:0:
220,111,228148,1,0,1:1:0:0:
171,137,228237,1,0,0:2:0:0:
123,109,228325,1,8,0:2:0:0:
123,54,228413,1,0,0:2:0:0:
171,26,228501,37,2,1:1:0:0:
219,58,228590,1,0,0:2:0:0:
216,115,228678,1,8,0:2:0:0:
165,143,228766,1,0,0:2:0:0:
133,192,228854,1,0,1:1:0:0:
141,250,228942,1,0,0:2:0:0:
184,289,229031,1,8,0:2:0:0:
243,291,229119,1,0,0:2:0:0:
289,254,229207,53,2,1:1:0:0:
302,194,229295,1,0,0:2:0:0:
347,152,229384,1,8,0:2:0:0:
408,145,229472,1,0,0:2:0:0:
462,172,229560,1,2,1:1:0:0:
491,226,229648,1,0,0:2:0:0:
485,287,229737,1,8,0:2:0:0:
445,333,229825,1,0,0:2:0:0:
386,348,229913,54,0,B|364:331|368:298|368:298|383:264|358:238|358:238|361:214|376:191|376:191|357:178|347:152|347:152|306:198|250:195|206:161|183:107|207:38|268:11|321:31|348:66,1,576,4|2,1:1|0:2,0:1:0:0:
290,108,230795,6,0,L|80:93,1,192,10|0,0:1|0:2,0:0:0:0:
15,120,231148,2,0,B|42:142|42:142|62:184,1,64,10|0,0:1|0:2,0:0:0:0:
20,258,231325,102,0,L|163:241,1,128,6|8,1:1|0:2,0:0:0:0:
208,284,231590,1,0,0:2:0:0:
208,284,231678,2,0,L|219:212,1,64,4|0,1:2|0:2,0:0:0:0:
265,146,231854,85,10,0:2:0:0:
284,147,231942,1,10,0:2:0:0:
305,149,232031,1,10,0:2:0:0:
324,151,232119,1,10,0:2:0:0:
346,153,232207,1,10,0:2:0:0:
367,155,232295,1,10,0:2:0:0:
390,174,232384,53,2,1:2:0:0:
391,163,232472,1,2,1:2:0:0:
392,152,232560,1,2,1:2:0:0:
393,141,232648,1,2,1:2:0:0:
425,117,232737,21,2,0:2:0:0:
425,117,233266,70,0,B|430:169|430:169|401:218|401:218|407:269,1,160,6|0,0:2|0:0,0:0:0:0:
278,149,233795,2,0,L|357:155,1,80,10|0,0:1|0:0,0:0:0:0:
330,225,234060,1,0,0:0:0:0:
330,225,234148,54,0,L|251:220,1,80,2|0,0:2|0:2,0:0:0:0:
250,219,234413,1,0,0:2:0:0:
250,219,234501,1,8,3:1:0:0:
312,377,234678,2,0,B|306:326|306:326|335:277|335:277|330:225,1,160,2|0,0:2|0:0,0:0:0:0:
459,348,235207,2,0,L|380:342,1,80,10|0,0:1|0:0,0:0:0:0:
232,370,235560,54,0,L|311:376,1,80,2|0,0:2|0:2,0:0:0:0:
311,376,235825,1,0,0:2:0:0:
311,376,235913,1,8,3:1:0:0:
250,218,236090,2,0,B|255:270|255:270|226:319|226:319|232:370,1,160,2|0,0:2|0:0,0:0:0:0:
250,218,236619,1,8,0:1:0:0:
232,369,236795,102,2,B|261:329|261:329|253:241,1,120,2|0,0:2|0:2,0:1:0:0:
250,218,237148,2,2,B|222:233|222:233|171:224,1,80,0|8,0:0|0:1,0:1:0:0:
167,99,237501,2,2,B|193:115|193:115|211:164,1,80,0|0,0:0|0:0,0:1:0:0:
106,231,237854,2,2,B|107:199|107:199|140:159,2,80,0|8|0,0:0|0:1|0:0,0:1:0:0:
254,230,238384,6,0,L|175:224,1,80,2|0,0:2|0:2,0:0:0:0:
174,223,238648,1,0,0:2:0:0:
174,223,238737,1,8,3:1:0:0:
26,224,238913,2,0,L|105:230,1,80,2|0,0:2|0:2,0:0:0:0:
180,313,239266,1,2,0:2:0:0:
254,230,239442,1,10,0:1:0:0:
304,329,239619,53,2,0:2:0:0:
292,319,239707,1,0,0:2:0:0:
277,315,239795,1,0,0:2:0:0:
254,230,239972,1,2,0:2:0:0:
266,220,240060,1,0,0:2:0:0:
281,216,240148,1,8,0:1:0:0:
421,268,240325,2,0,L|321:261,1,80,2|0,0:2|0:2,0:0:0:0:
413,367,240678,1,2,0:2:0:0:
417,352,240766,1,0,0:2:0:0:
427,339,240854,1,8,0:1:0:0:
410,188,241031,54,0,B|404:239|404:239|433:288|433:288|427:340,1,160,2|0,0:2|0:2,0:0:0:0:
427,339,241472,1,0,0:2:0:0:
427,339,241560,1,8,0:1:0:0:
309,356,241737,2,0,B|303:304|303:304|332:255|332:255|326:204,1,160,2|0,0:2|0:2,0:0:0:0:
174,230,242266,2,0,L|253:235,1,80,10|0,0:1|0:2,0:0:0:0:
253,235,242531,1,2,0:2:0:0:
253,235,242619,101,2,0:2:0:0:
312,137,242795,1,2,0:2:0:0:
312,137,242884,1,2,0:2:0:0:
312,137,242972,1,10,0:1:0:0:
405,209,243148,2,0,L|326:204,1,80,2|0,0:2|3:1,0:0:0:0:
174,230,243501,1,2,0:2:0:0:
94,225,243678,2,0,L|173:230,1,80,10|0,0:1|0:2,0:0:0:0:
202,375,244031,6,0,L|208:285,1,88.000002685547,6|0,1:2|0:2,0:0:0:0:
208,287,244295,1,0,0:2:0:0:
208,287,244384,1,8,3:1:0:0:
361,322,244560,2,0,B|303:326|303:326|256:369|256:369|201:374,1,176.000005371094,6|0,1:2|0:0,0:0:0:0:
361,322,245090,2,0,L|367:232,1,88.000002685547,10|0,0:1|0:0,0:0:0:0:
344,163,245354,1,0,0:0:0:0:
344,163,245442,54,0,L|350:73,1,88.000002685547,6|0,1:2|0:2,0:0:0:0:
349,75,245707,1,0,0:2:0:0:
349,75,245795,1,8,3:1:0:0:
503,215,245972,2,0,B|449:210|449:210|402:167|402:167|344:163,1,176.000005371094,6|0,1:2|0:0,0:0:0:0:
361,322,246501,2,0,L|367:232,1,88.000002685547,10|0,0:1|0:0,0:0:0:0:
350,75,246854,54,0,L|344:162,1,88.000002685547,6|0,0:2|0:2,0:0:0:0:
344,162,247119,1,0,0:2:0:0:
344,162,247207,1,8,3:1:0:0:
206,122,247384,2,0,B|258:118|258:118|301:79|301:79|350:75,1,160,2|0,0:2|0:0,0:0:0:0:
206,122,247913,1,8,0:1:0:0:
350,74,248090,102,0,B|319:84|310:100|310:100|288:110|258:100|258:100|237:123|201:122,1,160,2|0,0:2|0:2,0:1:0:0:
85,70,248619,1,8,0:1:0:0:
85,70,248795,1,0,0:2:0:0:
201,202,248972,2,0,L|207:112,1,80,2|0,0:2|0:2,0:0:0:0:
80,150,249325,2,0,L|86:60,1,80,10|0,0:1|0:2,0:0:0:0:
75,230,249678,6,0,L|80:150,1,80,2|0,0:2|0:2,0:0:0:0:
80,150,249942,1,0,0:2:0:0:
80,150,250031,1,8,3:1:0:0:
220,277,250207,2,0,B|167:273|167:273|124:234|124:234|75:229,1,160,2|0,0:2|0:2,0:0:0:0:
12,341,250737,1,10,0:1:0:0:
161,354,250913,53,2,0:2:0:0:
149,345,251001,1,0,0:2:0:0:
134,340,251090,1,0,0:2:0:0:
12,341,251266,1,2,0:2:0:0:
24,332,251354,1,0,0:2:0:0:
39,327,251442,1,8,0:1:0:0:
75,229,251619,2,0,L|80:149,1,80,2|0,0:2|0:2,0:0:0:0:
150,248,251972,1,2,0:2:0:0:
164,242,252060,1,0,0:2:0:0:
180,242,252148,1,8,0:1:0:0:
268,291,252325,53,2,0:2:0:0:
273,211,252501,2,0,L|268:291,1,80,2|0,0:2|0:0,0:0:0:0:
268,290,252766,1,0,0:0:0:0:
268,290,252854,1,8,0:1:0:0:
180,242,253031,1,0,0:0:0:0:
175,322,253207,2,0,L|180:242,1,80,2|0,0:2|0:2,0:0:0:0:
273,211,253560,2,0,L|278:131,1,80,10|0,0:1|0:2,0:0:0:0:
283,51,253913,102,0,L|278:131,1,80,2|0,0:2|0:2,0:0:0:0:
278,130,254178,1,0,0:2:0:0:
278,130,254266,1,10,0:1:0:0:
180,242,254442,1,0,0:2:0:0:
198,84,254619,1,2,1:1:0:0:
198,84,254707,1,0,1:0:0:0:
198,84,254795,1,0,1:2:0:0:
279,217,254972,1,10,3:1:0:0:
279,217,255060,1,0,3:0:0:0:
279,217,255148,1,0,3:2:0:0:
370,123,255325,21,6,0:2:0:0:
370,123,255501,1,8,0:2:0:0:
447,140,255678,1,0,0:0:0:0:
447,140,255854,1,0,0:0:0:0:
445,277,256031,2,0,B|464:246|456:212|456:212|425:167|456:126,1,143.999995605469,10|0,0:1|1:2,0:0:0:0:
481,58,256560,54,0,B|402:66|416:26|340:40,1,143.999995605469,2|8,0:2|0:2,0:0:0:0:
256,190,257090,1,0,0:2:0:0:
256,190,257266,1,0,0:2:0:0:
230,106,257442,2,0,B|308:97|295:138|370:123,1,143.999995605469,10|0,0:1|1:2,0:0:0:0:
370,123,257972,1,0,0:2:0:0:
256,190,258148,53,2,0:2:0:0:
256,190,258325,1,8,0:2:0:0:
230,106,258501,1,0,0:2:0:0:
230,106,258678,1,0,0:2:0:0:
158,108,258854,2,0,L|229:106,1,71.9999978027344,10|0,0:1|0:2,0:0:0:0:
256,190,259207,1,0,0:2:0:0:
348,226,259384,54,0,B|369:205|369:205|256:190,1,143.999995605469,2|8,0:2|0:2,0:0:0:0:
154,198,259913,1,0,0:2:0:0:
154,198,260090,1,0,0:2:0:0:
149,270,260266,2,0,L|155:187,1,71.9999978027344,10|0,0:1|0:2,0:0:0:0:
251,261,260619,2,0,L|257:178,1,71.9999978027344,0|0,0:2|0:2,0:0:0:0:
158,107,260972,53,4,0:2:0:0:
158,107,261148,1,8,0:2:0:0:
154,198,261325,1,0,0:2:0:0:
154,198,261501,1,0,0:2:0:0:
83,195,261678,2,0,B|116:190|116:190|154:198,1,71.9999978027344,10|0,0:2|0:2,0:0:0:0:
111,285,262031,1,0,0:2:0:0:
16,313,262207,54,0,B|-3:290|-3:290|110:285,1,143.999995605469,2|8,0:2|2:2,0:0:0:0:
188,350,262737,1,0,0:2:0:0:
188,350,262913,1,0,0:2:0:0:
254,272,263090,1,10,0:1:0:0:
254,272,263266,1,0,0:2:0:0:
176,206,263442,2,0,L|171:126,1,71.9999978027344,2|8,0:2|0:2,0:0:0:0:
237,99,263707,1,8,0:2:0:0:
237,99,263795,54,0,L|232:19,1,71.9999978027344,6|8,0:2|2:2,0:0:0:0:
314,96,264148,2,0,L|309:24,1,71.9999978027344,0|0,0:2|0:2,0:0:0:0:
237,99,264501,1,10,0:1:0:0:
237,99,264678,1,0,0:2:0:0:
314,96,264854,1,0,0:2:0:0:
454,114,265031,54,0,B|375:122|389:82|313:96,1,143.999995605469,6|8,0:2|0:2,0:0:0:0:
330,232,265560,2,0,P|343:198|345:163,1,71.9999978027344,0|0,0:2|0:2,0:0:0:0:
468,183,265913,2,0,P|454:149|453:113,1,71.9999978027344,10|0,0:1|1:2,0:0:0:0:
346,19,266266,1,0,1:2:0:0:
346,19,266442,1,0,1:2:0:0:
275,173,266619,53,4,0:2:0:0:
275,173,266795,1,8,0:2:0:0:
312,94,266972,1,0,0:2:0:0:
312,94,267148,1,0,0:2:0:0:
171,98,267325,2,0,B|248:114|238:72|313:94,1,143.999995605469,10|0,0:2|0:2,0:0:0:0:
312,94,267854,1,0,0:2:0:0:
280,244,268031,54,0,L|274:172,1,71.9999978027344,2|8,0:2|0:2,0:0:0:0:
286,316,268384,2,0,L|280:244,1,71.9999978027344,0|0,0:2|0:2,0:0:0:0:
208,250,268737,2,0,L|279:244,1,71.9999978027344,10|0,0:2|0:2,0:0:0:0:
350,237,269090,1,0,0:2:0:0:
285,315,269266,1,0,1:2:0:0:
274,172,269442,53,2,0:2:0:0:
274,172,269619,1,8,0:2:0:0:
208,250,269795,1,0,0:2:0:0:
208,250,269972,1,0,0:2:0:0:
136,256,270148,2,0,L|207:250,1,71.9999978027344,10|2,0:1|0:2,0:0:0:0:
285,315,270501,1,0,0:2:0:0:
420,318,270678,54,0,B|380:341|380:341|278:313,1,143.999995605469,2|8,0:2|0:2,0:0:0:0:
208,250,271207,1,0,0:2:0:0:
208,250,271384,1,0,0:2:0:0:
203,178,271560,2,0,L|208:249,1,71.9999978027344,10|0,0:1|0:2,0:0:0:0:
198,106,271913,2,0,L|203:177,1,71.9999978027344,0|0,0:2|0:2,0:0:0:0:
99,281,272266,53,4,0:2:0:0:
99,281,272442,1,8,0:2:0:0:
62,187,272619,1,0,0:2:0:0:
62,187,272795,1,0,0:2:0:0:
57,115,272972,2,0,L|62:186,1,71.9999978027344,10|0,0:1|0:2,0:0:0:0:
99,281,273325,1,0,0:2:0:0:
240,291,273501,54,0,B|162:307|169:265|96:281,1,143.999995605469,2|8,0:2|0:2,0:0:0:0:
18,342,274031,1,0,0:2:0:0:
18,342,274207,1,0,0:2:0:0:
13,270,274384,2,0,L|18:341,1,71.9999978027344,10|0,0:1|0:2,0:0:0:0:
93,352,274737,2,0,L|98:280,1,71.9999978027344,0|0,0:2|0:2,0:0:0:0:
175,141,275090,53,4,0:2:0:0:
175,141,275266,1,8,0:2:0:0:
56,114,275442,1,0,0:2:0:0:
56,114,275619,1,0,0:2:0:0:
51,42,275795,2,0,L|56:113,1,71.9999978027344,10|0,0:1|0:2,0:0:0:0:
31,207,276148,1,0,0:2:0:0:
175,141,276325,54,0,L|326:134,1,143.999995605469,4|8,0:2|0:2,0:0:0:0:
420,254,276854,2,0,P|401:224|403:189,1,71.9999978027344,0|0,0:2|0:2,0:0:0:0:
403,188,277119,1,8,0:2:0:0:
403,188,277207,101,8,0:1:0:0:
489,122,277384,1,0,0:2:0:0:
444,24,277560,1,0,1:2:0:0:
336,36,277737,1,8,0:2:0:0:
409,195,277913,53,6,0:2:0:0:
409,195,278090,1,0,1:2:0:0:
315,142,278266,1,2,0:2:0:0:
315,142,278442,1,0,0:2:0:0:
235,215,278619,1,2,0:2:0:0:
235,215,278795,1,0,0:2:0:0:
140,161,278972,1,2,0:2:0:0:
140,161,279148,1,0,0:2:0:0:
59,234,279325,101,2,0:2:0:0:
140,161,279501,1,2,1:2:0:0:
235,215,279678,1,2,0:2:0:0:
315,142,279854,1,2,1:2:0:0:
140,161,280031,53,10,0:2:0:0:
270,42,280207,1,10,1:2:0:0:
235,215,280384,1,10,0:1:0:0:
161,54,280560,1,10,1:2:0:0:
61,347,282854,118,0,L|58:325,1,16
73,344,282942,2,0,L|69:323,1,16,0|0,0:0|0:0,0:0:0:0:
84,341,283031,2,0,L|80:318,1,16,0|0,0:0|0:0,0:0:0:0:
95,338,283119,2,0,L|91:314,1,16,0|0,0:0|0:0,0:0:0:0:
106,335,283207,54,0,P|130:329|156:330,3,44.0000013427735,2|0|0|0,0:0|0:0|0:0|0:0,0:0:0:0:
216,356,283560,22,2,L|221:311,1,35.9999989013672,6|0,1:1|0:0,0:1:0:0:
251,295,283913,5,0,1:2:0:0:
287,280,284001,1,0,0:0:0:0:
318,254,284090,1,8,0:2:0:0:
340,221,284178,1,0,0:0:0:0:
350,182,284266,1,0,1:2:0:0:
349,142,284354,1,0,0:0:0:0:
335,105,284442,1,8,0:2:0:0:
311,73,284531,1,0,0:0:0:0:
278,51,284619,1,0,1:2:0:0:
240,39,284707,1,0,0:0:0:0:
200,39,284795,1,8,0:2:0:0:
162,52,284884,1,0,0:0:0:0:
130,75,284972,53,2,1:2:0:0:
174,84,285060,1,0,0:0:0:0:
213,106,285148,1,8,0:2:0:0:
243,139,285237,1,0,0:0:0:0:
263,180,285325,1,0,1:2:0:0:
269,224,285413,1,0,0:0:0:0:
261,268,285501,1,8,0:2:0:0:
241,309,285590,1,0,0:0:0:0:
209,340,285678,53,2,1:2:0:0:
196,293,285766,1,0,0:0:0:0:
205,244,285854,1,8,0:2:0:0:
232,203,285942,1,0,0:0:0:0:
273,177,286031,1,0,1:2:0:0:
322,170,286119,1,0,0:0:0:0:
370,183,286207,1,8,0:2:0:0:
407,215,286295,1,0,0:0:0:0:
428,258,286384,53,2,1:2:0:0:
448,208,286472,1,0,0:0:0:0:
445,155,286560,1,8,0:2:0:0:
422,106,286648,1,0,0:0:0:0:
382,71,286737,1,0,1:2:0:0:
331,54,286825,1,0,0:0:0:0:
278,59,286913,1,8,0:2:0:0:
231,85,287001,1,0,0:0:0:0:
197,127,287090,1,0,1:2:0:0:
183,178,287178,1,0,0:0:0:0:
190,231,287266,1,8,0:2:0:0:
179,283,287354,1,0,0:0:0:0:
142,321,287442,1,0,1:2:0:0:
90,333,287531,1,0,0:0:0:0:
40,315,287619,1,8,0:2:0:0:
8,272,287707,1,0,0:0:0:0:
4,219,287795,22,2,L|5:157,1,55.9999982910157,2|0,1:2|0:0,0:2:0:0:
98,234,287972,1,8,0:2:0:0:
98,234,288060,1,0,0:0:0:0:
98,234,288148,2,2,L|105:171,1,55.9999982910157,0|0,1:2|0:0,0:2:0:0:
4,163,288325,2,2,L|5:101,1,55.9999982910157,8|0,0:2|0:0,0:2:0:0:
104,178,288501,2,2,L|111:115,1,55.9999982910157,0|0,1:2|0:0,0:2:0:0:
4,107,288678,2,2,L|5:45,1,55.9999982910157,8|0,0:2|0:0,0:2:0:0:
124,47,288854,85,2,1:2:0:0:
151,42,288942,1,0,0:0:0:0:
178,38,289031,1,8,0:2:0:0:
207,32,289119,1,0,0:0:0:0:
234,28,289207,53,2,1:2:0:0:
205,55,289295,1,0,0:0:0:0:
189,91,289384,1,8,0:2:0:0:
189,131,289472,1,0,0:0:0:0:
205,167,289560,1,0,1:2:0:0:
234,194,289648,1,0,0:0:0:0:
272,207,289737,53,10,0:2:0:0:
302,170,289825,1,0,0:0:0:0:
346,151,289913,1,0,1:2:0:0:
393,153,290001,1,0,0:0:0:0:
435,176,290090,1,8,0:2:0:0:
462,215,290178,1,0,0:0:0:0:
470,262,290266,1,0,1:2:0:0:
455,307,290354,1,0,0:0:0:0:
422,342,290442,1,8,0:2:0:0:
377,358,290531,1,0,0:0:0:0:
330,352,290619,53,2,1:2:0:0:
329,314,290707,1,0,0:0:0:0:
328,276,290795,1,8,0:2:0:0:
326,238,290884,1,0,0:0:0:0:
325,200,290972,1,0,1:2:0:0:
324,162,291060,1,0,0:0:0:0:
323,124,291148,53,10,0:2:0:0:
310,114,291237,1,0,0:0:0:0:
287,87,291325,53,2,1:2:0:0:
249,102,291413,1,0,0:0:0:0:
207,105,291501,1,8,0:2:0:0:
166,93,291590,1,0,0:0:0:0:
130,115,291678,53,2,1:2:0:0:
100,85,291766,1,0,0:0:0:0:
59,77,291854,1,8,0:2:0:0:
17,84,291942,1,0,0:0:0:0:
2,111,292031,53,2,1:2:0:0:
5,131,292119,1,0,0:0:0:0:
8,151,292207,1,8,0:2:0:0:
11,171,292295,1,0,0:0:0:0:
14,191,292384,86,0,L|5:258,3,55.9999982910157,0|0|8|0,1:2|0:0|0:2|0:0,0:0:0:0:
154,199,292737,2,0,L|161:143,3,55.9999982910157,2|0|8|0,1:2|0:0|0:2|0:0,0:0:0:0:
19,299,293090,54,0,P|5:269|7:243,1,55.9999982910157,0|0,1:2|0:0,0:0:0:0:
170,250,293266,2,0,P|168:221|152:198,1,55.9999982910157,8|0,0:2|0:0,0:0:0:0:
102,318,293442,21,2,1:2:0:0:
99,303,293531,1,0,0:0:0:0:
96,288,293619,1,8,0:2:0:0:
93,274,293707,1,0,0:0:0:0:
90,259,293795,53,2,1:2:0:0:
118,225,293884,1,0,0:0:0:0:
153,199,293972,1,8,0:2:0:0:
194,182,294060,1,0,0:0:0:0:
238,176,294148,53,2,1:2:0:0:
252,215,294237,1,0,0:0:0:0:
258,260,294325,1,8,0:2:0:0:
253,303,294413,1,0,0:0:0:0:
237,343,294501,53,2,1:2:0:0:
194,337,294590,1,0,0:0:0:0:
153,320,294678,1,8,0:2:0:0:
118,294,294766,1,0,0:0:0:0:
87,262,294854,53,6,1:2:0:0:
130,270,294942,1,0,0:0:0:0:
173,263,295031,1,8,0:2:0:0:
211,242,295119,1,0,0:0:0:0:
240,209,295207,1,0,1:2:0:0:
256,168,295295,1,0,0:0:0:0:
258,124,295384,1,8,0:2:0:0:
245,83,295472,1,0,0:0:0:0:
218,48,295560,1,0,1:2:0:0:
181,24,295648,1,0,0:0:0:0:
139,14,295737,1,8,0:2:0:0:
95,19,295825,1,0,0:0:0:0:
56,38,295913,1,0,1:2:0:0:
26,70,296001,1,0,0:0:0:0:
7,109,296090,1,8,0:2:0:0:
4,153,296178,1,0,0:0:0:0:
15,195,296266,54,0,P|26:214|31:265,3,55.9999982910157,2|0|8|0,1:2|0:0|0:2|0:0,0:0:0:0:
67,347,296619,53,2,1:2:0:0:
75,297,296707,1,0,0:0:0:0:
98,256,296795,1,8,0:2:0:0:
131,220,296884,1,0,0:0:0:0:
171,194,296972,53,2,1:2:0:0:
206,228,297060,1,0,0:0:0:0:
231,267,297148,1,8,0:2:0:0:
246,314,297237,1,0,0:0:0:0:
248,360,297325,53,2,1:2:0:0:
204,375,297413,1,0,0:0:0:0:
154,376,297501,1,8,0:2:0:0:
107,365,297590,1,0,0:0:0:0:
67,347,297678,53,2,1:2:0:0:
113,344,297766,1,0,0:0:0:0:
154,321,297854,1,8,0:2:0:0:
180,282,297942,1,0,0:0:0:0:
185,236,298031,1,0,1:2:0:0:
171,194,298119,1,0,0:0:0:0:
136,160,298207,1,8,0:2:0:0:
132,114,298295,1,0,0:0:0:0:
146,69,298384,1,0,1:2:0:0:
177,34,298472,1,0,0:0:0:0:
219,14,298560,1,8,0:2:0:0:
266,14,298648,1,0,0:0:0:0:
309,32,298737,1,0,1:2:0:0:
342,66,298825,1,0,0:0:0:0:
357,110,298913,1,8,0:2:0:0:
354,156,299001,1,0,0:0:0:0:
332,198,299090,86,2,P|323:227|328:270,1,55.9999982910157,0|0,1:2|0:0,1:2:0:0:
446,200,299266,2,2,P|454:174|454:146,1,55.9999982910157,8|0,0:2|0:0,0:2:0:0:
350,228,299442,54,2,P|349:259|365:298,1,55.9999982910157,0|0,1:2|0:0,1:2:0:0:
461,200,299619,2,2,P|462:172|454:145,1,55.9999982910157,8|0,0:2|0:0,0:2:0:0:
374,251,299795,54,2,P|381:281|407:315,1,55.9999982910157,0|0,1:2|0:0,1:2:0:0:
474,197,299972,2,2,P|467:169|453:145,1,55.9999982910157,8|0,0:2|0:0,0:2:0:0:
404,268,300148,54,2,P|418:295|452:321,1,55.9999982910157,0|0,1:2|0:0,1:2:0:0:
486,190,300325,2,2,P|473:165|453:145,1,55.9999982910157,8|0,0:2|0:0,0:2:0:0:
338,163,300501,85,2,1:2:0:0:
314,182,300590,1,0,0:0:0:0:
284,192,300678,1,8,0:2:0:0:
253,192,300766,1,0,0:0:0:0:
223,181,300854,1,0,1:2:0:0:
199,162,300942,1,0,0:0:0:0:
182,135,301031,53,10,0:2:0:0:
225,127,301119,1,0,0:0:0:0:
267,138,301207,1,0,1:2:0:0:
301,165,301295,1,0,0:0:0:0:
321,204,301384,1,8,0:2:0:0:
324,248,301472,1,0,0:0:0:0:
308,288,301560,1,0,1:2:0:0:
277,319,301648,1,0,0:0:0:0:
236,335,301737,1,8,0:2:0:0:
193,332,301825,1,0,0:0:0:0:
154,312,301913,53,2,1:2:0:0:
196,289,302001,1,0,0:0:0:0:
221,249,302090,1,8,0:2:0:0:
225,202,302178,1,0,0:0:0:0:
207,158,302266,1,0,1:2:0:0:
170,129,302354,1,0,0:0:0:0:
123,120,302442,53,10,0:2:0:0:
135,169,302531,1,0,0:0:0:0:
175,201,302619,1,0,1:2:0:0:
225,202,302707,1,0,0:0:0:0:
267,173,302795,1,8,0:2:0:0:
282,124,302884,1,0,0:0:0:0:
264,76,302972,53,2,1:2:0:0:
216,100,303060,1,0,0:0:0:0:
164,96,303148,1,8,0:2:0:0:
120,66,303237,1,0,0:0:0:0:
98,17,303325,53,2,1:2:0:0:
151,4,303413,1,0,0:0:0:0:
207,9,303501,1,8,0:2:0:0:
257,34,303590,1,0,0:0:0:0:
295,74,303678,1,0,1:2:0:0:
318,125,303766,1,0,0:0:0:0:
321,180,303854,1,8,0:2:0:0:
305,234,303942,1,0,0:0:0:0:
271,278,304031,1,0,1:2:0:0:
224,308,304119,1,0,0:0:0:0:
170,320,304207,1,8,0:2:0:0:
114,312,304295,1,0,0:0:0:0:
65,286,304384,1,0,1:2:0:0:
28,244,304472,1,0,0:0:0:0:
8,192,304560,1,8,0:2:0:0:
7,137,304648,1,0,0:0:0:0:
25,84,304737,37,6,1:2:0:0:
38,88,304825,1,0,0:0:0:0:
50,91,304913,1,8,0:2:0:0:
62,94,305001,1,0,0:0:0:0:
74,97,305090,101,6,1:1:0:0:
111,62,305178,1,0,0:0:0:0:
162,59,305266,1,8,0:2:0:0:
203,89,305354,1,0,0:0:0:0:
219,136,305442,101,6,1:2:0:0:
167,122,305531,1,0,0:0:0:0:
120,153,305619,1,8,0:2:0:0:
112,205,305707,1,0,0:0:0:0:
145,249,305795,53,6,1:2:0:0:
190,200,305884,1,0,1:2:0:0:
258,196,305972,1,0,1:2:0:0:
307,238,306060,1,0,1:2:0:0:
312,305,306148,101,6,1:1:0:0:
289,271,306237,1,0,0:0:0:0:
288,231,306325,1,8,0:2:0:0:
302,194,306413,1,0,0:0:0:0:
329,165,306501,1,0,1:2:0:0:
365,147,306590,1,0,0:0:0:0:
405,144,306678,1,8,0:2:0:0:
438,123,306766,1,0,0:0:0:0:
453,87,306854,1,0,1:2:0:0:
443,49,306942,1,0,0:0:0:0:
413,25,307031,1,8,0:2:0:0:
373,24,307119,1,0,0:0:0:0:
346,54,307207,1,0,1:2:0:0:
322,84,307295,1,0,0:0:0:0:
285,98,307384,1,8,0:2:0:0:
246,92,307472,1,0,0:0:0:0:
220,65,307560,53,2,1:2:0:0:
259,43,307648,1,0,0:0:0:0:
304,39,307737,1,8,0:2:0:0:
346,54,307825,1,0,0:0:0:0:
379,84,307913,1,0,1:2:0:0:
396,126,308001,1,0,0:0:0:0:
394,171,308090,1,8,0:2:0:0:
374,211,308178,1,0,0:0:0:0:
333,241,308266,53,2,1:2:0:0:
332,191,308354,1,0,0:0:0:0:
315,145,308442,1,8,0:2:0:0:
285,105,308531,1,0,0:0:0:0:
245,76,308619,1,0,1:2:0:0:
198,61,308707,1,0,0:0:0:0:
149,60,308795,1,8,0:2:0:0:
101,74,308884,1,0,0:0:0:0:
60,101,308972,53,2,1:2:0:0:
112,110,309060,1,0,0:0:0:0:
153,145,309148,1,8,0:2:0:0:
171,195,309237,1,0,0:0:0:0:
162,248,309325,1,0,1:2:0:0:
182,298,309413,1,0,0:0:0:0:
218,337,309501,1,8,0:2:0:0:
267,360,309590,1,0,0:0:0:0:
320,365,309678,1,0,1:2:0:0:
372,349,309766,1,0,0:0:0:0:
414,316,309854,1,8,0:2:0:0:
441,270,309942,1,0,0:0:0:0:
450,217,310031,1,0,1:2:0:0:
439,164,310119,1,0,0:0:0:0:
410,119,310207,1,8,0:2:0:0:
366,88,310295,1,0,0:0:0:0:
314,75,310384,22,2,L|241:67,1,55.9999982910157,2|0,1:2|0:0,0:2:0:0:
214,187,310560,1,8,0:2:0:0:
214,187,310648,1,0,0:0:0:0:
214,187,310737,2,2,L|269:193,1,55.9999982910157,0|0,1:2|0:0,0:2:0:0:
258,69,310913,2,2,L|203:63,1,55.9999982910157,8|0,0:2|0:0,0:2:0:0:
158,180,311090,2,2,L|213:186,1,55.9999982910157,0|0,1:2|0:0,0:2:0:0:
202,63,311266,2,2,L|147:57,1,55.9999982910157,8|0,0:2|0:0,0:2:0:0:
48,199,311442,85,2,1:2:0:0:
76,194,311531,1,0,0:0:0:0:
103,190,311619,1,8,0:2:0:0:
131,184,311707,1,0,0:0:0:0:
158,180,311795,53,2,1:2:0:0:
197,185,311884,1,0,0:0:0:0:
227,210,311972,1,8,0:2:0:0:
241,247,312060,1,0,0:0:0:0:
234,286,312148,1,0,1:2:0:0:
209,316,312237,1,0,0:0:0:0:
170,328,312325,53,10,0:2:0:0:
168,279,312413,1,0,0:0:0:0:
188,239,312501,1,0,1:2:0:0:
227,210,312590,1,0,0:0:0:0:
275,205,312678,1,8,0:2:0:0:
319,222,312766,1,0,0:0:0:0:
366,216,312854,1,0,1:2:0:0:
406,188,312942,1,0,0:0:0:0:
426,148,313031,1,8,0:2:0:0:
424,99,313119,1,0,0:0:0:0:
391,63,313207,53,2,1:2:0:0:
362,87,313295,1,0,0:0:0:0:
327,103,313384,1,8,0:2:0:0:
290,108,313472,1,0,0:0:0:0:
252,101,313560,1,0,1:2:0:0:
218,85,313648,1,0,0:0:0:0:
185,63,313737,53,10,0:2:0:0:
175,74,313825,1,0,0:0:0:0:
138,82,313913,53,2,1:2:0:0:
99,65,314001,1,0,0:0:0:0:
60,82,314090,1,8,0:2:0:0:
45,121,314178,1,0,0:0:0:0:
64,158,314266,53,2,1:2:0:0:
103,173,314354,1,0,0:0:0:0:
119,213,314442,1,8,0:2:0:0:
102,251,314531,1,0,0:0:0:0:
69,276,314619,53,2,1:2:0:0:
67,296,314707,1,0,0:0:0:0:
64,316,314795,1,8,0:2:0:0:
62,337,314884,1,0,0:0:0:0:
60,357,314972,86,0,L|-14:364,3,55.9999982910157,2|0|8|0,1:2|0:0|0:2|0:0,0:0:0:0:
137,316,315325,2,0,L|211:309,3,55.9999982910157,2|0|8|0,1:2|0:0|0:2|0:0,0:0:0:0:
291,330,315678,54,0,P|284:302|284:274,1,55.9999982910157,0|0,1:2|0:0,0:0:0:0:
355,219,315854,2,0,P|361:191|361:163,1,55.9999982910157,8|0,0:2|0:0,0:0:0:0:
288,97,316031,21,2,1:2:0:0:
273,95,316119,1,0,0:0:0:0:
258,93,316207,1,8,0:2:0:0:
243,91,316295,1,0,0:0:0:0:
228,87,316384,53,2,1:2:0:0:
210,127,316472,1,0,0:0:0:0:
180,159,316560,1,8,0:2:0:0:
142,180,316648,1,0,0:0:0:0:
98,187,316737,53,2,1:2:0:0:
72,152,316825,1,0,0:0:0:0:
59,111,316913,1,8,0:2:0:0:
59,65,317001,1,0,0:0:0:0:
74,25,317090,53,2,1:2:0:0:
119,20,317178,1,0,0:0:0:0:
162,31,317266,1,8,0:2:0:0:
200,52,317354,1,0,0:0:0:0:
228,87,317442,53,6,1:2:0:0:
181,97,317531,1,0,0:0:0:0:
150,133,317619,1,8,0:2:0:0:
142,180,317707,1,0,0:0:0:0:
167,222,317795,1,0,1:2:0:0:
209,243,317884,1,0,0:0:0:0:
255,236,317972,53,10,0:2:0:0:
245,190,318060,1,0,0:0:0:0:
216,153,318148,1,0,1:2:0:0:
172,134,318237,1,0,0:0:0:0:
125,137,318325,1,8,0:2:0:0:
84,161,318413,1,0,0:0:0:0:
60,202,318501,53,2,1:2:0:0:
105,217,318590,1,0,0:0:0:0:
136,253,318678,1,8,0:2:0:0:
143,300,318766,1,0,0:0:0:0:
126,344,318854,53,2,1:2:0:0:
82,319,318942,1,0,0:0:0:0:
54,278,319031,1,8,0:2:0:0:
48,228,319119,1,0,0:0:0:0:
65,181,319207,1,0,1:2:0:0:
102,147,319295,1,0,0:0:0:0:
150,134,319384,1,8,0:2:0:0:
199,143,319472,1,0,0:0:0:0:
239,175,319560,1,0,1:2:0:0:
269,214,319648,1,0,0:0:0:0:
314,234,319737,1,8,0:2:0:0:
364,230,319825,1,0,0:0:0:0:
406,203,319913,1,0,1:2:0:0:
429,159,320001,1,0,0:0:0:0:
428,109,320090,1,8,0:2:0:0:
404,66,320178,1,0,0:0:0:0:
362,39,320266,53,2,1:2:0:0:
336,84,320354,1,0,0:0:0:0:
332,135,320442,1,8,0:2:0:0:
352,183,320531,1,0,0:0:0:0:
391,216,320619,1,0,1:2:0:0:
441,229,320707,1,0,0:0:0:0:
492,218,320795,53,10,0:2:0:0:
459,178,320884,1,0,0:0:0:0:
413,154,320972,1,0,1:2:0:0:
361,150,321060,1,0,0:0:0:0:
312,166,321148,1,8,0:2:0:0:
274,201,321237,1,0,0:0:0:0:
252,247,321325,53,2,1:2:0:0:
233,199,321413,1,0,0:0:0:0:
225,148,321501,1,8,0:2:0:0:
226,96,321590,1,0,0:0:0:0:
238,44,321678,22,2,P|264:37|292:38,1,55.9999982910157,0|0,1:2|1:0,1:2:0:0:
225,148,321854,2,2,P|198:155|170:154,1,55.9999982910157,8|0,0:2|0:0,0:2:0:0:
281,63,322031,54,2,P|307:62|334:71,1,55.9999982910157,0|0,1:2|0:0,1:2:0:0:
224,162,322207,2,2,P|196:162|169:154,1,55.9999982910157,8|0,0:2|0:0,0:2:0:0:
317,92,322384,54,2,P|342:97|366:113,1,55.9999982910157,0|0,1:2|0:0,1:2:0:0:
220,175,322560,2,2,P|192:167|168:153,1,55.9999982910157,8|0,0:2|0:0,0:2:0:0:
344,129,322737,54,2,P|367:141|385:162,1,55.9999982910157,0|0,1:2|0:0,1:2:0:0:
212,187,322913,2,2,P|187:173|168:152,1,55.9999982910157,8|0,0:2|0:0,0:2:0:0:
191,335,323090,85,2,1:2:0:0:
193,291,323178,1,0,0:0:0:0:
217,255,323266,1,8,0:2:0:0:
257,238,323354,1,0,0:0:0:0:
300,243,323442,1,0,1:2:0:0:
334,271,323531,1,0,0:0:0:0:
373,289,323619,1,8,0:2:0:0:
417,290,323707,1,0,0:0:0:0:
458,275,323795,1,0,1:2:0:0:
491,246,323884,1,0,0:0:0:0:
510,207,323972,1,8,0:2:0:0:
512,163,324060,1,0,0:0:0:0:
499,122,324148,1,0,1:2:0:0:
471,89,324237,1,0,0:0:0:0:
432,68,324325,1,8,0:2:0:0:
389,64,324413,1,0,0:0:0:0:
347,77,324501,53,2,1:2:0:0:
380,111,324590,1,0,0:0:0:0:
396,156,324678,1,8,0:2:0:0:
390,203,324766,1,0,0:0:0:0:
366,244,324854,1,0,1:2:0:0:
326,270,324942,1,0,0:0:0:0:
279,276,325031,1,8,0:2:0:0:
233,262,325119,1,0,0:0:0:0:
198,230,325207,1,0,1:2:0:0:
180,186,325295,1,0,0:0:0:0:
149,150,325384,1,8,0:2:0:0:
104,134,325472,1,0,0:0:0:0:
57,141,325560,1,0,1:2:0:0:
19,169,325648,1,0,0:0:0:0:
0,213,325737,1,8,0:2:0:0:
2,260,325825,1,0,0:0:0:0:
28,300,325913,53,2,1:2:0:0:
35,249,326001,1,0,0:0:0:0:
66,208,326090,1,8,0:2:0:0:
113,187,326178,1,0,0:0:0:0:
165,190,326266,1,0,1:2:0:0:
208,218,326354,1,0,0:0:0:0:
232,264,326442,1,8,0:2:0:0:
256,309,326531,1,0,0:0:0:0:
297,341,326619,1,0,1:2:0:0:
346,355,326707,1,0,0:0:0:0:
397,349,326795,1,8,0:2:0:0:
442,323,326884,1,0,0:0:0:0:
474,282,326972,1,0,1:2:0:0:
487,233,327060,1,0,0:0:0:0:
480,181,327148,1,8,0:2:0:0:
453,137,327237,1,0,0:0:0:0:
412,106,327325,69,6,1:2:0:0:
422,161,327413,1,0,0:0:0:0:
407,214,327501,1,8,0:2:0:0:
368,254,327590,1,0,0:0:0:0:
315,271,327678,1,0,1:2:0:0:
261,263,327766,1,0,0:0:0:0:
216,229,327854,1,8,0:2:0:0:
192,179,327942,1,0,0:0:0:0:
194,124,328031,1,0,1:2:0:0:
231,83,328119,1,0,0:0:0:0:
285,69,328207,1,8,0:2:0:0:
337,87,328295,1,0,0:0:0:0:
371,131,328384,1,0,1:1:0:0:
374,186,328472,1,0,1:2:0:0:
347,234,328560,1,8,1:2:0:0:
298,259,328648,1,0,1:2:0:0:
243,253,328737,21,6,0:2:0:0:
256,192,328825,12,2,331207,1:2:0:0:
202,308,331913,53,0,1:0:0:0:
145,126,332619,1,0,1:0:0:0:
321,81,333325,1,0,1:0:0:0:
366,257,334031,1,0,1:0:0:0:
171,201,334384,85,8,0:3:0:0:
213,196,334472,1,8,0:3:0:0:
256,192,334560,1,8,0:3:0:0:
299,188,334648,1,8,0:3:0:0:
342,183,334737,1,4,0:2:0:0:
61,36,335442,53,4,0:1:0:0:
61,36,336148,21,0,0:0:0:0:
61,36,336325,1,0,0:0:0:0:
57,130,336501,53,8,0:2:0:0:
141,87,336678,1,0,0:0:0:0:
137,181,336854,53,0,0:0:0:0:
61,36,337031,1,8,1:1:0:0:
57,130,337207,53,0,0:0:0:0:
225,44,337384,1,0,0:0:0:0:
207,42,337472,1,0,0:0:0:0:
191,32,337560,1,4,0:2:0:0:
61,348,338266,53,2,0:2:0:0:
141,297,338442,1,0,0:0:0:0:
53,160,338619,101,4,0:2:0:0:
57,254,338795,1,0,0:0:0:0:
141,297,338972,69,8,0:3:0:0:
61,348,339148,1,0,0:0:0:0:
53,160,339325,21,6,0:1:0:0:
57,254,339501,1,0,0:0:0:0:
205,194,339678,53,8,0:2:0:0:
189,203,339766,1,8,0:2:0:0:
172,208,339854,1,8,0:2:0:0:
154,208,339942,1,8,0:2:0:0:
137,203,340031,70,0,L|131:97,1,88.000002685547,6|2,0:2|2:0,0:0:0:0:
297,53,340384,1,10,0:1:0:0:
292,140,340560,2,0,L|298:34,1,88.000002685547,2|0,0:2|2:2,0:0:0:0:
132,115,340913,1,2,0:2:0:0:
292,140,341090,1,10,0:1:0:0:
187,27,341266,1,2,0:2:0:0:
187,27,341354,1,2,0:2:0:0:
187,27,341442,1,2,0:2:0:0:
205,194,341619,53,2,0:2:0:0:
296,52,341795,1,10,0:1:0:0:
292,140,341972,2,0,L|296:52,1,88.000002685547,2|0,0:2|0:2,0:0:0:0:
205,194,342325,2,0,L|200:281,1,88.000002685547,2|8,0:2|0:1,0:0:0:0:
292,140,342678,1,0,0:2:0:0:
380,145,342854,54,0,L|292:140,1,88.000002685547,2|2,0:2|2:2,0:0:0:0:
292,140,343119,1,0,0:2:0:0:
292,140,343207,1,8,0:1:0:0:
345,287,343384,2,0,B|393:259|393:259|419:195|376:140,1,176.000005371094,0|0,0:2|0:2,0:0:0:0:
346,77,343825,1,0,0:2:0:0:
346,77,343913,2,0,L|258:72,1,88.000002685547,8|0,0:1|0:2,0:0:0:0:
164,10,344266,6,2,P|178:29|193:61,1,44.0000013427735,0|0,3:2|3:2,0:2:0:0:
189,160,344442,2,2,P|196:136|198:101,1,44.0000013427735,0|0,3:2|3:2,0:2:0:0:
139,22,344619,54,2,P|157:36|179:63,1,44.0000013427735,8|0,3:1|3:2,0:2:0:0:
162,156,344795,2,2,P|174:134|185:102,1,44.0000013427735,0|0,3:2|3:2,0:2:0:0:
119,41,344972,54,2,P|140:50|169:70,1,44.0000013427735,0|0,3:2|3:2,0:2:0:0:
136,145,345148,2,2,P|153:127|173:98,1,44.0000013427735,0|0,3:2|3:2,0:2:0:0:
0,110,345325,86,2,L|86:101,1,88.000002685547,10|0,0:1|0:2,1:2:0:0:
48,270,345678,6,0,P|43:218|60:177,1,88.000002685547,2|0,0:2|0:2,0:0:0:0:
54,185,345942,1,0,0:2:0:0:
54,185,346031,1,10,0:1:0:0:
143,235,346207,1,0,0:0:0:0:
231,244,346384,2,0,L|143:235,1,88.000002685547,2|0,0:2|0:2,0:0:0:0:
48,270,346737,2,0,P|92:298|113:336,1,88.000002685547,8|0,0:1|0:2,0:0:0:0:
231,244,347090,54,0,P|203:277|192:320,1,88.000002685547,2|0,0:2|0:0,0:0:0:0:
192,320,347354,1,0,0:0:0:0:
192,320,347442,1,8,0:1:0:0:
282,316,347619,1,0,0:2:0:0:
368,333,347795,2,0,L|279:315,1,88.000002685547,2|0,0:2|0:2,0:0:0:0:
231,244,348148,2,0,P|274:239|311:217,1,88.000002685547,8|0,0:1|0:2,0:0:0:0:
332,66,348501,53,2,0:2:0:0:
252,162,348678,1,0,0:2:0:0:
252,162,348766,1,0,0:2:0:0:
252,162,348854,1,10,0:1:0:0:
209,45,349031,1,0,0:0:0:0:
332,66,349207,2,0,L|420:60,1,88.000002685547,2|0,0:2|0:2,0:0:0:0:
209,45,349560,2,0,L|121:51,1,88.000002685547,8|0,0:1|0:2,0:0:0:0:
259,169,349913,101,0,0:2:0:0:
259,169,350001,1,0,0:2:0:0:
259,169,350090,1,0,0:2:0:0:
338,72,350266,37,8,0:1:0:0:
338,72,350354,1,0,0:2:0:0:
338,72,350442,1,0,0:2:0:0:
216,52,350619,69,0,0:2:0:0:
216,52,350707,1,0,0:2:0:0:
216,52,350795,1,0,0:2:0:0:
338,72,350972,38,0,L|425:65,1,88.000002685547,10|0,0:1|0:2,0:0:0:0:
412,266,351325,102,0,B|381:232|381:232|368:195|408:128,1,143.999995605469,6|8,0:2|0:1,0:0:0:0:
402,139,352384,2,0,L|463:130,2,47.9999985351563,8|0|0,0:1|0:0|0:0,0:0:0:0:
313,167,352737,85,2,0:2:0:0:
412,266,352913,1,2,0:2:0:0:
450,132,353090,2,0,L|463:31,1,71.9999978027344,10|0,0:1|0:0,0:0:0:0:
313,167,353442,2,0,L|299:66,1,71.9999978027344,2|0,1:0|0:0,0:0:0:0:
178,204,353795,2,0,L|138:110,1,71.9999978027344,10|0,0:1|0:0,0:0:0:0:
104,37,354148,86,0,B|145:59|145:59|164:94|150:138,1,128,2|8,0:2|0:1,0:0:0:0:
150,138,355207,2,0,L|95:147,2,42.6666666666667,8|0|0,0:1|0:0|0:0,0:0:0:0:
200,86,355560,37,2,0:2:0:0:
103,36,355737,1,2,0:2:0:0:
108,145,355913,2,0,L|84:204,1,64,10|0,0:1|0:0,0:0:0:0:
256,192,356266,2,0,L|246:280,1,64,2|0,1:0|0:0,0:0:0:0:
404,240,356619,2,0,L|417:327,1,64,10|0,0:1|0:0,0:0:0:0:
466,165,356972,6,0,B|429:172|429:172|404:194|404:245,1,111.999996582031,2|8,0:2|0:1,0:0:0:0:
404,240,358031,2,0,L|335:234,2,37.3333321940105,8|0|0,0:1|0:0|0:0,0:0:0:0:
476,287,358384,85,2,0:2:0:0:
465,165,358560,1,2,0:2:0:0:
367,237,358737,2,0,L|293:221,1,55.9999982910157,10|0,0:1|0:0,0:0:0:0:
320,126,359090,2,0,L|266:138,1,55.9999982910157,2|0,1:0|0:0,0:0:0:0:
315,7,359442,2,0,L|270:40,1,55.9999982910157,10|0,0:1|0:0,0:0:0:0:
176,192,359795,85,6,0:2:0:0:
256,192,359884,12,2,362619,0:0:0:0:
256,192,362663,12,0,365442,0:0:0:0:
420,149,366854,54,0,B|395:67|339:26|279:9|226:24|226:24|278:52|301:106|298:143|298:143|312:166|356:178|334:189|349:219|385:238|426:238|426:238|362:454|11:420|24:132|160:45|160:45|165:66|183:84|183:84|215:92|239:131|228:170|228:170|250:184|258:209|258:209|293:224|310:272|310:272|268:321|159:301|134:213|164:148|164:148|157:189|168:210|195:229,1,1893.11999075625,6|2,3:2|0:0,0:1:0:0:
