osu file format v14

[General]
AudioFilename: audio.mp3
AudioLeadIn: 0
PreviewTime: 175357
Countdown: 0
SampleSet: Soft
StackLeniency: 0.5
Mode: 0
LetterboxInBreaks: 0
WidescreenStoryboard: 1

[Editor]
Bookmarks: 16357,19024,29691,45691,48357,68357,69691,80357,91024,109691,114691,131024,141691,153691,169691,181691,187024,219024,243024
DistanceSpacing: 1
BeatDivisor: 4
GridSize: 32
TimelineZoom: 1.9

[Metadata]
Title:Hakoniwa Logic
TitleUnicode:箱庭ロジック
Artist:Shimotsuki Haruka
ArtistUnicode:霜月はるか
Creator:tomatas95
Version:Yogurtt's Insane
Source:箱庭ロジック
Tags:cabbit manyo the logic of the miniature garden full ver version opening op eroge visual novel vn video game jpop j-pop pop japanese 箱庭逻辑 yogurtt shimotsukin
BeatmapID:2886229
BeatmapSetID:1343221

[Difficulty]
HPDrainRate:5.5
CircleSize:4
OverallDifficulty:8
ApproachRate:9
SliderMultiplier:1.8
SliderTickRate:1

[Events]
//Background and Video events
0,0,"Daisukichuuu.jpg",0,0
//Break Periods
2,131024,141091
2,176557,178424
2,179224,180257
//Storyboard Layer 0 (Background)
//Storyboard Layer 1 (Fail)
//Storyboard Layer 2 (Pass)
//Storyboard Layer 3 (Foreground)
//Storyboard Layer 4 (Overlay)
//Storyboard Sound Samples

[TimingPoints]
358,333.333333333333,4,2,1,50,1,0
4691,-100,4,2,2,60,0,0
5691,-100,4,2,2,70,0,0
8357,-100,4,2,1,70,0,0
16357,-100,4,2,3,70,0,0
17524,-142.857142857143,4,2,1,60,0,0
17857,-105.263157894737,4,2,1,65,0,0
18191,-86.9565217391304,4,2,1,70,0,0
18524,-74.0740740740741,4,2,1,75,0,0
18691,-74.0740740740741,4,2,2,75,0,0
19024,-125,4,2,6,70,0,0
19357,-125,4,2,1,65,0,0
29691,-142.857142857143,4,2,2,60,0,0
30191,-142.857142857143,4,2,5,60,0,0
30857,-142.857142857143,4,2,1,60,0,0
32857,-142.857142857143,4,2,5,60,0,0
33357,-142.857142857143,4,2,1,60,0,0
35024,-142.857142857143,4,2,2,60,0,0
40857,-142.857142857143,4,2,5,60,0,0
41523,-142.857142857143,4,2,1,60,0,0
43524,-142.857142857143,4,2,5,60,0,0
44190,-142.857142857143,4,2,1,60,0,0
45691,-111.111111111111,4,2,2,70,0,0
48357,-100,4,2,2,85,0,1
48691,-100,4,2,6,85,0,1
51024,-100,4,2,1,85,0,1
51357,-100,4,2,6,85,0,1
53691,-100,4,2,2,85,0,1
54024,-100,4,2,6,85,0,1
58024,-100,4,2,1,85,0,1
58524,-90.9090909090909,4,2,1,85,0,0
59024,-90.9090909090909,4,2,2,85,0,1
59357,-90.9090909090909,4,2,6,85,0,1
61691,-90.9090909090909,4,2,1,85,0,1
62024,-90.9090909090909,4,2,6,85,0,1
64357,-111.111111111111,4,2,6,85,0,1
66191,-111.111111111111,4,2,1,70,0,1
67024,-111.111111111111,4,2,6,85,0,1
68524,-111.111111111111,4,2,8,85,0,1
69191,-200,4,2,1,60,0,1
69691,-100,4,2,2,75,0,0
72357,-100,4,2,1,75,0,0
72691,-100,4,2,2,75,0,0
74691,-166.666666666667,4,2,6,75,0,0
75024,-100,4,2,2,75,0,0
79857,-100,4,2,3,75,0,0
80357,-111.111111111111,4,2,6,60,0,0
81191,-111.111111111111,4,2,1,60,0,0
81524,-111.111111111111,4,2,6,60,0,0
82691,-111.111111111111,4,2,1,60,0,0
83024,-111.111111111111,4,2,2,65,0,0
83357,-111.111111111111,4,2,1,65,0,0
91024,-142.857142857143,4,2,2,60,0,0
91524,-142.857142857143,4,2,5,60,0,0
92190,-142.857142857143,4,2,1,60,0,0
94190,-142.857142857143,4,2,5,60,0,0
94856,-142.857142857143,4,2,1,60,0,0
96357,-142.857142857143,4,2,2,60,0,0
100691,-142.857142857143,4,2,1,60,0,0
100857,-142.857142857143,4,2,2,60,0,0
102190,-142.857142857143,4,2,5,60,0,0
102856,-142.857142857143,4,2,1,60,0,0
104857,-142.857142857143,4,2,5,60,0,0
105523,-142.857142857143,4,2,1,60,0,0
107024,-100,4,2,2,70,0,0
108691,-100,4,2,6,70,0,0
108857,-100,4,2,2,70,0,0
109691,-90.9090909090909,4,2,2,85,0,1
110025,-90.9090909090909,4,2,6,85,0,1
112358,-90.9090909090909,4,2,1,85,0,1
112691,-90.9090909090909,4,2,6,85,0,1
115025,-90.9090909090909,4,2,2,85,0,1
115358,-90.9090909090909,4,2,6,85,0,1
118024,-90.9090909090909,4,2,2,85,0,1
118191,-90.9090909090909,4,2,6,85,0,1
119358,-90.9090909090909,4,2,1,85,0,1
119857,-90.9090909090909,4,2,1,85,0,0
120357,-90.9090909090909,4,2,2,85,0,1
120691,-90.9090909090909,4,2,6,85,0,1
123025,-90.9090909090909,4,2,1,85,0,1
123358,-90.9090909090909,4,2,6,85,0,1
125691,-111.111111111111,4,2,6,85,0,1
127525,-111.111111111111,4,2,1,70,0,1
128358,-111.111111111111,4,2,6,85,0,1
129858,-111.111111111111,4,2,8,85,0,1
131024,-100,4,2,3,70,0,0
141691,-100,4,2,3,70,0,0
149691,-100,4,2,1,75,0,0
149857,-100,4,2,3,75,0,0
150024,-100,4,2,1,75,0,0
150190,-100,4,2,3,75,0,0
150357,-100,4,2,1,75,0,0
150523,-100,4,2,3,75,0,0
151024,-100,4,2,2,75,0,0
151191,-100,4,2,3,75,0,0
151357,-100,4,2,1,75,0,0
151524,-100,4,2,3,75,0,0
153691,-142.857142857143,4,2,2,60,0,0
154191,-142.857142857143,4,2,5,60,0,0
154857,-142.857142857143,4,2,1,60,0,0
156857,-142.857142857143,4,2,5,60,0,0
157523,-142.857142857143,4,2,1,60,0,0
159024,-142.857142857143,4,2,2,60,0,0
164857,-142.857142857143,4,2,5,60,0,0
165523,-142.857142857143,4,2,1,60,0,0
167524,-142.857142857143,4,2,5,60,0,0
168190,-142.857142857143,4,2,1,60,0,0
169691,-100,4,2,2,70,0,0
175524,-166.666666666667,4,2,1,65,0,0
176357,-166.666666666667,4,2,6,65,0,0
180857,-142.857142857143,4,2,1,55,0,0
181691,-100,4,2,2,65,0,0
183691,-100,4,2,9,70,0,0
183857,-100,4,2,1,70,0,0
184524,-100,4,2,2,70,0,0
185024,-100,4,2,1,50,0,0
185357,-100,4,2,1,70,0,0
186024,-100,4,2,6,75,0,0
186191,-100,4,2,1,80,0,0
187024,-90.9090909090909,4,2,2,85,0,1
187357,-90.9090909090909,4,2,6,85,0,1
189691,-90.9090909090909,4,2,1,85,0,1
190024,-90.9090909090909,4,2,6,85,0,1
192357,-111.111111111111,4,2,6,85,0,1
194024,-111.111111111111,4,2,1,80,0,1
194191,-111.111111111111,4,2,1,70,0,1
195024,-111.111111111111,4,2,6,85,0,1
196524,-111.111111111111,4,2,8,85,0,1
196857,-90.9090909090909,4,2,1,80,0,0
197691,-90.9090909090909,4,2,2,85,0,1
198024,-90.9090909090909,4,2,6,85,0,1
199691,-90.9090909090909,4,2,3,85,0,1
200024,-90.9090909090909,4,2,8,85,0,1
200357,-90.9090909090909,4,2,2,85,0,1
200524,-90.9090909090909,4,2,6,85,0,1
203024,-90.9090909090909,4,2,2,85,0,1
203357,-90.9090909090909,4,2,6,85,0,1
206024,-90.9090909090909,4,2,1,85,0,1
206191,-90.9090909090909,4,2,6,85,0,1
206691,-90.9090909090909,4,2,1,85,0,1
206858,-90.9090909090909,4,2,6,85,0,1
207357,-90.9090909090909,4,2,1,85,0,1
207857,-90.9090909090909,4,2,1,85,0,0
208357,-90.9090909090909,4,2,2,85,0,1
208691,-90.9090909090909,4,2,6,85,0,1
211025,-90.9090909090909,4,2,1,85,0,1
211358,-90.9090909090909,4,2,6,85,0,1
213691,-111.111111111111,4,2,6,85,0,1
215525,-111.111111111111,4,2,1,70,0,1
216358,-111.111111111111,4,2,6,85,0,1
217858,-111.111111111111,4,2,8,85,0,1
218524,-111.111111111111,4,2,6,65,0,1
218691,-200,4,2,6,85,0,1
219024,-100,4,2,2,70,0,0
221691,-100,4,2,1,70,0,0
224357,-100,4,2,2,70,0,0
227024,-100,4,2,1,70,0,0
228357,-100,4,2,3,70,0,0
229691,-100,4,2,2,75,0,0
232357,-100,4,2,1,75,0,0
235024,-100,4,2,6,75,0,0
235357,-100,4,2,1,75,0,0
237691,-125,4,2,6,80,0,0
239524,-125,4,2,1,80,0,0
242337,333.333333333333,4,2,1,80,1,0
242837,-125,4,2,2,80,0,0
243009,339.943342776204,4,2,1,80,1,0
243024,-166.666666666667,4,2,1,80,0,0
243348,-166.666666666667,4,2,1,70,0,0
244028,-166.666666666667,4,2,1,60,0,0
244708,-166.666666666667,4,2,1,50,0,0
245388,-166.666666666667,4,2,1,40,0,0
245728,333.333333333333,4,2,1,40,1,0

[Colours]
Combo1 : 57,156,255
Combo2 : 255,153,153
Combo3 : 255,17,17
Combo4 : 206,134,255

[HitObjects]
439,185,358,5,8,0:0:0:0:
359,135,524,2,0,B|318:121|285:148|285:148|252:207|184:171,1,180,10|0,0:0|0:0,0:0:0:0:
79,124,1024,5,10,0:0:0:0:
169,103,1191,2,0,P|162:201|156:272,1,135,10|0,0:0|0:0,0:0:0:0:
116,310,1524,5,0,3:0:0:0:
294,239,1691,1,10,0:0:0:0:
241,310,1857,2,0,P|196:283|66:310,1,180,10|0,0:0|3:0,0:0:0:0:
3,351,2357,5,8,0:0:0:0:
0,200,2524,2,0,P|9:226|21:272,1,45,2|0,3:2|0:0,0:0:0:0:
83,172,2691,2,0,B|160:149|141:200|246:177,1,135,10|0,0:0|0:0,0:0:0:0:
292,139,3024,5,0,3:0:0:0:
455,160,3191,2,0,P|401:170|361:280,1,180,10|0,0:0|0:0,0:0:0:0:
475,314,3691,5,10,0:0:0:0:
324,301,3857,2,0,P|257:311|191:324,1,135,10|0,0:0|0:0,0:0:0:0:
133,265,4191,5,0,3:0:0:0:
192,122,4357,2,0,P|231:153|235:210,1,90,10|0,0:0|3:2,0:0:0:0:
57,291,4691,2,0,P|51:241|88:198,1,90,14|0,0:0|0:0,0:0:0:0:
161,193,5024,1,0,3:0:0:0:
161,193,5107,1,8,0:0:0:0:
161,193,5191,1,8,0:0:0:0:
161,193,5274,1,8,0:0:0:0:
161,193,5357,1,8,0:0:0:0:
297,261,5524,5,8,0:0:0:0:
297,261,5607,1,8,0:0:0:0:
297,261,5691,1,6,3:2:0:0:
463,195,5857,2,0,P|414:169|362:164,1,90,2|8,0:0|0:0,0:0:0:0:
204,261,6191,1,2,0:0:0:0:
301,134,6357,5,10,0:0:0:0:
380,259,6524,2,0,P|326:275|286:308,1,90,2|10,3:2|0:0,0:0:0:0:
206,167,6857,5,0,3:0:0:0:
206,167,6941,1,2,0:0:0:0:
206,167,7024,1,10,0:0:0:0:
135,318,7191,1,2,0:0:0:0:
32,243,7357,2,0,P|76:234|139:227,1,90,10|2,0:0|3:2,0:0:0:0:
176,127,7691,2,0,P|132:136|69:143,1,90,10|0,0:0|3:2,0:0:0:0:
236,244,8024,1,10,0:0:0:0:
236,244,8191,1,2,0:0:0:0:
349,199,8357,5,6,3:2:0:0:
263,335,8524,2,0,P|212:327|162:318,1,90,2|8,0:0|0:0,0:0:0:0:
247,212,8857,1,2,0:0:0:0:
384,281,9024,1,10,0:0:0:0:
384,281,9191,2,0,P|434:288|485:298,1,90,2|10,3:2|0:0,0:0:0:0:
329,161,9524,1,0,3:0:0:0:
251,94,9691,5,10,0:0:0:0:
251,94,9857,2,0,P|222:148|233:194,1,90,2|8,0:0|0:0,0:0:0:0:
388,237,10191,2,0,P|417:183|406:137,1,90,2|10,3:2|0:0,0:0:0:0:
414,156,10441,1,2,0:0:0:0:
414,156,10524,1,2,3:2:0:0:
283,252,10691,1,10,0:0:0:0:
190,164,10857,5,2,0:0:0:0:
190,164,10941,1,2,0:0:0:0:
190,164,11024,1,6,3:2:0:0:
95,275,11191,2,0,P|157:258|201:252,1,90,2|8,0:0|0:0,0:0:0:0:
303,273,11524,1,2,0:0:0:0:
280,159,11691,5,10,0:0:0:0:
154,150,11857,2,0,P|92:167|48:173,1,90,2|10,3:2|0:0,0:0:0:0:
226,63,12191,5,0,3:0:0:0:
226,63,12274,1,2,0:0:0:0:
226,63,12357,1,10,0:0:0:0:
313,135,12524,1,2,0:0:0:0:
429,92,12691,2,0,P|456:149|453:196,1,90,10|2,0:0|3:2,0:0:0:0:
381,299,13024,2,0,P|354:242|357:195,1,90,10|0,0:0|3:2,0:0:0:0:
477,288,13357,1,10,0:0:0:0:
477,288,13524,1,2,0:0:0:0:
370,333,13691,5,6,3:2:0:0:
251,298,13857,2,0,P|194:292|136:293,1,90,2|8,0:0|0:0,0:0:0:0:
285,182,14191,1,2,0:0:0:0:
102,196,14357,2,0,P|146:197|191:202,1,90,10|2,0:0|3:2,0:0:0:0:
161,89,14691,1,10,0:0:0:0:
161,89,14857,1,0,3:0:0:0:
34,149,15024,6,0,P|19:203|36:245,2,90,10|0|10,0:0|0:0|0:0,0:0:0:0:
130,231,15524,1,2,3:2:0:0:
130,231,15691,1,10,0:0:0:0:
188,107,15857,1,2,3:2:0:0:
188,107,16024,1,10,0:0:0:0:
299,162,16191,1,2,0:0:0:0:
266,39,16357,5,10,0:2:0:0:
221,199,16524,1,2,3:2:0:0:
371,120,16691,5,2,3:2:0:0:
204,188,16857,1,10,0:0:0:0:
376,259,17024,5,2,3:2:0:0:
286,142,17191,1,2,3:2:0:0:
216,309,17357,1,10,0:2:0:0:
380,162,17524,6,0,P|426:154|470:148,1,62.9999980773926,2|0,3:1|0:0,0:0:0:0:
291,270,17857,6,0,P|333:265|375:258,1,85.4999977169037,2|0,3:1|0:0,0:0:0:0:
167,140,18191,6,0,P|209:132|273:129,1,103.500001974106,2|0,3:1|0:0,0:0:0:0:
109,267,18524,5,2,3:1:0:0:
29,180,18691,1,8,0:0:0:0:
29,180,18774,1,8,0:0:0:0:
29,180,18857,1,8,0:0:0:0:
29,180,18941,1,8,0:0:0:0:
29,180,19024,1,4,3:2:0:0:
38,329,19191,5,2,0:0:0:0:
125,251,19357,2,0,P|166:240|215:238,1,72,10|0,0:0|0:0,0:0:0:0:
50,156,19691,1,2,0:0:0:0:
50,156,19857,1,2,3:2:0:0:
222,110,20024,2,0,P|181:121|132:123,1,72,8|0,0:0|3:2,0:0:0:0:
294,190,20357,5,2,0:0:0:0:
328,103,20524,1,2,3:2:0:0:
376,213,20691,1,10,0:0:0:0:
376,213,20857,2,0,P|355:269|301:289,1,108,2|0,0:0|0:0,0:0:0:0:
273,272,21191,2,0,P|225:253|192:253,1,72,2|8,0:0|0:0,0:0:0:0:
122,278,21524,1,2,0:0:0:0:
33,123,21691,6,0,P|104:134|188:146,1,144,4|10,3:1|0:0,0:0:0:0:
175,144,22191,1,2,0:0:0:0:
316,55,22357,1,2,3:2:0:0:
198,112,22524,1,2,3:2:0:0:
311,210,22691,2,0,P|296:162|292:121,1,72,10|0,0:0|3:2,0:0:0:0:
391,156,23024,5,2,0:0:0:0:
386,245,23191,2,0,P|357:281|318:285,1,72,2|8,3:2|0:0,0:0:0:0:
153,235,23524,2,0,P|195:221|241:216,1,72,2|0,0:0|3:0,0:0:0:0:
226,308,23857,1,2,3:2:0:0:
70,273,24024,1,8,0:0:0:0:
201,327,24191,5,2,0:0:0:0:
201,327,24274,1,2,0:0:0:0:
201,327,24357,1,4,3:1:0:0:
127,152,24524,1,0,0:0:0:0:
0,267,24691,2,0,P|53:249|89:234,1,72,8|0,0:0|0:0,0:0:0:0:
140,126,25024,1,2,3:2:0:0:
140,126,25191,1,2,3:2:0:0:
16,97,25357,2,0,P|34:150|49:186,1,72,10|0,0:0|3:2,0:0:0:0:
215,47,25691,5,2,0:0:0:0:
127,152,25857,1,2,3:2:0:0:
248,138,26024,2,0,P|308:123|350:122,1,72,10|0,0:0|0:0,0:0:0:0:
411,121,26357,1,0,3:0:0:0:
419,270,26524,1,2,3:2:0:0:
419,270,26691,2,0,P|424:235|435:201,1,72,10|0,0:0|0:0,0:0:0:0:
323,227,27024,6,0,P|243:231|153:246,1,144,4|8,3:1|0:0,0:0:0:0:
179,240,27524,1,2,0:0:0:0:
123,166,27691,1,0,3:2:0:0:
87,310,27857,2,0,P|52:302|12:293,1,72,0|8,3:2|0:0,0:0:0:0:
23,141,28191,1,2,0:0:0:0:
201,113,28357,6,0,P|236:105|276:96,2,72,2|2|8,3:2|0:0|0:0,0:0:0:0:
365,145,28857,1,8,0:0:0:0:
365,145,28941,1,8,0:0:0:0:
365,145,29024,1,8,0:0:0:0:
239,208,29191,1,4,3:3:0:0:
422,277,29357,1,4,3:3:0:0:
348,171,29524,1,8,0:0:0:0:
334,324,29691,6,0,P|252:305|189:297,1,125.999996154785,6|0,3:2|3:0,0:0:0:0:
88,153,30191,2,0,P|54:195|50:225,1,62.9999980773926,10|0,0:0|0:0,0:0:0:0:
128,359,30524,2,0,P|122:305|103:281,1,62.9999980773926,10|0,0:0|0:0,0:0:0:0:
23,284,30857,1,2,3:2:0:0:
153,208,31024,6,0,P|207:196|234:192,1,62.9999980773926,2|0,0:0|3:2,0:0:0:0:
236,81,31357,1,8,0:0:0:0:
236,81,31524,2,0,P|213:84|151:99,1,62.9999980773926,2|0,3:2|0:0,0:0:0:0:
316,172,31857,1,10,0:0:0:0:
316,172,32024,1,2,0:0:0:0:
459,94,32191,1,2,3:2:0:0:
380,66,32357,6,0,B|361:139|412:117|396:209,1,125.999996154785,2|0,3:1|3:0,0:0:0:0:
332,257,32857,2,0,P|287:272|256:288,1,62.9999980773926,10|0,0:0|0:0,0:0:0:0:
178,233,33191,2,0,P|190:204|199:173,1,62.9999980773926,10|0,0:0|3:0,0:0:0:0:
151,99,33524,1,2,3:2:0:0:
31,196,33691,6,0,P|43:248|44:270,1,62.9999980773926,2|0,0:0|3:2,0:0:0:0:
138,354,34024,1,8,0:0:0:0:
138,354,34191,2,0,P|126:302|125:280,1,62.9999980773926,2|0,0:0|3:0,0:0:0:0:
224,170,34524,1,10,0:0:0:0:
335,220,34691,2,0,P|386:206|416:204,1,62.9999980773926,8|8,0:0|0:0,0:0:0:0:
368,53,35024,6,0,P|339:131|293:131,1,125.999996154785,6|0,3:2|3:2,0:0:0:0:
233,65,35524,2,0,P|189:52|153:50,1,62.9999980773926,10|0,0:0|0:0,0:0:0:0:
83,126,35857,1,10,0:0:0:0:
83,126,36024,2,0,P|114:130|200:205,1,125.999996154785,2|0,0:0|0:0,0:0:0:0:
189,184,36524,5,0,3:0:0:0:
104,291,36691,2,0,P|160:274|185:273,1,62.9999980773926,10|0,0:0|3:0,0:0:0:0:
290,174,37024,1,2,0:0:0:0:
290,174,37191,2,0,P|278:203|272:234,1,62.9999980773926,8|0,0:0|0:0,0:0:0:0:
272,234,37441,1,2,0:0:0:0:
272,234,37524,1,4,3:3:0:0:
416,361,37691,5,2,3:2:0:0:
416,361,37857,2,0,B|445:322|445:322|419:260,1,94.499997116089,2|0,0:0|0:0,0:0:0:0:
413,264,38191,2,0,P|362:276|335:282,1,62.9999980773926,10|0,0:0|0:0,0:0:0:0:
286,362,38524,1,10,0:0:0:0:
286,362,38691,2,0,P|235:350|143:345,1,125.999996154785,2|0,0:0|0:0,0:0:0:0:
161,344,39191,5,0,3:0:0:0:
62,271,39357,2,0,P|44:215|35:188,1,62.9999980773926,8|0,0:0|0:0,0:0:0:0:
171,119,39691,1,2,3:2:0:0:
122,208,39857,1,8,0:0:0:0:
245,208,40024,2,0,P|235:237|225:267,1,62.9999980773926,8|0,0:0|0:0,0:0:0:0:
401,240,40357,6,0,P|355:219|314:290,1,125.999996154785,6|0,3:2|3:0,0:0:0:0:
371,334,40857,2,0,P|428:322|447:323,1,62.9999980773926,10|0,0:0|0:0,0:0:0:0:
479,201,41191,2,0,P|422:213|403:212,1,62.9999980773926,10|0,0:0|0:0,0:0:0:0:
333,98,41524,1,2,3:2:0:0:
333,188,41691,6,0,P|276:176|257:177,1,62.9999980773926,2|0,0:0|3:2,0:0:0:0:
186,119,42024,1,8,0:0:0:0:
186,119,42191,2,0,P|174:176|175:195,1,62.9999980773926,2|0,3:2|0:0,0:0:0:0:
102,227,42524,1,10,0:0:0:0:
102,227,42691,1,2,0:0:0:0:
271,176,42857,1,2,3:2:0:0:
229,339,43024,6,0,P|169:352|116:321,1,125.999996154785,2|0,3:1|3:0,0:0:0:0:
59,202,43524,2,0,P|52:158|41:116,1,62.9999980773926,10|0,0:0|0:0,0:0:0:0:
162,68,43857,2,0,P|155:98|150:129,1,62.9999980773926,10|0,0:0|0:0,0:0:0:0:
69,44,44191,1,2,3:2:0:0:
230,116,44357,6,0,P|264:106|308:119,1,62.9999980773926,2|0,0:0|3:2,0:0:0:0:
394,45,44691,1,8,0:0:0:0:
394,45,44857,2,0,P|387:75|382:106,1,62.9999980773926,2|0,0:0|3:0,0:0:0:0:
477,229,45191,1,10,0:0:0:0:
392,196,45357,2,0,P|330:187|275:187,1,94.499997116089,8|2,0:0|0:0,0:0:0:0:
282,189,45691,5,6,3:2:0:0:
327,356,45857,2,0,P|356:305|340:263,1,80.9999975280763,2|0,3:2|0:0,0:0:0:0:
193,190,46191,2,0,P|208:246|249:264,1,80.9999975280763,2|0,3:2|0:0,0:0:0:0:
309,102,46691,5,8,0:0:0:0:
494,122,46857,2,0,P|439:130|393:163,1,80.9999975280763,2|0,3:2|0:0,0:0:0:0:
282,189,47191,2,0,P|337:197|383:230,1,80.9999975280763,2|0,3:2|0:0,0:0:0:0:
223,18,48024,6,0,L|236:69,2,40.4999987640381,8|8|0,0:0|0:0|3:0,0:0:0:0:
309,102,48357,6,0,P|254:81|124:70,1,180,6|8,3:2|0:0,0:0:0:0:
39,147,48857,1,2,0:0:0:0:
39,147,48941,1,2,0:0:0:0:
39,147,49024,2,0,P|23:205|26:264,2,90,2|0|8,0:0|3:0|0:0,0:0:0:0:
220,281,49524,1,2,3:2:0:0:
115,206,49691,5,2,0:0:0:0:
42,328,49857,2,0,P|106:297|157:287,1,90,2|8,3:2|0:0,0:0:0:0:
281,160,50191,2,0,P|217:191|166:201,1,90,2|0,0:0|3:0,0:0:0:0:
174,366,50524,1,2,3:2:0:0:
330,364,50691,2,0,B|314:336|302:316|302:316|325:282|357:241,1,135,10|0,0:0|0:0,0:0:0:0:
374,237,51024,6,0,P|426:247|475:260,1,90,6|0,3:2|0:0,0:0:0:0:
377,137,51357,1,8,0:0:0:0:
512,68,51524,2,0,P|468:78|327:100,1,180,2|0,0:0|3:0,0:0:0:0:
272,41,52024,2,0,P|246:90|275:150,1,90,8|2,0:0|3:2,0:0:0:0:
307,187,52357,6,0,P|267:152|140:146,1,180,2|8,0:0|0:0,0:0:0:0:
12,124,52857,2,0,P|34:182|47:231,1,90,2|0,0:0|3:0,0:0:0:0:
203,242,53191,2,0,P|181:184|168:135,1,90,2|8,3:2|0:0,0:0:0:0:
49,289,53524,1,2,0:0:0:0:
180,338,53691,6,0,B|228:309|274:318|274:318|296:341|326:362,1,135,6|0,3:2|0:0,0:0:0:0:
378,360,54024,1,10,0:0:0:0:
390,197,54191,2,0,P|343:245|342:285,1,90,2|0,0:0|0:0,0:0:0:0:
512,278,54524,1,2,3:2:0:0:
490,177,54691,2,0,P|481:120|484:64,1,90,10|0,0:0|3:0,0:0:0:0:
287,96,55024,6,0,P|354:85|367:183,1,180,2|8,0:0|0:0,0:0:0:0:
274,196,55524,1,2,0:0:0:0:
194,130,55691,2,0,P|147:122|84:119,1,90,2|2,3:2|3:2,0:0:0:0:
152,42,56024,1,10,0:0:0:0:
25,145,56191,1,2,0:0:0:0:
143,201,56357,6,0,P|77:223|19:313,1,180,6|8,3:2|0:0,0:0:0:0:
157,339,56857,2,0,P|216:321|272:315,1,90,2|0,0:0|3:0,0:0:0:0:
251,191,57191,1,0,3:0:0:0:
396,298,57357,1,8,0:0:0:0:
346,140,57524,5,2,3:2:0:0:
235,285,57691,2,0,P|217:206|195:136,1,135,2|0,0:0|0:0,0:0:0:0:
191,128,58024,1,14,0:0:0:0:
36,104,58191,1,8,0:0:0:0:
36,104,58274,1,8,0:0:0:0:
36,104,58357,1,8,0:0:0:0:
120,172,58524,1,4,3:3:0:0:
0,244,58691,1,4,3:3:0:0:
144,306,58857,1,8,0:0:0:0:
32,336,59024,6,0,B|100:323|100:323|141:354|141:354|240:334,1,198.000006042481,6|8,3:2|0:0,0:0:0:0:
284,257,59524,1,2,0:0:0:0:
284,257,59607,1,2,0:0:0:0:
284,257,59691,2,0,P|321:303|319:361,2,99.0000030212403,2|0|8,0:0|3:0|0:0,0:0:0:0:
175,232,60191,1,2,3:2:0:0:
317,153,60357,5,2,0:0:0:0:
206,88,60524,2,0,P|229:148|247:207,1,99.0000030212403,2|8,3:2|0:0,0:0:0:0:
370,220,60857,2,0,P|354:173|336:126,1,99.0000030212403,2|0,0:0|0:0,0:0:0:0:
432,112,61191,1,2,3:2:0:0:
452,228,61357,2,0,P|414:291|337:293,1,148.50000453186,8|0,0:0|0:0,0:0:0:0:
325,289,61691,6,0,P|260:293|203:307,1,99.0000030212403,6|0,3:2|0:0,0:0:0:0:
239,181,62024,1,8,0:0:0:0:
77,222,62191,2,0,P|125:213|300:219,1,198.000006042481,2|0,0:0|3:0,0:0:0:0:
370,220,62691,2,0,P|350:150|342:111,1,99.0000030212403,8|0,0:0|3:2,0:0:0:0:
495,282,63024,6,0,P|471:325|334:293,1,198.000006042481,2|8,0:0|0:0,0:0:0:0:
428,116,63524,2,0,P|442:163|453:211,1,99.0000030212403,2|0,0:0|3:0,0:0:0:0:
318,338,63857,2,0,P|303:290|292:242,1,99.0000030212403,0|8,3:0|0:0,0:0:0:0:
317,109,64191,1,2,0:0:0:0:
160,177,64357,5,10,0:0:0:0:
317,222,64524,1,10,0:0:0:0:
148,92,64691,1,10,0:0:0:0:
297,16,64857,2,0,P|278:61|245:178,1,161.999995056153,10|0,0:0|0:0,0:0:0:0:
109,249,65357,5,10,0:0:0:0:
256,339,65524,1,10,0:0:0:0:
222,190,65691,1,10,0:0:0:0:
56,353,65857,2,0,P|138:338|188:334,1,121.499996292114,10|0,0:0|0:0,0:0:0:0:
175,334,66191,1,10,0:0:0:0:
277,259,66524,5,4,3:3:0:0:
373,335,66691,2,0,L|362:291,2,40.4999987640381,10|8|10,0:0|0:0|0:0,0:0:0:0:
366,359,67024,5,10,0:0:0:0:
462,285,67191,1,10,0:0:0:0:
324,210,67357,1,10,0:0:0:0:
512,135,67524,2,0,P|468:113|402:196,1,161.999995056153,10|0,0:0|0:0,0:0:0:0:
307,100,68024,5,10,0:0:0:0:
346,241,68191,1,10,0:0:0:0:
205,280,68357,1,10,0:0:0:0:
251,160,68524,5,10,0:0:0:0:
251,160,69191,6,0,B|196:148|202:180|136:174,1,112.5,2|0,0:0|0:0,0:0:0:0:
126,155,69691,5,6,3:2:0:0:
59,227,69857,2,0,P|32:156|95:59,1,180,2|0,0:0|0:0,0:0:0:0:
149,258,70357,5,10,0:0:0:0:
10,370,70524,2,0,P|83:342|176:336,1,135,2|0,3:2|0:0,0:0:0:0:
214,311,70857,1,0,3:0:0:0:
343,339,71024,5,10,0:0:0:0:
231,230,71191,1,2,0:0:0:0:
350,156,71357,2,0,P|318:196|413:227,1,180,10|8,0:0|0:0,0:0:0:0:
441,162,71857,2,0,P|491:147|546:141,1,90,2|10,3:2|0:0,0:0:0:0:
413,63,72191,1,2,3:2:0:0:
323,165,72357,5,6,3:2:0:0:
200,33,72524,2,0,P|225:97|251:223,1,180,2|0,0:0|0:0,0:0:0:0:
151,144,73024,5,10,0:0:0:0:
151,144,73191,2,0,P|110:117|18:168,1,135,2|0,3:2|0:0,0:0:0:0:
6,213,73524,5,0,3:0:0:0:
131,314,73691,2,0,P|115:248|107:194,1,90,10|0,0:0|0:0,0:0:0:0:
174,160,74024,5,10,0:0:0:0:
205,253,74191,2,0,B|303:236|287:296|383:272,1,180,2|0,3:2|3:0,0:0:0:0:
372,189,74691,6,0,P|337:193|353:204,1,80.9999975280763,14|0,0:0|0:0,0:0:0:0:
444,227,75024,5,6,3:2:0:0:
418,58,75191,2,0,P|437:122|447:171,1,90,0|8,0:0|0:0,0:0:0:0:
260,166,75524,1,2,0:0:0:0:
399,47,75691,5,10,0:0:0:0:
260,54,75857,2,0,P|273:96|284:140,1,90,2|10,3:2|0:0,0:0:0:0:
199,256,76191,5,0,3:0:0:0:
199,256,76274,1,2,0:0:0:0:
199,256,76357,1,10,0:0:0:0:
101,174,76524,1,2,0:0:0:0:
26,288,76691,2,0,P|93:263|120:266,1,90,10|0,0:0|3:2,0:0:0:0:
284,140,77024,2,0,P|217:165|190:162,1,90,10|0,0:0|3:0,0:0:0:0:
73,129,77357,1,8,0:0:0:0:
73,129,77524,1,2,0:0:0:0:
232,69,77691,5,2,3:2:0:0:
192,185,77857,2,0,P|183:239|179:293,1,90,2|8,0:0|0:0,0:0:0:0:
275,341,78191,1,2,0:0:0:0:
354,250,78357,2,0,P|363:196|367:142,1,90,10|2,0:0|3:2,0:0:0:0:
272,121,78691,1,10,0:0:0:0:
272,121,78774,1,2,0:0:0:0:
272,121,78857,1,0,3:0:0:0:
391,59,79024,5,10,0:0:0:0:
291,133,79191,1,2,0:0:0:0:
442,196,79357,1,8,0:0:0:0:
283,161,79524,2,0,L|293:208,2,45,10|8|8,0:0|0:0|0:0,0:0:0:0:
433,73,79857,5,2,3:2:0:0:
313,15,80024,1,2,3:2:0:0:
214,104,80191,1,2,3:2:0:0:
139,40,80357,5,6,3:2:0:0:
125,51,81191,5,2,3:2:0:0:
150,134,81357,1,8,0:0:0:0:
30,221,81524,5,2,3:2:0:0:
18,239,82191,6,0,P|61:216|140:219,1,121.499996292114,2|0,0:0|0:0,0:0:0:0:
142,227,82524,1,2,3:2:0:0:
264,152,82691,2,0,P|224:183|245:266,1,121.499996292114,14|0,0:0|0:0,0:0:0:0:
240,243,83024,6,0,P|301:231|424:218,1,161.999995056153,6|10,3:2|0:0,0:0:0:0:
400,219,83524,1,2,0:0:0:0:
494,141,83691,1,2,3:2:0:0:
413,196,83857,1,2,3:2:0:0:
511,253,84024,2,0,P|516:308|516:361,1,80.9999975280763,10|0,0:0|3:2,0:0:0:0:
388,312,84357,5,2,0:0:0:0:
303,353,84524,2,0,P|255:336|208:340,1,80.9999975280763,2|8,3:2|0:0,0:0:0:0:
130,201,84857,2,0,P|152:271|160:312,1,80.9999975280763,2|0,0:0|3:0,0:0:0:0:
18,355,85191,1,2,3:2:0:0:
133,302,85357,1,8,0:0:0:0:
6,242,85524,5,2,0:0:0:0:
6,242,85607,1,2,0:0:0:0:
6,242,85691,1,4,3:1:0:0:
130,201,85857,1,2,0:0:0:0:
24,212,86024,2,0,P|13:172|0:134,1,80.9999975280763,10|2,0:0|0:0,0:0:0:0:
111,47,86357,1,2,3:2:0:0:
111,47,86524,1,2,3:2:0:0:
113,170,86691,2,0,P|166:142|205:134,1,80.9999975280763,10|0,0:0|3:2,0:0:0:0:
329,152,87024,5,2,0:0:0:0:
245,77,87191,1,2,3:2:0:0:
314,235,87357,2,0,P|279:214|240:201,1,80.9999975280763,10|0,0:0|0:0,0:0:0:0:
146,248,87691,1,0,3:0:0:0:
273,348,87857,1,2,3:2:0:0:
273,348,88024,2,0,P|325:334|364:329,1,80.9999975280763,10|2,0:0|0:0,0:0:0:0:
491,209,88357,6,0,P|445:218|437:320,1,161.999995056153,4|8,3:1|0:0,0:0:0:0:
433,316,88857,1,2,0:0:0:0:
338,226,89024,1,2,3:2:0:0:
443,141,89191,1,2,3:2:0:0:
443,141,89357,1,10,0:0:0:0:
282,113,89524,1,2,0:0:0:0:
394,60,89691,6,0,P|405:120|409:168,2,80.9999975280763,2|2|8,3:2|0:0|0:0,0:0:0:0:
491,181,90191,1,10,0:0:0:0:
321,121,90357,1,4,3:3:0:0:
321,121,90441,1,8,0:0:0:0:
321,121,90524,2,0,L|268:110,1,40.4999987640381,10|8,0:0|0:0,0:0:0:0:
187,235,90691,2,0,L|240:224,1,40.4999987640381,10|8,0:0|0:0,0:0:0:0:
236,60,90857,5,8,0:0:0:0:
236,60,90941,1,8,0:0:0:0:
236,60,91024,2,0,P|252:150|255:206,1,125.999996154785,6|0,3:2|0:0,0:0:0:0:
187,235,91524,2,0,P|167:198|177:155,1,62.9999980773926,10|0,0:0|0:0,0:0:0:0:
323,133,91857,2,0,P|343:170|333:213,1,62.9999980773926,10|0,0:0|0:0,0:0:0:0:
277,280,92191,1,2,3:2:0:0:
169,346,92357,6,0,P|131:337|79:336,1,62.9999980773926,2|2,0:0|3:2,0:0:0:0:
34,227,92691,2,0,P|65:230|168:251,1,125.999996154785,8|0,0:0|0:0,0:0:0:0:
254,184,93191,1,10,0:0:0:0:
254,184,93357,1,2,0:0:0:0:
179,75,93524,1,2,3:2:0:0:
354,56,93691,6,0,P|300:45|282:124,1,125.999996154785,2|0,3:1|3:0,0:0:0:0:
352,144,94191,2,0,P|390:135|423:131,1,62.9999980773926,10|0,0:0|0:0,0:0:0:0:
512,45,94524,2,0,P|504:75|499:106,1,62.9999980773926,10|0,0:0|0:0,0:0:0:0:
493,203,94857,1,2,3:2:0:0:
340,302,95024,6,0,P|321:267|327:230,1,62.9999980773926,2|2,0:0|3:2,0:0:0:0:
512,232,95357,1,8,0:0:0:0:
512,232,95524,2,0,P|500:270|470:292,1,62.9999980773926,2|0,0:0|3:0,0:0:0:0:
381,179,95857,1,10,0:0:0:0:
283,252,96024,2,0,P|236:245|203:245,1,62.9999980773926,8|8,0:0|0:0,0:0:0:0:
141,208,96357,6,0,B|113:281|167:264|140:355,1,125.999996154785,6|2,3:2|3:2,0:0:0:0:
3,316,96857,2,0,P|50:309|83:309,1,62.9999980773926,10|0,0:0|0:0,0:0:0:0:
204,162,97191,1,10,0:0:0:0:
204,162,97357,2,0,P|161:130|83:153,1,125.999996154785,2|0,0:0|0:0,0:0:0:0:
93,143,97857,5,0,3:0:0:0:
187,50,98024,2,0,P|234:57|267:57,1,62.9999980773926,10|0,0:0|3:0,0:0:0:0:
350,131,98357,1,2,0:0:0:0:
350,131,98524,2,0,P|303:138|270:138,1,62.9999980773926,8|2,0:0|0:0,0:0:0:0:
287,138,98774,1,2,0:0:0:0:
287,138,98857,1,4,3:3:0:0:
362,46,99024,5,2,3:2:0:0:
455,103,99191,2,0,B|483:147|483:147|471:202,1,94.499997116089,2|0,0:0|0:0,0:0:0:0:
461,202,99524,2,0,P|414:195|381:195,1,62.9999980773926,10|0,0:0|0:0,0:0:0:0:
266,244,99857,1,10,0:0:0:0:
266,244,100024,2,0,P|319:256|378:318,1,125.999996154785,2|0,0:0|0:0,0:0:0:0:
370,303,100524,5,0,3:0:0:0:
212,333,100691,2,0,P|167:322|126:314,1,62.9999980773926,12|0,0:0|3:0,0:0:0:0:
51,324,101024,1,2,3:2:0:0:
51,324,101191,1,2,0:0:0:0:
104,219,101357,2,0,P|149:230|190:238,1,62.9999980773926,8|0,0:0|0:0,0:0:0:0:
303,124,101691,6,0,P|286:164|264:259,1,125.999996154785,6|0,3:2|3:0,0:0:0:0:
378,151,102191,2,0,B|391:122|391:122|374:84,1,62.9999980773926,10|0,0:0|0:0,0:0:0:0:
215,84,102524,2,0,B|202:113|202:113|219:151,1,62.9999980773926,10|0,0:0|0:0,0:0:0:0:
299,31,102857,1,2,3:2:0:0:
207,171,103024,6,0,P|141:163|120:161,1,62.9999980773926,2|0,0:0|3:2,0:0:0:0:
39,273,103357,2,0,P|92:255|182:254,1,125.999996154785,8|0,0:0|0:0,0:0:0:0:
259,279,103857,1,10,0:0:0:0:
259,279,104024,1,2,0:0:0:0:
296,159,104191,1,2,3:2:0:0:
430,230,104357,6,0,P|378:214|339:283,1,125.999996154785,2|0,3:1|3:0,0:0:0:0:
427,369,104857,2,0,P|416:324|415:293,1,62.9999980773926,10|0,0:0|0:0,0:0:0:0:
500,183,105191,2,0,P|511:228|512:259,1,62.9999980773926,10|0,0:0|0:0,0:0:0:0:
505,329,105524,1,2,3:2:0:0:
342,351,105691,6,0,P|285:343|254:334,1,62.9999980773926,2|0,0:0|3:2,0:0:0:0:
279,341,106024,1,8,0:0:0:0:
140,304,106191,1,10,0:0:0:0:
140,304,106274,1,8,0:0:0:0:
140,304,106357,1,8,0:0:0:0:
253,239,106524,1,4,3:3:0:0:
188,363,106691,2,0,P|172:291|160:253,1,94.499997116089,4|0,3:3|0:0,0:0:0:0:
156,252,107024,5,14,0:0:0:0:
197,82,107191,2,0,P|231:111|239:157,1,90,2|2,3:2|0:0,0:0:0:0:
56,275,107524,2,0,P|52:230|79:192,1,90,2|0,3:2|0:0,0:0:0:0:
162,152,108024,5,10,0:0:0:0:
334,110,108191,2,0,P|320:162|314:213,1,90,2|0,3:2|0:0,0:0:0:0:
206,282,108524,1,2,3:2:0:0:
343,210,108691,1,12,0:0:0:0:
291,340,108857,2,0,P|283:311|276:291,2,45,8|8|8,0:0|0:0|0:0,0:0:0:0:
401,296,109191,5,4,3:3:0:0:
238,203,109357,1,4,3:3:0:0:
401,296,109524,1,10,0:0:0:0:
116,330,109691,6,0,P|184:297|315:281,1,198.000006042481,6|8,3:2|0:0,0:0:0:0:
206,186,110191,1,2,0:0:0:0:
206,186,110274,1,2,0:0:0:0:
206,186,110357,2,0,P|190:128|184:68,2,99.0000030212403,2|0|8,0:0|3:0|0:0,0:0:0:0:
98,126,110857,1,2,3:2:0:0:
304,159,111024,5,2,0:0:0:0:
99,255,111191,2,0,P|148:220|201:204,1,99.0000030212403,2|8,3:2|0:0,0:0:0:0:
270,41,111524,2,0,P|221:76|168:92,1,99.0000030212403,2|0,0:0|3:0,0:0:0:0:
321,175,111857,1,2,3:2:0:0:
451,57,112024,2,0,B|433:83|412:101|412:101|425:154|433:212,1,148.50000453186,10|0,0:0|0:0,0:0:0:0:
443,211,112357,6,0,P|504:197|547:194,1,99.0000030212403,6|0,3:2|0:0,0:0:0:0:
476,334,112691,1,8,0:0:0:0:
346,205,112857,2,0,P|300:223|285:358,1,198.000006042481,2|0,0:0|3:0,0:0:0:0:
181,287,113357,2,0,P|120:273|77:270,1,99.0000030212403,8|2,0:0|3:2,0:0:0:0:
26,149,113691,6,0,B|150:131|91:201|236:185,1,198.000006042481,2|10,0:0|0:0,0:0:0:0:
262,258,114191,2,0,B|215:280|215:280|147:252,1,99.0000030212403,2|0,0:0|3:0,0:0:0:0:
165,112,114524,2,0,B|212:90|212:90|280:118,1,99.0000030212403,2|8,3:2|0:0,0:0:0:0:
338,178,114857,1,0,0:0:0:0:
446,144,115024,6,0,B|417:173|418:211|418:211|441:248|427:307,1,148.50000453186,6|0,3:2|0:0,0:0:0:0:
412,354,115357,1,10,0:0:0:0:
243,334,115524,2,0,P|205:287|210:241,1,99.0000030212403,2|0,0:0|0:0,0:0:0:0:
316,156,115857,1,2,3:2:0:0:
316,156,116024,2,0,P|305:208|296:276,1,99.0000030212403,10|0,0:0|3:0,0:0:0:0:
130,351,116357,6,0,B|152:241|74:269|131:135,1,198.000006042481,2|8,0:0|0:0,0:0:0:0:
32,315,116857,1,2,0:0:0:0:
290,238,117024,2,0,P|227:206|176:196,1,99.0000030212403,2|2,3:2|3:2,0:0:0:0:
32,142,117357,1,10,0:0:0:0:
189,76,117524,1,2,0:0:0:0:
93,13,117691,6,0,P|110:71|121:172,1,148.50000453186,6|0,3:2|0:0,0:0:0:0:
51,222,118024,2,0,P|94:249|155:242,1,99.0000030212403,12|2,0:0|0:0,0:0:0:0:
228,181,118357,1,0,3:0:0:0:
343,306,118524,2,0,P|329:238|329:179,1,99.0000030212403,0|8,3:0|0:0,0:0:0:0:
343,90,118857,5,2,3:2:0:0:
343,90,118941,1,2,0:0:0:0:
343,90,119024,2,0,P|430:136|448:237,1,198.000006042481,2|10,3:2|0:0,0:0:0:0:
331,320,119524,1,8,0:0:0:0:
315,314,119607,1,8,0:0:0:0:
299,308,119691,1,8,0:0:0:0:
204,339,119857,1,4,3:3:0:0:
120,232,120024,1,4,3:3:0:0:
215,263,120190,1,8,0:0:0:0:
103,362,120357,6,0,B|99:291|99:291|74:252|74:252|68:157,1,198.000006042481,6|8,3:2|0:0,0:0:0:0:
207,72,120857,1,2,0:0:0:0:
207,72,120941,1,2,0:0:0:0:
207,72,121024,2,0,P|175:121|178:173,2,99.0000030212403,2|0|8,0:0|3:0|0:0,0:0:0:0:
369,68,121524,1,2,3:2:0:0:
255,146,121691,5,2,0:0:0:0:
367,163,121857,2,0,P|312:142|267:132,1,99.0000030212403,2|8,3:2|0:0,0:0:0:0:
150,232,122190,2,0,P|198:243|244:262,1,99.0000030212403,2|0,0:0|3:0,0:0:0:0:
333,316,122523,1,2,3:2:0:0:
441,281,122691,2,0,P|463:220|480:111,1,148.50000453186,8|0,0:0|0:0,0:0:0:0:
463,97,123024,6,0,P|408:76|363:66,1,99.0000030212403,6|0,3:2|0:0,0:0:0:0:
217,177,123357,1,8,0:0:0:0:
324,183,123524,2,0,P|294:99|184:72,1,198.000006042481,2|0,0:0|3:0,0:0:0:0:
75,46,124024,2,0,P|93:91|105:140,1,99.0000030212403,8|2,0:0|3:2,0:0:0:0:
27,242,124357,6,0,B|132:214|119:287|218:258,1,198.000006042481,2|10,0:0|0:0,0:0:0:0:
333,129,124857,2,0,P|343:198|354:247,1,99.0000030212403,2|0,0:0|3:0,0:0:0:0:
218,334,125191,2,0,P|227:285|234:236,1,99.0000030212403,2|10,3:2|0:0,0:0:0:0:
193,124,125524,1,2,0:0:0:0:
324,46,125691,5,10,0:0:0:0:
181,139,125857,1,10,0:0:0:0:
364,146,126024,1,10,0:0:0:0:
209,39,126191,2,0,P|145:22|24:15,1,161.999995056153,10|0,0:0|0:0,0:0:0:0:
6,160,126691,5,10,0:0:0:0:
115,107,126857,1,10,0:0:0:0:
25,270,127024,1,10,0:0:0:0:
148,310,127191,2,0,P|212:293|296:289,1,121.499996292114,10|0,0:0|0:0,0:0:0:0:
266,288,127524,1,10,0:0:0:0:
479,297,127857,5,4,3:3:0:0:
365,185,128024,2,0,L|374:139,2,40.4999987640381,10|8|10,0:0|0:0|0:0,0:0:0:0:
397,129,128357,5,10,0:0:0:0:
275,175,128524,1,10,0:0:0:0:
288,41,128691,1,10,0:0:0:0:
479,67,128857,2,0,P|458:117|434:231,1,161.999995056153,10|0,0:0|0:0,0:0:0:0:
290,149,129357,5,10,0:0:0:0:
381,279,129524,1,10,0:0:0:0:
223,308,129691,1,10,0:0:0:0:
393,378,129857,5,10,0:0:0:0:
20,72,141691,6,0,P|31:122|45:186,1,90,6|0,3:2|0:0,0:0:0:0:
147,198,142024,2,0,P|137:154|127:110,1,90,10|0,0:0|0:0,0:0:0:0:
29,272,142357,1,10,0:0:0:0:
29,272,142524,1,2,3:2:0:0:
147,319,142691,1,10,0:0:0:0:
147,319,142857,1,2,3:2:0:0:
228,213,143024,6,0,P|286:194|347:192,1,90,8|0,0:0|0:0,0:0:0:0:
394,119,143357,1,8,0:0:0:0:
394,119,143524,2,0,P|349:112|307:96,1,90,2|8,0:0|0:0,0:0:0:0:
458,45,143857,1,0,3:2:0:0:
458,45,143941,1,2,0:0:0:0:
458,45,144024,2,0,P|490:86|486:139,1,90,10|0,0:0|3:2,0:0:0:0:
455,272,144357,6,0,P|445:215|432:166,1,90,10|0,0:0|0:0,0:0:0:0:
326,75,144691,2,0,P|336:118|343:163,1,90,10|0,0:0|0:0,0:0:0:0:
222,250,145024,1,10,0:0:0:0:
222,250,145191,1,2,3:2:0:0:
256,131,145357,1,10,0:0:0:0:
256,131,145524,1,2,3:2:0:0:
145,164,145691,6,0,P|90:157|17:208,1,135,8|0,0:0|0:0,0:0:0:0:
0,199,146024,2,0,P|12:248|27:313,1,90,8|0,0:0|3:2,0:0:0:0:
190,340,146357,1,10,0:0:0:0:
109,265,146524,2,0,P|97:314|82:379,1,90,2|8,3:2|0:0,0:0:0:0:
206,245,146857,1,2,0:0:0:0:
284,303,147024,6,0,P|333:292|396:286,1,90,6|0,3:2|0:0,0:0:0:0:
494,212,147357,2,0,P|445:201|382:195,1,90,10|0,0:0|0:0,0:0:0:0:
337,120,147691,1,10,0:0:0:0:
337,120,147857,1,2,3:2:0:0:
441,68,148024,1,10,0:0:0:0:
441,68,148191,1,2,3:2:0:0:
384,212,148357,6,0,P|376:158|357:97,1,90,8|0,0:0|0:0,0:0:0:0:
260,34,148691,1,8,0:0:0:0:
260,34,148857,2,0,P|252:88|233:149,1,90,2|8,3:2|0:0,0:0:0:0:
153,182,149191,1,2,3:2:0:0:
58,134,149357,1,10,0:0:0:0:
170,173,149524,1,2,0:0:0:0:
44,238,149691,6,0,P|59:293|74:363,1,90,6|0,3:2|0:0,0:0:0:0:
254,281,150024,2,0,P|239:336|224:406,1,90,6|0,3:2|0:0,0:0:0:0:
150,149,150357,2,0,P|165:204|180:274,1,90,6|0,3:2|3:2,0:0:0:0:
356,193,150691,1,10,0:0:0:0:
328,320,150857,1,2,3:2:0:0:
270,192,151024,6,0,P|303:121|355:107,1,135,6|0,3:2|0:0,0:0:0:0:
381,123,151357,2,0,P|437:129|500:133,1,90,12|8,0:0|0:0,0:0:0:0:
470,131,151607,1,8,0:0:0:0:
470,131,151691,1,8,0:0:0:0:
381,210,151857,1,4,3:3:0:0:
504,280,152024,1,4,3:3:0:0:
328,320,152191,2,0,P|363:315|392:298,1,45,8|0,0:0|0:0,0:0:0:0:
512,299,152357,2,0,P|477:304|448:321,1,45,8|0,0:0|0:0,0:0:0:0:
419,377,152524,5,2,3:1:0:0:
240,313,152857,5,2,3:1:0:0:
381,190,153191,5,4,3:3:0:0:
328,320,153357,6,0,L|311:265,2,45,8|8|4,0:0|0:0|3:3,0:0:0:0:
406,172,153691,6,0,P|352:192|272:207,1,125.999996154785,6|0,3:2|3:0,0:0:0:0:
223,271,154191,2,0,P|186:251|153:246,1,62.9999980773926,10|0,0:0|0:0,0:0:0:0:
145,121,154524,2,0,P|182:141|215:146,1,62.9999980773926,10|0,0:0|0:0,0:0:0:0:
79,206,154857,1,2,3:2:0:0:
40,64,155024,6,0,P|56:110|66:146,1,62.9999980773926,2|0,0:0|3:2,0:0:0:0:
222,56,155357,2,0,P|158:45|134:114,1,125.999996154785,8|0,0:0|0:0,0:0:0:0:
237,139,155857,1,10,0:0:0:0:
237,139,156024,1,2,0:0:0:0:
363,95,156191,1,2,3:2:0:0:
325,285,156357,6,0,B|340:210|296:227|319:140,1,125.999996154785,2|0,3:1|3:0,0:0:0:0:
432,159,156857,2,0,P|396:164|389:194,1,62.9999980773926,10|0,0:0|0:0,0:0:0:0:
210,234,157191,2,0,P|246:239|253:269,1,62.9999980773926,10|0,0:0|0:0,0:0:0:0:
329,335,157524,1,2,3:2:0:0:
429,268,157691,6,0,P|464:254|499:247,1,62.9999980773926,2|0,0:0|3:2,0:0:0:0:
491,139,158024,1,8,0:0:0:0:
491,139,158191,2,0,P|460:146|431:158,1,62.9999980773926,2|0,0:0|3:0,0:0:0:0:
294,137,158524,1,10,0:0:0:0:
328,18,158691,2,0,P|340:47|347:77,1,62.9999980773926,8|0,0:0|0:0,0:0:0:0:
185,64,159024,6,0,P|230:60|256:141,1,125.999996154785,6|0,3:2|3:2,0:0:0:0:
132,146,159524,2,0,P|101:138|72:126,1,62.9999980773926,10|0,0:0|0:0,0:0:0:0:
100,251,159857,1,10,0:0:0:0:
100,251,160024,2,0,P|129:238|236:220,1,125.999996154785,2|0,0:0|0:0,0:0:0:0:
321,114,160524,5,0,3:0:0:0:
321,114,160691,2,0,P|305:154|304:196,1,62.9999980773926,10|0,0:0|3:0,0:0:0:0:
386,294,161024,1,2,0:0:0:0:
386,294,161191,2,0,P|402:254|403:212,1,62.9999980773926,8|0,0:0|0:0,0:0:0:0:
404,234,161441,1,2,0:0:0:0:
404,234,161524,1,4,3:3:0:0:
243,239,161691,5,2,3:2:0:0:
305,356,161857,2,0,P|267:331|193:322,1,94.499997116089,2|0,0:0|0:0,0:0:0:0:
200,326,162191,2,0,P|143:336|114:340,1,62.9999980773926,10|0,0:0|0:0,0:0:0:0:
30,250,162524,1,10,0:0:0:0:
30,250,162691,2,0,P|63:210|114:208,1,94.499997116089,2|0,0:0|0:0,0:0:0:0:
121,214,163024,5,2,0:0:0:0:
213,187,163191,5,2,3:2:0:0:
213,187,163274,2,0,L|202:238,1,31.4999990386963,2|8,0:0|0:0,0:0:0:0:
305,160,163524,5,2,0:0:0:0:
305,160,163691,2,0,P|315:113|321:71,1,62.9999980773926,2|4,3:2|3:3,0:0:0:0:
419,152,164024,1,4,3:3:0:0:
328,244,164191,1,4,3:3:0:0:
432,357,164357,6,0,P|416:294|410:213,1,125.999996154785,6|0,3:2|3:0,0:0:0:0:
316,288,164857,2,0,P|277:272|257:241,1,62.9999980773926,10|0,0:0|0:0,0:0:0:0:
200,341,165191,2,0,P|161:357|141:388,1,62.9999980773926,10|0,0:0|0:0,0:0:0:0:
79,285,165524,1,2,3:2:0:0:
160,180,165691,6,0,P|177:221|189:264,1,62.9999980773926,2|0,0:0|3:2,0:0:0:0:
326,129,166024,2,0,P|264:125|252:197,1,125.999996154785,8|0,0:0|0:0,0:0:0:0:
379,211,166524,1,10,0:0:0:0:
379,211,166691,1,2,0:0:0:0:
489,162,166857,1,2,3:2:0:0:
487,273,167024,6,0,B|421:263|436:311|345:297,1,125.999996154785,2|0,3:1|3:0,0:0:0:0:
266,263,167524,2,0,P|252:226|243:188,1,62.9999980773926,10|0,0:0|0:0,0:0:0:0:
181,325,167857,2,0,P|189:355|200:384,1,62.9999980773926,10|0,0:0|0:0,0:0:0:0:
96,314,168191,1,2,3:2:0:0:
156,187,168357,6,0,P|200:189|248:187,1,62.9999980773926,2|0,0:0|3:2,0:0:0:0:
218,188,168691,1,8,0:0:0:0:
360,83,168857,2,0,P|308:88|280:143,1,94.499997116089,2|0,0:0|0:0,0:0:0:0:
291,142,169191,1,10,0:0:0:0:
413,193,169357,2,0,P|436:144|472:87,1,94.499997116089,8|0,0:0|0:0,0:0:0:0:
476,93,169691,5,6,3:2:0:0:
510,244,169857,1,10,0:2:0:0:
369,280,170024,1,10,0:2:0:0:
506,370,170191,2,0,P|460:349|405:343,1,90,10|0,0:2|0:0,0:0:0:0:
296,228,170691,5,10,0:0:0:0:
335,361,170857,1,10,0:0:0:0:
191,300,171024,1,8,0:0:0:0:
239,130,171191,2,0,P|258:191|271:256,1,90,10|0,0:0|0:0,0:0:0:0:
191,376,171524,2,0,P|180:332|166:289,1,90,10|0,0:0|0:0,0:0:0:0:
68,235,171857,1,2,3:2:0:0:
159,149,172024,1,8,0:0:0:0:
159,149,172107,1,8,0:0:0:0:
159,149,172191,1,8,0:0:0:0:
35,121,172357,5,10,0:0:0:0:
96,223,172524,1,10,0:0:0:0:
256,141,172691,1,10,0:0:0:0:
121,44,172857,2,0,P|128:99|139:161,1,90,10|0,0:0|0:0,0:0:0:0:
191,265,173357,5,10,0:0:0:0:
241,116,173524,1,10,0:0:0:0:
366,231,173691,1,10,0:0:0:0:
262,202,173857,5,10,0:0:0:0:
453,76,174357,5,8,0:0:0:0:
453,76,174441,1,8,0:0:0:0:
453,76,174524,1,8,0:0:0:0:
453,76,174607,1,8,0:0:0:0:
453,76,174691,2,0,L|461:138,1,45,8|8,0:0|0:0,0:0:0:0:
416,217,174857,2,0,L|371:211,1,45,8|8,0:0|0:0,0:0:0:0:
323,101,175024,1,4,3:2:0:0:
323,101,175524,6,0,P|264:76|209:73,1,107.999996704102,2|2,3:2|3:2,0:0:0:0:
152,114,176024,1,2,3:2:0:0:
69,112,176191,1,2,3:2:0:0:
154,27,176357,5,6,3:2:0:0:
287,86,179024,5,6,3:2:0:0:
411,255,180857,6,0,P|360:225|290:240,1,125.999996154785,10|2,0:0|3:2,0:0:0:0:
227,326,181357,2,0,P|182:312|112:304,1,94.499997116089,4|0,3:3|0:0,0:0:0:0:
114,317,181691,6,0,P|100:264|86:216,1,90,6|0,3:2|0:0,0:0:0:0:
40,138,182024,1,2,0:0:0:0:
165,133,182191,2,0,P|177:176|188:219,1,90,2|10,3:2|0:0,0:0:0:0:
280,267,182524,1,2,0:0:0:0:
179,109,182691,1,2,0:0:0:0:
179,109,182857,1,0,3:0:0:0:
271,166,183024,6,0,P|314:153|384:145,1,90,0|8,3:0|0:0,0:0:0:0:
512,208,183357,2,0,P|466:188|396:243,1,135,2|0,0:0|0:0,0:0:0:0:
375,235,183691,2,0,P|394:300|404:351,1,90,10|0,0:2|0:0,0:0:0:0:
224,294,184024,1,2,3:2:0:0:
224,294,184191,1,2,0:0:0:0:
387,345,184357,5,10,0:0:0:0:
205,198,184524,2,0,P|155:219|138:269,1,90,2|0,3:1|0:0,0:0:0:0:
289,348,184857,2,0,P|309:297|286:250,1,90,2|2,3:1|0:2,0:0:0:0:
142,341,185357,5,10,0:0:0:0:
17,185,185524,2,0,P|35:242|60:366,1,180,2|0,3:2|3:0,0:0:0:0:
127,222,186024,1,6,3:2:0:0:
224,294,186191,5,10,0:0:0:0:
224,294,186274,1,8,0:0:0:0:
224,294,186357,1,8,0:0:0:0:
188,170,186524,1,4,3:3:0:0:
312,134,186691,1,4,3:3:0:0:
348,258,186857,1,10,0:0:0:0:
464,121,187024,6,0,B|370:116|370:116|360:121|360:121|259:115,1,198.000006042481,6|8,3:2|0:0,0:0:0:0:
228,26,187524,1,2,0:0:0:0:
228,26,187607,1,2,0:0:0:0:
228,26,187691,2,0,P|183:57|171:126,2,99.0000030212403,2|0|8,0:0|3:0|0:0,0:0:0:0:
288,148,188191,1,2,3:2:0:0:
142,193,188357,5,2,0:0:0:0:
267,115,188524,2,0,P|271:169|282:233,1,99.0000030212403,2|8,3:2|0:0,0:0:0:0:
180,311,188857,2,0,P|172:262|169:212,1,99.0000030212403,2|0,0:0|3:0,0:0:0:0:
63,282,189191,1,2,3:2:0:0:
139,92,189357,2,0,P|79:93|34:182,1,148.50000453186,8|0,0:0|0:0,0:0:0:0:
52,187,189691,6,0,P|111:176|178:176,1,99.0000030212403,6|0,3:2|0:0,0:0:0:0:
231,57,190024,1,8,0:0:0:0:
355,147,190191,2,0,P|283:152|243:272,1,198.000006042481,2|0,0:0|3:0,0:0:0:0:
428,251,190691,2,0,P|369:240|302:240,1,99.0000030212403,8|2,0:0|3:2,0:0:0:0:
148,357,191024,6,0,P|235:340|348:338,1,198.000006042481,2|8,0:0|0:0,0:0:0:0:
469,331,191524,2,0,P|512:285|506:234,1,99.0000030212403,2|0,0:0|3:0,0:0:0:0:
305,151,191857,2,0,P|307:213|347:245,1,99.0000030212403,2|10,3:2|0:0,0:0:0:0:
465,172,192191,1,0,0:0:0:0:
334,66,192357,5,10,0:0:0:0:
379,178,192524,1,10,0:0:0:0:
226,87,192691,1,10,0:0:0:0:
289,177,192857,2,0,P|226:188|124:249,1,161.999995056153,10|0,0:0|0:0,0:0:0:0:
41,139,193357,5,10,0:0:0:0:
147,207,193524,1,10,0:0:0:0:
3,271,193691,1,10,0:0:0:0:
119,340,193857,2,0,P|183:323|271:309,1,121.499996292114,10|0,0:0|0:0,0:0:0:0:
237,313,194191,1,2,3:1:0:0:
430,349,194524,5,4,3:3:0:0:
318,223,194691,2,0,P|327:197|340:167,2,40.4999987640381,10|8|10,0:0|0:0|0:0,0:0:0:0:
313,150,195024,5,10,0:0:0:0:
350,307,195191,1,10,0:0:0:0:
204,218,195357,1,10,0:0:0:0:
407,230,195524,2,0,P|416:161|466:68,1,161.999995056153,10|0,0:0|0:0,0:0:0:0:
292,124,196024,5,10,0:0:0:0:
163,197,196191,1,10,0:0:0:0:
204,76,196357,1,10,0:0:0:0:
234,254,196524,2,0,P|187:238|127:226,1,80.9999975280763,14|0,0:0|0:0,0:0:0:0:
16,132,196857,5,0,3:2:0:0:
95,294,197024,1,14,0:0:0:0:
118,107,197191,1,10,0:0:0:0:
142,84,197274,1,8,0:0:0:0:
170,67,197357,1,10,0:0:0:0:
202,57,197441,1,8,0:0:0:0:
235,55,197524,1,10,0:0:0:0:
268,60,197607,1,8,0:0:0:0:
297,72,197691,6,0,P|359:107|489:125,1,198.000006042481,6|8,3:2|0:0,0:0:0:0:
383,208,198191,1,0,0:0:0:0:
383,208,198274,1,2,0:0:0:0:
383,208,198357,2,0,P|317:224|244:286,1,148.50000453186,2|0,0:0|0:0,0:0:0:0:
254,272,198691,1,10,0:0:0:0:
141,145,198857,5,0,3:0:0:0:
141,145,199024,2,0,B|124:254|207:218|154:352,1,198.000006042481,2|10,0:0|0:0,0:0:0:0:
0,308,199524,2,0,P|53:288|110:276,1,99.0000030212403,2|0,0:0|3:2,0:0:0:0:
230,184,199857,1,2,3:2:0:0:
98,106,200024,1,10,0:0:0:0:
171,30,200191,1,2,0:0:0:0:
14,150,200357,6,0,P|75:131|238:104,1,198.000006042481,6|8,3:2|0:0,0:0:0:0:
272,37,200857,1,2,0:0:0:0:
272,37,200941,1,2,0:0:0:0:
272,37,201024,2,0,P|301:89|280:158,1,99.0000030212403,2|0,0:0|3:0,0:0:0:0:
218,304,201357,2,0,P|189:252|210:183,1,99.0000030212403,8|2,0:0|3:2,0:0:0:0:
448,181,201691,6,0,P|361:183|253:255,1,198.000006042481,2|10,0:0|0:0,0:0:0:0:
198,335,202191,2,0,P|141:324|73:318,1,99.0000030212403,2|0,0:0|3:0,0:0:0:0:
10,197,202524,2,0,P|59:202|107:212,1,99.0000030212403,2|8,3:2|0:0,0:0:0:0:
220,140,202857,1,2,0:0:0:0:
114,70,203024,6,0,B|89:51|89:8|89:8|69:51|98:115,1,148.50000453186,6|0,3:2|0:0,0:0:0:0:
139,141,203357,1,10,0:0:0:0:
269,61,203524,2,0,P|310:101|303:185,1,99.0000030212403,2|0,0:0|0:0,0:0:0:0:
199,315,203857,1,2,3:2:0:0:
199,315,204024,2,0,P|194:259|179:189,1,99.0000030212403,10|2,0:0|3:2,0:0:0:0:
399,195,204357,6,0,P|341:174|293:296,1,198.000006042481,2|8,0:0|0:0,0:0:0:0:
394,321,204857,1,0,0:0:0:0:
429,187,205024,2,0,P|436:125|451:67,1,99.0000030212403,2|2,3:2|3:2,0:0:0:0:
234,133,205357,1,8,0:0:0:0:
344,54,205524,1,2,0:0:0:0:
318,180,205691,6,0,P|262:165|136:154,1,148.50000453186,6|0,3:2|0:0,0:0:0:0:
128,88,206024,2,0,P|90:141|112:202,1,99.0000030212403,12|0,0:2|0:0,0:0:0:0:
112,335,206357,1,0,3:0:0:0:
172,154,206524,1,0,3:0:0:0:
317,179,206691,2,0,P|328:228|336:277,1,99.0000030212403,12|2,0:0|3:2,0:0:0:0:
460,268,207024,6,0,P|448:211|320:214,1,198.000006042481,2|14,3:2|0:0,0:0:0:0:
265,124,207524,1,8,0:0:0:0:
265,124,207607,1,8,0:0:0:0:
265,124,207691,1,8,0:0:0:0:
213,233,207857,1,4,3:3:0:0:
81,300,208024,1,4,3:3:0:0:
28,189,208190,1,8,0:0:0:0:
157,163,208357,6,0,P|132:221|108:381,1,198.000006042481,6|8,3:2|0:0,0:0:0:0:
323,247,208857,1,2,0:0:0:0:
323,247,208941,1,2,0:0:0:0:
323,247,209024,2,0,P|257:237|218:279,2,99.0000030212403,2|0|8,0:0|3:0|0:0,0:0:0:0:
376,358,209524,1,2,3:2:0:0:
187,317,209691,5,2,0:0:0:0:
316,147,209857,2,0,P|335:215|356:264,1,99.0000030212403,2|8,3:2|0:0,0:0:0:0:
262,347,210191,2,0,P|244:300|232:252,1,99.0000030212403,2|0,0:0|3:0,0:0:0:0:
120,207,210524,1,2,3:2:0:0:
187,25,210691,2,0,P|231:64|215:162,1,148.50000453186,8|0,0:0|0:0,0:0:0:0:
196,140,211024,6,0,P|137:125|74:123,1,99.0000030212403,6|0,3:2|0:0,0:0:0:0:
3,250,211357,1,8,0:0:0:0:
138,242,211524,2,0,P|201:228|358:222,1,198.000006042481,2|0,0:0|3:0,0:0:0:0:
455,78,212024,2,0,P|450:127|437:174,1,99.0000030212403,8|2,0:0|3:2,0:0:0:0:
249,89,212357,6,0,P|309:46|356:137,1,198.000006042481,2|10,0:0|0:0,0:0:0:0:
335,324,212857,2,0,P|313:264|307:212,1,99.0000030212403,2|0,0:0|3:0,0:0:0:0:
194,160,213191,1,10,3:2:0:0:
194,160,213357,2,8,P|166:201|149:247,1,99.0000030212403,14|0,0:0|0:0,0:0:0:0:
107,347,213691,5,10,0:0:0:0:
8,217,213857,1,10,3:2:0:0:
191,266,214024,1,10,0:0:0:0:
115,75,214191,1,10,3:2:0:0:
115,75,214691,5,10,0:0:0:0:
265,123,214857,1,10,3:2:0:0:
211,281,215024,1,10,0:0:0:0:
61,233,215190,1,10,3:2:0:0:
226,238,215691,5,4,3:3:0:0:
226,238,215774,1,8,0:0:0:0:
226,238,215857,1,10,0:0:0:0:
226,238,215941,2,0,P|258:230|289:223,1,40.4999987640381,8|10,0:0|0:0,0:0:0:0:
376,132,216191,1,10,0:0:0:0:
369,153,216274,1,8,0:0:0:0:
362,174,216357,5,10,0:0:0:0:
431,255,216524,1,10,3:2:0:0:
287,324,216691,1,10,0:0:0:0:
485,374,216857,1,10,3:2:0:0:
270,136,217357,5,10,0:0:0:0:
218,58,217524,1,10,3:2:0:0:
156,188,217691,1,10,0:0:0:0:
341,251,217857,1,10,3:2:0:0:
256,9,218524,6,0,L|243:47,1,40.4999987640381,0|0,3:0|3:0,0:0:0:0:
281,116,218691,2,0,P|334:97|358:94,1,67.5,6|0,3:2|0:0,0:0:0:0:
355,74,219024,5,6,3:2:0:0:
501,117,219191,2,0,P|492:162|372:201,1,180,2|0,0:0|0:0,0:0:0:0:
199,111,219691,5,10,0:0:0:0:
265,330,219857,2,0,B|278:248|238:271|267:187,1,135,2|0,3:2|0:0,0:0:0:0:
279,180,220191,1,2,3:2:0:0:
184,296,220357,5,10,0:0:0:0:
345,230,220524,1,2,0:0:0:0:
285,360,220691,2,0,P|231:337|99:321,1,180,10|10,0:0|0:0,0:0:0:0:
7,326,221191,1,2,3:2:0:0:
97,225,221357,2,0,P|141:220|183:205,1,90,10|0,0:0|0:0,0:0:0:0:
341,88,221691,5,6,3:2:0:0:
287,13,221857,2,0,B|250:27|250:27|206:96|272:188,1,180,2|0,0:0|0:0,0:0:0:0:
442,206,222357,5,10,0:0:0:0:
352,114,222524,2,0,P|337:174|326:266,1,135,2|0,3:2|0:0,0:0:0:0:
330,273,222857,5,2,3:2:0:0:
468,331,223024,2,0,B|353:313|404:380|265:346,1,180,10|8,0:0|0:0,0:0:0:0:
140,269,223524,6,0,B|121:294|121:294|128:342|99:377,1,90,2|8,3:2|0:0,0:0:0:0:
253,204,223857,2,0,B|234:179|234:179|241:131|212:96,1,90,2|8,3:2|0:0,0:0:0:0:
138,49,224191,1,2,0:0:0:0:
0,170,224357,5,6,3:2:0:0:
154,187,224524,2,0,P|101:152|41:133,1,90,2|8,0:0|0:0,0:0:0:0:
229,47,224857,5,2,0:0:0:0:
65,30,225024,2,0,P|101:56|142:74,1,90,10|0,0:0|3:2,0:0:0:0:
333,120,225357,5,10,0:0:0:0:
333,120,225441,1,2,0:0:0:0:
333,120,225524,1,0,3:0:0:0:
218,143,225691,1,10,0:0:0:0:
218,143,225857,2,0,P|179:167|173:224,1,90,2|8,0:0|0:0,0:0:0:0:
383,290,226190,2,0,P|393:245|357:200,1,90,2|8,3:2|0:0,0:0:0:0:
178,294,226523,1,2,3:2:0:0:
178,294,226690,1,10,0:0:0:0:
319,258,226857,5,2,0:0:0:0:
235,123,227024,2,0,P|249:182|256:242,1,90,6|0,3:2|0:0,0:0:0:0:
411,73,227357,2,0,B|400:65|371:52|371:52|304:70|314:135,1,135,10|0,0:0|0:0,0:0:0:0:
322,141,227691,5,10,0:0:0:0:
471,245,227857,2,0,P|454:186|449:143,1,90,2|10,3:2|0:0,0:0:0:0:
450,157,228107,1,2,0:0:0:0:
450,157,228191,1,0,3:0:0:0:
395,286,228357,5,10,0:0:0:0:
321,263,228524,1,2,0:0:0:0:
275,328,228691,1,10,0:0:0:0:
201,305,228858,1,2,3:2:0:0:
73,350,229024,2,0,P|68:312|42:259,1,90,10|2,0:0|3:2,0:0:0:0:
160,105,229357,2,0,B|142:133|134:153|134:153|136:207|117:261,1,135,10|0,0:0|0:0,0:0:0:0:
135,261,229691,5,6,3:2:0:0:
218,171,229857,2,0,P|272:153|327:145,1,90,2|8,0:0|0:0,0:0:0:0:
421,33,230191,1,2,0:0:0:0:
421,33,230357,2,0,P|403:87|395:142,1,90,10|2,0:0|3:2,0:0:0:0:
484,229,230691,2,0,P|492:184|507:142,1,90,10|2,0:0|3:2,0:0:0:0:
377,200,231024,5,10,0:0:0:0:
285,123,231191,1,2,0:0:0:0:
252,280,231357,1,10,0:0:0:0:
398,230,231524,1,2,3:2:0:0:
416,346,231691,6,0,P|372:331|316:327,1,90,10|0,0:0|3:0,0:0:0:0:
180,345,232024,1,10,0:0:0:0:
238,195,232191,1,2,0:0:0:0:
78,223,232357,5,2,3:2:0:0:
78,223,232524,1,2,0:0:0:0:
220,167,232691,2,0,P|196:233|184:281,1,90,10|0,0:0|0:0,0:0:0:0:
324,354,233024,2,0,P|307:312|294:268,1,90,10|2,0:0|3:2,0:0:0:0:
388,174,233357,1,10,0:0:0:0:
388,174,233524,1,2,3:2:0:0:
225,96,233691,5,10,0:0:0:0:
379,91,233857,1,2,0:0:0:0:
322,13,234024,1,10,0:0:0:0:
289,172,234191,1,2,3:2:0:0:
289,172,234357,2,0,P|238:183|180:213,1,90,10|0,0:0|3:0,0:0:0:0:
55,90,234691,1,10,0:0:0:0:
205,118,234857,1,2,0:0:0:0:
92,238,235024,5,6,3:2:0:0:
92,238,235191,1,2,0:0:0:0:
112,16,235357,2,0,P|103:60|88:107,1,90,8|0,0:0|0:0,0:0:0:0:
58,211,235691,5,10,0:0:0:0:
180,284,235857,2,0,P|188:239|203:197,1,90,2|10,3:2|0:0,0:0:0:0:
289,116,236191,5,2,3:2:0:0:
414,190,236357,1,10,0:0:0:0:
265,130,236524,1,2,0:0:0:0:
421,219,236691,1,10,0:0:0:0:
385,78,236857,5,2,3:2:0:0:
288,227,237024,2,0,P|245:209|198:196,1,90,10|0,0:0|3:2,0:0:0:0:
177,69,237357,2,0,P|220:81|261:98,1,90,10|0,0:0|0:0,0:0:0:0:
125,177,237691,5,14,0:0:0:0:
125,177,237857,1,2,0:0:0:0:
191,352,238024,1,14,0:0:0:0:
191,352,238191,1,2,0:0:0:0:
288,227,238357,5,14,0:0:0:0:
214,163,238523,1,2,3:2:0:0:
296,247,238691,5,14,0:0:0:0:
172,260,238857,1,2,3:2:0:0:
304,267,239024,5,14,0:0:0:0:
351,126,239191,1,2,0:0:0:0:
512,316,239357,5,14,0:0:0:0:
465,175,239524,1,2,0:0:0:0:
465,175,239607,1,8,0:0:0:0:
465,175,239691,2,0,P|407:187|376:197,1,72,8|4,0:0|3:3,0:0:0:0:
326,92,240024,2,0,P|268:80|237:70,1,72,4|10,3:3|0:0,0:0:0:0:
184,170,240357,5,6,3:2:0:0:
184,170,240524,2,0,P|199:217|210:270,1,72,0|10,3:0|0:0,0:0:0:0:
30,214,240857,2,0,P|67:191|110:274,1,144,6|4,3:2|3:3,0:0:0:0:
231,344,241357,5,10,0:0:0:0:
231,344,241524,2,0,P|286:331|328:329,1,72,6|0,3:2|0:0,0:0:0:0:
419,236,241857,2,0,P|383:231|264:188,1,144,2|2,3:2|3:1,0:0:0:0:
197,102,242337,1,8,0:0:0:0:
333,65,242503,1,8,0:0:0:0:
266,179,242670,1,4,3:3:0:0:
80,128,242837,5,6,3:2:0:0:
256,192,242920,12,8,245728,0:0:0:0:
