osu file format v14

[General]
AudioFilename: audio.mp3
AudioLeadIn: 0
PreviewTime: 175357
Countdown: 0
SampleSet: Soft
StackLeniency: 0.5
Mode: 0
LetterboxInBreaks: 0
WidescreenStoryboard: 1

[Editor]
Bookmarks: 5691,9607,9691,9774,9857,9941,10024,10107,15024,19024,28191,28274,28441,29691,31274,31441,31524,31691,31857,31941,36857,36941,37024,37107,37274,37357,37441,39524,45274,45441,48357,57524,58024,59024,63441,69691,77691,80357,91024,96357,99191,99357,99441,99607,99774,107024,115524,115691,115774,120274,120357,120441,120607,121441,124857,124941,125024,131024,141691,145024,153691,160524,160607,160691,160774,160857,160941,169191,181691,189024,194024,203524,203691,203857,203941,204107,210524,210607,210691,210774,210941,211107,219024,226191,226274,226441,226607,229691,237691,240357,242837,244538,245133,245218,245303,245388,245473
DistanceSpacing: 1.6
BeatDivisor: 4
GridSize: 16
TimelineZoom: 1.9

[Metadata]
Title:Hakoniwa Logic
TitleUnicode:箱庭ロジック
Artist:Shimotsuki Haruka
ArtistUnicode:霜月はるか
Creator:tomatas95
Version:Hard
Source:箱庭ロジック
Tags:cabbit manyo the logic of the miniature garden full ver version opening op eroge visual novel vn video game jpop j-pop pop japanese 箱庭逻辑 yogurtt shimotsukin
BeatmapID:2782232
BeatmapSetID:1343221

[Difficulty]
HPDrainRate:5
CircleSize:3.5
OverallDifficulty:6.5
ApproachRate:8
SliderMultiplier:1.4
SliderTickRate:1

[Events]
//Background and Video events
0,0,"KokoKirikauwu.jpg",0,0
//Break Periods
2,131024,140941
2,176557,178274
2,179224,180107
//Storyboard Layer 0 (Background)
//Storyboard Layer 1 (Fail)
//Storyboard Layer 2 (Pass)
//Storyboard Layer 3 (Foreground)
//Storyboard Layer 4 (Overlay)
//Storyboard Sound Samples

[TimingPoints]
358,333.333333333333,4,2,1,50,1,0
358,-125,4,2,1,50,0,0
4691,-125,4,2,2,60,0,0
5691,-100,4,2,2,70,0,0
8357,-100,4,2,1,70,0,0
16357,-100,4,2,3,70,0,0
17524,-100,4,2,1,60,0,0
17857,-100,4,2,1,65,0,0
18191,-100,4,2,1,70,0,0
18524,-100,4,2,1,75,0,0
18691,-100,4,2,2,75,0,0
19024,-125,4,2,6,70,0,0
19357,-125,4,2,1,65,0,0
29691,-142.857142857143,4,2,2,60,0,0
30191,-142.857142857143,4,2,5,60,0,0
30857,-142.857142857143,4,2,1,60,0,0
32857,-142.857142857143,4,2,5,60,0,0
33357,-142.857142857143,4,2,1,60,0,0
35024,-142.857142857143,4,2,2,60,0,0
40857,-142.857142857143,4,2,5,60,0,0
41523,-142.857142857143,4,2,1,60,0,0
43524,-142.857142857143,4,2,5,60,0,0
44190,-125,4,2,1,60,0,0
45691,-111.111111111111,4,2,2,70,0,0
48357,-90.9090909090909,4,2,2,85,0,1
48691,-90.9090909090909,4,2,6,85,0,1
51024,-90.9090909090909,4,2,1,85,0,1
51357,-90.9090909090909,4,2,6,85,0,1
53691,-90.9090909090909,4,2,2,85,0,1
54024,-90.9090909090909,4,2,6,85,0,1
58024,-90.9090909090909,4,2,1,85,0,1
58524,-90.9090909090909,4,2,1,85,0,0
59024,-90.9090909090909,4,2,2,85,0,1
59357,-90.9090909090909,4,2,6,85,0,1
61691,-90.9090909090909,4,2,1,85,0,1
62024,-90.9090909090909,4,2,6,85,0,1
64357,-111.111111111111,4,2,6,85,0,1
66191,-125,4,2,1,70,0,1
67024,-111.111111111111,4,2,6,85,0,1
68524,-111.111111111111,4,2,8,85,0,1
69191,-111.111111111111,4,2,1,60,0,1
69691,-100,4,2,2,75,0,0
72357,-100,4,2,1,75,0,0
72691,-100,4,2,2,75,0,0
74691,-100,4,2,6,75,0,0
75024,-100,4,2,2,75,0,0
79857,-100,4,2,3,75,0,0
80357,-111.111111111111,4,2,6,60,0,0
81191,-125,4,2,1,60,0,0
81524,-125,4,2,6,60,0,0
82691,-125,4,2,1,60,0,0
83024,-125,4,2,2,65,0,0
83357,-125,4,2,1,65,0,0
91024,-142.857142857143,4,2,2,60,0,0
91524,-142.857142857143,4,2,5,60,0,0
92190,-142.857142857143,4,2,1,60,0,0
94190,-142.857142857143,4,2,5,60,0,0
94856,-142.857142857143,4,2,1,60,0,0
96357,-142.857142857143,4,2,2,60,0,0
100691,-142.857142857143,4,2,1,60,0,0
100857,-142.857142857143,4,2,2,60,0,0
102190,-142.857142857143,4,2,5,60,0,0
102856,-142.857142857143,4,2,1,60,0,0
104857,-142.857142857143,4,2,5,60,0,0
105523,-142.857142857143,4,2,1,60,0,0
107024,-100,4,2,2,70,0,0
108691,-100,4,2,6,70,0,0
108857,-100,4,2,2,70,0,0
109691,-90.9090909090909,4,2,2,85,0,1
110025,-90.9090909090909,4,2,6,85,0,1
112358,-90.9090909090909,4,2,1,85,0,1
112691,-90.9090909090909,4,2,6,85,0,1
115025,-90.9090909090909,4,2,2,85,0,1
115358,-90.9090909090909,4,2,6,85,0,1
118024,-90.9090909090909,4,2,2,85,0,1
118191,-90.9090909090909,4,2,6,85,0,1
119358,-90.9090909090909,4,2,1,85,0,1
119857,-90.9090909090909,4,2,1,85,0,0
120357,-90.9090909090909,4,2,2,85,0,1
120691,-90.9090909090909,4,2,6,85,0,1
123025,-90.9090909090909,4,2,1,85,0,1
123358,-90.9090909090909,4,2,6,85,0,1
125691,-111.111111111111,4,2,6,85,0,1
127525,-125,4,2,1,70,0,1
128358,-111.111111111111,4,2,6,85,0,1
129858,-111.111111111111,4,2,8,85,0,1
131024,-100,4,2,3,70,0,0
141691,-100,4,2,3,70,0,0
149691,-100,4,2,1,75,0,0
149857,-100,4,2,3,75,0,0
150024,-100,4,2,1,75,0,0
150190,-100,4,2,3,75,0,0
150357,-100,4,2,1,75,0,0
150523,-100,4,2,3,75,0,0
151024,-100,4,2,2,75,0,0
151191,-100,4,2,3,75,0,0
151357,-100,4,2,1,75,0,0
151524,-100,4,2,3,75,0,0
153691,-142.857142857143,4,2,2,60,0,0
154191,-142.857142857143,4,2,5,60,0,0
154857,-142.857142857143,4,2,1,60,0,0
156857,-142.857142857143,4,2,5,60,0,0
157523,-142.857142857143,4,2,1,60,0,0
159024,-142.857142857143,4,2,2,60,0,0
164857,-142.857142857143,4,2,5,60,0,0
165523,-142.857142857143,4,2,1,60,0,0
167524,-142.857142857143,4,2,5,60,0,0
168190,-142.857142857143,4,2,1,60,0,0
169691,-142.857142857143,4,2,2,70,0,0
172024,-142.857142857143,4,2,2,70,0,0
175524,-125,4,2,1,65,0,0
176357,-125,4,2,6,65,0,0
180857,-142.857142857143,4,2,1,55,0,0
181691,-125,4,2,2,65,0,0
183691,-100,4,2,9,70,0,0
183857,-100,4,2,1,70,0,0
184524,-100,4,2,2,70,0,0
185024,-100,4,2,1,50,0,0
185357,-100,4,2,1,70,0,0
186024,-100,4,2,6,75,0,0
186191,-100,4,2,1,80,0,0
187024,-90.9090909090909,4,2,2,85,0,1
187357,-90.9090909090909,4,2,6,85,0,1
189691,-90.9090909090909,4,2,1,85,0,1
190024,-90.9090909090909,4,2,6,85,0,1
192357,-111.111111111111,4,2,6,85,0,1
194024,-111.111111111111,4,2,1,80,0,1
194191,-125,4,2,1,70,0,1
195024,-111.111111111111,4,2,6,85,0,1
196524,-111.111111111111,4,2,8,85,0,1
196857,-90.9090909090909,4,2,1,80,0,0
197691,-90.9090909090909,4,2,2,85,0,1
198024,-90.9090909090909,4,2,6,85,0,1
199691,-90.9090909090909,4,2,3,85,0,1
200024,-90.9090909090909,4,2,8,85,0,1
200357,-90.9090909090909,4,2,2,85,0,1
200524,-90.9090909090909,4,2,6,85,0,1
203024,-90.9090909090909,4,2,2,85,0,1
203357,-90.9090909090909,4,2,6,85,0,1
206024,-90.9090909090909,4,2,1,85,0,1
206191,-90.9090909090909,4,2,6,85,0,1
206691,-90.9090909090909,4,2,1,85,0,1
206858,-90.9090909090909,4,2,6,85,0,1
207357,-90.9090909090909,4,2,1,85,0,1
207857,-90.9090909090909,4,2,1,85,0,0
208357,-90.9090909090909,4,2,2,85,0,1
208691,-90.9090909090909,4,2,6,85,0,1
211025,-90.9090909090909,4,2,1,85,0,1
211358,-90.9090909090909,4,2,6,85,0,1
213691,-125,4,2,6,85,0,1
215525,-125,4,2,1,70,0,1
216358,-111.111111111111,4,2,6,85,0,1
217858,-111.111111111111,4,2,8,85,0,1
218524,-111.111111111111,4,2,6,65,0,1
218691,-111.111111111111,4,2,6,85,0,1
219024,-100,4,2,2,70,0,0
221691,-100,4,2,1,70,0,0
224357,-100,4,2,2,70,0,0
227024,-100,4,2,1,70,0,0
228357,-100,4,2,3,70,0,0
229691,-100,4,2,2,75,0,0
232357,-100,4,2,1,75,0,0
235024,-100,4,2,6,75,0,0
235357,-100,4,2,1,75,0,0
237691,-100,4,2,6,80,0,0
239524,-100,4,2,1,80,0,0
242337,333.333333333333,4,2,1,80,1,0
242837,-155.642023346303,4,2,2,80,0,0
243009,339.943342776204,4,2,1,80,1,0
243348,-153.609831029186,4,2,1,70,0,0
244028,-153.609831029186,4,2,1,60,0,0
244708,-153.609831029186,4,2,1,50,0,0
245388,-153.609831029186,4,2,1,40,0,0
245728,333.333333333333,4,2,1,40,1,0
245728,-153.609831029186,4,2,1,40,0,0

[Colours]
Combo1 : 89,194,251
Combo2 : 241,248,116
Combo3 : 250,118,103
Combo4 : 216,150,252

[HitObjects]
43,32,358,5,8,0:0:0:0:
110,81,524,1,10,0:0:0:0:
110,81,1024,5,10,0:0:0:0:
177,32,1190,1,10,0:0:0:0:
279,172,1524,1,0,3:0:0:0:
279,172,1691,5,10,0:0:0:0:
212,221,1857,1,10,0:0:0:0:
110,81,2191,1,0,3:0:0:0:
110,81,2357,2,0,L|106:149,1,56,10|2,0:0|3:2,0:0:0:0:
107,221,2691,1,10,0:0:0:0:
279,172,3024,5,8,0:0:0:0:
234,100,3191,1,10,0:0:0:0:
234,100,3691,5,10,0:0:0:0:
279,28,3858,1,10,0:0:0:0:
423,123,4191,1,0,3:0:0:0:
423,123,4357,5,10,0:0:0:0:
378,195,4524,1,2,3:2:0:0:
440,285,4691,2,0,B|404:272|404:272|332:294,1,112,14|0,0:0|3:0,0:0:0:0:
265,346,5191,2,0,L|271:383,2,28,8|8|8,0:0|0:0|0:0,0:0:0:0:
212,277,5524,1,8,0:0:0:0:
280,224,5691,6,0,B|274:185|274:185|277:146|277:146|268:81,1,140,6|8,3:2|0:0,0:0:0:0:
268,85,6357,1,10,0:0:0:0:
203,21,6524,1,2,3:2:0:0:
113,37,6691,1,10,0:0:0:0:
4,182,7024,6,0,B|51:182|51:182|77:160|77:160|162:159,1,140,10|10,0:0|0:0,0:0:0:0:
216,206,7524,1,2,3:2:0:0:
216,206,7691,2,0,L|210:283,1,70,10|0,0:0|3:2,0:0:0:0:
192,358,8024,1,10,0:0:0:0:
272,382,8191,1,2,0:0:0:0:
340,303,8357,6,0,P|339:243|318:147,1,140,6|8,3:2|0:0,0:0:0:0:
323,164,9024,1,10,0:0:0:0:
287,80,9191,1,2,3:2:0:0:
351,15,9357,1,10,0:0:0:0:
509,104,9691,6,0,B|454:84|454:84|356:101,1,140,10|8,0:0|0:0,0:0:0:0:
323,164,10191,2,0,P|285:183|184:147,1,140,2|2,3:2|3:2,0:0:0:0:
131,103,10691,1,10,0:0:0:0:
55,139,10857,1,2,0:0:0:0:
116,217,11024,6,0,B|119:312|119:312|103:354,1,140,6|8,3:2|0:0,0:0:0:0:
103,355,11691,1,10,0:0:0:0:
12,358,11857,1,2,3:2:0:0:
9,267,12024,1,10,0:0:0:0:
128,130,12357,6,0,L|290:142,1,140,10|10,0:0|0:0,0:0:0:0:
345,184,12857,1,2,3:2:0:0:
345,184,13024,2,0,P|349:224|339:258,1,70,10|2,0:0|3:2,0:0:0:0:
284,314,13357,1,8,0:0:0:0:
349,367,13524,1,2,0:0:0:0:
438,323,13691,6,0,B|437:283|437:283|445:245|445:245|442:178,1,140,6|8,3:2|0:0,0:0:0:0:
442,183,14357,1,10,0:0:0:0:
398,102,14524,1,2,3:2:0:0:
451,28,14691,1,10,0:0:0:0:
345,176,15024,6,0,B|305:176|305:176|272:186|272:186|197:178,1,140,10|10,0:0|0:0,0:0:0:0:
123,193,15524,1,2,3:2:0:0:
51,147,15691,2,0,P|47:122|58:74,1,70,10|0,0:0|3:2,0:0:0:0:
105,10,16024,1,10,0:0:0:0:
156,76,16191,1,2,0:0:0:0:
223,21,16357,6,0,B|261:15|261:15|297:24,2,70,10|2|2,0:2|3:2|3:2,0:0:0:0:
156,76,16857,1,10,0:0:0:0:
211,143,17024,2,0,B|249:149|249:149|285:140,2,70,2|2|10,3:2|3:2|0:2,0:0:0:0:
156,76,17524,5,2,3:1:0:0:
12,187,17857,1,2,3:1:0:0:
123,330,18191,1,2,3:1:0:0:
267,219,18524,1,2,3:1:0:0:
272,306,18691,2,0,B|254:303|254:303|226:308,2,35,8|8|8,0:0|0:0|0:0,0:0:0:0:
351,357,19024,6,0,B|383:357|383:357|412:337|412:337|476:336,1,112,4|10,3:2|0:0,0:0:0:0:
510,275,19524,2,0,P|513:254|492:199,1,56,2|0,0:0|0:0,0:0:0:0:
438,174,19857,2,0,P|435:153|456:98,1,56,2|8,3:2|0:0,0:0:0:0:
501,49,20191,6,0,P|461:29|383:55,1,112,2|0,3:2|3:0,0:0:0:0:
330,103,20691,1,10,0:0:0:0:
330,103,20857,2,0,P|290:122|212:96,1,112,2|2,0:0|0:0,0:0:0:0:
184,37,21357,1,8,0:0:0:0:
184,37,21524,1,2,0:0:0:0:
98,32,21691,6,0,B|85:68|85:68|101:101|90:148,1,112,4|10,3:1|0:0,0:0:0:0:
161,279,22357,2,0,P|196:276|222:283,2,56,0|2|8,3:0|3:2|0:0,0:0:0:0:
102,337,22857,1,2,3:2:0:0:
102,337,23024,6,0,P|61:357|-2:334,1,112,2|10,0:0|0:0,0:0:0:0:
53,262,23524,2,0,L|46:145,1,112,2|2,0:0|3:2,0:0:0:0:
40,69,24024,1,8,0:0:0:0:
121,63,24191,1,2,0:0:0:0:
127,143,24357,6,0,B|163:156|163:156|239:133,1,112,4|10,3:1|0:0,0:0:0:0:
281,64,24857,2,0,P|311:60|351:78,1,56,2|0,0:0|3:0,0:0:0:0:
390,11,25191,2,0,P|408:34|412:78,1,56,2|10,3:2|0:0,0:0:0:0:
380,135,25524,6,0,L|366:262,1,112,2|2,3:2|3:2,0:0:0:0:
316,310,26024,1,10,0:0:0:0:
316,310,26191,2,0,P|363:303|430:329,1,112,2|2,0:0|3:2,0:0:0:0:
493,376,26691,1,10,0:0:0:0:
493,376,26857,1,2,0:0:0:0:
492,279,27024,6,0,B|486:243|486:243|491:205|491:205|482:154,1,112,4|8,3:1|0:0,0:0:0:0:
426,24,27691,2,0,P|404:20|367:27,2,56,0|0|10,3:0|3:0|0:0,0:0:0:0:
488,82,28191,1,2,0:0:0:0:
484,168,28357,6,0,P|448:175|419:169,1,56,2|2,3:2|0:0,0:0:0:0:
346,121,28691,1,8,0:0:0:0:
313,199,28857,2,0,L|319:236,2,28,8|8|8,0:0|0:0|0:0,0:0:0:0:
247,144,29191,1,4,3:3:0:0:
182,201,29357,1,4,3:3:0:0:
213,280,29524,1,8,0:0:0:0:
162,360,29691,6,0,B|128:363|128:363|99:351|99:351|56:351,1,97.9999970092774,6|0,3:2|3:0,0:0:0:0:
0,296,30191,1,10,0:0:0:0:
13,139,30524,1,10,0:0:0:0:
147,229,30857,1,2,3:2:0:0:
69,250,31024,5,2,0:0:0:0:
69,250,31191,2,0,P|64:225|75:186,1,48.9999985046387,2|8,3:2|0:0,0:0:0:0:
147,229,31524,2,0,P|151:182|124:138,1,97.9999970092774,2|10,3:2|0:0,0:0:0:0:
25,25,32191,1,2,3:2:0:0:
25,25,32357,6,0,B|56:24|56:24|75:14|75:14|138:14,1,97.9999970092774,2|0,3:1|3:0,0:0:0:0:
207,5,32857,1,10,0:0:0:0:
125,139,33191,1,10,0:0:0:0:
248,235,33524,1,2,3:2:0:0:
299,170,33691,5,2,0:0:0:0:
299,170,33857,2,0,L|362:166,1,48.9999985046387,2|8,3:2|0:0,0:0:0:0:
430,148,34191,2,0,L|441:255,1,97.9999970092774,2|10,0:0|0:0,0:0:0:0:
464,330,34691,1,8,0:0:0:0:
464,330,34857,1,8,0:0:0:0:
367,302,35024,6,0,B|304:292|304:292|267:309,1,97.9999970092774,6|2,3:2|3:2,0:0:0:0:
196,354,35524,2,0,L|187:290,1,48.9999985046387,10|0,0:0|0:0,0:0:0:0:
191,225,35857,1,10,0:0:0:0:
191,225,36024,2,0,L|205:122,1,97.9999970092774,2|0,0:0|0:0,0:0:0:0:
325,23,36691,6,0,P|351:24|390:15,1,48.9999985046387,10|0,0:0|3:0,0:0:0:0:
450,64,37024,2,0,P|436:86|424:124,1,48.9999985046387,2|8,0:0|0:0,0:0:0:0:
351,151,37357,2,0,P|338:127|311:98,1,48.9999985046387,2|4,0:0|3:3,0:0:0:0:
249,59,37691,5,2,3:2:0:0:
249,59,37857,2,0,L|196:55,1,48.9999985046387,2|0,0:0|3:0,0:0:0:0:
131,4,38191,2,0,P|117:32|133:104,1,97.9999970092774,10|10,0:0|0:0,0:0:0:0:
196,147,38691,2,0,P|210:119|194:47,1,97.9999970092774,2|0,0:0|0:0,0:0:0:0:
131,4,39191,5,0,3:0:0:0:
131,4,39357,1,8,0:0:0:0:
4,109,39691,2,0,L|0:172,1,48.9999985046387,2|8,3:2|0:0,0:0:0:0:
3,244,40024,1,8,0:0:0:0:
6,263,40357,6,0,B|36:264|36:264|66:255|66:255|105:255,1,97.9999970092774,6|0,3:2|3:0,0:0:0:0:
172,208,40857,1,10,0:0:0:0:
320,258,41191,1,10,0:0:0:0:
209,369,41524,1,2,3:2:0:0:
131,347,41691,5,2,0:0:0:0:
131,347,41857,2,0,L|63:342,1,48.9999985046387,2|8,3:2|0:0,0:0:0:0:
12,382,42191,2,0,P|1:341|29:280,1,97.9999970092774,2|10,3:2|0:0,0:0:0:0:
103,159,42857,1,2,3:2:0:0:
103,159,43024,6,0,B|144:170|144:170|212:155,1,97.9999970092774,2|0,3:1|3:0,0:0:0:0:
255,92,43524,1,10,0:0:0:0:
370,198,43858,1,10,0:0:0:0:
255,335,44191,1,2,3:2:0:0:
227,259,44357,5,2,0:0:0:0:
227,259,44524,2,0,P|261:255|295:265,1,56,2|8,3:2|0:0,0:0:0:0:
351,327,44857,2,0,P|402:349|462:321,1,112,2|10,0:0|0:0,0:0:0:0:
403,266,45357,1,8,0:0:0:0:
486,83,45691,5,6,3:2:0:0:
397,81,45857,1,0,3:0:0:0:
396,171,46024,1,2,0:0:0:0:
485,172,46191,1,0,3:0:0:0:
485,172,46691,5,8,0:0:0:0:
396,171,46858,1,2,3:2:0:0:
397,81,47025,1,2,0:0:0:0:
486,83,47191,1,2,3:2:0:0:
486,83,48024,2,0,P|486:64|496:32,2,31.4999990386963,8|8|0,0:0|0:0|3:0,0:0:0:0:
485,172,48357,6,0,B|470:151|412:152|412:152|375:187|314:158,1,154.000004699707,6|8,3:2|0:0,0:0:0:0:
266,235,48857,2,0,P|244:190|289:87,1,154.000004699707,2|0,0:0|3:0,0:0:0:0:
363,60,49357,1,8,0:0:0:0:
363,60,49524,1,2,3:2:0:0:
287,6,49691,5,2,0:0:0:0:
202,42,49857,2,0,P|162:49|113:36,1,77.0000023498536,2|8,3:2|0:0,0:0:0:0:
71,113,50191,2,0,P|44:82|31:32,1,77.0000023498536,2|0,0:0|3:0,0:0:0:0:
126,42,50524,1,2,3:2:0:0:
138,167,50691,1,10,0:0:0:0:
139,185,51024,6,0,B|181:187|181:187|207:175|207:175|236:188|236:188|307:184,1,154.000004699707,6|8,3:2|0:0,0:0:0:0:
373,154,51524,2,0,P|379:220|374:311,1,154.000004699707,2|0,0:0|3:0,0:0:0:0:
313,377,52024,1,8,0:0:0:0:
313,377,52191,1,2,3:2:0:0:
251,312,52357,6,0,P|213:302|165:317,1,77.0000023498536,2|0,0:0|3:0,0:0:0:0:
105,363,52691,1,10,0:0:0:0:
36,310,52857,2,0,L|22:149,1,154.000004699707,2|2,0:0|3:2,0:0:0:0:
39,65,53357,2,0,P|85:82|155:47,1,115.50000352478,8|0,0:0|0:0,0:0:0:0:
173,26,53691,6,0,B|200:-2|200:-2|217:54|204:120,1,154.000004699707,6|10,3:2|0:0,0:0:0:0:
179,195,54191,2,0,L|173:273,1,77.0000023498536,2|0,0:0|0:0,0:0:0:0:
200,360,54524,1,2,3:2:0:0:
273,309,54691,2,0,L|288:149,1,154.000004699707,10|2,0:0|0:0,0:0:0:0:
297,69,55191,5,0,3:0:0:0:
297,69,55357,2,0,P|336:75|376:67,1,77.0000023498536,10|0,0:0|0:0,0:0:0:0:
439,9,55691,1,2,3:2:0:0:
498,76,55857,1,2,3:2:0:0:
431,135,56024,2,0,P|426:172|438:216,1,77.0000023498536,8|2,0:0|0:0,0:0:0:0:
501,295,56357,6,0,B|465:277|438:311|438:311|406:280|347:293,1,154.000004699707,6|8,3:2|0:0,0:0:0:0:
274,275,56857,2,0,P|278:316|275:357,1,77.0000023498536,2|0,0:0|3:0,0:0:0:0:
184,351,57191,2,0,P|180:310|183:269,1,77.0000023498536,0|8,3:0|0:0,0:0:0:0:
224,193,57524,1,2,3:2:0:0:
224,193,57691,6,0,B|219:146|219:146|223:130|223:130|221:54,1,115.50000352478,2|0,0:0|0:0,0:0:0:0:
215,29,58024,1,14,0:0:0:0:
135,64,58191,2,0,P|141:85|134:112,2,38.5000011749268,8|8|8,0:0|0:0|0:0,0:0:0:0:
65,9,58524,1,4,3:3:0:0:
9,75,58691,1,4,3:3:0:0:
37,157,58857,1,8,0:0:0:0:
138,101,59024,6,0,B|175:84|208:111|208:111|220:155|202:213,1,154.000004699707,6|8,3:2|0:0,0:0:0:0:
257,272,59524,2,0,P|210:247|107:283,1,154.000004699707,2|0,0:0|3:0,0:0:0:0:
77,351,60024,1,8,0:0:0:0:
77,351,60191,1,2,3:2:0:0:
0,313,60357,5,2,0:0:0:0:
40,234,60524,2,0,P|43:197|30:151,1,77.0000023498536,2|8,3:2|0:0,0:0:0:0:
56,71,60857,2,0,P|86:92|132:103,1,77.0000023498536,2|0,0:0|0:0,0:0:0:0:
202,61,61191,1,2,3:2:0:0:
217,177,61357,1,8,0:0:0:0:
218,200,61691,6,0,B|257:187|285:207|285:207|306:166|282:124,1,154.000004699707,6|8,3:2|0:0,0:0:0:0:
200,38,62191,2,0,L|355:29,1,154.000004699707,2|0,0:0|3:0,0:0:0:0:
443,17,62691,1,8,0:0:0:0:
493,88,62857,1,2,3:2:0:0:
425,147,63024,6,0,P|420:182|434:235,1,77.0000023498536,2|0,0:0|3:0,0:0:0:0:
482,292,63357,1,8,0:0:0:0:
429,361,63524,2,0,P|401:339|282:344,1,154.000004699707,2|0,0:0|3:0,0:0:0:0:
190,383,64024,2,0,B|179:341|179:341|199:256,1,115.50000352478,12|0,0:0|0:0,0:0:0:0:
216,236,64357,5,10,0:0:0:0:
177,152,64524,1,10,0:0:0:0:
86,161,64691,1,10,0:0:0:0:
68,251,64857,1,10,0:0:0:0:
68,251,65357,5,10,0:0:0:0:
86,161,65523,1,10,0:0:0:0:
177,152,65690,1,10,0:0:0:0:
216,236,65857,1,10,0:0:0:0:
217,254,66191,1,10,0:0:0:0:
185,330,66357,2,0,P|154:326|116:336,1,56,2|4,0:0|3:3,0:0:0:0:
44,342,66691,2,0,P|46:363|44:379,2,28,10|8|10,0:0|0:0|0:0,0:0:0:0:
38,256,67024,5,10,0:0:0:0:
2,174,67191,1,10,0:0:0:0:
53,103,67357,1,10,0:0:0:0:
142,113,67524,1,10,0:0:0:0:
142,113,68024,5,10,0:0:0:0:
53,103,68191,1,10,0:0:0:0:
2,174,68357,1,10,0:0:0:0:
38,256,68524,1,10,0:0:0:0:
38,271,69191,5,2,0:0:0:0:
38,271,69357,1,2,0:2:0:0:
173,355,69691,6,0,B|213:356|213:356|244:339|244:339|314:341,1,140,6|8,3:2|0:0,0:0:0:0:
308,340,70357,1,10,0:0:0:0:
396,297,70524,1,2,3:2:0:0:
478,350,70691,1,10,0:0:0:0:
507,156,71024,6,0,B|465:139|465:139|421:170|368:154,1,140,10|10,0:0|0:0,0:0:0:0:
294,180,71524,1,2,3:2:0:0:
294,180,71691,2,0,P|295:150|279:102,1,70,10|2,0:0|3:2,0:0:0:0:
203,88,72024,1,10,0:0:0:0:
226,7,72191,1,2,3:2:0:0:
329,30,72357,6,0,B|366:11|399:17|399:17|437:47|473:29,1,140,6|8,3:2|0:0,0:0:0:0:
461,33,73024,1,10,0:0:0:0:
501,122,73191,1,2,3:2:0:0:
440,198,73357,1,10,0:0:0:0:
255,129,73691,6,0,B|214:120|214:120|177:151|118:132,1,140,10|8,0:0|0:0,0:0:0:0:
38,166,74191,2,0,P|40:128|33:92,1,70,2|8,0:0|0:0,0:0:0:0:
0,18,74524,1,0,3:0:0:0:
89,15,74691,2,0,L|209:7,1,105,14|0,0:0|0:0,0:0:0:0:
228,3,75024,6,0,B|256:27|256:27|237:87|257:136,1,140,6|8,3:2|0:0,0:0:0:0:
254,128,75691,1,10,0:0:0:0:
210,215,75857,1,2,3:2:0:0:
251,304,76024,1,10,0:0:0:0:
436,239,76357,6,0,B|389:241|389:241|350:220|350:220|275:223,1,140,10|8,0:0|0:0,0:0:0:0:
210,215,76857,1,2,3:2:0:0:
210,215,77024,2,0,L|134:210,1,70,10|0,0:0|3:0,0:0:0:0:
56,199,77357,1,8,0:0:0:0:
17,273,77524,1,2,0:0:0:0:
82,353,77691,6,0,P|148:338|214:373,1,140,2|8,3:2|0:0,0:0:0:0:
210,369,78357,1,10,0:0:0:0:
299,328,78524,1,2,3:2:0:0:
389,366,78691,1,10,0:0:0:0:
489,197,79024,6,0,B|458:190|458:190|411:195,1,70,10|2,0:0|0:0,0:0:0:0:
340,226,79357,2,0,B|309:233|309:233|262:228,1,70,8|10,0:0|0:0,0:0:0:0:
239,195,79607,1,8,0:0:0:0:
239,195,79691,1,8,0:0:0:0:
286,130,79857,1,2,3:2:0:0:
239,65,80024,1,2,3:2:0:0:
162,90,80191,1,2,3:2:0:0:
162,170,80357,1,6,3:2:0:0:
162,170,81191,6,0,B|135:178|135:178|90:170,1,56,2|8,3:2|0:0,0:0:0:0:
28,132,81524,1,2,3:2:0:0:
28,132,82191,1,2,0:0:0:0:
110,0,82524,1,2,3:2:0:0:
188,50,82691,2,0,B|217:50|217:50|242:41|242:41|282:40,1,84,14|0,0:0|0:0,0:0:0:0:
318,26,83024,6,0,B|329:106|329:106|317:136,1,112,6|10,3:2|0:0,0:0:0:0:
249,287,83691,2,0,P|217:282|179:290,2,56,0|0|8,3:0|3:0|0:0,0:0:0:0:
307,353,84191,1,2,3:2:0:0:
307,353,84357,6,0,P|343:366|429:342,1,112,2|10,0:0|0:0,0:0:0:0:
484,307,84857,2,0,L|491:184,1,112,2|2,0:0|3:2,0:0:0:0:
496,111,85357,1,8,0:0:0:0:
412,105,85524,1,2,0:0:0:0:
406,189,85691,6,0,B|373:189|373:189|341:174|341:174|291:174,1,112,4|10,3:1|0:0,0:0:0:0:
214,197,86191,2,0,P|214:172|199:133,1,56,2|0,0:0|3:0,0:0:0:0:
146,82,86524,2,0,P|146:57|161:18,1,56,2|10,3:2|0:0,0:0:0:0:
240,13,86857,6,0,L|369:4,1,112,2|2,3:2|3:2,0:0:0:0:
442,4,87357,1,10,0:0:0:0:
442,4,87524,2,0,P|452:48|455:132,1,112,2|2,0:0|3:2,0:0:0:0:
407,185,88024,1,10,0:0:0:0:
407,185,88191,1,2,0:0:0:0:
475,251,88357,6,0,B|468:290|468:290|473:318|473:318|462:371,1,112,4|8,3:1|0:0,0:0:0:0:
292,364,89024,2,0,P|262:368|217:357,2,56,0|0|10,3:0|3:0|0:0,0:0:0:0:
355,312,89524,1,2,0:0:0:0:
355,312,89691,6,0,L|350:248,1,56,2|2,3:2|0:0,0:0:0:0:
345,168,90024,2,0,B|319:174|319:174|272:165,1,56,8|10,0:0|0:0,0:0:0:0:
243,97,90357,1,4,3:3:0:0:
163,126,90524,2,0,P|166:141|163:162,2,28,10|8|10,0:0|0:0|0:0,0:0:0:0:
123,43,90857,1,8,0:0:0:0:
111,42,90941,1,8,0:0:0:0:
98,42,91024,6,0,B|65:28|19:47|19:47|32:82,1,97.9999970092774,6|0,3:2|0:0,0:0:0:0:
11,147,91524,1,10,0:0:0:0:
163,126,91857,1,10,0:0:0:0:
115,275,92191,1,2,3:2:0:0:
103,190,92357,5,2,0:0:0:0:
103,190,92524,2,0,P|76:188|35:198,1,48.9999985046387,2|8,3:2|0:0,0:0:0:0:
28,269,92857,2,0,P|36:310|24:379,1,97.9999970092774,2|10,3:2|0:0,0:0:0:0:
198,366,93524,1,2,3:2:0:0:
198,366,93691,6,0,P|190:325|202:256,1,97.9999970092774,2|0,3:1|3:0,0:0:0:0:
229,190,94191,1,10,0:0:0:0:
294,332,94524,1,10,0:0:0:0:
399,215,94858,1,2,3:2:0:0:
309,242,95024,5,2,0:0:0:0:
309,242,95191,2,0,L|315:180,1,48.9999985046387,2|8,3:2|0:0,0:0:0:0:
372,123,95524,2,0,P|334:136|268:116,1,97.9999970092774,2|10,0:0|0:0,0:0:0:0:
204,99,96024,1,8,0:0:0:0:
204,99,96191,1,8,0:0:0:0:
253,20,96357,6,0,B|281:19|281:19|310:7|310:7|365:9,1,97.9999970092774,6|2,3:2|3:2,0:0:0:0:
433,17,96857,2,0,L|497:12,1,48.9999985046387,10|0,0:0|0:0,0:0:0:0:
500,100,97191,1,10,0:0:0:0:
500,100,97357,2,0,L|387:108,1,97.9999970092774,2|0,0:0|0:0,0:0:0:0:
263,156,98024,6,0,P|267:181|260:225,1,48.9999985046387,10|0,0:0|3:0,0:0:0:0:
329,257,98357,2,0,P|309:272|267:288,1,48.9999985046387,2|8,0:0|0:0,0:0:0:0:
274,364,98691,2,0,P|250:354|215:326,1,48.9999985046387,2|4,0:0|3:3,0:0:0:0:
207,263,99024,5,2,3:2:0:0:
207,263,99191,2,0,L|140:257,1,48.9999985046387,2|0,0:0|3:0,0:0:0:0:
65,253,99524,2,0,P|68:302|62:364,1,97.9999970092774,10|10,0:0|0:0,0:0:0:0:
157,356,100024,2,0,P|154:307|160:245,1,97.9999970092774,2|0,0:0|0:0,0:0:0:0:
120,180,100524,5,0,3:0:0:0:
183,113,100691,2,0,B|204:110|204:110|247:122,1,48.9999985046387,12|0,0:0|3:0,0:0:0:0:
275,189,101024,2,0,L|270:249,1,48.9999985046387,2|0,3:2|0:0,0:0:0:0:
265,321,101357,2,0,L|270:381,1,48.9999985046387,8|0,0:0|0:0,0:0:0:0:
371,380,101691,6,0,B|370:360|370:360|378:325|378:325|372:266,1,97.9999970092774,6|0,3:2|3:0,0:0:0:0:
372,197,102191,1,10,0:0:0:0:
290,63,102524,1,10,0:0:0:0:
434,2,102857,1,2,3:2:0:0:
500,58,103024,5,2,0:0:0:0:
500,58,103191,2,0,P|504:98|498:121,1,48.9999985046387,2|8,3:2|0:0,0:0:0:0:
475,187,103524,2,0,L|488:306,1,97.9999970092774,2|10,3:2|0:0,0:0:0:0:
356,372,104191,1,2,3:2:0:0:
356,372,104357,6,0,P|360:330|337:262,1,97.9999970092774,2|0,3:1|3:0,0:0:0:0:
269,236,104857,1,10,0:0:0:0:
349,101,105190,1,10,0:0:0:0:
214,21,105524,1,2,3:2:0:0:
136,51,105691,5,2,0:0:0:0:
136,51,105857,2,0,L|75:55,1,48.9999985046387,2|8,3:2|0:0,0:0:0:0:
27,115,106191,2,0,P|13:113|-3:117,2,24.4999992523194,10|8|8,0:0|0:0|0:0,0:0:0:0:
104,159,106524,1,4,3:3:0:0:
104,159,106691,1,4,3:3:0:0:
83,363,107024,5,14,0:0:0:0:
18,299,107191,1,2,3:2:0:0:
28,209,107357,1,2,0:0:0:0:
104,159,107524,1,2,3:2:0:0:
83,363,108024,5,10,0:0:0:0:
173,352,108191,1,2,3:2:0:0:
214,269,108358,1,2,0:0:0:0:
196,181,108524,1,2,3:2:0:0:
121,257,108691,6,0,B|87:268|87:268|51:260,1,70,12|8,0:0|0:0,0:0:0:0:
27,223,108941,1,8,0:0:0:0:
27,223,109024,1,8,0:0:0:0:
8,141,109191,1,4,3:3:0:0:
62,77,109357,1,4,3:3:0:0:
144,75,109524,1,10,0:0:0:0:
196,181,109691,6,0,B|227:171|263:198|263:198|288:160|278:113,1,154.000004699707,6|8,3:2|0:0,0:0:0:0:
224,27,110191,2,0,P|271:11|368:65,1,154.000004699707,2|0,0:0|3:0,0:0:0:0:
372,151,110691,1,8,0:0:0:0:
372,151,110857,1,2,3:2:0:0:
451,110,111024,5,2,0:0:0:0:
499,185,111191,2,0,L|516:280,1,77.0000023498536,2|8,3:2|0:0,0:0:0:0:
428,312,111524,2,0,L|411:217,1,77.0000023498536,2|0,0:0|3:0,0:0:0:0:
372,151,111857,1,2,3:2:0:0:
279,230,112024,1,10,0:0:0:0:
279,253,112357,6,0,B|257:285|257:285|235:231|247:162,1,154.000004699707,6|8,3:2|0:0,0:0:0:0:
292,82,112857,2,0,L|133:74,1,154.000004699707,2|0,0:0|3:0,0:0:0:0:
51,42,113357,1,8,0:0:0:0:
3,118,113524,1,2,3:2:0:0:
47,197,113691,6,0,P|67:246|51:343,1,154.000004699707,2|10,0:0|0:0,0:0:0:0:
153,368,114191,2,0,P|148:333|162:272,1,77.0000023498536,2|0,0:0|3:0,0:0:0:0:
210,221,114524,1,2,3:2:0:0:
251,339,114691,1,8,0:0:0:0:
253,361,115024,6,0,B|296:368|309:330|309:330|284:285|316:234,1,154.000004699707,6|10,3:2|0:0,0:0:0:0:
391,215,115524,2,0,P|385:257|400:304,1,77.0000023498536,2|0,0:0|0:0,0:0:0:0:
451,368,115857,1,2,3:2:0:0:
512,298,116024,2,0,P|522:253|489:184,1,115.50000352478,10|0,0:0|0:0,0:0:0:0:
460,160,116357,6,0,L|450:78,1,77.0000023498536,2|0,0:0|3:0,0:0:0:0:
367,25,116691,2,0,L|357:107,1,77.0000023498536,10|0,0:0|0:0,0:0:0:0:
354,196,117024,1,2,3:2:0:0:
354,196,117191,1,2,3:2:0:0:
273,153,117357,2,0,P|236:143|193:153,1,77.0000023498536,8|2,0:0|0:0,0:0:0:0:
124,201,117691,6,0,P|83:222|8:185,1,115.50000352478,6|0,3:2|0:0,0:0:0:0:
0,157,118024,1,12,0:0:0:0:
18,64,118191,2,0,L|175:50,1,154.000004699707,2|0,0:0|3:0,0:0:0:0:
267,35,118691,2,0,P|274:68|267:139,1,77.0000023498536,8|2,0:0|3:2,0:0:0:0:
249,199,119024,6,0,B|292:199|292:199|323:178|323:178|404:179,1,154.000004699707,2|10,3:2|0:0,0:0:0:0:
483,156,119524,2,0,L|475:116,2,38.5000011749268,8|8|8,0:0|0:0|0:0,0:0:0:0:
499,242,119857,1,4,3:3:0:0:
449,312,120024,1,4,3:3:0:0:
367,286,120191,1,8,0:0:0:0:
396,178,120357,6,0,B|381:157|323:158|323:158|286:193|225:164,1,154.000004699707,6|8,3:2|0:0,0:0:0:0:
163,130,120857,2,0,L|151:292,1,154.000004699707,2|0,0:0|3:0,0:0:0:0:
137,372,121357,1,8,0:0:0:0:
137,372,121524,1,2,3:2:0:0:
48,384,121691,5,2,0:0:0:0:
9,305,121857,2,0,P|2:269|16:215,1,77.0000023498536,2|8,3:2|0:0,0:0:0:0:
74,168,122191,2,0,P|80:130|73:92,1,77.0000023498536,2|0,0:0|3:0,0:0:0:0:
19,24,122524,1,2,3:2:0:0:
149,6,122691,1,8,0:0:0:0:
149,28,123024,6,0,B|175:28|207:12|207:12|233:39|222:100,1,154.000004699707,6|8,3:2|0:0,0:0:0:0:
187,190,123524,2,0,P|262:180|358:196,1,154.000004699707,2|0,0:0|3:0,0:0:0:0:
339,278,124024,1,8,0:0:0:0:
424,306,124191,1,2,3:2:0:0:
476,234,124357,6,0,P|483:189|472:145,1,77.0000023498536,2|0,0:0|3:0,0:0:0:0:
476,71,124691,1,10,0:0:0:0:
401,25,124857,2,0,P|336:27|218:16,1,154.000004699707,2|2,0:0|3:2,0:0:0:0:
141,16,125357,2,0,B|160:-8|160:-8|165:103,1,115.50000352478,14|0,0:0|0:0,0:0:0:0:
160,119,125691,5,10,0:0:0:0:
68,115,125857,1,10,0:0:0:0:
10,185,126024,1,10,0:0:0:0:
25,273,126191,1,10,0:0:0:0:
160,119,126691,5,10,0:0:0:0:
213,192,126858,1,10,0:0:0:0:
191,281,127025,1,10,0:0:0:0:
105,317,127191,1,10,0:0:0:0:
104,298,127524,1,10,0:0:0:0:
94,221,127691,2,0,L|88:152,1,56,2|4,0:0|3:3,0:0:0:0:
78,80,128024,2,0,P|59:83|30:75,2,28,10|8|10,0:0|0:0|0:0,0:0:0:0:
134,9,128357,5,10,0:0:0:0:
223,0,128524,1,10,0:0:0:0:
293,55,128691,1,10,0:0:0:0:
303,144,128857,1,10,0:0:0:0:
78,80,129357,5,10,0:0:0:0:
88,169,129523,1,10,0:0:0:0:
158,224,129690,1,10,0:0:0:0:
248,215,129857,1,10,0:0:0:0:
70,35,141691,6,0,B|31:26|31:26|-28:43,2,70,6|2|10,3:2|0:0|0:0,0:0:0:0:
142,93,142191,1,2,0:0:0:0:
67,139,142357,2,0,B|28:148|28:148|-31:131,2,70,10|2|10,0:0|3:2|0:0,0:0:0:0:
142,93,142857,6,0,P|184:87|240:103,1,70,2|8,3:2|0:0,0:0:0:0:
260,15,143191,2,0,P|286:48|300:104,1,70,2|8,0:0|0:0,0:0:0:0:
272,161,143524,2,0,P|268:220|273:320,1,140,2|0,0:0|3:2,0:0:0:0:
324,373,144024,1,10,0:0:0:0:
366,296,144191,1,2,3:2:0:0:
433,350,144357,6,0,L|507:359,2,70,10|2|10,0:0|0:0|0:0,0:0:0:0:
366,296,144857,1,2,0:0:0:0:
324,373,145024,2,0,L|249:382,2,70,10|2|10,0:0|3:2|0:0,0:0:0:0:
366,296,145524,6,0,P|373:253|323:151,1,140,2|2,3:2|0:0,0:0:0:0:
281,100,146024,1,8,0:0:0:0:
314,15,146191,2,0,P|349:7|384:21,1,70,2|10,3:2|0:0,0:0:0:0:
460,52,146524,2,0,B|461:82|461:82|474:109|474:109|465:139|465:139|470:199,1,140,2|0,3:2|0:0,0:0:0:0:
444,274,147024,6,0,B|481:279|481:279|525:263,2,70,6|2|10,3:2|0:0|0:0,0:0:0:0:
373,221,147524,1,2,0:0:0:0:
309,276,147691,2,0,B|272:281|272:281|228:265,2,70,10|2|10,0:0|3:2|0:0,0:0:0:0:
373,221,148191,6,0,L|364:141,1,70,2|8,3:2|0:0,0:0:0:0:
289,113,148524,2,0,L|280:33,1,70,2|8,0:0|0:0,0:0:0:0:
200,11,148857,2,0,L|182:151,1,140,2|2,3:2|3:2,0:0:0:0:
168,244,149357,1,10,0:0:0:0:
168,244,149524,1,2,0:0:0:0:
93,185,149691,6,0,B|56:177|56:177|13:182,1,70,6|2,3:2|0:0,0:0:0:0:
182,149,150024,2,0,B|207:120|207:120|224:81,1,70,6|2,3:2|0:0,0:0:0:0:
168,244,150357,2,0,B|179:280|179:280|205:314,1,70,6|2,3:2|3:2,0:0:0:0:
260,366,150691,1,10,0:0:0:0:
307,293,150857,1,2,3:2:0:0:
263,195,151024,6,0,B|280:170|323:178|323:178|353:207|404:183,1,140,6|12,3:2|0:0,0:0:0:0:
470,161,151524,2,0,L|476:205,2,35,8|8|8,0:0|0:0|0:0,0:0:0:0:
471,77,151857,1,4,3:3:0:0:
389,50,152024,1,4,3:3:0:0:
341,118,152191,1,8,0:0:0:0:
391,188,152357,1,8,0:0:0:0:
470,161,152524,5,2,3:1:0:0:
297,41,152857,1,2,3:1:0:0:
295,24,153191,5,4,3:3:0:0:
218,55,153357,2,0,L|222:92,2,35,8|8|4,0:0|0:0|3:3,0:0:0:0:
151,14,153691,6,0,B|120:14|120:14|101:26|101:26|51:26,1,97.9999970092774,6|0,3:2|3:0,0:0:0:0:
24,105,154191,1,10,0:0:0:0:
151,14,154524,1,10,0:0:0:0:
192,165,154858,1,2,3:2:0:0:
125,207,155024,5,2,0:0:0:0:
125,207,155191,2,0,P|96:202|58:211,1,48.9999985046387,2|8,3:2|0:0,0:0:0:0:
28,271,155524,2,0,L|18:383,1,97.9999970092774,2|10,3:2|0:0,0:0:0:0:
169,383,156191,1,2,3:2:0:0:
169,383,156357,6,0,B|169:314|169:314|145:276,1,97.9999970092774,2|0,3:1|3:0,0:0:0:0:
125,207,156857,1,10,0:0:0:0:
21,89,157190,1,10,0:0:0:0:
154,5,157524,1,2,3:2:0:0:
222,61,157691,5,2,0:0:0:0:
222,61,157857,2,0,P|259:65|285:56,1,48.9999985046387,2|8,3:2|0:0,0:0:0:0:
347,21,158191,2,0,P|392:15|446:31,1,97.9999970092774,2|10,0:0|0:0,0:0:0:0:
501,97,158691,1,8,0:0:0:0:
358,162,159024,6,0,B|342:195|342:195|358:225|355:268,1,97.9999970092774,6|2,3:2|3:2,0:0:0:0:
358,342,159524,2,0,L|422:351,1,48.9999985046387,10|0,0:0|0:0,0:0:0:0:
496,356,159857,1,10,0:0:0:0:
496,356,160024,2,0,L|510:253,1,97.9999970092774,2|0,0:0|0:0,0:0:0:0:
499,98,160691,6,0,P|473:102|445:97,1,48.9999985046387,10|0,0:0|3:0,0:0:0:0:
356,105,161024,2,0,P|372:125|382:152,1,48.9999985046387,2|8,0:0|0:0,0:0:0:0:
434,226,161357,2,0,P|443:201|461:179,1,48.9999985046387,2|4,0:0|3:3,0:0:0:0:
499,98,161691,5,2,3:2:0:0:
499,98,161857,2,0,L|502:44,1,48.9999985046387,2|0,0:0|3:0,0:0:0:0:
420,12,162191,2,0,P|380:24|311:5,1,97.9999970092774,10|10,0:0|0:0,0:0:0:0:
290,94,162691,2,0,P|259:65|241:-3,1,97.9999970092774,2|0,0:0|0:0,0:0:0:0:
325,13,163191,5,0,3:0:0:0:
325,13,163357,1,8,0:0:0:0:
344,168,163691,2,0,L|351:220,1,48.9999985046387,2|4,3:2|3:3,0:0:0:0:
374,300,164024,1,4,3:3:0:0:
374,300,164191,1,4,3:3:0:0:
306,358,164357,6,0,P|273:353|197:357,1,97.9999970092774,6|0,3:2|3:0,0:0:0:0:
126,370,164857,1,10,0:0:0:0:
0,276,165190,1,10,0:0:0:0:
95,151,165524,1,2,3:2:0:0:
104,238,165691,5,2,0:0:0:0:
104,238,165857,2,0,L|111:304,1,48.9999985046387,2|8,3:2|0:0,0:0:0:0:
126,370,166191,2,0,P|173:362|234:374,1,97.9999970092774,2|10,3:2|0:0,0:0:0:0:
382,374,166857,1,2,3:2:0:0:
382,374,167024,6,0,B|381:345|381:345|387:312|387:312|381:258,1,97.9999970092774,2|0,3:1|3:0,0:0:0:0:
379,198,167524,1,10,0:0:0:0:
302,61,167857,1,10,0:0:0:0:
211,183,168191,1,2,3:2:0:0:
301,158,168357,5,2,0:0:0:0:
301,158,168524,2,0,P|305:192|300:210,1,48.9999985046387,2|8,3:2|0:0,0:0:0:0:
310,298,168857,2,0,P|268:284|195:302,1,97.9999970092774,2|10,0:0|0:0,0:0:0:0:
141,356,169357,1,8,0:0:0:0:
141,343,169691,5,6,3:2:0:0:
113,261,169857,1,10,0:2:0:0:
29,264,170024,1,10,0:2:0:0:
5,343,170191,1,10,0:2:0:0:
5,343,170691,5,10,0:0:0:0:
29,264,170858,1,10,0:0:0:0:
113,261,171025,1,8,0:0:0:0:
141,342,171191,1,10,0:0:0:0:
222,208,171524,1,10,0:0:0:0:
148,69,171857,1,2,3:2:0:0:
224,40,172024,2,0,P|224:21|229:-4,2,24.4999992523194,8|8|8,0:0|0:0|0:0,0:0:0:0:
267,104,172357,5,10,0:0:0:0:
337,55,172524,1,10,0:0:0:0:
386,125,172691,1,10,0:0:0:0:
316,174,172857,1,10,0:0:0:0:
316,174,173357,5,10,0:0:0:0:
386,125,173523,1,10,0:0:0:0:
337,55,173690,1,10,0:0:0:0:
267,104,173857,1,10,0:0:0:0:
268,116,174357,6,0,L|272:153,2,24.4999992523194,8|8|8,0:0|0:0|0:0,0:0:0:0:
192,53,174691,2,0,L|196:16,2,24.4999992523194,8|8|8,0:0|0:0|0:0,0:0:0:0:
186,100,174941,1,8,0:0:0:0:
186,100,175024,1,4,3:2:0:0:
70,305,175524,6,0,P|114:293|185:316,1,112,2|2,3:2|3:2,0:0:0:0:
240,364,176024,1,2,3:2:0:0:
240,364,176191,1,2,3:2:0:0:
285,277,176357,1,6,3:2:0:0:
256,192,179024,5,6,3:2:0:0:
19,54,180857,5,10,0:0:0:0:
19,68,181191,1,2,3:2:0:0:
42,144,181357,2,0,P|71:147|105:136,1,48.9999985046387,4|2,3:3|0:0,0:0:0:0:
159,69,181691,6,0,B|178:51|178:51|180:149,1,112,6|2,3:2|0:0,0:0:0:0:
161,223,182191,2,0,L|95:231,1,56,2|10,3:2|0:0,0:0:0:0:
64,307,182524,1,2,0:0:0:0:
64,307,182691,2,0,L|194:319,1,112,2|0,0:0|3:0,0:0:0:0:
262,337,183191,5,8,0:0:0:0:
262,337,183357,2,0,P|265:309|252:266,1,56,2|0,0:0|3:0,0:0:0:0:
244,184,183691,2,0,B|289:183|289:183|316:161|316:161|379:164,1,140,10|2,0:2|3:2,0:0:0:0:
452,207,184191,1,2,0:0:0:0:
452,207,184357,5,10,0:0:0:0:
473,118,184524,1,2,3:1:0:0:
322,16,184857,1,2,3:1:0:0:
183,253,185357,1,10,0:0:0:0:
181,162,185523,1,2,3:2:0:0:
272,162,185691,6,0,L|282:283,1,105,2|0,0:0|0:0,0:0:0:0:
301,309,186024,1,6,3:2:0:0:
363,253,186191,2,0,P|358:233|361:212,2,35,10|8|8,0:0|0:0|0:0,0:0:0:0:
436,294,186524,1,4,3:3:0:0:
420,378,186690,1,4,3:3:0:0:
335,384,186857,1,10,0:0:0:0:
280,266,187024,6,0,B|246:249|214:265|214:265|208:319|155:332,1,154.000004699707,6|8,3:2|0:0,0:0:0:0:
74,370,187524,2,0,P|74:319|58:207,1,154.000004699707,2|0,0:0|3:0,0:0:0:0:
0,149,188024,1,8,0:0:0:0:
0,149,188191,1,2,3:2:0:0:
48,76,188357,5,2,0:0:0:0:
123,125,188524,2,0,L|132:33,1,77.0000023498536,2|8,3:2|0:0,0:0:0:0:
211,0,188857,2,0,L|220:92,1,77.0000023498536,2|0,0:0|3:0,0:0:0:0:
226,174,189191,1,2,3:2:0:0:
323,94,189357,1,8,0:0:0:0:
326,71,189691,6,0,B|354:42|354:42|376:100|357:163,1,154.000004699707,6|8,3:2|0:0,0:0:0:0:
298,237,190191,2,0,P|343:260|441:215,1,154.000004699707,2|0,0:0|3:0,0:0:0:0:
503,168,190691,1,8,0:0:0:0:
488,80,190857,1,2,3:2:0:0:
401,73,191024,6,0,P|360:79|325:70,1,77.0000023498536,2|0,0:0|3:0,0:0:0:0:
243,30,191357,1,8,0:0:0:0:
195,105,191524,2,0,P|191:153|196:261,1,154.000004699707,2|2,0:0|3:2,0:0:0:0:
180,366,192024,2,0,B|228:352|228:352|257:376|301:368,1,115.50000352478,14|0,0:0|0:0,0:0:0:0:
346,363,192357,5,10,0:0:0:0:
293,291,192524,1,10,0:0:0:0:
305,206,192691,1,10,0:0:0:0:
376,154,192857,1,10,0:0:0:0:
429,373,193357,5,10,0:0:0:0:
499,322,193524,1,10,0:0:0:0:
512,237,193690,1,10,0:0:0:0:
461,166,193857,1,10,0:0:0:0:
460,146,194191,1,2,3:1:0:0:
417,72,194357,2,0,L|350:66,1,56,2|4,0:0|3:3,0:0:0:0:
280,34,194691,2,0,P|281:17|279:-2,2,28,10|8|10,0:0|0:0|0:0,0:0:0:0:
239,110,195024,5,10,0:0:0:0:
183,40,195191,1,10,0:0:0:0:
96,42,195358,1,10,0:0:0:0:
43,110,195524,1,10,0:0:0:0:
239,110,196024,5,10,0:0:0:0:
220,193,196191,1,10,0:0:0:0:
142,232,196357,1,10,0:0:0:0:
63,195,196524,1,14,0:0:0:0:
63,213,196857,1,2,3:2:0:0:
25,300,197024,2,0,B|65:291|65:291|106:305,1,77.0000023498536,14|10,0:0|0:0,0:0:0:0:
164,358,197357,1,10,0:0:0:0:
230,304,197524,1,10,0:0:0:0:
229,291,197607,1,8,0:0:0:0:
228,277,197691,6,0,B|226:233|226:233|212:199|212:199|213:124,1,154.000004699707,6|8,3:2|0:0,0:0:0:0:
195,38,198191,1,0,0:0:0:0:
195,38,198357,2,0,P|235:46|275:37,1,77.0000023498536,2|2,0:0|3:2,0:0:0:0:
351,4,198691,2,0,P|391:-4|431:5,1,77.0000023498536,10|0,0:0|3:0,0:0:0:0:
473,78,199024,6,0,P|481:138|483:240,1,154.000004699707,2|10,0:0|0:0,0:0:0:0:
472,316,199524,1,0,0:0:0:0:
387,305,199691,2,0,L|376:386,2,77.0000023498536,2|2|10,3:2|3:2|0:0,0:0:0:0:
398,220,200191,1,2,0:0:0:0:
301,164,200357,6,0,B|268:143|268:143|243:189|265:261,1,154.000004699707,6|8,3:2|0:0,0:0:0:0:
274,347,200857,2,0,L|111:339,1,154.000004699707,2|0,0:0|3:0,0:0:0:0:
33,346,201357,1,8,0:0:0:0:
26,259,201524,1,2,3:2:0:0:
113,252,201691,6,0,P|116:212|101:166,1,77.0000023498536,2|0,0:0|3:0,0:0:0:0:
36,125,202024,1,10,0:0:0:0:
58,38,202191,2,0,P|103:18|206:49,1,154.000004699707,2|2,0:0|3:2,0:0:0:0:
236,134,202691,2,0,B|236:175|236:175|241:188|241:188|242:277,1,115.50000352478,10|0,0:0|0:0,0:0:0:0:
247,297,203024,6,0,B|292:298|292:298|329:277|329:277|405:277,1,154.000004699707,6|10,3:2|0:0,0:0:0:0:
483,275,203524,2,0,P|478:235|486:190,1,77.0000023498536,2|0,0:0|0:0,0:0:0:0:
512,110,203857,1,2,3:2:0:0:
464,36,204024,2,0,P|424:51|300:21,1,154.000004699707,10|2,0:0|0:0,0:0:0:0:
239,0,204524,5,0,3:0:0:0:
212,84,204691,2,0,L|219:178,1,77.0000023498536,10|0,0:0|0:0,0:0:0:0:
228,248,205024,1,2,3:2:0:0:
147,285,205191,1,2,3:2:0:0:
87,220,205357,2,0,L|81:141,1,77.0000023498536,8|2,0:0|0:0,0:0:0:0:
131,63,205691,6,0,P|78:45|25:65,1,115.50000352478,6|0,3:2|0:0,0:0:0:0:
1,112,206024,1,12,0:2:0:0:
82,144,206191,2,0,L|67:315,1,154.000004699707,0|0,0:0|3:0,0:0:0:0:
123,370,206691,2,0,B|166:379|166:379|203:368,1,77.0000023498536,12|2,0:0|3:2,0:0:0:0:
255,299,207024,6,0,P|305:287|386:323,1,115.50000352478,2|0,3:2|0:0,0:0:0:0:
398,339,207357,1,14,0:0:0:0:
486,329,207524,2,0,P|481:352|484:369,2,38.5000011749268,8|8|8,0:0|0:0|0:0,0:0:0:0:
512,249,207857,1,4,3:3:0:0:
461,179,208024,1,4,3:3:0:0:
377,192,208191,1,8,0:0:0:0:
365,305,208357,6,0,B|329:287|287:303|287:303|261:266|277:221,1,154.000004699707,6|8,3:2|0:0,0:0:0:0:
216,163,208857,2,0,L|227:-8,1,154.000004699707,2|0,0:0|3:0,0:0:0:0:
310,52,209357,1,8,0:0:0:0:
310,52,209524,1,2,3:2:0:0:
381,5,209691,5,2,0:0:0:0:
409,89,209857,2,0,L|400:174,1,77.0000023498536,2|8,3:2|0:0,0:0:0:0:
491,187,210191,2,0,L|500:102,1,77.0000023498536,2|0,0:0|3:0,0:0:0:0:
506,15,210524,1,2,3:2:0:0:
409,89,210691,1,8,0:0:0:0:
409,111,211024,6,0,B|391:84|341:85|341:85|299:126|238:97,1,154.000004699707,6|8,3:2|0:0,0:0:0:0:
183,86,211524,2,0,P|188:140|182:264,1,154.000004699707,2|0,0:0|3:0,0:0:0:0:
173,329,212024,1,8,0:0:0:0:
253,367,212191,1,2,3:2:0:0:
316,303,212357,6,0,P|356:298|396:309,1,77.0000023498536,2|0,0:0|3:0,0:0:0:0:
464,364,212691,1,10,0:0:0:0:
512,289,212857,2,0,P|524:242|487:138,1,154.000004699707,2|2,0:0|3:2,0:0:0:0:
403,138,213357,2,0,B|353:149|353:149|289:132,1,115.50000352478,14|0,0:0|0:0,0:0:0:0:
255,99,213691,5,10,0:0:0:0:
217,20,213857,1,10,3:2:0:0:
131,0,214024,1,10,0:0:0:0:
62,55,214191,1,10,3:2:0:0:
255,99,214691,5,10,0:0:0:0:
217,179,214858,1,10,3:2:0:0:
131,198,215024,1,10,0:0:0:0:
62,143,215191,1,10,3:2:0:0:
61,159,215524,1,2,0:0:0:0:
24,229,215691,2,0,L|21:293,1,56,4|10,3:3|0:0,0:0:0:0:
22,337,215941,1,8,0:0:0:0:
22,337,216024,2,0,P|56:331|87:339,1,56,10|10,0:0|0:0,0:0:0:0:
165,349,216357,5,10,0:0:0:0:
157,262,216524,1,10,3:2:0:0:
237,228,216691,1,10,0:0:0:0:
294,294,216857,1,10,3:2:0:0:
294,294,217357,5,10,0:0:0:0:
237,228,217523,1,10,3:2:0:0:
157,262,217690,1,10,0:0:0:0:
165,349,217857,1,10,3:2:0:0:
165,349,218524,1,0,3:0:0:0:
164,335,218607,1,0,3:0:0:0:
163,321,218691,1,6,3:2:0:0:
11,194,219024,6,0,B|43:158|78:167|78:167|122:204|164:177,1,140,6|8,3:2|0:0,0:0:0:0:
137,188,219691,1,10,0:0:0:0:
218,133,219857,1,2,3:2:0:0:
295,192,220024,1,10,0:0:0:0:
221,355,220357,6,0,B|214:311|214:311|220:282|220:282|217:213,1,140,10|10,0:0|0:0,0:0:0:0:
218,133,220857,1,2,3:2:0:0:
218,133,221024,2,0,L|211:62,1,70,10|0,0:0|3:2,0:0:0:0:
149,5,221357,1,10,0:0:0:0:
75,45,221524,1,2,0:0:0:0:
112,135,221691,6,0,P|116:191|111:278,1,140,6|8,3:2|0:0,0:0:0:0:
111,274,222357,1,10,0:0:0:0:
70,363,222524,1,2,3:2:0:0:
0,293,222691,1,10,0:0:0:0:
112,135,223024,6,0,B|148:132|148:132|182:107|182:107|253:106,1,140,10|8,0:0|0:0,0:0:0:0:
329,156,223524,2,0,P|325:109|342:13,1,140,2|2,3:2|3:2,0:0:0:0:
427,13,224024,1,8,0:0:0:0:
427,13,224190,1,2,0:0:0:0:
485,81,224357,6,0,B|482:119|482:119|489:153|489:153|479:233,1,140,6|8,3:2|0:0,0:0:0:0:
480,219,225024,1,10,0:0:0:0:
407,285,225191,1,2,3:2:0:0:
466,362,225357,1,10,0:0:0:0:
397,186,225691,6,0,B|356:182|327:202|327:202|291:184|249:185,1,140,10|8,0:0|0:0,0:0:0:0:
177,167,226191,1,2,3:2:0:0:
177,167,226357,2,0,L|172:237,1,70,10|0,0:0|3:0,0:0:0:0:
154,319,226691,1,10,0:0:0:0:
218,372,226857,1,2,0:0:0:0:
295,307,227024,6,0,P|335:304|434:316,1,140,6|8,3:2|0:0,0:0:0:0:
433,315,227691,1,10,0:0:0:0:
512,257,227857,1,2,3:2:0:0:
458,174,228024,2,0,L|467:97,1,70,10|0,0:0|3:0,0:0:0:0:
472,17,228357,5,10,0:0:0:0:
382,0,228525,1,2,0:0:0:0:
319,63,228691,2,0,P|328:99|320:148,1,70,10|2,0:0|3:2,0:0:0:0:
236,175,229024,2,0,P|237:137|220:91,1,70,10|2,0:0|3:2,0:0:0:0:
128,56,229357,2,0,P|146:97|122:171,1,105,10|0,0:0|0:0,0:0:0:0:
96,169,229691,6,0,B|57:180|57:180|67:121|32:83,1,140,6|8,3:2|0:0,0:0:0:0:
34,86,230357,1,10,0:0:0:0:
96,10,230524,1,2,3:2:0:0:
193,22,230691,1,10,0:0:0:0:
96,169,231024,6,0,B|92:212|92:212|103:238|103:238|96:327,1,140,10|10,0:0|0:0,0:0:0:0:
156,372,231524,1,2,3:2:0:0:
199,296,231691,2,0,P|241:290|280:301,1,70,10|0,0:0|3:0,0:0:0:0:
333,360,232024,1,10,0:0:0:0:
377,285,232191,1,2,0:0:0:0:
303,189,232357,6,0,P|298:143|307:45,1,140,2|8,3:2|0:0,0:0:0:0:
305,49,233024,1,10,0:0:0:0:
396,12,233191,1,2,3:2:0:0:
476,66,233357,2,0,P|484:102|477:150,1,70,10|2,0:0|3:2,0:0:0:0:
458,231,233691,5,10,0:0:0:0:
395,164,233857,2,0,B|400:128|400:128|392:90,2,70,2|8|2,0:0|0:0|3:2,0:0:0:0:
360,249,234357,2,0,B|331:256|331:256|279:247,1,70,10|0,0:0|3:0,0:0:0:0:
229,192,234691,1,10,0:0:0:0:
156,233,234857,1,2,0:0:0:0:
204,329,235024,6,0,B|164:329|164:329|139:353|139:353|66:349,1,140,6|8,3:2|0:0,0:0:0:0:
73,349,235691,1,10,0:0:0:0:
1,282,235857,1,2,3:2:0:0:
58,202,236024,2,0,P|101:197|134:205,1,70,10|2,0:0|3:2,0:0:0:0:
207,249,236357,2,0,P|244:262|328:200,1,140,10|8,0:0|0:0,0:0:0:0:
326,125,236857,1,2,3:2:0:0:
258,70,237024,2,0,L|180:63,1,70,10|2,0:0|3:2,0:0:0:0:
101,58,237357,1,8,0:0:0:0:
101,58,237524,1,2,0:0:0:0:
20,154,237691,6,0,B|54:145|54:145|104:157,1,70,14|2,0:0|0:0,0:0:0:0:
108,274,238024,2,0,B|117:240|117:240|152:202,1,70,14|2,0:0|0:0,0:0:0:0:
255,257,238357,2,0,B|230:232|230:232|214:182,1,70,14|2,0:0|3:2,0:0:0:0:
313,121,238691,2,0,B|279:130|279:130|228:118,1,70,14|2,0:0|3:2,0:0:0:0:
224,2,239024,2,0,B|215:36|215:36|180:74,1,70,14|2,0:0|0:0,0:0:0:0:
76,19,239357,6,0,B|100:43|100:43|116:93,1,70,14|2,0:0|0:0,0:0:0:0:
110,123,239607,1,8,0:0:0:0:
110,123,239691,1,8,0:0:0:0:
26,150,239857,1,4,3:3:0:0:
26,237,240024,1,4,3:3:0:0:
110,265,240191,1,10,0:0:0:0:
166,196,240357,6,0,B|198:187|198:187|245:198,2,70,6|0|10,3:2|3:0|0:0,0:0:0:0:
110,77,240857,2,0,B|147:76|147:76|190:51|190:51|271:52,1,140,6|4,3:2|3:3,0:0:0:0:
329,19,241357,1,10,0:0:0:0:
437,99,241524,2,0,B|425:134|425:134|446:163|440:212,1,105,6|0,3:2|0:0,0:0:0:0:
451,253,241857,6,0,B|428:238|403:257|403:257|365:240|365:240|343:264|304:255,1,140,2|2,3:2|3:1,0:0:0:0:
242,289,242337,1,8,0:0:0:0:
209,205,242503,1,8,0:0:0:0:
292,173,242670,1,4,3:3:0:0:
242,289,242837,6,0,B|196:333|158:333|102:312|74:282|74:282|52:226|81:181|81:181|105:232|74:282|74:282|50:311|14:314|14:314|-14:310|-50:209|-9:122|61:98|61:98|-4:62|31:-19,1,840,6|0,3:2|3:0,0:0:0:0:
