osu file format v14

[General]
AudioFilename: audio.mp3
AudioLeadIn: 0
PreviewTime: 175357
Countdown: 0
SampleSet: Soft
StackLeniency: 0.5
Mode: 0
LetterboxInBreaks: 0
WidescreenStoryboard: 1

[Editor]
Bookmarks: 5691,8274,19024,27191,27357,27524,27691,27774,27941,28107,28274,28441,28607,29691,43857,44024,44107,44274,44357,44524,44607,44774,44857,45024,45107,45191,45274,45441,48357,52774,52941,53024,59024,63441,69691,80357,83774,83941,88357,88524,88691,88774,89524,89691,89857,89941,90107,90274,90357,90524,90607,90774,90857,91024,97191,107024,120274,120357,120441,120607,124357,141691,153691,153857,154191,154274,154357,154441,154607,154691,154774,154857,154941,155024,155107,155524,155607,156024,156107,156191,156274,156357,156524,166774,166857,166941,167024,167107,169191,181691,189024,201691,207024,210524,219024,223524,224357,229691,241607,241691,241857,241941,242024,242107,242191,242274,242357,242420,242503,242587,242670
DistanceSpacing: 1
BeatDivisor: 4
GridSize: 32
TimelineZoom: 1.9

[Metadata]
Title:Hakoniwa Logic
TitleUnicode:箱庭ロジック
Artist:Shimotsuki Haruka
ArtistUnicode:霜月はるか
Creator:tomatas95
Version:Easy
Source:箱庭ロジック
Tags:cabbit manyo the logic of the miniature garden full ver version opening op eroge visual novel vn video game jpop j-pop pop japanese 箱庭逻辑 yogurtt shimotsukin
BeatmapID:2833953
BeatmapSetID:1343221

[Difficulty]
HPDrainRate:2
CircleSize:2.5
OverallDifficulty:3
ApproachRate:4
SliderMultiplier:0.999999999999999
SliderTickRate:1

[Events]
//Background and Video events
0,0,"ShizukuMyWaifu.jpg",0,0
//Break Periods
2,131024,140371
2,176557,177524
2,179224,180191
//Storyboard Layer 0 (Background)
//Storyboard Layer 1 (Fail)
//Storyboard Layer 2 (Pass)
//Storyboard Layer 3 (Foreground)
//Storyboard Layer 4 (Overlay)
//Storyboard Sound Samples

[TimingPoints]
358,333.333333333333,4,2,1,50,1,0
358,-100,4,2,1,50,0,0
4691,-100,4,2,2,60,0,0
5691,-100,4,2,2,70,0,0
8357,-100,4,2,1,70,0,0
16357,-100,4,2,3,70,0,0
17524,-100,4,2,1,60,0,0
17857,-100,4,2,1,65,0,0
18191,-100,4,2,1,70,0,0
18524,-100,4,2,1,75,0,0
18691,-100,4,2,2,75,0,0
19024,-100,4,2,6,70,0,0
19357,-100,4,2,1,65,0,0
29691,-100,4,2,2,60,0,0
30191,-100,4,2,5,60,0,0
30857,-100,4,2,1,60,0,0
32857,-100,4,2,5,60,0,0
33357,-100,4,2,1,60,0,0
35024,-100,4,2,2,60,0,0
40857,-100,4,2,5,60,0,0
41523,-100,4,2,1,60,0,0
43524,-100,4,2,5,60,0,0
44190,-100,4,2,1,60,0,0
45691,-100,4,2,2,70,0,0
48357,-100,4,2,2,85,0,1
48691,-100,4,2,6,85,0,1
51024,-100,4,2,1,85,0,1
51357,-100,4,2,6,85,0,1
53691,-100,4,2,2,85,0,1
54024,-100,4,2,6,85,0,1
58024,-100,4,2,1,85,0,1
58524,-100,4,2,1,85,0,0
59024,-100,4,2,2,85,0,1
59357,-100,4,2,6,85,0,1
61691,-100,4,2,1,85,0,1
62024,-100,4,2,6,85,0,1
66191,-100,4,2,1,70,0,1
67024,-100,4,2,6,85,0,1
68524,-100,4,2,8,85,0,1
69191,-100,4,2,1,60,0,1
69691,-100,4,2,2,75,0,0
72357,-100,4,2,1,75,0,0
72691,-100,4,2,2,75,0,0
74691,-100,4,2,6,75,0,0
75024,-100,4,2,2,75,0,0
79857,-100,4,2,3,75,0,0
80357,-100,4,2,6,60,0,0
81191,-100,4,2,1,60,0,0
81524,-100,4,2,6,60,0,0
82691,-100,4,2,1,60,0,0
83024,-100,4,2,2,65,0,0
83357,-100,4,2,1,65,0,0
91024,-100,4,2,2,60,0,0
91524,-100,4,2,5,60,0,0
92190,-100,4,2,1,60,0,0
94190,-100,4,2,5,60,0,0
94856,-100,4,2,1,60,0,0
96357,-100,4,2,2,60,0,0
100691,-100,4,2,1,60,0,0
100857,-100,4,2,2,60,0,0
102190,-100,4,2,5,60,0,0
102856,-100,4,2,1,60,0,0
104857,-100,4,2,5,60,0,0
105523,-100,4,2,1,60,0,0
107024,-100,4,2,2,70,0,0
108691,-100,4,2,6,70,0,0
108857,-100,4,2,2,70,0,0
109691,-100,4,2,2,85,0,1
110025,-100,4,2,6,85,0,1
112358,-100,4,2,1,85,0,1
112691,-100,4,2,6,85,0,1
115025,-100,4,2,2,85,0,1
115358,-100,4,2,6,85,0,1
118024,-100,4,2,2,85,0,1
118191,-100,4,2,6,85,0,1
119358,-100,4,2,1,85,0,1
119857,-100,4,2,1,85,0,0
120357,-100,4,2,2,85,0,1
120691,-100,4,2,6,85,0,1
123025,-100,4,2,1,85,0,1
123358,-100,4,2,6,85,0,1
127525,-100,4,2,1,70,0,1
128358,-100,4,2,6,85,0,1
129858,-100,4,2,8,85,0,1
131024,-100,4,2,3,70,0,0
141691,-100,4,2,3,70,0,0
149691,-100,4,2,1,75,0,0
149857,-100,4,2,3,75,0,0
150024,-100,4,2,1,75,0,0
150190,-100,4,2,3,75,0,0
150357,-100,4,2,1,75,0,0
150523,-100,4,2,3,75,0,0
151024,-100,4,2,2,75,0,0
151191,-100,4,2,3,75,0,0
151357,-100,4,2,1,75,0,0
151524,-100,4,2,3,75,0,0
153691,-100,4,2,2,60,0,0
154191,-100,4,2,5,60,0,0
154857,-100,4,2,1,60,0,0
156857,-100,4,2,5,60,0,0
157523,-100,4,2,1,60,0,0
159024,-100,4,2,2,60,0,0
164857,-100,4,2,5,60,0,0
165523,-100,4,2,1,60,0,0
167524,-100,4,2,5,60,0,0
168190,-100,4,2,1,60,0,0
169691,-100,4,2,2,70,0,0
175524,-100,4,2,1,65,0,0
176357,-100,4,2,6,65,0,0
180857,-100,4,2,1,55,0,0
181691,-100,4,2,2,65,0,0
183691,-100,4,2,9,70,0,0
183857,-100,4,2,1,70,0,0
184524,-100,4,2,2,70,0,0
185024,-100,4,2,1,50,0,0
185357,-100,4,2,1,70,0,0
186024,-100,4,2,6,75,0,0
186191,-100,4,2,1,80,0,0
187024,-100,4,2,2,85,0,1
187357,-100,4,2,6,85,0,1
189691,-100,4,2,1,85,0,1
190024,-100,4,2,6,85,0,1
194024,-100,4,2,1,80,0,1
194191,-100,4,2,1,70,0,1
195024,-100,4,2,6,85,0,1
196524,-100,4,2,8,85,0,1
196857,-100,4,2,1,80,0,0
197691,-100,4,2,2,85,0,1
198024,-100,4,2,6,85,0,1
199691,-100,4,2,3,85,0,1
200024,-100,4,2,8,85,0,1
200357,-100,4,2,2,85,0,1
200524,-100,4,2,6,85,0,1
203024,-100,4,2,2,85,0,1
203357,-100,4,2,6,85,0,1
206024,-100,4,2,1,85,0,1
206191,-100,4,2,6,85,0,1
206691,-100,4,2,1,85,0,1
206858,-100,4,2,6,85,0,1
207357,-100,4,2,1,85,0,1
207857,-100,4,2,1,85,0,0
208357,-100,4,2,2,85,0,1
208691,-100,4,2,6,85,0,1
211025,-100,4,2,1,85,0,1
211358,-100,4,2,6,85,0,1
215525,-100,4,2,1,70,0,1
216358,-100,4,2,6,85,0,1
217858,-100,4,2,8,85,0,1
218524,-100,4,2,6,65,0,1
218691,-100,4,2,6,85,0,1
219024,-100,4,2,2,70,0,0
221691,-100,4,2,1,70,0,0
224357,-100,4,2,2,70,0,0
227024,-100,4,2,1,70,0,0
228357,-100,4,2,3,70,0,0
229691,-100,4,2,2,75,0,0
232357,-100,4,2,1,75,0,0
235024,-100,4,2,6,75,0,0
235357,-100,4,2,1,75,0,0
237691,-100,4,2,6,80,0,0
239524,-100,4,2,1,80,0,0
241857,-97.0873786407767,4,2,1,80,0,0
242337,333.333333333333,4,2,1,80,1,0
242337,-97.0873786407767,4,2,1,80,0,0
242837,-100,4,2,2,80,0,0
243009,339.943342776204,4,2,1,80,1,0
243009,-100,4,2,1,80,0,0
243348,-100,4,2,1,70,0,0
244028,-100,4,2,1,60,0,0
244708,-100,4,2,1,50,0,0
245388,-100,4,2,1,40,0,0
245728,333.333333333333,4,2,1,40,1,0

[Colours]
Combo1 : 89,194,251
Combo2 : 241,248,116
Combo3 : 250,118,103
Combo4 : 216,150,252

[HitObjects]
30,54,358,5,8,0:0:0:0:
226,16,1024,1,10,0:0:0:0:
264,212,1691,1,10,0:0:0:0:
68,250,2357,2,0,P|57:204|76:140,1,99.9999999999999,10|10,0:0|0:0,0:0:0:0:
142,86,3024,5,8,0:0:0:0:
185,280,3691,1,10,0:0:0:0:
362,187,4357,1,10,0:0:0:0:
344,88,4691,2,0,B|378:85|378:85|395:93|395:93|459:95,1,99.9999999999999,14|0,0:0|3:0,0:0:0:0:
503,284,5691,6,0,B|458:272|458:272|386:293,1,99.9999999999999,6|8,3:2|0:0,0:0:0:0:
325,344,6357,2,0,L|210:354,1,99.9999999999999,10|10,0:0|0:0,0:0:0:0:
126,368,7024,1,10,0:0:0:0:
49,303,7357,2,0,P|21:250|96:133,1,200,10|10,0:0|0:0,0:0:0:0:
119,230,8357,6,0,B|155:229|155:229|181:236|181:236|232:237,1,99.9999999999999,6|8,3:2|0:0,0:0:0:0:
314,263,9024,2,0,P|361:272|423:256,1,99.9999999999999,10|10,0:0|0:0,0:0:0:0:
452,170,9691,2,0,P|451:147|441:107,1,50,10|2,0:0|0:0,0:0:0:0:
359,70,10191,2,0,B|310:72|310:72|275:56|275:56|200:58,1,150,2|10,3:2|0:0,0:0:0:0:
114,38,11024,6,0,P|105:77|121:154,1,99.9999999999999,6|8,3:2|0:0,0:0:0:0:
189,200,11691,2,0,L|180:315,1,99.9999999999999,10|10,0:0|0:0,0:0:0:0:
121,381,12357,1,10,0:0:0:0:
29,341,12691,2,0,L|7:142,1,200,10|0,0:0|3:0,0:0:0:0:
41,48,13691,6,0,B|79:60|79:60|108:45|158:49,1,99.9999999999999,6|8,3:2|0:0,0:0:0:0:
237,47,14357,2,0,P|243:79|235:152,1,99.9999999999999,10|10,0:0|0:0,0:0:0:0:
165,216,15024,1,10,0:0:0:0:
209,307,15357,2,0,L|101:319,2,99.9999999999999,10|10|10,0:0|0:0|0:0,0:0:0:0:
294,360,16357,6,0,B|330:313|298:255|298:255|327:221|388:232,1,200,10|2,0:2|3:2,0:0:0:0:
469,111,17524,1,2,3:1:0:0:
392,47,17857,1,2,3:1:0:0:
291,47,18191,1,2,3:1:0:0:
236,130,18524,1,2,3:1:0:0:
292,270,19024,6,0,B|261:255|224:262|224:262|201:307|138:292,1,150,4|2,3:2|0:0,0:0:0:0:
72,348,19857,1,2,3:2:0:0:
10,269,20191,2,0,P|11:201|127:154,1,200,2|2,3:2|0:0,0:0:0:0:
156,295,21357,1,8,0:0:0:0:
250,327,21691,6,0,B|290:327|290:327|303:320|303:320|360:320,1,99.9999999999999,4|10,3:1|0:0,0:0:0:0:
447,325,22357,2,0,P|451:288|420:214,1,99.9999999999999,0|8,3:0|0:0,0:0:0:0:
336,199,23024,2,0,P|268:222|198:184,1,150,2|2,0:0|0:0,0:0:0:0:
150,102,23857,1,2,3:2:0:0:
285,37,24357,6,0,B|352:23|352:23|439:55,1,150,4|2,3:1|0:0,0:0:0:0:
483,135,25191,1,2,3:2:0:0:
454,230,25524,2,0,B|422:206|357:239|357:239|320:209|340:150,1,200,2|2,3:2|0:0,0:0:0:0:
276,13,26691,1,10,0:0:0:0:
202,81,27024,6,0,B|155:95|155:95|97:79,1,99.9999999999999,4|8,3:1|0:0,0:0:0:0:
18,32,27691,2,0,L|9:149,1,99.9999999999999,0|10,3:0|0:0,0:0:0:0:
40,227,28357,1,2,3:2:0:0:
39,327,28691,2,0,P|99:312|176:372,1,150,8|4,0:0|3:3,0:0:0:0:
319,350,29691,6,0,B|302:318|322:267|322:267|312:230|260:237,1,150,6|10,3:2|0:0,0:0:0:0:
210,156,30524,1,10,0:0:0:0:
316,51,31024,2,0,P|387:35|475:74,1,150,2|2,0:0|3:2,0:0:0:0:
493,153,31857,1,10,0:0:0:0:
499,302,32357,6,0,L|343:317,1,150,2|10,3:1|0:0,0:0:0:0:
255,351,33191,1,10,0:0:0:0:
206,263,33524,2,0,P|159:277|99:258,2,99.9999999999999,2|2|2,3:2|3:2|0:0,0:0:0:0:
155,176,34524,1,10,0:0:0:0:
229,45,35024,6,0,B|167:23|167:23|82:48,1,150,6|10,3:2|0:0,0:0:0:0:
3,172,36024,1,2,0:0:0:0:
173,276,36691,2,0,P|214:289|284:263,2,99.9999999999999,10|2|2,0:0|0:0|0:0,0:0:0:0:
99,208,37691,2,0,P|72:276|100:346,2,150,2|10|2,3:2|0:0|0:0,0:0:0:0:
195,21,39357,1,8,0:0:0:0:
281,69,39691,2,0,P|330:80|388:60,1,99.9999999999999,2|8,3:2|0:0,0:0:0:0:
474,43,40357,6,0,B|463:85|463:85|502:139|471:201,1,150,6|10,3:2|0:0,0:0:0:0:
474,286,41191,1,10,0:0:0:0:
374,277,41524,2,0,P|376:238|362:172,2,99.9999999999999,2|2|2,3:2|3:2|3:2,0:0:0:0:
320,361,42524,1,10,0:0:0:0:
170,345,43024,6,0,B|167:303|167:303|179:277|179:277|180:194,1,150,2|10,3:1|0:0,0:0:0:0:
196,99,43857,1,10,0:0:0:0:
120,32,44191,2,0,P|75:33|18:169,1,200,2|2,3:2|0:0,0:0:0:0:
5,255,45191,1,10,0:0:0:0:
111,360,45691,6,0,B|153:351|153:351|204:369|204:369|270:360,1,150,6|0,3:2|3:0,0:0:0:0:
391,295,46691,2,0,P|414:293|448:305,1,50,8|2,0:0|3:2,0:0:0:0:
506,374,47191,1,2,3:2:0:0:
507,24,48357,6,0,B|468:22|468:22|446:29|446:29|397:30,1,99.9999999999999,6|8,3:2|0:0,0:0:0:0:
303,12,49024,1,2,0:0:0:0:
267,106,49357,1,8,0:0:0:0:
339,175,49691,2,0,P|364:221|331:322,1,150,2|2,0:0|0:0,0:0:0:0:
250,353,50524,2,0,L|184:358,1,50,2|10,3:2|0:0,0:0:0:0:
107,370,51024,6,0,P|96:327|125:257,1,99.9999999999999,6|8,3:2|0:0,0:0:0:0:
180,202,51691,1,2,0:0:0:0:
114,126,52024,1,8,0:0:0:0:
20,161,52357,2,0,L|4:331,1,150,2|2,0:0|0:0,0:0:0:0:
87,369,53191,2,0,P|116:363|152:376,1,50,2|8,3:2|0:0,0:0:0:0:
235,373,53691,6,0,B|246:336|238:301|238:301|203:269|219:214,1,150,6|2,3:2|0:0,0:0:0:0:
205,131,54524,2,0,P|231:137|271:127,1,50,2|10,3:2|0:0,0:0:0:0:
319,57,55024,1,2,0:0:0:0:
394,124,55357,1,10,0:0:0:0:
357,217,55691,2,0,L|366:335,1,99.9999999999999,2|8,3:2|0:0,0:0:0:0:
453,361,56357,6,0,L|465:192,1,150,6|2,3:2|0:0,0:0:0:0:
506,120,57191,1,0,3:0:0:0:
441,43,57524,2,0,P|414:48|378:38,1,50,2|2,3:2|0:0,0:0:0:0:
294,24,58024,2,0,P|282:94|281:177,1,150,14|4,0:0|3:3,0:0:0:0:
345,308,59024,6,0,B|302:297|302:297|245:314,1,99.9999999999999,6|8,3:2|0:0,0:0:0:0:
170,371,59691,1,2,0:0:0:0:
98,300,60024,1,8,0:0:0:0:
159,221,60357,2,0,P|159:160|136:57,1,150,2|2,0:0|0:0,0:0:0:0:
50,31,61191,2,0,L|43:91,1,50,2|8,3:2|0:0,0:0:0:0:
20,178,61691,6,0,B|11:220|11:220|17:266|17:266|1:334,1,150,6|2,3:2|0:0,0:0:0:0:
90,373,62524,1,0,3:0:0:0:
172,316,62857,2,0,L|165:258,1,50,2|2,3:2|0:0,0:0:0:0:
178,167,63357,2,0,L|190:65,1,99.9999999999999,8|0,0:0|3:0,0:0:0:0:
271,10,64024,1,12,0:0:0:0:
333,88,64357,6,0,B|380:88|380:88|412:71|412:71|487:72,1,150,10|10,0:0|0:0,0:0:0:0:
493,221,65357,2,0,B|446:221|446:221|414:238|414:238|339:237,1,150,10|10,0:0|0:0,0:0:0:0:
223,321,66357,1,2,0:0:0:0:
174,233,66691,1,10,0:0:0:0:
233,155,67024,6,0,P|251:107|191:16,1,150,10|10,0:0|0:0,0:0:0:0:
63,64,68024,2,0,P|45:112|105:203,1,150,10|10,0:0|0:0,0:0:0:0:
401,351,69691,6,0,L|408:236,1,99.9999999999999,6|8,3:2|0:0,0:0:0:0:
442,157,70357,2,0,P|393:167|328:142,1,99.9999999999999,10|10,0:0|0:0,0:0:0:0:
310,60,71024,1,10,0:0:0:0:
220,14,71357,2,0,P|172:27|147:167,1,200,10|10,0:0|0:0,0:0:0:0:
153,256,72357,6,0,L|146:371,1,99.9999999999999,6|8,3:2|0:0,0:0:0:0:
42,357,73024,2,0,L|49:242,1,99.9999999999999,10|10,0:0|0:0,0:0:0:0:
31,158,73691,1,10,0:0:0:0:
111,31,74191,2,0,B|154:30|154:30|164:39|164:39|274:42,1,150,2|14,0:0|0:0,0:0:0:0:
352,11,75024,6,0,B|369:41|369:41|365:125,1,99.9999999999999,6|8,3:2|0:0,0:0:0:0:
290,172,75691,2,0,B|273:202|273:202|277:286,1,99.9999999999999,10|10,0:0|0:0,0:0:0:0:
323,355,76357,1,10,0:0:0:0:
423,351,76691,2,0,B|458:359|476:338|476:338|492:298|465:236,1,150,8|0,0:0|3:0,0:0:0:0:
480,98,77691,6,0,L|363:86,1,99.9999999999999,2|8,3:2|0:0,0:0:0:0:
282,89,78357,2,0,P|275:131|282:200,1,99.9999999999999,10|10,0:0|0:0,0:0:0:0:
323,279,79024,1,10,0:0:0:0:
277,368,79357,1,8,0:0:0:0:
176,362,79691,1,8,0:0:0:0:
279,188,80357,5,6,3:2:0:0:
75,337,81191,2,0,B|76:297|76:297|53:229,1,99.9999999999999,2|2,3:2|3:2,0:0:0:0:
314,3,82691,1,14,0:0:0:0:
322,103,83024,6,0,L|314:214,1,99.9999999999999,6|10,3:2|0:0,0:0:0:0:
303,302,83691,2,0,P|343:294|409:322,1,99.9999999999999,0|8,3:0|0:0,0:0:0:0:
476,373,84357,2,0,P|493:332|455:235,1,150,2|2,0:0|0:0,0:0:0:0:
405,152,85190,1,2,3:2:0:0:
503,38,85691,6,0,B|464:40|464:40|428:24|428:24|351:26,1,150,4|2,3:1|0:0,0:0:0:0:
257,9,86524,1,2,3:2:0:0:
259,109,86857,2,0,P|267:208|264:311,1,200,2|2,3:2|0:0,0:0:0:0:
129,374,88024,1,10,0:0:0:0:
32,352,88357,6,0,B|25:313|25:313|43:231,1,99.9999999999999,4|8,3:1|0:0,0:0:0:0:
131,219,89024,2,0,L|144:112,1,99.9999999999999,0|10,3:0|0:0,0:0:0:0:
151,21,89690,1,2,3:2:0:0:
50,17,90024,2,0,P|11:70|33:169,1,150,8|10,0:0|0:0,0:0:0:0:
18,300,91024,6,0,B|64:295|64:295|100:314|100:314|180:313,1,150,6|10,3:2|0:0,0:0:0:0:
239,377,91857,1,10,0:0:0:0:
314,314,92191,2,0,P|316:261|301:109,1,200,2|2,3:2|3:2,0:0:0:0:
287,16,93190,1,10,0:0:0:0:
435,34,93691,6,0,B|463:22|463:22|461:148,1,150,2|10,3:1|0:0,0:0:0:0:
470,241,94524,1,10,0:0:0:0:
371,260,94857,2,0,L|384:371,2,99.9999999999999,2|2|2,3:2|3:2|0:0,0:0:0:0:
350,161,95857,1,10,0:0:0:0:
219,86,96357,6,0,B|206:185|206:185|226:242,1,150,6|10,3:2|0:0,0:0:0:0:
276,372,97357,1,2,0:0:0:0:
109,261,98024,2,0,P|105:211|118:154,2,99.9999999999999,10|2|2,0:0|0:0|0:0,0:0:0:0:
178,333,99024,2,0,P|121:363|36:330,2,150,2|10|2,3:2|0:0|0:0,0:0:0:0:
218,137,100690,1,12,0:0:0:0:
292,204,101024,2,0,L|399:214,1,99.9999999999999,2|8,3:2|0:0,0:0:0:0:
471,273,101691,6,0,P|487:238|451:139,1,150,6|10,3:2|0:0,0:0:0:0:
372,77,102524,1,10,0:0:0:0:
292,204,103024,2,0,P|246:204|185:129,1,150,2|2,0:0|3:2,0:0:0:0:
215,33,103857,1,10,0:0:0:0:
65,18,104357,6,0,B|48:50|68:101|68:101|58:138|6:131,1,150,2|10,3:1|0:0,0:0:0:0:
4,231,105191,1,10,0:0:0:0:
56,315,105524,2,0,P|154:310|256:335,1,200,2|10,3:2|0:0,0:0:0:0:
345,370,106524,1,4,3:3:0:0:
453,266,107024,6,0,B|475:242|475:242|415:219|351:236,1,150,14|2,0:0|3:2,0:0:0:0:
252,333,108024,2,0,P|226:339|189:328,1,50,10|2,0:0|3:2,0:0:0:0:
114,290,108524,2,0,L|106:351,1,50,2|12,3:2|0:0,0:0:0:0:
16,298,109024,2,0,L|30:191,1,99.9999999999999,8|4,0:0|3:3,0:0:0:0:
28,98,109691,6,0,B|70:88|70:88|134:109,1,99.9999999999999,6|8,3:2|0:0,0:0:0:0:
184,184,110357,1,2,0:0:0:0:
260,118,110691,1,8,0:0:0:0:
213,28,111024,2,0,P|283:24|364:34,1,150,2|2,0:0|0:0,0:0:0:0:
461,25,111857,2,0,P|463:41|457:86,1,50,2|10,3:2|0:0,0:0:0:0:
406,159,112357,6,0,P|396:201|418:266,1,99.9999999999999,6|8,3:2|0:0,0:0:0:0:
492,311,113024,1,2,0:0:0:0:
417,377,113357,1,8,0:0:0:0:
322,343,113691,2,0,B|289:320|247:321|247:321|221:357|175:345,1,150,2|2,0:0|0:0,0:0:0:0:
85,347,114524,2,0,L|26:338,1,50,2|8,3:2|0:0,0:0:0:0:
23,239,115024,6,0,B|71:228|71:228|110:262|180:232,1,150,6|2,3:2|0:0,0:0:0:0:
249,181,115857,2,0,P|273:177|311:190,1,50,2|10,3:2|0:0,0:0:0:0:
370,251,116357,1,2,0:0:0:0:
470,246,116691,1,10,0:0:0:0:
491,148,117024,2,0,L|477:41,1,99.9999999999999,2|8,3:2|0:0,0:0:0:0:
386,8,117691,1,6,3:2:0:0:
310,73,118024,6,0,B|281:71|281:71|267:64|267:64|208:64,1,99.9999999999999,12|0,0:0|3:0,0:0:0:0:
123,16,118691,1,8,0:0:0:0:
35,63,119024,2,0,P|6:96|9:207,1,150,2|8,3:2|0:0,0:0:0:0:
65,276,119857,1,4,3:3:0:0:
198,207,120357,6,0,B|233:206|233:206|260:196|260:196|301:198,1,99.9999999999999,6|8,3:2|0:0,0:0:0:0:
389,161,121024,1,2,0:0:0:0:
471,216,121357,1,8,0:0:0:0:
450,314,121691,2,0,P|412:303|322:357,1,150,2|2,0:0|0:0,0:0:0:0:
222,365,122525,2,0,L|170:362,1,50,2|8,3:2|0:0,0:0:0:0:
77,330,123024,6,0,B|64:360|64:360|59:241,1,150,6|2,3:2|0:0,0:0:0:0:
37,145,123857,1,0,3:0:0:0:
113,80,124191,2,0,P|144:77|172:84,1,50,2|2,3:2|0:0,0:0:0:0:
241,141,124691,2,0,P|278:154|352:129,1,99.9999999999999,10|0,0:0|3:0,0:0:0:0:
391,58,125357,1,14,0:0:0:0:
466,123,125691,6,0,B|480:170|460:229|460:229|431:213|408:220,1,150,10|10,0:0|0:0,0:0:0:0:
272,249,126691,2,0,B|258:296|278:355|278:355|307:339|330:346,1,150,10|10,0:0|0:0,0:0:0:0:
416,362,127524,1,10,0:0:0:0:
419,217,128024,1,10,0:0:0:0:
492,149,128357,6,0,P|426:116|356:138,1,150,10|10,0:0|0:0,0:0:0:0:
349,286,129357,2,0,P|415:316|484:291,1,150,10|10,0:0|0:0,0:0:0:0:
38,44,141691,6,0,B|75:26|123:45|123:45|151:93|224:71,1,200,6|10,3:2|0:0,0:0:0:0:
359,9,142857,1,2,3:2:0:0:
376,107,143191,1,2,0:0:0:0:
318,188,143524,2,0,L|334:352,1,150,2|10,0:0|0:0,0:0:0:0:
424,367,144357,6,0,P|468:344|485:206,1,200,10|10,0:0|0:0,0:0:0:0:
451,61,145524,1,2,3:2:0:0:
358,23,145857,2,0,L|246:18,1,99.9999999999999,2|2,0:0|3:2,0:0:0:0:
157,18,146524,1,2,3:2:0:0:
48,120,147024,6,0,P|108:102|193:198,1,200,6|10,3:2|0:0,0:0:0:0:
228,337,148191,1,2,3:2:0:0:
134,371,148524,1,2,0:0:0:0:
34,358,148857,2,0,L|22:200,1,150,2|10,3:2|0:0,0:0:0:0:
8,109,149691,6,0,B|51:100|51:100|104:119,1,99.9999999999999,6|6,3:2|3:2,0:0:0:0:
159,201,150357,1,6,3:2:0:0:
229,129,150691,1,10,0:0:0:0:
286,210,151024,2,0,B|319:209|319:209|346:214|346:214|398:213,1,99.9999999999999,6|12,3:2|0:0,0:0:0:0:
480,243,151691,2,0,P|480:194|444:131,1,99.9999999999999,8|4,0:0|3:3,0:0:0:0:
377,22,152524,1,2,3:1:0:0:
474,0,152857,1,2,3:1:0:0:
480,243,153691,6,0,B|438:226|438:226|395:259|332:236,1,150,6|10,3:2|0:0,0:0:0:0:
257,297,154524,1,10,0:0:0:0:
176,243,154857,2,0,P|175:142|152:33,1,200,2|2,3:2|3:2,0:0:0:0:
62,9,155857,1,10,0:0:0:0:
12,150,156357,6,0,B|6:194|6:194|17:228|17:228|10:302,1,150,2|10,3:1|0:0,0:0:0:0:
71,377,157191,1,10,0:0:0:0:
131,297,157524,2,0,P|125:252|138:184,2,99.9999999999999,2|2|2,3:2|3:2|0:0,0:0:0:0:
200,369,158524,1,10,0:0:0:0:
276,240,159024,6,0,B|307:226|332:246|332:246|308:288|348:352,1,150,6|10,3:2|0:0,0:0:0:0:
481,373,160024,1,2,0:0:0:0:
441,176,160691,2,0,L|451:69,2,99.9999999999999,10|2|2,0:0|0:0|0:0,0:0:0:0:
374,250,161691,2,0,P|442:280|511:255,2,150,2|10|2,3:2|0:0|0:0,0:0:0:0:
277,75,163357,1,8,0:0:0:0:
212,151,163691,2,0,L|203:266,1,99.9999999999999,2|4,3:2|3:3,0:0:0:0:
249,339,164357,6,0,B|209:351|209:351|157:308|88:346,1,150,6|10,3:2|0:0,0:0:0:0:
11,364,165191,1,10,0:0:0:0:
5,214,165691,2,0,P|-2:162|21:50,1,150,2|2,0:0|3:2,0:0:0:0:
99,14,166524,1,10,0:0:0:0:
184,136,167024,6,0,B|227:116|256:133|256:133|288:168|343:152,1,150,2|10,3:1|0:0,0:0:0:0:
413,109,167858,1,10,0:0:0:0:
480,182,168191,2,0,B|497:241|475:309|475:309|441:285|400:299,1,200,2|2,3:2|0:0,0:0:0:0:
324,352,169191,1,10,0:0:0:0:
207,257,169691,6,0,B|169:255|138:282|138:282|104:253|58:265,1,150,6|10,3:2|0:2,0:0:0:0:
62,112,170691,2,0,B|100:114|131:87|131:87|165:116|211:104,1,150,10|10,0:0|0:0,0:0:0:0:
270,177,171524,1,10,0:0:0:0:
207,257,171857,1,2,3:2:0:0:
323,351,172357,6,0,B|353:360|381:346|381:346|358:301|378:256,1,150,10|10,0:0|0:0,0:0:0:0:
505,180,173357,2,0,B|475:189|447:175|447:175|470:130|450:85,1,150,10|10,0:0|0:0,0:0:0:0:
325,5,174357,1,8,0:0:0:0:
251,72,174691,1,8,0:0:0:0:
301,158,175024,5,4,3:2:0:0:
254,300,175524,2,0,P|195:292|95:305,1,150,2|2,3:2|3:2,0:0:0:0:
19,353,176357,1,6,3:2:0:0:
256,192,179024,5,6,3:2:0:0:
13,176,181691,6,0,P|8:130|35:24,2,150,6|2|2,3:2|3:2|0:0,0:0:0:0:
60,264,183024,1,0,3:0:0:0:
159,252,183357,1,2,0:0:0:0:
169,152,183691,2,0,B|169:127|169:127|177:104|177:104|177:44,1,99.9999999999999,10|2,0:2|3:2,0:0:0:0:
274,30,184357,6,0,P|298:27|342:41,1,50,10|2,0:0|3:1,0:0:0:0:
407,85,184857,1,2,3:1:0:0:
408,234,185357,2,0,P|388:231|339:241,2,50,10|2|2,0:0|3:2|0:0,0:0:0:0:
448,325,186024,2,0,B|409:322|409:322|367:343|367:343|295:339,1,150,6|4,3:2|3:3,0:0:0:0:
153,352,187024,6,0,B|142:305|142:305|156:238,1,99.9999999999999,6|8,3:2|0:0,0:0:0:0:
191,162,187691,1,2,0:0:0:0:
118,92,188024,1,8,0:0:0:0:
36,150,188357,2,0,P|28:199|28:303,1,150,2|2,0:0|0:0,0:0:0:0:
110,355,189191,2,0,P|139:351|164:360,1,50,2|8,3:2|0:0,0:0:0:0:
258,353,189691,6,0,B|241:321|261:270|261:270|251:233|199:240,1,150,6|2,3:2|0:0,0:0:0:0:
124,188,190523,1,0,3:0:0:0:
153,92,190857,2,0,L|156:39,1,50,2|2,3:2|0:0,0:0:0:0:
255,45,191357,2,0,L|248:167,1,99.9999999999999,8|0,0:0|3:0,0:0:0:0:
211,238,192024,1,14,0:0:0:0:
251,329,192357,6,0,B|283:312|334:332|334:332|371:322|364:270,1,150,10|10,0:0|0:0,0:0:0:0:
487,194,193357,2,0,B|455:177|404:197|404:197|367:187|374:135,1,150,10|10,0:0|0:0,0:0:0:0:
385,47,194191,1,2,3:1:0:0:
287,68,194524,2,0,P|263:73|223:63,1,50,4|10,3:3|0:0,0:0:0:0:
147,26,195024,6,0,P|78:17|-4:27,1,150,10|10,0:0|0:0,0:0:0:0:
6,176,196024,2,0,P|75:167|157:177,1,150,10|14,0:0|0:0,0:0:0:0:
284,251,197024,1,14,0:0:0:0:
251,345,197357,1,10,0:0:0:0:
150,344,197691,6,0,B|116:344|116:344|81:362|81:362|36:359,1,99.9999999999999,6|8,3:2|0:0,0:0:0:0:
2,274,198357,1,2,0:0:0:0:
57,190,198691,2,0,P|51:141|75:75,2,99.9999999999999,10|2|10,0:0|0:0|0:0,0:0:0:0:
137,249,199691,1,2,3:2:0:0:
215,183,200024,1,10,0:0:0:0:
280,258,200357,6,0,B|311:258|311:258|328:249|328:249|393:250,1,99.9999999999999,6|8,3:2|0:0,0:0:0:0:
474,283,201024,1,2,0:0:0:0:
506,188,201357,1,8,0:0:0:0:
436,116,201691,2,0,P|383:95|281:129,1,150,2|2,0:0|0:0,0:0:0:0:
217,185,202524,2,0,P|191:188|148:176,1,50,2|10,3:2|0:0,0:0:0:0:
70,158,203024,6,0,B|87:126|67:75|67:75|77:38|129:45,1,150,6|2,3:2|0:0,0:0:0:0:
216,35,203857,2,0,L|282:29,1,50,2|10,3:2|0:0,0:0:0:0:
362,3,204357,1,2,0:0:0:0:
436,69,204691,1,10,0:0:0:0:
384,154,205024,2,0,L|395:266,1,99.9999999999999,2|8,3:2|0:0,0:0:0:0:
386,353,205691,5,6,3:2:0:0:
288,333,206024,2,0,B|246:318|246:318|177:337,1,99.9999999999999,12|0,0:2|3:0,0:0:0:0:
100,372,206691,1,12,0:0:0:0:
22,309,207024,1,2,3:2:0:0:
64,218,207357,2,0,P|77:168|31:75,1,150,14|4,0:0|3:3,0:0:0:0:
177,23,208357,6,0,B|197:58|197:58|192:126,1,99.9999999999999,6|8,3:2|0:0,0:0:0:0:
194,217,209024,1,2,0:0:0:0:
293,217,209357,1,8,0:0:0:0:
302,117,209691,2,0,P|372:114|452:126,1,150,2|2,0:0|0:0,0:0:0:0:
451,26,210524,2,0,P|423:28|394:17,1,50,2|8,3:2|0:0,0:0:0:0:
302,27,211024,6,0,B|266:29|266:29|225:11|225:11|149:12,1,150,6|2,3:2|0:0,0:0:0:0:
110,100,211857,1,0,3:0:0:0:
156,188,212191,2,0,L|148:249,1,50,2|2,3:2|0:0,0:0:0:0:
138,337,212691,2,0,P|183:347|243:329,1,99.9999999999999,10|0,0:0|3:0,0:0:0:0:
308,266,213357,1,14,0:0:0:0:
402,303,213691,6,0,B|406:342|445:357|445:357|482:338|489:289,1,150,10|10,0:0|3:2,0:0:0:0:
480,146,214691,2,0,B|475:106|436:91|436:91|399:110|392:159,1,150,10|10,0:0|3:2,0:0:0:0:
402,303,215691,1,4,3:3:0:0:
309,268,216024,1,10,0:0:0:0:
249,348,216357,6,0,B|205:351|205:351|156:326|156:326|96:327,1,150,10|10,0:0|3:2,0:0:0:0:
24,200,217357,2,0,B|68:203|68:203|117:178|117:178|177:179,1,150,10|10,0:0|3:2,0:0:0:0:
379,45,218691,1,6,3:2:0:0:
282,18,219024,6,0,B|236:30|236:30|167:14,1,99.9999999999999,6|8,3:2|0:0,0:0:0:0:
85,7,219691,2,0,P|93:39|78:111,1,99.9999999999999,10|10,0:0|0:0,0:0:0:0:
7,171,220358,1,10,0:0:0:0:
66,251,220691,2,0,B|76:301|131:315|131:315|178:283|178:218,1,200,10|10,0:0|0:0,0:0:0:0:
182,128,221691,6,0,B|225:118|225:118|294:136,1,99.9999999999999,6|8,3:2|0:0,0:0:0:0:
310,226,222357,2,0,L|424:219,1,99.9999999999999,10|10,0:0|0:0,0:0:0:0:
510,219,223025,1,10,0:0:0:0:
433,347,223524,2,0,L|271:356,1,150,2|8,3:2|0:0,0:0:0:0:
183,368,224357,6,0,B|172:329|172:329|183:261,1,99.9999999999999,6|8,3:2|0:0,0:0:0:0:
267,219,225024,2,0,L|278:112,1,99.9999999999999,10|10,0:0|0:0,0:0:0:0:
284,19,225691,1,10,0:0:0:0:
383,28,226024,2,0,P|431:31|498:158,1,200,8|10,0:0|0:0,0:0:0:0:
402,126,227024,6,0,B|395:162|395:162|412:191|408:232,1,99.9999999999999,6|8,3:2|0:0,0:0:0:0:
426,321,227691,2,0,L|322:328,1,99.9999999999999,10|10,0:0|0:0,0:0:0:0:
227,313,228357,2,0,P|226:266|213:208,2,99.9999999999999,10|10|10,0:0|0:0|0:0,0:0:0:0:
135,352,229357,1,10,0:0:0:0:
39,320,229691,6,0,B|35:295|35:295|37:270|37:270|26:214,1,99.9999999999999,6|8,3:2|0:0,0:0:0:0:
15,121,230357,2,0,P|59:131|111:113,1,99.9999999999999,10|10,0:0|0:0,0:0:0:0:
167,34,231024,1,10,0:0:0:0:
233,108,231357,2,0,L|222:208,2,99.9999999999999,10|10|10,0:0|0:0|0:0,0:0:0:0:
292,31,232357,6,0,P|337:21|399:42,1,99.9999999999999,2|8,3:2|0:0,0:0:0:0:
464,94,233024,2,0,L|475:194,1,99.9999999999999,10|10,0:0|0:0,0:0:0:0:
488,292,233691,1,10,0:0:0:0:
404,346,234024,1,8,0:0:0:0:
312,305,234357,2,0,L|297:183,1,99.9999999999999,10|10,0:0|0:0,0:0:0:0:
247,120,235024,6,0,B|187:128|187:128|144:109,1,99.9999999999999,6|8,3:2|0:0,0:0:0:0:
53,134,235691,2,0,P|60:83|47:27,2,99.9999999999999,10|10|10,0:0|0:0|0:0,0:0:0:0:
12,225,236691,2,0,P|2:273|9:322,1,99.9999999999999,8|10,0:0|0:0,0:0:0:0:
96,371,237357,1,8,0:0:0:0:
186,328,237691,6,0,B|184:300|184:300|191:275|191:275|184:220,1,99.9999999999999,14|14,0:0|0:0,0:0:0:0:
264,168,238357,2,0,B|262:140|262:140|269:115|269:115|262:60,1,99.9999999999999,14|14,0:0|0:0,0:0:0:0:
350,19,239024,1,14,0:0:0:0:
449,22,239357,1,14,0:0:0:0:
492,112,239691,2,0,P|506:158|490:224,1,99.9999999999999,8|4,0:0|3:3,0:0:0:0:
472,305,240357,6,0,B|369:297|369:297|309:324,1,150,6|6,3:2|3:2,0:0:0:0:
181,354,241357,2,0,L|177:287,1,50,10|6,0:0|3:2,0:0:0:0:
190,201,241857,2,0,B|122:172|45:210|45:210|72:247|61:270,1,200,2|8,3:2|0:0,0:0:0:0:
19,344,242837,1,6,3:2:0:0:
256,192,243009,12,0,245950,3:0:0:0:
